999
DXF file: IV400R2C.dxf
999
Pro/ENGINEER 2015360 by Parametric Technology Corporation
  0
SECTION
  2
HEADER
  9
$ACADVER
  1
AC1021
  9
$DWGCODEPAGE
  3
ANSI_932
  9
$EXTMAX
 10
218.086223
 20
159.037512
 30
0.0
  9
$EXTMIN
 10
0.0
 20
0.0
 30
0.0
  9
$LIMMIN
 10
0.0
 20
0.0
  9
$LIMMAX
 10
218.086223
 20
159.037512
  9
$VIEWCTR
 10
109.0431115
 20
79.518756
  9
$VIEWSIZE
 40
159.037512
  9
$CLAYER
  8
0
  9
$LTSCALE
 40
11.994742265
  9
$CELTYPE
  6
BYLAYER
  9
$DIMSCALE
 40
1.0
  9
$DIMASZ
 40
2.0
  9
$DIMEXO
 40
0.0
  9
$DIMDLI
 40
8.287276474
  9
$DIMEXE
 40
1.0
  9
$DIMCEN
 40
1.962776007
  9
$DIMLFAC
 40
1.0
  9
$DIMBLK
  1
_OPEN
  9
$DIMALT
 70
0
  9
$DIMALTF
 40
0.0393700787
  9
$DIMTXT
 40
2.5
  9
$DIMTOL
 70
1
  9
$DIMLIM
 70
0
  9
$DIMTFAC
 40
1.0
  9
$DIMTP
 40
0.0001
  9
$DIMTM
 40
0.0001
  9
$DIMGAP
 40
0.625
  9
$DIMDSEP
 70
46
  9
$AUNITS
 70
0
  9
$PDMODE
 70
3
  9
$PDSIZE
 40
2.0
  9
$HANDSEED
  5
32E
  9
$TILEMODE
 70
1
  9
$MEASUREMENT
 70
1
  9
$INSUNITS
 70
4
  0
ENDSEC
  0
SECTION
  2
CLASSES
  0
CLASS
  1
ACDBDICTIONARYWDFLT
  2
AcDbDictionaryWithDefault
  3
AutoCAD 2000
 90
0
 91
1
280
0
281
0
  0
CLASS
  1
ACDBPLACEHOLDER
  2
AcDbPlaceHolder
  3
AutoCAD 2000
 90
0
 91
1
280
0
281
0
  0
CLASS
  1
LAYOUT
  2
AcDbLayout
  3
AutoCAD 2000
 90
0
 91
0
280
0
281
0
  0
ENDSEC
  0
SECTION
  2
TABLES
  0
TABLE
  2
VPORT
  5
8
100
AcDbSymbolTable
 70
2
  0
VPORT
  5
1F4
100
AcDbSymbolTableRecord
100
AcDbViewportTableRecord
  2
*ACTIVE
 70
0
 10
0.0
 20
0.0
 11
1.0
 21
1.0
 12
109.0431115
 22
79.518756
 13
0.0
 23
0.0
 14
1.0
 24
1.0
 15
0.0
 25
0.0
 16
0.0
 26
0.0
 36
1.0
 17
0.0
 27
0.0
 37
0.0
 40
159.037512
 41
1.3712879449
 42
50.0
 43
0.0
 44
0.0
 50
0.0
 51
0.0
 71
0
 72
100
 73
1
 74
1
 75
0
 76
0
 77
0
 78
0
  0
ENDTAB
  0
TABLE
  2
LTYPE
  5
5
100
AcDbSymbolTable
 70
6
  0
LTYPE
  5
14
100
AcDbSymbolTableRecord
100
AcDbLinetypeTableRecord
  2
BYBLOCK
 70
0
  3

 72
65
 73
0
 40
0.0
  0
LTYPE
  5
15
100
AcDbSymbolTableRecord
100
AcDbLinetypeTableRecord
  2
BYLAYER
 70
0
  3

 72
65
 73
0
 40
0.0
  0
LTYPE
  5
16
100
AcDbSymbolTableRecord
100
AcDbLinetypeTableRecord
  2
CONTINUOUS
 70
64
  3
Solid line
 72
65
 73
0
 40
0.0
  0
LTYPE
  5
1F5
100
AcDbSymbolTableRecord
100
AcDbLinetypeTableRecord
  2
CENTER
 70
64
  3
____ _ ____ _ ____ _ ____ _ ____ _ ____ _ ____
 72
65
 73
4
 40
0.6
 49
0.375
 74
0
 49
-0.075
 74
0
 49
0.075
 74
0
 49
-0.075
 74
0
  0
LTYPE
  5
1F6
100
AcDbSymbolTableRecord
100
AcDbLinetypeTableRecord
  2
HIDDEN
 70
64
  3
- - - - - - - - - - - - - - - - - - - -
 72
65
 73
2
 40
0.2
 49
0.1
 74
0
 49
-0.1
 74
0
  0
LTYPE
  5
1F7
100
AcDbSymbolTableRecord
100
AcDbLinetypeTableRecord
  2
PHANTOM
 70
64
  3
_____ _ _ _____ _ _ _____ _ _ _____
 72
65
 73
6
 40
0.8
 49
0.45
 74
0
 49
-0.05
 74
0
 49
0.1
 74
0
 49
-0.05
 74
0
 49
0.1
 74
0
 49
-0.05
 74
0
  0
LTYPE
  5
1F8
100
AcDbSymbolTableRecord
100
AcDbLinetypeTableRecord
  2
DOT
 70
64
  3
. . . . . . . . . . . . . . . . . . . .
 72
65
 73
2
 40
0.2
 49
0.1
 74
0
 49
-0.1
 74
0
  0
LTYPE
  5
1F9
100
AcDbSymbolTableRecord
100
AcDbLinetypeTableRecord
  2
DASHED
 70
64
  3
- - - - - - - - - - - - - - - - - - - -
 72
65
 73
2
 40
0.2
 49
0.1
 74
0
 49
-0.1
 74
0
  0
ENDTAB
  0
TABLE
  2
LAYER
  5
2
100
AcDbSymbolTable
 70
36
  0
LAYER
  5
10
100
AcDbSymbolTableRecord
100
AcDbLayerTableRecord
  2
0
 70
0
 62
7
  6
CONTINUOUS
370
-3
390
F
  0
LAYER
  5
1FA
100
AcDbSymbolTableRecord
100
AcDbLayerTableRecord
  2
DEFAULT_1
 70
0
 62
7
  6
CENTER
370
-3
390
F
  0
LAYER
  5
1FB
100
AcDbSymbolTableRecord
100
AcDbLayerTableRecord
  2
DEFAULT_2
 70
0
 62
8
  6
HIDDEN
370
-3
390
F
  0
LAYER
  5
1FC
100
AcDbSymbolTableRecord
100
AcDbLayerTableRecord
  2
DEFAULT_3
 70
0
 62
7
  6
PHANTOM
370
-3
390
F
  0
LAYER
  5
1FD
100
AcDbSymbolTableRecord
100
AcDbLayerTableRecord
  2
DEFPOINTS
 70
0
 62
7
  6
CONTINUOUS
290
0
370
-3
390
F
  0
LAYER
  5
1FE
100
AcDbSymbolTableRecord
100
AcDbLayerTableRecord
  2
LY_1
 70
0
 62
7
  6
CONTINUOUS
370
-3
390
F
  0
LAYER
  5
1FF
100
AcDbSymbolTableRecord
100
AcDbLayerTableRecord
  2
935-0111-00-00_M42-DXF_HATCHING
 70
0
 62
7
  6
CONTINUOUS
370
-3
390
F
  0
LAYER
  5
200
100
AcDbSymbolTableRecord
100
AcDbLayerTableRecord
  2
935-0111-00-00_M42DXF_DIMENSION
 70
0
 62
7
  6
CONTINUOUS
370
-3
390
F
  0
LAYER
  5
201
100
AcDbSymbolTableRecord
100
AcDbLayerTableRecord
  2
935-0111-00-00_M42-C__DXF_TEXT
 70
0
 62
7
  6
CONTINUOUS
370
-3
390
F
  0
ENDTAB
  0
TABLE
  2
STYLE
  5
3
100
AcDbSymbolTable
 70
1
  0
STYLE
  5
11
100
AcDbSymbolTableRecord
100
AcDbTextStyleTableRecord
  2
STANDARD
 70
0
 40
0.0
 41
0.8
 50
0.0
 71
0
 42
0.2
  3
txt
  4

  0
STYLE
  5
202
100
AcDbSymbolTableRecord
100
AcDbTextStyleTableRecord
  2
TEXTSTYLE_1
 70
0
 40
0.0
 41
0.8
 50
0.0
 71
0
 42
0.2
  3
gdt
  4

  0
STYLE
  5
203
100
AcDbSymbolTableRecord
100
AcDbTextStyleTableRecord
  2
TEXTSTYLE_2
 70
0
 40
0.0
 41
0.85
 50
0.0
 71
0
 42
0.2
  3
txt
  4

  0
STYLE
  5
204
100
AcDbSymbolTableRecord
100
AcDbTextStyleTableRecord
  2
TEXTSTYLE_3
 70
0
 40
0.0
 41
0.85
 50
0.0
 71
0
 42
0.2
  3
gdt
  4

  0
STYLE
  5
205
100
AcDbSymbolTableRecord
100
AcDbTextStyleTableRecord
  2
TEXTSTYLE_4
 70
0
 40
0.0
 41
1.0
 50
0.0
 71
0
 42
0.2
  3
txt
  4

  0
STYLE
  5
206
100
AcDbSymbolTableRecord
100
AcDbTextStyleTableRecord
  2
TEXTSTYLE_5
 70
0
 40
0.0
 41
1.05
 50
0.0
 71
0
 42
0.2
  3
txt
  4

  0
STYLE
  5
207
100
AcDbSymbolTableRecord
100
AcDbTextStyleTableRecord
  2
TEXTSTYLE_6
 70
0
 40
0.0
 41
1.15
 50
0.0
 71
0
 42
0.2
  3
txt
  4

  0
STYLE
  5
208
100
AcDbSymbolTableRecord
100
AcDbTextStyleTableRecord
  2
TEXTSTYLE_7
 70
0
 40
0.0
 41
0.9
 50
0.0
 71
0
 42
0.2
  3
txt
  4

  0
STYLE
  5
209
100
AcDbSymbolTableRecord
100
AcDbTextStyleTableRecord
  2
TEXTSTYLE_8
 70
0
 40
0.0
 41
0.833
 50
0.0
 71
0
 42
0.2
  3
txt
  4

  0
ENDTAB
  0
TABLE
  2
VIEW
  5
6
100
AcDbSymbolTable
 70
0
  0
ENDTAB
  0
TABLE
  2
UCS
  5
7
100
AcDbSymbolTable
 70
0
  0
ENDTAB
  0
TABLE
  2
APPID
  5
9
100
AcDbSymbolTable
 70
1
  0
APPID
  5
20A
100
AcDbSymbolTableRecord
100
AcDbRegAppTableRecord
  2
ACAD
 70
0
  0
ENDTAB
  0
TABLE
  2
BLOCK_RECORD
  5
1
100
AcDbSymbolTable
 70
0
  0
BLOCK_RECORD
  5
20B
100
AcDbSymbolTableRecord
100
AcDbBlockTableRecord
  2
*Model_Space
  0
BLOCK_RECORD
  5
20C
100
AcDbSymbolTableRecord
100
AcDbBlockTableRecord
  2
*Paper_Space
  0
BLOCK_RECORD
  5
20D
100
AcDbSymbolTableRecord
100
AcDbBlockTableRecord
  2
_OPEN
  0
BLOCK_RECORD
  5
20E
100
AcDbSymbolTableRecord
100
AcDbBlockTableRecord
  2
*D0
  0
BLOCK_RECORD
  5
20F
100
AcDbSymbolTableRecord
100
AcDbBlockTableRecord
  2
*D1
  0
BLOCK_RECORD
  5
210
100
AcDbSymbolTableRecord
100
AcDbBlockTableRecord
  2
*D2
  0
BLOCK_RECORD
  5
211
100
AcDbSymbolTableRecord
100
AcDbBlockTableRecord
  2
*D3
  0
BLOCK_RECORD
  5
212
100
AcDbSymbolTableRecord
100
AcDbBlockTableRecord
  2
*D4
  0
BLOCK_RECORD
  5
213
100
AcDbSymbolTableRecord
100
AcDbBlockTableRecord
  2
*D5
  0
BLOCK_RECORD
  5
214
100
AcDbSymbolTableRecord
100
AcDbBlockTableRecord
  2
*D6
  0
BLOCK_RECORD
  5
215
100
AcDbSymbolTableRecord
100
AcDbBlockTableRecord
  2
*D7
  0
BLOCK_RECORD
  5
216
100
AcDbSymbolTableRecord
100
AcDbBlockTableRecord
  2
*D8
  0
BLOCK_RECORD
  5
217
100
AcDbSymbolTableRecord
100
AcDbBlockTableRecord
  2
*D9
  0
ENDTAB
  0
TABLE
  2
DIMSTYLE
  5
A
100
AcDbSymbolTable
 70
1
100
AcDbDimStyleTable
 71
0
  0
DIMSTYLE
105
218
100
AcDbSymbolTableRecord
100
AcDbDimStyleTableRecord
  2
STANDARD
 70
0
  3

  4

 40
1.0
 41
2.0
 42
0.0
 43
0.38
 44
1.0
 45
0.0
 46
0.0
 47
0.0001
 48
0.0001
140
2.5
141
0.09
142
0.0
143
25.4
144
1.0
145
0.0
146
1.0
147
0.625
 71
1.0
 72
0.0
 73
0
 74
0
 75
0
 76
0
 77
1
 78
8
170
0
171
2
172
0
173
0
174
0
175
0
176
0
177
0
178
0
270
2
271
4
272
4
273
2
274
2
275
0
280
0
281
0
282
0
283
1
284
8
285
0
286
0
287
3
288
0
340
11
278
46
341
20D
342
20D
343
20D
344
20D
  0
DIMSTYLE
105
219
100
AcDbSymbolTableRecord
100
AcDbDimStyleTableRecord
  2
DIMSTYLE_1
 70
0
  3

  4

 40
1.0
 41
2.0
 42
0.0
 43
0.38
 44
1.0
 45
0.0
 46
0.0
 47
0.1
 48
0.1
140
1.4
141
0.09
142
0.0
143
25.4
144
1.0
145
0.0
146
1.0
147
0.35
 71
0.0
 72
0.0
 73
0
 74
0
 75
0
 76
0
 77
1
 78
8
170
0
171
2
172
0
173
0
174
0
175
0
176
0
177
0
178
0
270
2
271
4
272
4
273
2
274
2
275
0
280
0
281
0
282
0
283
1
284
8
285
0
286
0
287
3
288
0
340
203
278
46
341
20D
342
20D
343
20D
344
20D
  0
DIMSTYLE
105
21A
100
AcDbSymbolTableRecord
100
AcDbDimStyleTableRecord
  2
DIMSTYLE_2
 70
0
  3

  4

 40
1.0
 41
2.0
 42
0.0
 43
0.38
 44
1.0
 45
0.0
 46
0.0
 47
0.1
 48
0.1
140
1.4
141
0.09
142
0.0
143
25.4
144
1.0
145
0.0
146
1.0
147
0.35
 71
0.0
 72
0.0
 73
0
 74
0
 75
0
 76
0
 77
1
 78
8
170
0
171
2
172
0
173
0
174
0
175
0
176
0
177
0
178
0
270
2
271
4
272
4
273
2
274
2
275
0
280
0
281
0
282
0
283
1
284
8
285
0
286
0
287
3
288
0
340
205
278
46
341
20D
342
20D
343
20D
344
20D
  0
DIMSTYLE
105
21B
100
AcDbSymbolTableRecord
100
AcDbDimStyleTableRecord
  2
DIMSTYLE_3
 70
0
  3

  4

 40
1.0
 41
2.0
 42
0.0
 43
0.38
 44
1.0
 45
0.0
 46
0.0
 47
0.1
 48
0.1
140
1.4
141
0.09
142
0.0
143
25.4
144
1.0
145
0.0
146
1.0
147
0.35
 71
0.0
 72
0.0
 73
0
 74
0
 75
0
 76
0
 77
1
 78
8
170
0
171
2
172
0
173
0
174
0
175
0
176
0
177
0
178
0
270
2
271
4
272
4
273
2
274
2
275
0
280
0
281
0
282
0
283
1
284
8
285
0
286
0
287
3
288
0
340
206
278
46
341
20D
342
20D
343
20D
344
20D
  0
DIMSTYLE
105
21C
100
AcDbSymbolTableRecord
100
AcDbDimStyleTableRecord
  2
DIMSTYLE_4
 70
0
  3

  4

 40
1.0
 41
2.0
 42
0.0
 43
0.38
 44
1.0
 45
0.0
 46
0.0
 47
0.1
 48
0.1
140
1.4
141
0.09
142
0.0
143
25.4
144
1.0
145
0.0
146
1.0
147
0.35
 71
0.0
 72
0.0
 73
0
 74
0
 75
0
 76
0
 77
1
 78
8
170
0
171
2
172
0
173
0
174
0
175
0
176
0
177
0
178
0
270
2
271
4
272
4
273
2
274
2
275
0
280
0
281
0
282
0
283
1
284
8
285
0
286
0
287
3
288
0
340
207
278
46
341
20D
342
20D
343
20D
344
20D
  0
DIMSTYLE
105
21D
100
AcDbSymbolTableRecord
100
AcDbDimStyleTableRecord
  2
DIMSTYLE_5
 70
0
  3
<>
  4

 40
1.0
 41
2.0
 42
0.0
 43
0.38
 44
1.0
 45
0.0
 46
0.0
 47
0.1
 48
0.1
140
1.4
141
0.09
142
0.0
143
25.4
144
1.0
145
0.0
146
1.0
147
0.625
 71
0.0
 72
0.0
 73
0
 74
0
 75
0
 76
0
 77
1
 78
8
170
0
171
2
172
1
173
0
174
0
175
0
176
0
177
0
178
0
270
2
271
4
272
4
273
2
274
2
275
0
280
0
281
0
282
0
283
1
284
8
285
0
286
0
287
3
288
1
340
205
278
46
289
2
341
20D
342
20D
343
20D
344
20D
  0
DIMSTYLE
105
21E
100
AcDbSymbolTableRecord
100
AcDbDimStyleTableRecord
  2
DIMSTYLE_6
 70
0
  3

  4

 40
1.0
 41
2.0
 42
0.0
 43
0.38
 44
1.0
 45
0.0
 46
0.0
 47
0.1
 48
0.1
140
1.4
141
0.09
142
0.0
143
25.4
144
1.0
145
0.0
146
1.0
147
0.35
 71
0.0
 72
0.0
 73
0
 74
0
 75
0
 76
0
 77
1
 78
8
170
0
171
2
172
0
173
0
174
0
175
0
176
0
177
0
178
0
270
2
271
4
272
4
273
2
274
2
275
0
280
0
281
0
282
0
283
1
284
8
285
0
286
0
287
3
288
0
340
11
278
46
341
20D
342
20D
343
20D
344
20D
  0
ENDTAB
  0
ENDSEC
  0
SECTION
  2
BLOCKS
  0
BLOCK
  5
20
100
AcDbEntity
  8
0
100
AcDbBlockBegin
  2
*Model_Space
 70
0
 10
0.0
 20
0.0
 30
0.0
  3
*Model_Space
  1

  0
ENDBLK
  5
21
100
AcDbEntity
  8
0
100
AcDbBlockEnd
  0
BLOCK
  5
1C
100
AcDbEntity
  8
0
100
AcDbBlockBegin
  2
*Paper_Space
 70
0
 10
0.0
 20
0.0
 30
0.0
  3
*Paper_Space
  1

  0
ENDBLK
  5
1D
100
AcDbEntity
  8
0
100
AcDbBlockEnd
  0
BLOCK
  5
21F
100
AcDbEntity
  8
0
100
AcDbBlockBegin
  2
_OPEN
 70
64
 10
0.0
 20
0.0
  3
_OPEN
  1

  0
LINE
  5
220
100
AcDbEntity
  8
0
  6
BYBLOCK
 62
0
100
AcDbLine
 10
0.0
 20
0.0
 11
-1.0
 21
0.25
  0
LINE
  5
221
100
AcDbEntity
  8
0
  6
BYBLOCK
 62
0
100
AcDbLine
 10
-1.0
 20
-0.25
 11
0.0
 21
0.0
  0
LINE
  5
222
100
AcDbEntity
  8
0
  6
BYBLOCK
 62
0
100
AcDbLine
 10
-1.0
 20
0.0
 11
0.0
 21
0.0
  0
ENDBLK
  5
223
100
AcDbEntity
  8
0
  6
BYBLOCK
 62
0
100
AcDbBlockEnd
  0
BLOCK
  5
224
100
AcDbEntity
  8
935-0111-00-00_M42DXF_DIMENSION
100
AcDbBlockBegin
 62
7
  6
CONTINUOUS
  2
*D0
 70
65
 10
0.0
 20
0.0
  3
*D0
  1

  0
MTEXT
  5
225
100
AcDbEntity
  8
935-0111-00-00_M42DXF_DIMENSION
100
AcDbMText
 62
7
  6
CONTINUOUS
  7
TEXTSTYLE_3
 71
2
 72
1
 10
100.986165
 20
79.612506
 30
0.0
 11
0.0
 21
1.0
 31
0.0
 44
0.9
  1
{\Fgdt;n}\Ftxt;46
 40
1.4
 41
4.2466666667
  0
LINE
  5
226
100
AcDbEntity
  8
935-0111-00-00_M42DXF_DIMENSION
100
AcDbLine
 62
7
  6
CONTINUOUS
 10
116.996165
 20
56.612506
 11
102.386165
 21
56.612506
  0
LINE
  5
227
100
AcDbEntity
  8
935-0111-00-00_M42DXF_DIMENSION
100
AcDbLine
 62
7
  6
CONTINUOUS
 10
102.386165
 20
56.612506
 11
101.736165
 21
56.612506
  0
LINE
  5
228
100
AcDbEntity
  8
935-0111-00-00_M42DXF_DIMENSION
100
AcDbLine
 62
7
  6
CONTINUOUS
 10
116.996165
 20
102.612506
 11
102.386165
 21
102.612506
  0
LINE
  5
229
100
AcDbEntity
  8
935-0111-00-00_M42DXF_DIMENSION
100
AcDbLine
 62
7
  6
CONTINUOUS
 10
102.386165
 20
102.612506
 11
101.736165
 21
102.612506
  0
LINE
  5
22A
100
AcDbEntity
  8
935-0111-00-00_M42DXF_DIMENSION
100
AcDbLine
 62
7
  6
CONTINUOUS
 10
102.736165
 20
56.612506
 11
102.736165
 21
79.612506
  0
LINE
  5
22B
100
AcDbEntity
  8
935-0111-00-00_M42DXF_DIMENSION
100
AcDbLine
 62
7
  6
CONTINUOUS
 10
102.736165
 20
102.612506
 11
102.736165
 21
79.612506
  0
INSERT
  5
22C
100
AcDbEntity
  8
935-0111-00-00_M42DXF_DIMENSION
100
AcDbBlockReference
 62
7
  6
CONTINUOUS
  2
_OPEN
 10
102.736165
 20
56.612506
 41
2.0
 42
2.0
 43
2.0
 50
270.0
  0
INSERT
  5
22D
100
AcDbEntity
  8
935-0111-00-00_M42DXF_DIMENSION
100
AcDbBlockReference
 62
7
  6
CONTINUOUS
  2
_OPEN
 10
102.736165
 20
102.612506
 41
2.0
 42
2.0
 43
2.0
 50
90.0
  0
ENDBLK
  5
22E
100
AcDbEntity
  8
0
  6
BYBLOCK
 62
0
100
AcDbBlockEnd
  0
BLOCK
  5
22F
100
AcDbEntity
  8
935-0111-00-00_M42DXF_DIMENSION
100
AcDbBlockBegin
 62
7
  6
CONTINUOUS
  2
*D1
 70
65
 10
0.0
 20
0.0
  3
*D1
  1

  0
MTEXT
  5
230
100
AcDbEntity
  8
935-0111-00-00_M42DXF_DIMENSION
100
AcDbMText
 62
7
  6
CONTINUOUS
  7
TEXTSTYLE_4
 71
2
 72
1
 10
130.242042
 20
50.362506
 30
0.0
 11
1.0
 21
0.0
 31
0.0
 44
0.9
  1
3.7以下
 40
1.4
 41
10.5
  0
LINE
  5
231
100
AcDbEntity
  8
935-0111-00-00_M42DXF_DIMENSION
100
AcDbLine
 62
7
  6
CONTINUOUS
 10
125.396165
 20
58.912506
 11
125.396165
 21
48.962506
  0
LINE
  5
232
100
AcDbEntity
  8
935-0111-00-00_M42DXF_DIMENSION
100
AcDbLine
 62
7
  6
CONTINUOUS
 10
125.396165
 20
48.962506
 11
125.396165
 21
47.612506
  0
LINE
  5
233
100
AcDbEntity
  8
935-0111-00-00_M42DXF_DIMENSION
100
AcDbLine
 62
7
  6
CONTINUOUS
 10
121.696165
 20
56.912506
 11
121.696165
 21
48.962506
  0
LINE
  5
234
100
AcDbEntity
  8
935-0111-00-00_M42DXF_DIMENSION
100
AcDbLine
 62
7
  6
CONTINUOUS
 10
121.696165
 20
48.962506
 11
121.696165
 21
47.612506
  0
LINE
  5
235
100
AcDbEntity
  8
935-0111-00-00_M42DXF_DIMENSION
100
AcDbLine
 62
7
  6
CONTINUOUS
 10
125.396165
 20
48.612506
 11
133.742042
 21
48.612506
  0
LINE
  5
236
100
AcDbEntity
  8
935-0111-00-00_M42DXF_DIMENSION
100
AcDbLine
 62
7
  6
CONTINUOUS
 10
133.742042
 20
48.612506
 11
123.546165
 21
48.612506
  0
LINE
  5
237
100
AcDbEntity
  8
935-0111-00-00_M42DXF_DIMENSION
100
AcDbLine
 62
7
  6
CONTINUOUS
 10
121.696165
 20
48.612506
 11
118.696165
 21
48.612506
  0
LINE
  5
238
100
AcDbEntity
  8
935-0111-00-00_M42DXF_DIMENSION
100
AcDbLine
 62
7
  6
CONTINUOUS
 10
118.696165
 20
48.612506
 11
123.546165
 21
48.612506
  0
INSERT
  5
239
100
AcDbEntity
  8
935-0111-00-00_M42DXF_DIMENSION
100
AcDbBlockReference
 62
7
  6
CONTINUOUS
  2
_OPEN
 10
125.396165
 20
48.612506
 41
2.0
 42
2.0
 43
2.0
 50
180.0
  0
INSERT
  5
23A
100
AcDbEntity
  8
935-0111-00-00_M42DXF_DIMENSION
100
AcDbBlockReference
 62
7
  6
CONTINUOUS
  2
_OPEN
 10
121.696165
 20
48.612506
 41
2.0
 42
2.0
 43
2.0
  0
ENDBLK
  5
23B
100
AcDbEntity
  8
0
  6
BYBLOCK
 62
0
100
AcDbBlockEnd
  0
BLOCK
  5
23C
100
AcDbEntity
  8
935-0111-00-00_M42DXF_DIMENSION
100
AcDbBlockBegin
 62
7
  6
CONTINUOUS
  2
*D2
 70
65
 10
0.0
 20
0.0
  3
*D2
  1

  0
MTEXT
  5
23D
100
AcDbEntity
  8
935-0111-00-00_M42DXF_DIMENSION
100
AcDbMText
 62
7
  6
CONTINUOUS
  7
TEXTSTYLE_5
 71
2
 72
1
 10
127.646165
 20
79.612506
 30
0.0
 11
0.0
 21
1.0
 31
0.0
 44
0.9
  1
M42×1.0
 40
1.4
 41
10.29
  0
LINE
  5
23E
100
AcDbEntity
  8
935-0111-00-00_M42DXF_DIMENSION
100
AcDbLine
 62
7
  6
CONTINUOUS
 10
125.096165
 20
100.612506
 11
129.046165
 21
100.612506
  0
LINE
  5
23F
100
AcDbEntity
  8
935-0111-00-00_M42DXF_DIMENSION
100
AcDbLine
 62
7
  6
CONTINUOUS
 10
129.046165
 20
100.612506
 11
130.396165
 21
100.612506
  0
LINE
  5
240
100
AcDbEntity
  8
935-0111-00-00_M42DXF_DIMENSION
100
AcDbLine
 62
7
  6
CONTINUOUS
 10
125.096165
 20
58.612506
 11
129.046165
 21
58.612506
  0
LINE
  5
241
100
AcDbEntity
  8
935-0111-00-00_M42DXF_DIMENSION
100
AcDbLine
 62
7
  6
CONTINUOUS
 10
129.046165
 20
58.612506
 11
130.396165
 21
58.612506
  0
LINE
  5
242
100
AcDbEntity
  8
935-0111-00-00_M42DXF_DIMENSION
100
AcDbLine
 62
7
  6
CONTINUOUS
 10
129.396165
 20
100.612506
 11
129.396165
 21
79.612506
  0
LINE
  5
243
100
AcDbEntity
  8
935-0111-00-00_M42DXF_DIMENSION
100
AcDbLine
 62
7
  6
CONTINUOUS
 10
129.396165
 20
58.612506
 11
129.396165
 21
79.612506
  0
INSERT
  5
244
100
AcDbEntity
  8
935-0111-00-00_M42DXF_DIMENSION
100
AcDbBlockReference
 62
7
  6
CONTINUOUS
  2
_OPEN
 10
129.396165
 20
100.612506
 41
2.0
 42
2.0
 43
2.0
 50
90.0
  0
INSERT
  5
245
100
AcDbEntity
  8
935-0111-00-00_M42DXF_DIMENSION
100
AcDbBlockReference
 62
7
  6
CONTINUOUS
  2
_OPEN
 10
129.396165
 20
58.612506
 41
2.0
 42
2.0
 43
2.0
 50
270.0
  0
ENDBLK
  5
246
100
AcDbEntity
  8
0
  6
BYBLOCK
 62
0
100
AcDbBlockEnd
  0
BLOCK
  5
247
100
AcDbEntity
  8
935-0111-00-00_M42DXF_DIMENSION
100
AcDbBlockBegin
 62
7
  6
CONTINUOUS
  2
*D3
 70
65
 10
0.0
 20
0.0
  3
*D3
  1

  0
MTEXT
  5
248
100
AcDbEntity
  8
935-0111-00-00_M42DXF_DIMENSION
100
AcDbMText
 62
7
  6
CONTINUOUS
  7
TEXTSTYLE_6
 71
2
 72
1
 10
112.191165
 20
50.362506
 30
0.0
 11
1.0
 21
0.0
 31
0.0
 44
0.9
  1
10.96
 40
1.4
 41
8.05
  0
LINE
  5
249
100
AcDbEntity
  8
935-0111-00-00_M42DXF_DIMENSION
100
AcDbLine
 62
7
  6
CONTINUOUS
 10
121.696165
 20
56.912506
 11
121.696165
 21
48.962506
  0
LINE
  5
24A
100
AcDbEntity
  8
935-0111-00-00_M42DXF_DIMENSION
100
AcDbLine
 62
7
  6
CONTINUOUS
 10
121.696165
 20
48.962506
 11
121.696165
 21
47.612506
  0
LINE
  5
24B
100
AcDbEntity
  8
935-0111-00-00_M42DXF_DIMENSION
100
AcDbLine
 62
7
  6
CONTINUOUS
 10
110.736165
 20
64.912505
 11
110.736165
 21
51.062506
  0
LINE
  5
24C
100
AcDbEntity
  8
935-0111-00-00_M42DXF_DIMENSION
100
AcDbLine
 62
7
  6
CONTINUOUS
 10
110.736165
 20
48.962506
 11
110.736165
 21
47.612506
  0
LINE
  5
24D
100
AcDbEntity
  8
935-0111-00-00_M42DXF_DIMENSION
100
AcDbLine
 62
7
  6
CONTINUOUS
 10
121.696165
 20
48.612506
 11
116.216165
 21
48.612506
  0
LINE
  5
24E
100
AcDbEntity
  8
935-0111-00-00_M42DXF_DIMENSION
100
AcDbLine
 62
7
  6
CONTINUOUS
 10
110.736165
 20
48.612506
 11
116.216165
 21
48.612506
  0
INSERT
  5
24F
100
AcDbEntity
  8
935-0111-00-00_M42DXF_DIMENSION
100
AcDbBlockReference
 62
7
  6
CONTINUOUS
  2
_OPEN
 10
121.696165
 20
48.612506
 41
2.0
 42
2.0
 43
2.0
  0
INSERT
  5
250
100
AcDbEntity
  8
935-0111-00-00_M42DXF_DIMENSION
100
AcDbBlockReference
 62
7
  6
CONTINUOUS
  2
_OPEN
 10
110.736165
 20
48.612506
 41
2.0
 42
2.0
 43
2.0
 50
180.0
  0
ENDBLK
  5
251
100
AcDbEntity
  8
0
  6
BYBLOCK
 62
0
100
AcDbBlockEnd
  0
BLOCK
  5
252
100
AcDbEntity
  8
935-0111-00-00_M42DXF_DIMENSION
100
AcDbBlockBegin
 62
7
  6
CONTINUOUS
  2
*D4
 70
65
 10
0.0
 20
0.0
  3
*D4
  1

  0
MTEXT
  5
253
100
AcDbEntity
  8
935-0111-00-00_M42DXF_DIMENSION
100
AcDbMText
 62
7
  6
CONTINUOUS
  7
TEXTSTYLE_2
 71
2
 72
1
 10
119.196165
 20
54.362506
 30
0.0
 11
1.0
 21
0.0
 31
0.0
 44
0.9
  1
5
 40
1.4
 41
1.19
  0
LINE
  5
254
100
AcDbEntity
  8
935-0111-00-00_M42DXF_DIMENSION
100
AcDbLine
 62
7
  6
CONTINUOUS
 10
121.696165
 20
56.912506
 11
121.696165
 21
52.962506
  0
LINE
  5
255
100
AcDbEntity
  8
935-0111-00-00_M42DXF_DIMENSION
100
AcDbLine
 62
7
  6
CONTINUOUS
 10
121.696165
 20
52.962506
 11
121.696165
 21
51.612506
  0
LINE
  5
256
100
AcDbEntity
  8
935-0111-00-00_M42DXF_DIMENSION
100
AcDbLine
 62
7
  6
CONTINUOUS
 10
116.696165
 20
56.912506
 11
116.696165
 21
52.962506
  0
LINE
  5
257
100
AcDbEntity
  8
935-0111-00-00_M42DXF_DIMENSION
100
AcDbLine
 62
7
  6
CONTINUOUS
 10
116.696165
 20
52.962506
 11
116.696165
 21
51.612506
  0
LINE
  5
258
100
AcDbEntity
  8
935-0111-00-00_M42DXF_DIMENSION
100
AcDbLine
 62
7
  6
CONTINUOUS
 10
121.696165
 20
52.612506
 11
119.196165
 21
52.612506
  0
LINE
  5
259
100
AcDbEntity
  8
935-0111-00-00_M42DXF_DIMENSION
100
AcDbLine
 62
7
  6
CONTINUOUS
 10
116.696165
 20
52.612506
 11
119.196165
 21
52.612506
  0
INSERT
  5
25A
100
AcDbEntity
  8
935-0111-00-00_M42DXF_DIMENSION
100
AcDbBlockReference
 62
7
  6
CONTINUOUS
  2
_OPEN
 10
121.696165
 20
52.612506
 41
2.0
 42
2.0
 43
2.0
  0
INSERT
  5
25B
100
AcDbEntity
  8
935-0111-00-00_M42DXF_DIMENSION
100
AcDbBlockReference
 62
7
  6
CONTINUOUS
  2
_OPEN
 10
116.696165
 20
52.612506
 41
2.0
 42
2.0
 43
2.0
 50
180.0
  0
ENDBLK
  5
25C
100
AcDbEntity
  8
0
  6
BYBLOCK
 62
0
100
AcDbBlockEnd
  0
BLOCK
  5
25D
100
AcDbEntity
  8
935-0111-00-00_M42DXF_DIMENSION
100
AcDbBlockBegin
 62
7
  6
CONTINUOUS
  2
*D5
 70
65
 10
0.0
 20
0.0
  3
*D5
  1

  0
MTEXT
  5
25E
100
AcDbEntity
  8
935-0111-00-00_M42DXF_DIMENSION
100
AcDbMText
 62
7
  6
CONTINUOUS
  7
TEXTSTYLE_3
 71
2
 72
1
 10
104.986165
 20
79.612506
 30
0.0
 11
0.0
 21
1.0
 31
0.0
 44
0.9
  1
{\Fgdt;n}\Ftxt;30
 40
1.4
 41
4.2466666667
  0
LINE
  5
25F
100
AcDbEntity
  8
935-0111-00-00_M42DXF_DIMENSION
100
AcDbLine
 62
7
  6
CONTINUOUS
 10
111.036164
 20
64.612506
 11
106.386165
 21
64.612506
  0
LINE
  5
260
100
AcDbEntity
  8
935-0111-00-00_M42DXF_DIMENSION
100
AcDbLine
 62
7
  6
CONTINUOUS
 10
106.386165
 20
64.612506
 11
105.736165
 21
64.612506
  0
LINE
  5
261
100
AcDbEntity
  8
935-0111-00-00_M42DXF_DIMENSION
100
AcDbLine
 62
7
  6
CONTINUOUS
 10
111.036164
 20
94.612506
 11
106.386165
 21
94.612506
  0
LINE
  5
262
100
AcDbEntity
  8
935-0111-00-00_M42DXF_DIMENSION
100
AcDbLine
 62
7
  6
CONTINUOUS
 10
106.386165
 20
94.612506
 11
105.736165
 21
94.612506
  0
LINE
  5
263
100
AcDbEntity
  8
935-0111-00-00_M42DXF_DIMENSION
100
AcDbLine
 62
7
  6
CONTINUOUS
 10
106.736165
 20
64.612506
 11
106.736165
 21
79.612506
  0
LINE
  5
264
100
AcDbEntity
  8
935-0111-00-00_M42DXF_DIMENSION
100
AcDbLine
 62
7
  6
CONTINUOUS
 10
106.736165
 20
94.612506
 11
106.736165
 21
79.612506
  0
INSERT
  5
265
100
AcDbEntity
  8
935-0111-00-00_M42DXF_DIMENSION
100
AcDbBlockReference
 62
7
  6
CONTINUOUS
  2
_OPEN
 10
106.736165
 20
64.612506
 41
2.0
 42
2.0
 43
2.0
 50
270.0
  0
INSERT
  5
266
100
AcDbEntity
  8
935-0111-00-00_M42DXF_DIMENSION
100
AcDbBlockReference
 62
7
  6
CONTINUOUS
  2
_OPEN
 10
106.736165
 20
94.612506
 41
2.0
 42
2.0
 43
2.0
 50
90.0
  0
ENDBLK
  5
267
100
AcDbEntity
  8
0
  6
BYBLOCK
 62
0
100
AcDbBlockEnd
  0
BLOCK
  5
268
100
AcDbEntity
  8
935-0111-00-00_M42DXF_DIMENSION
100
AcDbBlockBegin
 62
7
  6
CONTINUOUS
  2
*D6
 70
65
 10
0.0
 20
0.0
  3
*D6
  1

  0
MTEXT
  5
269
100
AcDbEntity
  8
935-0111-00-00_M42DXF_DIMENSION
100
AcDbMText
 62
7
  6
CONTINUOUS
  7
TEXTSTYLE_4
 71
2
 72
1
 10
63.0384710689
 20
80.8884484937
 30
0.0
 11
0.7291099964
 21
0.6843965321
 31
0.0
 44
0.9
  1
1-32UN(2B)
 40
1.4
 41
14.0
  0
LINE
  5
26A
100
AcDbEntity
  8
935-0111-00-00_M42DXF_DIMENSION
100
AcDbLine
 62
7
  6
CONTINUOUS
 10
73.495862
 20
88.304342
 11
64.236165
 21
79.612506
  0
LINE
  5
26B
100
AcDbEntity
  8
935-0111-00-00_M42DXF_DIMENSION
100
AcDbLine
 62
7
  6
CONTINUOUS
 10
54.976468
 20
70.92067
 11
64.236165
 21
79.612506
  0
INSERT
  5
26C
100
AcDbEntity
  8
935-0111-00-00_M42DXF_DIMENSION
100
AcDbBlockReference
 62
7
  6
CONTINUOUS
  2
_OPEN
 10
73.495862
 20
88.304342
 41
2.0
 42
2.0
 43
2.0
 50
43.1881662811
  0
INSERT
  5
26D
100
AcDbEntity
  8
935-0111-00-00_M42DXF_DIMENSION
100
AcDbBlockReference
 62
7
  6
CONTINUOUS
  2
_OPEN
 10
54.976468
 20
70.92067
 41
2.0
 42
2.0
 43
2.0
 50
223.1881662811
  0
ENDBLK
  5
26E
100
AcDbEntity
  8
0
  6
BYBLOCK
 62
0
100
AcDbBlockEnd
  0
BLOCK
  5
26F
100
AcDbEntity
  8
935-0111-00-00_M42DXF_DIMENSION
100
AcDbBlockBegin
 62
7
  6
CONTINUOUS
  2
*D7
 70
65
 10
0.0
 20
0.0
  3
*D7
  1

  0
MTEXT
  5
270
100
AcDbEntity
  8
935-0111-00-00_M42DXF_DIMENSION
100
AcDbMText
 62
7
  6
CONTINUOUS
  7
TEXTSTYLE_2
 71
2
 72
1
 10
64.236165
 20
52.362506
 30
0.0
 11
1.0
 21
0.0
 31
0.0
 44
0.9
  1
44
 40
1.4
 41
2.38
  0
LINE
  5
271
100
AcDbEntity
  8
935-0111-00-00_M42DXF_DIMENSION
100
AcDbLine
 62
7
  6
CONTINUOUS
 10
86.236165
 20
72.904302
 11
86.236165
 21
50.962506
  0
LINE
  5
272
100
AcDbEntity
  8
935-0111-00-00_M42DXF_DIMENSION
100
AcDbLine
 62
7
  6
CONTINUOUS
 10
86.236165
 20
50.962506
 11
86.236165
 21
49.612506
  0
LINE
  5
273
100
AcDbEntity
  8
935-0111-00-00_M42DXF_DIMENSION
100
AcDbLine
 62
7
  6
CONTINUOUS
 10
42.236165
 20
72.904302
 11
42.236165
 21
50.962506
  0
LINE
  5
274
100
AcDbEntity
  8
935-0111-00-00_M42DXF_DIMENSION
100
AcDbLine
 62
7
  6
CONTINUOUS
 10
42.236165
 20
50.962506
 11
42.236165
 21
49.612506
  0
LINE
  5
275
100
AcDbEntity
  8
935-0111-00-00_M42DXF_DIMENSION
100
AcDbLine
 62
7
  6
CONTINUOUS
 10
86.236165
 20
50.612506
 11
64.236165
 21
50.612506
  0
LINE
  5
276
100
AcDbEntity
  8
935-0111-00-00_M42DXF_DIMENSION
100
AcDbLine
 62
7
  6
CONTINUOUS
 10
42.236165
 20
50.612506
 11
64.236165
 21
50.612506
  0
INSERT
  5
277
100
AcDbEntity
  8
935-0111-00-00_M42DXF_DIMENSION
100
AcDbBlockReference
 62
7
  6
CONTINUOUS
  2
_OPEN
 10
86.236165
 20
50.612506
 41
2.0
 42
2.0
 43
2.0
  0
INSERT
  5
278
100
AcDbEntity
  8
935-0111-00-00_M42DXF_DIMENSION
100
AcDbBlockReference
 62
7
  6
CONTINUOUS
  2
_OPEN
 10
42.236165
 20
50.612506
 41
2.0
 42
2.0
 43
2.0
 50
180.0
  0
ENDBLK
  5
279
100
AcDbEntity
  8
0
  6
BYBLOCK
 62
0
100
AcDbBlockEnd
  0
BLOCK
  5
27A
100
AcDbEntity
  8
935-0111-00-00_M42DXF_DIMENSION
100
AcDbBlockBegin
 62
7
  6
CONTINUOUS
  2
*D8
 70
65
 10
0.0
 20
0.0
  3
*D8
  1

  0
MTEXT
  5
27B
100
AcDbEntity
  8
935-0111-00-00_M42DXF_DIMENSION
100
AcDbMText
 62
7
  6
CONTINUOUS
  7
STANDARD
 71
2
 72
1
 10
173.28441
 20
73.984119
 30
0.0
 11
1.0
 21
0.0
 31
0.0
 44
0.9
  1
4以上
 40
1.4
 41
5.04
  0
LINE
  5
27C
100
AcDbEntity
  8
935-0111-00-00_M42DXF_DIMENSION
100
AcDbLine
 62
7
  6
CONTINUOUS
 10
165.263835
 20
72.274119
 11
165.263835
 21
71.234119
  0
LINE
  5
27D
100
AcDbEntity
  8
935-0111-00-00_M42DXF_DIMENSION
100
AcDbLine
 62
7
  6
CONTINUOUS
 10
169.263835
 20
72.274119
 11
169.263835
 21
71.234119
  0
LINE
  5
27E
100
AcDbEntity
  8
935-0111-00-00_M42DXF_DIMENSION
100
AcDbLine
 62
7
  6
CONTINUOUS
 10
165.263835
 20
72.234119
 11
162.263835
 21
72.234119
  0
LINE
  5
27F
100
AcDbEntity
  8
935-0111-00-00_M42DXF_DIMENSION
100
AcDbLine
 62
7
  6
CONTINUOUS
 10
162.263835
 20
72.234119
 11
167.263835
 21
72.234119
  0
LINE
  5
280
100
AcDbEntity
  8
935-0111-00-00_M42DXF_DIMENSION
100
AcDbLine
 62
7
  6
CONTINUOUS
 10
169.263835
 20
72.234119
 11
174.96441
 21
72.234119
  0
LINE
  5
281
100
AcDbEntity
  8
935-0111-00-00_M42DXF_DIMENSION
100
AcDbLine
 62
7
  6
CONTINUOUS
 10
174.96441
 20
72.234119
 11
167.263835
 21
72.234119
  0
INSERT
  5
282
100
AcDbEntity
  8
935-0111-00-00_M42DXF_DIMENSION
100
AcDbBlockReference
 62
7
  6
CONTINUOUS
  2
_OPEN
 10
165.263835
 20
72.234119
 41
2.0
 42
2.0
 43
2.0
  0
INSERT
  5
283
100
AcDbEntity
  8
935-0111-00-00_M42DXF_DIMENSION
100
AcDbBlockReference
 62
7
  6
CONTINUOUS
  2
_OPEN
 10
169.263835
 20
72.234119
 41
2.0
 42
2.0
 43
2.0
 50
180.0
  0
ENDBLK
  5
284
100
AcDbEntity
  8
0
  6
BYBLOCK
 62
0
100
AcDbBlockEnd
  0
BLOCK
  5
285
100
AcDbEntity
  8
935-0111-00-00_M42DXF_DIMENSION
100
AcDbBlockBegin
 62
7
  6
CONTINUOUS
  2
*D9
 70
65
 10
0.0
 20
0.0
  3
*D9
  1

  0
MTEXT
  5
286
100
AcDbEntity
  8
935-0111-00-00_M42DXF_DIMENSION
100
AcDbMText
 62
7
  6
CONTINUOUS
  7
TEXTSTYLE_1
 71
2
 72
1
 10
175.513835
 20
79.612506
 30
0.0
 11
0.0
 21
1.0
 31
0.0
 44
0.9
  1
{\Fgdt;n}\Ftxt;38以上
 40
1.4
 41
9.52
  0
LINE
  5
287
100
AcDbEntity
  8
935-0111-00-00_M42DXF_DIMENSION
100
AcDbLine
 62
7
  6
CONTINUOUS
 10
168.963835
 20
98.612506
 11
176.913835
 21
98.612506
  0
LINE
  5
288
100
AcDbEntity
  8
935-0111-00-00_M42DXF_DIMENSION
100
AcDbLine
 62
7
  6
CONTINUOUS
 10
176.913835
 20
98.612506
 11
178.263835
 21
98.612506
  0
LINE
  5
289
100
AcDbEntity
  8
935-0111-00-00_M42DXF_DIMENSION
100
AcDbLine
 62
7
  6
CONTINUOUS
 10
168.963835
 20
60.612506
 11
176.913835
 21
60.612506
  0
LINE
  5
28A
100
AcDbEntity
  8
935-0111-00-00_M42DXF_DIMENSION
100
AcDbLine
 62
7
  6
CONTINUOUS
 10
176.913835
 20
60.612506
 11
178.263835
 21
60.612506
  0
LINE
  5
28B
100
AcDbEntity
  8
935-0111-00-00_M42DXF_DIMENSION
100
AcDbLine
 62
7
  6
CONTINUOUS
 10
177.263835
 20
98.612506
 11
177.263835
 21
79.612506
  0
LINE
  5
28C
100
AcDbEntity
  8
935-0111-00-00_M42DXF_DIMENSION
100
AcDbLine
 62
7
  6
CONTINUOUS
 10
177.263835
 20
60.612506
 11
177.263835
 21
79.612506
  0
INSERT
  5
28D
100
AcDbEntity
  8
935-0111-00-00_M42DXF_DIMENSION
100
AcDbBlockReference
 62
7
  6
CONTINUOUS
  2
_OPEN
 10
177.263835
 20
98.612506
 41
2.0
 42
2.0
 43
2.0
 50
90.0
  0
INSERT
  5
28E
100
AcDbEntity
  8
935-0111-00-00_M42DXF_DIMENSION
100
AcDbBlockReference
 62
7
  6
CONTINUOUS
  2
_OPEN
 10
177.263835
 20
60.612506
 41
2.0
 42
2.0
 43
2.0
 50
270.0
  0
ENDBLK
  5
28F
100
AcDbEntity
  8
0
  6
BYBLOCK
 62
0
100
AcDbBlockEnd
  0
ENDSEC
  0
SECTION
  2
ENTITIES
  0
DIMENSION
  5
290
100
AcDbEntity
  8
935-0111-00-00_M42DXF_DIMENSION
100
AcDbDimension
 62
7
  6
CONTINUOUS
  2
*D0
 10
102.736165
 20
102.612506
 11
102.736165
 21
79.612506
 70
160
 71
2
  1
%%c46
  3
DIMSTYLE_1
100
AcDbAlignedDimension
 13
116.996165
 23
56.612506
 14
116.996165
 24
102.612506
 50
90.0
100
AcDbRotatedDimension
  0
DIMENSION
  5
291
100
AcDbEntity
  8
935-0111-00-00_M42DXF_DIMENSION
100
AcDbDimension
 62
7
  6
CONTINUOUS
  2
*D1
 10
121.696165
 20
48.612506
 11
130.3514159982
 21
48.612506
 70
160
 71
2
  1
3.7以下
  3
DIMSTYLE_2
100
AcDbAlignedDimension
 13
125.396165
 23
58.912506
 14
121.696165
 24
56.912506
 50
180.0
100
AcDbRotatedDimension
  0
DIMENSION
  5
292
100
AcDbEntity
  8
935-0111-00-00_M42DXF_DIMENSION
100
AcDbDimension
 62
7
  6
CONTINUOUS
  2
*D2
 10
129.396165
 20
58.612506
 11
129.396165
 21
79.5665707707
 70
160
 71
2
  1
M42×1.0
  3
DIMSTYLE_3
100
AcDbAlignedDimension
 13
125.096165
 23
100.612506
 14
125.096165
 24
58.612506
 50
270.0
100
AcDbRotatedDimension
  0
DIMENSION
  5
293
100
AcDbEntity
  8
935-0111-00-00_M42DXF_DIMENSION
100
AcDbDimension
 62
7
  6
CONTINUOUS
  2
*D3
 10
110.736165
 20
48.612506
 11
112.3924135309
 21
48.612506
 70
160
 71
2
  1
10.96
  3
DIMSTYLE_4
100
AcDbAlignedDimension
 13
121.696165
 23
56.912506
 14
110.736165
 24
64.912505
 50
180.0
100
AcDbRotatedDimension
  0
DIMENSION
  5
294
100
AcDbEntity
  8
935-0111-00-00_M42DXF_DIMENSION
100
AcDbDimension
 62
7
  6
CONTINUOUS
  2
*D4
 10
116.696165
 20
52.612506
 11
119.2333513319
 21
52.612506
 70
160
 71
2
  1
5
  3
DIMSTYLE_1
100
AcDbAlignedDimension
 13
121.696165
 23
56.912506
 14
116.696165
 24
56.912506
 50
180.0
100
AcDbRotatedDimension
  0
DIMENSION
  5
295
100
AcDbEntity
  8
935-0111-00-00_M42DXF_DIMENSION
100
AcDbDimension
 62
7
  6
CONTINUOUS
  2
*D5
 10
106.736165
 20
94.612506
 11
106.736165
 21
79.612506
 70
160
 71
2
  1
%%c30
  3
DIMSTYLE_1
100
AcDbAlignedDimension
 13
111.036164
 23
64.612506
 14
111.036164
 24
94.612506
 50
90.0
100
AcDbRotatedDimension
  0
DIMENSION
  5
296
100
AcDbEntity
  8
935-0111-00-00_M42DXF_DIMENSION
100
AcDbDimension
 62
7
  6
CONTINUOUS
  2
*D6
 10
73.495862
 20
88.304342
 11
63.5813466914
 21
80.4379560936
 70
163
 71
2
  1
1-32UN(2B)
  3
DIMSTYLE_5
100
AcDbDiametricDimension
 15
54.976468
 25
70.92067
  0
DIMENSION
  5
297
100
AcDbEntity
  8
935-0111-00-00_M42DXF_DIMENSION
100
AcDbDimension
 62
7
  6
CONTINUOUS
  2
*D7
 10
42.236165
 20
50.612506
 11
64.2733536229
 21
50.612506
 70
160
 71
2
  1
44
  3
DIMSTYLE_1
100
AcDbAlignedDimension
 13
86.236165
 23
72.904302
 14
42.236165
 24
72.904302
 50
180.0
100
AcDbRotatedDimension
  0
DIMENSION
  5
298
100
AcDbEntity
  8
935-0111-00-00_M42DXF_DIMENSION
100
AcDbDimension
 62
7
  6
CONTINUOUS
  2
*D8
 10
169.263835
 20
72.234119
 11
173.3894090012
 21
72.234119
 70
160
 71
2
  1
4以上
  3
DIMSTYLE_6
100
AcDbAlignedDimension
 13
165.263835
 23
71.234119
 14
169.263835
 24
71.234119
100
AcDbRotatedDimension
  0
DIMENSION
  5
299
100
AcDbEntity
  8
935-0111-00-00_M42DXF_DIMENSION
100
AcDbDimension
 62
7
  6
CONTINUOUS
  2
*D9
 10
177.263835
 20
60.612506
 11
177.263835
 21
79.612506
 70
160
 71
2
  1
%%c38以上
  3
DIMSTYLE_6
100
AcDbAlignedDimension
 13
168.963835
 23
98.612506
 14
168.963835
 24
60.612506
 50
270.0
100
AcDbRotatedDimension
  0
MTEXT
  5
29A
100
AcDbEntity
  8
935-0111-00-00_M42-C__DXF_TEXT
100
AcDbMText
 62
7
  6
CONTINUOUS
  7
TEXTSTYLE_7
 71
1
 72
1
 10
67.385399
 20
55.180141
 30
0.0
 11
1.0
 21
0.0
 31
0.0
 44
0.6
  1
A
 40
2.0
 41
1.8
  0
MTEXT
  5
29B
100
AcDbEntity
  8
935-0111-00-00_M42-C__DXF_TEXT
100
AcDbMText
 62
7
  6
CONTINUOUS
  7
TEXTSTYLE_7
 71
1
 72
1
 10
67.385399
 20
106.044871
 30
0.0
 11
1.0
 21
0.0
 31
0.0
 44
0.6
  1
A
 40
2.0
 41
1.8
  0
MTEXT
  5
29C
100
AcDbEntity
  8
935-0111-00-00_M42-C__DXF_TEXT
100
AcDbMText
 62
7
  6
CONTINUOUS
  7
TEXTSTYLE_8
 71
1
 72
1
 10
159.382226
 20
53.016759
 30
0.0
 11
1.0
 21
0.0
 31
0.0
 44
0.6
  1
A-A断面
 40
2.1
 41
13.11975
  0
LINE
  5
29D
100
AcDbEntity
  8
LY_1
100
AcDbLine
 62
7
  6
CONTINUOUS
 10
42.236165
 20
72.904302
 11
42.236165
 21
86.32071
  0
LINE
  5
29E
100
AcDbEntity
  8
LY_1
100
AcDbLine
 62
7
  6
CONTINUOUS
 10
42.536165
 20
72.949174
 11
42.536165
 21
86.275838
  0
LINE
  5
29F
100
AcDbEntity
  8
LY_1
100
AcDbLine
 62
7
  6
CONTINUOUS
 10
64.236165
 20
53.247775
 11
64.236165
 21
55.112506
  0
LINE
  5
2A0
100
AcDbEntity
  8
LY_1
100
AcDbLine
 62
7
  6
CENTER
 10
64.236165
 20
55.112506
 11
64.236165
 21
79.612506
  0
LINE
  5
2A1
100
AcDbEntity
  8
LY_1
100
AcDbLine
 62
7
  6
CENTER
 10
64.236165
 20
83.593608
 11
64.236165
 21
104.112506
  0
LINE
  5
2A2
100
AcDbEntity
  8
LY_1
100
AcDbLine
 62
7
  6
CONTINUOUS
 10
64.236165
 20
104.112506
 11
64.236165
 21
105.977237
  0
LINE
  5
2A3
100
AcDbEntity
  8
LY_1
100
AcDbLine
 62
7
  6
CONTINUOUS
 10
64.236165
 20
54.180141
 11
65.290714
 21
53.897575
  0
LINE
  5
2A4
100
AcDbEntity
  8
LY_1
100
AcDbLine
 62
7
  6
CONTINUOUS
 10
85.936165
 20
72.949174
 11
85.936165
 21
86.275838
  0
LINE
  5
2A5
100
AcDbEntity
  8
LY_1
100
AcDbLine
 62
7
  6
CONTINUOUS
 10
86.236165
 20
72.904302
 11
86.236165
 21
86.32071
  0
LINE
  5
2A6
100
AcDbEntity
  8
LY_1
100
AcDbLine
 62
7
  6
CONTINUOUS
 10
64.236165
 20
54.180141
 11
67.085399
 21
54.180141
  0
LINE
  5
2A7
100
AcDbEntity
  8
LY_1
100
AcDbLine
 62
7
  6
CONTINUOUS
 10
164.9638351989
 20
56.612506
 11
160.5638351989
 21
56.612506
  0
LINE
  5
2A8
100
AcDbEntity
  8
LY_1
100
AcDbLine
 62
7
  6
CONTINUOUS
 10
168.9638351989
 20
58.612506
 11
166.5638351989
 21
58.612506
  0
LINE
  5
2A9
100
AcDbEntity
  8
LY_1
100
AcDbLine
 62
7
  6
CONTINUOUS
 10
166.2638351989
 20
59.462506
 11
165.2638351989
 21
59.462506
  0
LINE
  5
2AA
100
AcDbEntity
  8
LY_1
100
AcDbLine
 62
7
  6
CONTINUOUS
 10
165.2638351989
 20
60.612506
 11
168.9638351989
 21
60.612506
  0
LINE
  5
2AB
100
AcDbEntity
  8
LY_1
100
AcDbLine
 62
7
  6
CONTINUOUS
 10
160.2638351989
 20
64.612506
 11
154.6038351989
 21
64.612506
  0
LINE
  5
2AC
100
AcDbEntity
  8
LY_1
100
AcDbLine
 62
7
  6
CONTINUOUS
 10
154.7007101989
 20
67.309381
 11
164.8669601989
 21
67.309381
  0
LINE
  5
2AD
100
AcDbEntity
  8
LY_1
100
AcDbLine
 62
7
  6
CONTINUOUS
 10
160.5638351989
 20
56.612506
 11
160.2638351989
 21
56.912506
  0
LINE
  5
2AE
100
AcDbEntity
  8
LY_1
100
AcDbLine
 62
7
  6
CONTINUOUS
 10
154.6038351989
 20
64.612506
 11
154.3038351989
 21
64.912506
  0
LINE
  5
2AF
100
AcDbEntity
  8
LY_1
100
AcDbLine
 62
7
  6
CONTINUOUS
 10
166.5638351989
 20
58.612506
 11
166.2638351989
 21
58.912506
  0
LINE
  5
2B0
100
AcDbEntity
  8
LY_1
100
AcDbLine
 62
7
  6
CONTINUOUS
 10
168.9638351989
 20
60.612506
 11
169.2638351989
 21
60.312506
  0
LINE
  5
2B1
100
AcDbEntity
  8
LY_1
100
AcDbLine
 62
7
  6
CONTINUOUS
 10
164.8669601989
 20
67.309381
 11
165.2638351989
 21
66.912506
  0
LINE
  5
2B2
100
AcDbEntity
  8
LY_1
100
AcDbLine
 62
7
  6
CONTINUOUS
 10
154.3038351989
 20
64.912506
 11
154.3038351989
 21
66.912506
  0
LINE
  5
2B3
100
AcDbEntity
  8
LY_1
100
AcDbLine
 62
7
  6
CONTINUOUS
 10
154.3038351989
 20
66.912506
 11
154.7007101989
 21
67.309381
  0
LINE
  5
2B4
100
AcDbEntity
  8
LY_1
100
AcDbLine
 62
7
  6
CONTINUOUS
 10
160.2638351989
 20
56.912506
 11
160.2638351989
 21
64.612506
  0
LINE
  5
2B5
100
AcDbEntity
  8
LY_1
100
AcDbLine
 62
7
  6
CONTINUOUS
 10
165.2638351989
 20
66.912506
 11
165.2638351989
 21
60.612506
  0
LINE
  5
2B6
100
AcDbEntity
  8
LY_1
100
AcDbLine
 62
7
  6
CONTINUOUS
 10
165.2638351989
 20
59.462506
 11
165.2638351989
 21
56.912506
  0
LINE
  5
2B7
100
AcDbEntity
  8
LY_1
100
AcDbLine
 62
7
  6
CONTINUOUS
 10
166.2638351989
 20
58.912506
 11
166.2638351989
 21
59.462506
  0
LINE
  5
2B8
100
AcDbEntity
  8
LY_1
100
AcDbLine
 62
7
  6
CONTINUOUS
 10
169.2638351989
 20
60.312506
 11
169.2638351989
 21
58.912506
  0
LINE
  5
2B9
100
AcDbEntity
  8
LY_1
100
AcDbLine
 62
7
  6
CONTINUOUS
 10
165.2638351989
 20
56.912506
 11
164.9638351989
 21
56.612506
  0
LINE
  5
2BA
100
AcDbEntity
  8
LY_1
100
AcDbLine
 62
7
  6
CONTINUOUS
 10
169.2638351989
 20
58.912506
 11
168.9638351989
 21
58.612506
  0
HATCH
  5
2BB
100
AcDbEntity
  8
935-0111-00-00_M42-DXF_HATCHING
100
AcDbHatch
 62
7
  6
CONTINUOUS
 10
0.0
 20
0.0
 30
0.0
210
0.0
220
0.0
230
1.0
  2
ANSI31
 70
0
 71
1
 91
1
 92
1
 93
20
 72
1
 10
160.5638351989
 20
56.612506
 11
160.2638351989
 21
56.912506
 72
1
 10
160.2638351989
 20
56.912506
 11
160.2638351989
 21
64.612506
 72
1
 10
160.2638351989
 20
64.612506
 11
154.6038351989
 21
64.612506
 72
1
 10
154.6038351989
 20
64.612506
 11
154.3038351989
 21
64.912506
 72
1
 10
154.3038351989
 20
64.912506
 11
154.3038351989
 21
66.912506
 72
1
 10
154.3038351989
 20
66.912506
 11
154.7007101989
 21
67.309381
 72
1
 10
154.7007101989
 20
67.309381
 11
164.8669601989
 21
67.309381
 72
1
 10
164.8669601989
 20
67.309381
 11
165.2638351989
 21
66.912506
 72
1
 10
165.2638351989
 20
66.912506
 11
165.2638351989
 21
60.612506
 72
1
 10
165.2638351989
 20
60.612506
 11
168.9638351989
 21
60.612506
 72
1
 10
168.9638351989
 20
60.612506
 11
169.2638351989
 21
60.312506
 72
1
 10
169.2638351989
 20
60.312506
 11
169.2638351989
 21
58.912506
 72
1
 10
169.2638351989
 20
58.912506
 11
168.9638351989
 21
58.612506
 72
1
 10
168.9638351989
 20
58.612506
 11
166.5638351989
 21
58.612506
 72
1
 10
166.5638351989
 20
58.612506
 11
166.2638351989
 21
58.912506
 72
1
 10
166.2638351989
 20
58.912506
 11
166.2638351989
 21
59.462506
 72
1
 10
166.2638351989
 20
59.462506
 11
165.2638351989
 21
59.462506
 72
1
 10
165.2638351989
 20
59.462506
 11
165.2638351989
 21
56.912506
 72
1
 10
165.2638351989
 20
56.912506
 11
164.9638351989
 21
56.612506
 72
1
 10
164.9638351989
 20
56.612506
 11
160.5638351989
 21
56.612506
 97
20
330
2A7
330
2A8
330
2A9
330
2AA
330
2AB
330
2AC
330
2AD
330
2AE
330
2AF
330
2B0
330
2B1
330
2B2
330
2B3
330
2B4
330
2B5
330
2B6
330
2B7
330
2B8
330
2B9
330
2BA
 75
0
 76
0
 52
45.0
 41
0.635
 77
0
 78
1
 53
45.0
 43
0.0
 44
0.0
 45
-0.4490128061
 46
0.4490128061
 79
0
 98
1
 10
0.0
 20
0.0
  0
LINE
  5
2BC
100
AcDbEntity
  8
LY_1
100
AcDbLine
 62
7
  6
CONTINUOUS
 10
164.963835
 20
56.612506
 11
160.563835
 21
56.612506
  0
LINE
  5
2BD
100
AcDbEntity
  8
LY_1
100
AcDbLine
 62
7
  6
CONTINUOUS
 10
116.996165
 20
56.612506
 11
121.396165
 21
56.612506
  0
LINE
  5
2BE
100
AcDbEntity
  8
LY_1
100
AcDbLine
 62
7
  6
CONTINUOUS
 10
122.446165
 20
58.612506
 11
125.096165
 21
58.612506
  0
LINE
  5
2BF
100
AcDbEntity
  8
LY_1
100
AcDbLine
 62
7
  6
CONTINUOUS
 10
166.563835
 20
58.612506
 11
168.963835
 21
58.612506
  0
LINE
  5
2C0
100
AcDbEntity
  8
LY_1
100
AcDbLine
 62
7
  6
CONTINUOUS
 10
165.263835
 20
59.462506
 11
169.263835
 21
59.462506
  0
LINE
  5
2C1
100
AcDbEntity
  8
LY_1
100
AcDbLine
 62
7
  6
CONTINUOUS
 10
121.696165
 20
59.612506
 11
125.396165
 21
59.612506
  0
LINE
  5
2C2
100
AcDbEntity
  8
LY_1
100
AcDbLine
 62
7
  6
CONTINUOUS
 10
168.963835
 20
60.612506
 11
165.263835
 21
60.612506
  0
LINE
  5
2C3
100
AcDbEntity
  8
LY_1
100
AcDbLine
 62
7
  6
CONTINUOUS
 10
160.263835
 20
64.612506
 11
154.603835
 21
64.612506
  0
LINE
  5
2C4
100
AcDbEntity
  8
LY_1
100
AcDbLine
 62
7
  6
CONTINUOUS
 10
111.036165
 20
64.612506
 11
116.696165
 21
64.612506
  0
LINE
  5
2C5
100
AcDbEntity
  8
LY_1
100
AcDbLine
 62
7
  6
CONTINUOUS
 10
116.996165
 20
102.612506
 11
116.696165
 21
102.312506
  0
LINE
  5
2C6
100
AcDbEntity
  8
LY_1
100
AcDbLine
 62
7
  6
CONTINUOUS
 10
111.036165
 20
94.612506
 11
110.736165
 21
94.312506
  0
LINE
  5
2C7
100
AcDbEntity
  8
LY_1
100
AcDbLine
 62
7
  6
CONTINUOUS
 10
64.236165
 20
54.180141
 11
65.290714
 21
54.462706
  0
LINE
  5
2C8
100
AcDbEntity
  8
LY_1
100
AcDbLine
 62
7
  6
CONTINUOUS
 10
121.396165
 20
72.904302
 11
121.696165
 21
72.949174
  0
LINE
  5
2C9
100
AcDbEntity
  8
LY_1
100
AcDbLine
 62
7
  6
CONTINUOUS
 10
165.263835
 20
66.912506
 11
154.303835
 21
66.912506
  0
LINE
  5
2CA
100
AcDbEntity
  8
LY_1
100
AcDbLine
 62
7
  6
CONTINUOUS
 10
164.86696
 20
67.309381
 11
154.70071
 21
67.309381
  0
LINE
  5
2CB
100
AcDbEntity
  8
LY_1
100
AcDbLine
 62
7
  6
CONTINUOUS
 10
116.996165
 20
72.904302
 11
121.396165
 21
72.904302
  0
LINE
  5
2CC
100
AcDbEntity
  8
LY_1
100
AcDbLine
 62
7
  6
CONTINUOUS
 10
85.936165
 20
72.949174
 11
86.236165
 21
72.904302
  0
LINE
  5
2CD
100
AcDbEntity
  8
LY_1
100
AcDbLine
 62
7
  6
CONTINUOUS
 10
116.996165
 20
56.612506
 11
116.696165
 21
56.912506
  0
LINE
  5
2CE
100
AcDbEntity
  8
LY_1
100
AcDbLine
 62
7
  6
CONTINUOUS
 10
111.036165
 20
64.612506
 11
110.736165
 21
64.912506
  0
LINE
  5
2CF
100
AcDbEntity
  8
LY_1
100
AcDbLine
 62
7
  6
CENTER
 10
87.736165
 20
79.612506
 11
64.236165
 21
79.612506
  0
LINE
  5
2D0
100
AcDbEntity
  8
LY_1
100
AcDbLine
 62
7
  6
CENTER
 10
60.355605
 20
79.612506
 11
40.736165
 21
79.612506
  0
LINE
  5
2D1
100
AcDbEntity
  8
LY_1
100
AcDbLine
 62
7
  6
CENTER
 10
109.236165
 20
79.612506
 11
127.196165
 21
79.612506
  0
LINE
  5
2D2
100
AcDbEntity
  8
LY_1
100
AcDbLine
 62
7
  6
CENTER
 10
152.396165
 20
79.612506
 11
170.633655
 21
79.612506
  0
LINE
  5
2D3
100
AcDbEntity
  8
LY_1
100
AcDbLine
 62
7
  6
CONTINUOUS
 10
116.996165
 20
72.904302
 11
116.696165
 21
72.949174
  0
LINE
  5
2D4
100
AcDbEntity
  8
LY_1
100
AcDbLine
 62
7
  6
CONTINUOUS
 10
110.736165
 20
64.912506
 11
110.736165
 21
94.312506
  0
LINE
  5
2D5
100
AcDbEntity
  8
LY_1
100
AcDbLine
 62
7
  6
CONTINUOUS
 10
111.036165
 20
94.612506
 11
111.036165
 21
64.612506
  0
LINE
  5
2D6
100
AcDbEntity
  8
LY_1
100
AcDbLine
 62
7
  6
CONTINUOUS
 10
116.696165
 20
56.912506
 11
116.696165
 21
102.312506
  0
LINE
  5
2D7
100
AcDbEntity
  8
LY_1
100
AcDbLine
 62
7
  6
CONTINUOUS
 10
116.996165
 20
102.612506
 11
116.996165
 21
56.612506
  0
LINE
  5
2D8
100
AcDbEntity
  8
LY_1
100
AcDbLine
 62
7
  6
CONTINUOUS
 10
116.996165
 20
86.32071
 11
116.696165
 21
86.275838
  0
LINE
  5
2D9
100
AcDbEntity
  8
LY_1
100
AcDbLine
 62
7
  6
CONTINUOUS
 10
116.996165
 20
86.32071
 11
121.396165
 21
86.32071
  0
LINE
  5
2DA
100
AcDbEntity
  8
LY_1
100
AcDbLine
 62
7
  6
CONTINUOUS
 10
121.396165
 20
86.32071
 11
121.696165
 21
86.275838
  0
LINE
  5
2DB
100
AcDbEntity
  8
LY_1
100
AcDbLine
 62
7
  6
CONTINUOUS
 10
121.396165
 20
102.612506
 11
121.396165
 21
56.612506
  0
LINE
  5
2DC
100
AcDbEntity
  8
LY_1
100
AcDbLine
 62
7
  6
CONTINUOUS
 10
121.696165
 20
56.912506
 11
121.696165
 21
102.312506
  0
LINE
  5
2DD
100
AcDbEntity
  8
LY_1
100
AcDbLine
 62
7
  6
CONTINUOUS
 10
122.446165
 20
58.612506
 11
122.446165
 21
59.612506
  0
LINE
  5
2DE
100
AcDbEntity
  8
LY_1
100
AcDbLine
 62
7
  6
CONTINUOUS
 10
122.446165
 20
99.612506
 11
122.446165
 21
100.612506
  0
LINE
  5
2DF
100
AcDbEntity
  8
LY_1
100
AcDbLine
 62
7
  6
CONTINUOUS
 10
85.936165
 20
86.275838
 11
86.236165
 21
86.32071
  0
LINE
  5
2E0
100
AcDbEntity
  8
LY_1
100
AcDbLine
 62
7
  6
CONTINUOUS
 10
164.8669601989
 20
91.915631
 11
154.7007101989
 21
91.915631
  0
LINE
  5
2E1
100
AcDbEntity
  8
LY_1
100
AcDbLine
 62
7
  6
CONTINUOUS
 10
154.6038351989
 20
94.612506
 11
160.2638351989
 21
94.612506
  0
LINE
  5
2E2
100
AcDbEntity
  8
LY_1
100
AcDbLine
 62
7
  6
CONTINUOUS
 10
160.2638351989
 20
102.312506
 11
160.5638351989
 21
102.612506
  0
LINE
  5
2E3
100
AcDbEntity
  8
LY_1
100
AcDbLine
 62
7
  6
CONTINUOUS
 10
154.3038351989
 20
94.312506
 11
154.6038351989
 21
94.612506
  0
LINE
  5
2E4
100
AcDbEntity
  8
LY_1
100
AcDbLine
 62
7
  6
CONTINUOUS
 10
168.9638351989
 20
98.612506
 11
165.2638351989
 21
98.612506
  0
LINE
  5
2E5
100
AcDbEntity
  8
LY_1
100
AcDbLine
 62
7
  6
CONTINUOUS
 10
165.2638351989
 20
99.762506
 11
166.2638351989
 21
99.762506
  0
LINE
  5
2E6
100
AcDbEntity
  8
LY_1
100
AcDbLine
 62
7
  6
CONTINUOUS
 10
166.5638351989
 20
100.612506
 11
168.9638351989
 21
100.612506
  0
LINE
  5
2E7
100
AcDbEntity
  8
LY_1
100
AcDbLine
 62
7
  6
CONTINUOUS
 10
160.5638351989
 20
102.612506
 11
164.9638351989
 21
102.612506
  0
LINE
  5
2E8
100
AcDbEntity
  8
LY_1
100
AcDbLine
 62
7
  6
CONTINUOUS
 10
166.2638351989
 20
100.312506
 11
166.5638351989
 21
100.612506
  0
LINE
  5
2E9
100
AcDbEntity
  8
LY_1
100
AcDbLine
 62
7
  6
CONTINUOUS
 10
169.2638351989
 20
98.912506
 11
168.9638351989
 21
98.612506
  0
LINE
  5
2EA
100
AcDbEntity
  8
LY_1
100
AcDbLine
 62
7
  6
CONTINUOUS
 10
165.2638351989
 20
92.312506
 11
164.8669601989
 21
91.915631
  0
LINE
  5
2EB
100
AcDbEntity
  8
LY_1
100
AcDbLine
 62
7
  6
CONTINUOUS
 10
154.3038351989
 20
92.312506
 11
154.3038351989
 21
94.312506
  0
LINE
  5
2EC
100
AcDbEntity
  8
LY_1
100
AcDbLine
 62
7
  6
CONTINUOUS
 10
154.7007101989
 20
91.915631
 11
154.3038351989
 21
92.312506
  0
LINE
  5
2ED
100
AcDbEntity
  8
LY_1
100
AcDbLine
 62
7
  6
CONTINUOUS
 10
160.2638351989
 20
94.612506
 11
160.2638351989
 21
102.312506
  0
LINE
  5
2EE
100
AcDbEntity
  8
LY_1
100
AcDbLine
 62
7
  6
CONTINUOUS
 10
165.2638351989
 20
102.312506
 11
165.2638351989
 21
99.762506
  0
LINE
  5
2EF
100
AcDbEntity
  8
LY_1
100
AcDbLine
 62
7
  6
CONTINUOUS
 10
165.2638351989
 20
98.612506
 11
165.2638351989
 21
92.312506
  0
LINE
  5
2F0
100
AcDbEntity
  8
LY_1
100
AcDbLine
 62
7
  6
CONTINUOUS
 10
166.2638351989
 20
99.762506
 11
166.2638351989
 21
100.312506
  0
LINE
  5
2F1
100
AcDbEntity
  8
LY_1
100
AcDbLine
 62
7
  6
CONTINUOUS
 10
169.2638351989
 20
100.312506
 11
169.2638351989
 21
98.912506
  0
LINE
  5
2F2
100
AcDbEntity
  8
LY_1
100
AcDbLine
 62
7
  6
CONTINUOUS
 10
164.9638351989
 20
102.612506
 11
165.2638351989
 21
102.312506
  0
LINE
  5
2F3
100
AcDbEntity
  8
LY_1
100
AcDbLine
 62
7
  6
CONTINUOUS
 10
168.9638351989
 20
100.612506
 11
169.2638351989
 21
100.312506
  0
HATCH
  5
2F4
100
AcDbEntity
  8
935-0111-00-00_M42-DXF_HATCHING
100
AcDbHatch
 62
7
  6
CONTINUOUS
 10
0.0
 20
0.0
 30
0.0
210
0.0
220
0.0
230
1.0
  2
ANSI31
 70
0
 71
1
 91
1
 92
1
 93
20
 72
1
 10
154.7007101989
 20
91.915631
 11
154.3038351989
 21
92.312506
 72
1
 10
154.3038351989
 20
92.312506
 11
154.3038351989
 21
94.312506
 72
1
 10
154.3038351989
 20
94.312506
 11
154.6038351989
 21
94.612506
 72
1
 10
154.6038351989
 20
94.612506
 11
160.2638351989
 21
94.612506
 72
1
 10
160.2638351989
 20
94.612506
 11
160.2638351989
 21
102.312506
 72
1
 10
160.2638351989
 20
102.312506
 11
160.5638351989
 21
102.612506
 72
1
 10
160.5638351989
 20
102.612506
 11
164.9638351989
 21
102.612506
 72
1
 10
164.9638351989
 20
102.612506
 11
165.2638351989
 21
102.312506
 72
1
 10
165.2638351989
 20
102.312506
 11
165.2638351989
 21
99.762506
 72
1
 10
165.2638351989
 20
99.762506
 11
166.2638351989
 21
99.762506
 72
1
 10
166.2638351989
 20
99.762506
 11
166.2638351989
 21
100.312506
 72
1
 10
166.2638351989
 20
100.312506
 11
166.5638351989
 21
100.612506
 72
1
 10
166.5638351989
 20
100.612506
 11
168.9638351989
 21
100.612506
 72
1
 10
168.9638351989
 20
100.612506
 11
169.2638351989
 21
100.312506
 72
1
 10
169.2638351989
 20
100.312506
 11
169.2638351989
 21
98.912506
 72
1
 10
169.2638351989
 20
98.912506
 11
168.9638351989
 21
98.612506
 72
1
 10
168.9638351989
 20
98.612506
 11
165.2638351989
 21
98.612506
 72
1
 10
165.2638351989
 20
98.612506
 11
165.2638351989
 21
92.312506
 72
1
 10
165.2638351989
 20
92.312506
 11
164.8669601989
 21
91.915631
 72
1
 10
164.8669601989
 20
91.915631
 11
154.7007101989
 21
91.915631
 97
20
330
2E0
330
2E1
330
2E2
330
2E3
330
2E4
330
2E5
330
2E6
330
2E7
330
2E8
330
2E9
330
2EA
330
2EB
330
2EC
330
2ED
330
2EE
330
2EF
330
2F0
330
2F1
330
2F2
330
2F3
 75
0
 76
0
 52
45.0
 41
0.635
 77
0
 78
1
 53
45.0
 43
0.0
 44
0.0
 45
-0.4490128061
 46
0.4490128061
 79
0
 98
1
 10
0.0
 20
0.0
  0
LINE
  5
2F5
100
AcDbEntity
  8
LY_1
100
AcDbLine
 62
7
  6
CONTINUOUS
 10
154.70071
 20
91.915631
 11
164.86696
 21
91.915631
  0
LINE
  5
2F6
100
AcDbEntity
  8
LY_1
100
AcDbLine
 62
7
  6
CONTINUOUS
 10
165.263835
 20
92.312506
 11
154.303835
 21
92.312506
  0
LINE
  5
2F7
100
AcDbEntity
  8
LY_1
100
AcDbLine
 62
7
  6
CONTINUOUS
 10
111.036165
 20
94.612506
 11
116.696165
 21
94.612506
  0
LINE
  5
2F8
100
AcDbEntity
  8
LY_1
100
AcDbLine
 62
7
  6
CONTINUOUS
 10
154.603835
 20
94.612506
 11
160.263835
 21
94.612506
  0
LINE
  5
2F9
100
AcDbEntity
  8
LY_1
100
AcDbLine
 62
7
  6
CONTINUOUS
 10
64.236165
 20
105.044871
 11
65.290714
 21
104.762306
  0
LINE
  5
2FA
100
AcDbEntity
  8
LY_1
100
AcDbLine
 62
7
  6
CONTINUOUS
 10
125.396165
 20
58.912506
 11
125.396165
 21
100.312506
  0
LINE
  5
2FB
100
AcDbEntity
  8
LY_1
100
AcDbLine
 62
7
  6
CONTINUOUS
 10
160.263835
 20
102.312506
 11
160.563835
 21
102.612506
  0
LINE
  5
2FC
100
AcDbEntity
  8
LY_1
100
AcDbLine
 62
7
  6
CONTINUOUS
 10
154.303835
 20
94.312506
 11
154.603835
 21
94.612506
  0
LINE
  5
2FD
100
AcDbEntity
  8
LY_1
100
AcDbLine
 62
7
  6
CONTINUOUS
 10
165.263835
 20
98.612506
 11
168.963835
 21
98.612506
  0
LINE
  5
2FE
100
AcDbEntity
  8
LY_1
100
AcDbLine
 62
7
  6
CONTINUOUS
 10
121.696165
 20
99.612506
 11
125.396165
 21
99.612506
  0
LINE
  5
2FF
100
AcDbEntity
  8
LY_1
100
AcDbLine
 62
7
  6
CONTINUOUS
 10
165.263835
 20
99.762506
 11
169.263835
 21
99.762506
  0
LINE
  5
300
100
AcDbEntity
  8
LY_1
100
AcDbLine
 62
7
  6
CONTINUOUS
 10
168.963835
 20
100.612506
 11
166.563835
 21
100.612506
  0
LINE
  5
301
100
AcDbEntity
  8
LY_1
100
AcDbLine
 62
7
  6
CONTINUOUS
 10
122.446165
 20
100.612506
 11
125.096165
 21
100.612506
  0
LINE
  5
302
100
AcDbEntity
  8
LY_1
100
AcDbLine
 62
7
  6
CONTINUOUS
 10
116.996165
 20
102.612506
 11
121.396165
 21
102.612506
  0
LINE
  5
303
100
AcDbEntity
  8
LY_1
100
AcDbLine
 62
7
  6
CONTINUOUS
 10
160.563835
 20
102.612506
 11
164.963835
 21
102.612506
  0
LINE
  5
304
100
AcDbEntity
  8
LY_1
100
AcDbLine
 62
7
  6
CONTINUOUS
 10
160.563835
 20
56.612506
 11
160.263835
 21
56.912506
  0
LINE
  5
305
100
AcDbEntity
  8
LY_1
100
AcDbLine
 62
7
  6
CONTINUOUS
 10
154.603835
 20
64.612506
 11
154.303835
 21
64.912506
  0
LINE
  5
306
100
AcDbEntity
  8
LY_1
100
AcDbLine
 62
7
  6
CONTINUOUS
 10
121.696165
 20
56.912506
 11
121.396165
 21
56.612506
  0
LINE
  5
307
100
AcDbEntity
  8
LY_1
100
AcDbLine
 62
7
  6
CONTINUOUS
 10
166.563835
 20
100.612506
 11
166.263835
 21
100.312506
  0
LINE
  5
308
100
AcDbEntity
  8
LY_1
100
AcDbLine
 62
7
  6
CONTINUOUS
 10
125.396165
 20
58.912506
 11
125.096165
 21
58.612506
  0
LINE
  5
309
100
AcDbEntity
  8
LY_1
100
AcDbLine
 62
7
  6
CONTINUOUS
 10
169.263835
 20
98.912506
 11
168.963835
 21
98.612506
  0
LINE
  5
30A
100
AcDbEntity
  8
LY_1
100
AcDbLine
 62
7
  6
CONTINUOUS
 10
165.263835
 20
92.312506
 11
164.86696
 21
91.915631
  0
LINE
  5
30B
100
AcDbEntity
  8
LY_1
100
AcDbLine
 62
7
  6
CONTINUOUS
 10
64.236165
 20
105.044871
 11
67.085399
 21
105.044871
  0
LINE
  5
30C
100
AcDbEntity
  8
LY_1
100
AcDbLine
 62
7
  6
CONTINUOUS
 10
121.696165
 20
102.312506
 11
121.396165
 21
102.612506
  0
LINE
  5
30D
100
AcDbEntity
  8
LY_1
100
AcDbLine
 62
7
  6
CONTINUOUS
 10
166.263835
 20
58.912506
 11
166.563835
 21
58.612506
  0
LINE
  5
30E
100
AcDbEntity
  8
LY_1
100
AcDbLine
 62
7
  6
CONTINUOUS
 10
125.396165
 20
100.312506
 11
125.096165
 21
100.612506
  0
LINE
  5
30F
100
AcDbEntity
  8
LY_1
100
AcDbLine
 62
7
  6
CONTINUOUS
 10
168.963835
 20
60.612506
 11
169.263835
 21
60.312506
  0
LINE
  5
310
100
AcDbEntity
  8
LY_1
100
AcDbLine
 62
7
  6
CONTINUOUS
 10
165.263835
 20
66.912506
 11
164.86696
 21
67.309381
  0
LINE
  5
311
100
AcDbEntity
  8
LY_1
100
AcDbLine
 62
7
  6
CONTINUOUS
 10
64.236165
 20
105.044871
 11
65.290714
 21
105.327437
  0
LINE
  5
312
100
AcDbEntity
  8
LY_1
100
AcDbLine
 62
7
  6
CONTINUOUS
 10
154.303835
 20
64.912506
 11
154.303835
 21
94.312506
  0
LINE
  5
313
100
AcDbEntity
  8
LY_1
100
AcDbLine
 62
7
  6
CONTINUOUS
 10
154.70071
 20
91.915631
 11
154.70071
 21
67.309381
  0
LINE
  5
314
100
AcDbEntity
  8
LY_1
100
AcDbLine
 62
7
  6
CONTINUOUS
 10
154.303835
 20
66.912506
 11
154.70071
 21
67.309381
  0
LINE
  5
315
100
AcDbEntity
  8
LY_1
100
AcDbLine
 62
7
  6
CONTINUOUS
 10
154.303835
 20
92.312506
 11
154.70071
 21
91.915631
  0
LINE
  5
316
100
AcDbEntity
  8
LY_1
100
AcDbLine
 62
7
  6
CONTINUOUS
 10
160.263835
 20
102.312506
 11
160.263835
 21
94.612506
  0
LINE
  5
317
100
AcDbEntity
  8
LY_1
100
AcDbLine
 62
7
  6
CONTINUOUS
 10
160.263835
 20
64.612506
 11
160.263835
 21
56.912506
  0
LINE
  5
318
100
AcDbEntity
  8
LY_1
100
AcDbLine
 62
7
  6
CONTINUOUS
 10
164.86696
 20
67.309381
 11
164.86696
 21
91.915631
  0
LINE
  5
319
100
AcDbEntity
  8
LY_1
100
AcDbLine
 62
7
  6
CONTINUOUS
 10
165.263835
 20
102.312506
 11
165.263835
 21
99.762506
  0
LINE
  5
31A
100
AcDbEntity
  8
LY_1
100
AcDbLine
 62
7
  6
CONTINUOUS
 10
165.263835
 20
59.462506
 11
165.263835
 21
56.912506
  0
LINE
  5
31B
100
AcDbEntity
  8
LY_1
100
AcDbLine
 62
7
  6
CONTINUOUS
 10
165.263835
 20
60.612506
 11
165.263835
 21
98.612506
  0
LINE
  5
31C
100
AcDbEntity
  8
LY_1
100
AcDbLine
 62
7
  6
CONTINUOUS
 10
166.263835
 20
58.912506
 11
166.263835
 21
59.462506
  0
LINE
  5
31D
100
AcDbEntity
  8
LY_1
100
AcDbLine
 62
7
  6
CONTINUOUS
 10
166.263835
 20
99.762506
 11
166.263835
 21
100.312506
  0
LINE
  5
31E
100
AcDbEntity
  8
LY_1
100
AcDbLine
 62
7
  6
CONTINUOUS
 10
168.963835
 20
98.612506
 11
168.963835
 21
60.612506
  0
LINE
  5
31F
100
AcDbEntity
  8
LY_1
100
AcDbLine
 62
7
  6
CONTINUOUS
 10
169.263835
 20
58.912506
 11
169.263835
 21
100.312506
  0
LINE
  5
320
100
AcDbEntity
  8
LY_1
100
AcDbLine
 62
7
  6
CONTINUOUS
 10
165.263835
 20
56.912506
 11
164.963835
 21
56.612506
  0
LINE
  5
321
100
AcDbEntity
  8
LY_1
100
AcDbLine
 62
7
  6
CONTINUOUS
 10
169.263835
 20
58.912506
 11
168.963835
 21
58.612506
  0
LINE
  5
322
100
AcDbEntity
  8
LY_1
100
AcDbLine
 62
7
  6
CONTINUOUS
 10
164.963835
 20
102.612506
 11
165.263835
 21
102.312506
  0
LINE
  5
323
100
AcDbEntity
  8
LY_1
100
AcDbLine
 62
7
  6
CONTINUOUS
 10
168.963835
 20
100.612506
 11
169.263835
 21
100.312506
  0
ARC
  5
324
100
AcDbEntity
  8
LY_1
100
AcDbCircle
 62
7
  6
CONTINUOUS
 10
64.236165
 20
79.612506
 40
23.0
100
AcDbArc
 50
16.957426
 51
163.042574
  0
ARC
  5
325
100
AcDbEntity
  8
LY_1
100
AcDbCircle
 62
7
  6
CONTINUOUS
 10
64.236165
 20
79.612506
 40
23.0
100
AcDbArc
 50
196.957426
 51
343.042574
  0
ARC
  5
326
100
AcDbEntity
  8
LY_1
100
AcDbCircle
 62
7
  6
CONTINUOUS
 10
64.236165
 20
79.612506
 40
22.7
100
AcDbArc
 50
17.069943
 51
162.930057
  0
ARC
  5
327
100
AcDbEntity
  8
LY_1
100
AcDbCircle
 62
7
  6
CONTINUOUS
 10
64.236165
 20
79.612506
 40
22.7
100
AcDbArc
 50
197.069943
 51
342.930057
  0
CIRCLE
  5
328
100
AcDbEntity
  8
LY_1
100
AcDbCircle
 62
7
  6
CONTINUOUS
 10
64.236165
 20
79.612506
 40
15.0
  0
CIRCLE
  5
329
100
AcDbEntity
  8
LY_1
100
AcDbCircle
 62
7
  6
CONTINUOUS
 10
64.236165
 20
79.612506
 40
14.7
  0
CIRCLE
  5
32A
100
AcDbEntity
  8
LY_1
100
AcDbCircle
 62
7
  6
CONTINUOUS
 10
64.236165
 20
79.612506
 40
12.7
  0
CIRCLE
  5
32B
100
AcDbEntity
  8
LY_1
100
AcDbCircle
 62
7
  6
CONTINUOUS
 10
64.236165
 20
79.612506
 40
12.2
  0
ENDSEC
  0
SECTION
  2
OBJECTS
  0
DICTIONARY
  5
C
100
AcDbDictionary
280
0
281
1
  3
ACAD_GROUP
350
D
  3
ACAD_MLINESTYLE
350
17
  3
ACAD_LAYOUT
350
1A
  3
ACAD_PLOTSETTINGS
350
19
  3
ACAD_PLOTSTYLENAME
350
E
  0
DICTIONARY
  5
D
102
{ACAD_REACTORS
330
C
102
}
100
AcDbDictionary
280
0
281
1
  0
ACDBDICTIONARYWDFLT
  5
E
102
{ACAD_REACTORS
330
C
102
}
100
AcDbDictionary
281
1
  3
Normal
350
F
100
AcDbDictionaryWithDefault
340
F
  0
DICTIONARY
  5
17
102
{ACAD_REACTORS
330
C
102
}
100
AcDbDictionary
280
0
281
1
  3
Standard
350
18
  0
DICTIONARY
  5
19
102
{ACAD_REACTORS
330
C
102
}
100
AcDbDictionary
281
1
  0
DICTIONARY
  5
1A
102
{ACAD_REACTORS
330
C
102
}
100
AcDbDictionary
281
1
  3
Model
350
32C
  3
Layout1
350
32D
  0
ACDBPLACEHOLDER
  5
F
102
{ACAD_REACTORS
330
E
102
}
  0
MLINESTYLE
  5
18
102
{ACAD_REACTORS
330
17
102
}
100
AcDbMlineStyle
  2
STANDARD
 70
0
  3

 62
256
 51
90.0
 52
90.0
 71
2
 49
0.5
 62
256
  6
BYLAYER
 49
-0.5
 62
256
  6
BYLAYER
  0
LAYOUT
  5
32C
102
{ACAD_REACTORS
330
1A
102
}
100
AcDbPlotSettings
  1

  2
none_device
  4

  6

 40
0.0
 41
0.0
 42
0.0
 43
0.0
 44
218.086223
 45
159.037512
 46
0.0
 47
0.0
 48
0.0
 49
0.0
140
0.0
141
0.0
142
1.0
143
1.0
 70
1024
 72
1
 73
0
 74
0
  7

 75
0
147
1.0
148
0.0
149
0.0
100
AcDbLayout
  1
Model
 70
0
 71
0
 10
0.0
 20
0.0
 11
218.086223
 21
159.037512
 12
0.0
 22
0.0
 32
0.0
 14
0.0
 24
0.0
 34
0.0
 15
0.0
 25
0.0
 35
0.0
146
0.0
 13
0.0
 23
0.0
 33
0.0
 16
1.0
 26
0.0
 36
0.0
 17
0.0
 27
1.0
 37
0.0
 76
0
330
20B
345
0
346
0
  0
LAYOUT
  5
32D
102
{ACAD_REACTORS
330
1A
102
}
100
AcDbPlotSettings
  1

  2
none_device
  4

  6

 40
0.0
 41
0.0
 42
0.0
 43
0.0
 44
218.086223
 45
159.037512
 46
0.0
 47
0.0
 48
0.0
 49
0.0
140
0.0
141
0.0
142
1.0
143
1.0
 70
0
 72
1
 73
0
 74
0
  7

 75
0
147
1.0
148
0.0
149
0.0
100
AcDbLayout
  1
Layout1
 70
0
 71
1
 10
0.0
 20
0.0
 11
218.086223
 21
159.037512
 12
0.0
 22
0.0
 32
0.0
 14
0.0
 24
0.0
 34
0.0
 15
0.0
 25
0.0
 35
0.0
146
0.0
 13
0.0
 23
0.0
 33
0.0
 16
1.0
 26
0.0
 36
0.0
 17
0.0
 27
1.0
 37
0.0
 76
0
330
20C
345
0
346
0
  0
ENDSEC
  0
EOF
