999
DXF file: m48-f.dxf
999
Pro/ENGINEER 2015360 by Parametric Technology Corporation
  0
SECTION
  2
HEADER
  9
$ACADVER
  1
AC1021
  9
$DWGCODEPAGE
  3
ANSI_932
  9
$EXTMAX
 10
443.6675240546
 20
304.8210255836
 30
0.0
  9
$EXTMIN
 10
0.0
 20
0.0
 30
0.0
  9
$LIMMIN
 10
0.0
 20
0.0
  9
$LIMMAX
 10
443.6675240546
 20
304.8210255836
  9
$VIEWCTR
 10
221.8337620273
 20
152.4105127918
  9
$VIEWSIZE
 40
304.8210255836
  9
$CLAYER
  8
0
  9
$LTSCALE
 40
24.401713823
  9
$CELTYPE
  6
BYLAYER
  9
$DIMSCALE
 40
1.0
  9
$DIMASZ
 40
2.0
  9
$DIMEXO
 40
0.0
  9
$DIMDLI
 40
16.8593659141
  9
$DIMEXE
 40
1.0
  9
$DIMCEN
 40
3.9930077165
  9
$DIMLFAC
 40
1.0
  9
$DIMBLK
  1
_OPEN
  9
$DIMALT
 70
0
  9
$DIMALTF
 40
0.0393700787
  9
$DIMTXT
 40
2.5
  9
$DIMTOL
 70
1
  9
$DIMLIM
 70
0
  9
$DIMTFAC
 40
1.0
  9
$DIMTP
 40
0.0001
  9
$DIMTM
 40
0.0001
  9
$DIMGAP
 40
0.625
  9
$DIMDSEP
 70
46
  9
$AUNITS
 70
0
  9
$PDMODE
 70
3
  9
$PDSIZE
 40
2.0
  9
$HANDSEED
  5
2ED
  9
$TILEMODE
 70
1
  9
$MEASUREMENT
 70
1
  9
$INSUNITS
 70
4
  0
ENDSEC
  0
SECTION
  2
CLASSES
  0
CLASS
  1
ACDBDICTIONARYWDFLT
  2
AcDbDictionaryWithDefault
  3
AutoCAD 2000
 90
0
 91
1
280
0
281
0
  0
CLASS
  1
ACDBPLACEHOLDER
  2
AcDbPlaceHolder
  3
AutoCAD 2000
 90
0
 91
1
280
0
281
0
  0
CLASS
  1
LAYOUT
  2
AcDbLayout
  3
AutoCAD 2000
 90
0
 91
0
280
0
281
0
  0
ENDSEC
  0
SECTION
  2
TABLES
  0
TABLE
  2
VPORT
  5
8
100
AcDbSymbolTable
 70
2
  0
VPORT
  5
1F4
100
AcDbSymbolTableRecord
100
AcDbViewportTableRecord
  2
*ACTIVE
 70
0
 10
0.0
 20
0.0
 11
1.0
 21
1.0
 12
221.8337620273
 22
152.4105127918
 13
0.0
 23
0.0
 14
1.0
 24
1.0
 15
0.0
 25
0.0
 16
0.0
 26
0.0
 36
1.0
 17
0.0
 27
0.0
 37
0.0
 40
304.8210255836
 41
1.4555017102
 42
50.0
 43
0.0
 44
0.0
 50
0.0
 51
0.0
 71
0
 72
100
 73
1
 74
1
 75
0
 76
0
 77
0
 78
0
  0
ENDTAB
  0
TABLE
  2
LTYPE
  5
5
100
AcDbSymbolTable
 70
6
  0
LTYPE
  5
14
100
AcDbSymbolTableRecord
100
AcDbLinetypeTableRecord
  2
BYBLOCK
 70
0
  3

 72
65
 73
0
 40
0.0
  0
LTYPE
  5
15
100
AcDbSymbolTableRecord
100
AcDbLinetypeTableRecord
  2
BYLAYER
 70
0
  3

 72
65
 73
0
 40
0.0
  0
LTYPE
  5
16
100
AcDbSymbolTableRecord
100
AcDbLinetypeTableRecord
  2
CONTINUOUS
 70
64
  3
Solid line
 72
65
 73
0
 40
0.0
  0
LTYPE
  5
1F5
100
AcDbSymbolTableRecord
100
AcDbLinetypeTableRecord
  2
CENTER
 70
64
  3
____ _ ____ _ ____ _ ____ _ ____ _ ____ _ ____
 72
65
 73
4
 40
0.6
 49
0.375
 74
0
 49
-0.075
 74
0
 49
0.075
 74
0
 49
-0.075
 74
0
  0
LTYPE
  5
1F6
100
AcDbSymbolTableRecord
100
AcDbLinetypeTableRecord
  2
HIDDEN
 70
64
  3
- - - - - - - - - - - - - - - - - - - -
 72
65
 73
2
 40
0.2
 49
0.1
 74
0
 49
-0.1
 74
0
  0
LTYPE
  5
1F7
100
AcDbSymbolTableRecord
100
AcDbLinetypeTableRecord
  2
PHANTOM
 70
64
  3
_____ _ _ _____ _ _ _____ _ _ _____
 72
65
 73
6
 40
0.8
 49
0.45
 74
0
 49
-0.05
 74
0
 49
0.1
 74
0
 49
-0.05
 74
0
 49
0.1
 74
0
 49
-0.05
 74
0
  0
LTYPE
  5
1F8
100
AcDbSymbolTableRecord
100
AcDbLinetypeTableRecord
  2
DOT
 70
64
  3
. . . . . . . . . . . . . . . . . . . .
 72
65
 73
2
 40
0.2
 49
0.1
 74
0
 49
-0.1
 74
0
  0
LTYPE
  5
1F9
100
AcDbSymbolTableRecord
100
AcDbLinetypeTableRecord
  2
DASHED
 70
64
  3
- - - - - - - - - - - - - - - - - - - -
 72
65
 73
2
 40
0.2
 49
0.1
 74
0
 49
-0.1
 74
0
  0
ENDTAB
  0
TABLE
  2
LAYER
  5
2
100
AcDbSymbolTable
 70
36
  0
LAYER
  5
10
100
AcDbSymbolTableRecord
100
AcDbLayerTableRecord
  2
0
 70
0
 62
7
  6
CONTINUOUS
370
-3
390
F
  0
LAYER
  5
1FA
100
AcDbSymbolTableRecord
100
AcDbLayerTableRecord
  2
DEFAULT_1
 70
0
 62
7
  6
CENTER
370
-3
390
F
  0
LAYER
  5
1FB
100
AcDbSymbolTableRecord
100
AcDbLayerTableRecord
  2
DEFAULT_2
 70
0
 62
8
  6
HIDDEN
370
-3
390
F
  0
LAYER
  5
1FC
100
AcDbSymbolTableRecord
100
AcDbLayerTableRecord
  2
DEFAULT_3
 70
0
 62
7
  6
PHANTOM
370
-3
390
F
  0
LAYER
  5
1FD
100
AcDbSymbolTableRecord
100
AcDbLayerTableRecord
  2
DEFPOINTS
 70
0
 62
7
  6
CONTINUOUS
290
0
370
-3
390
F
  0
LAYER
  5
1FE
100
AcDbSymbolTableRecord
100
AcDbLayerTableRecord
  2
418-2011-30_M48-F_DXF_DIMENSION
 70
0
 62
7
  6
CONTINUOUS
370
-3
390
F
  0
LAYER
  5
1FF
100
AcDbSymbolTableRecord
100
AcDbLayerTableRecord
  2
418-2011-30_M48-F__DXF_TEXT
 70
0
 62
7
  6
CONTINUOUS
370
-3
390
F
  0
ENDTAB
  0
TABLE
  2
STYLE
  5
3
100
AcDbSymbolTable
 70
1
  0
STYLE
  5
11
100
AcDbSymbolTableRecord
100
AcDbTextStyleTableRecord
  2
STANDARD
 70
0
 40
0.0
 41
0.8
 50
0.0
 71
0
 42
0.2
  3
txt
  4

  0
STYLE
  5
200
100
AcDbSymbolTableRecord
100
AcDbTextStyleTableRecord
  2
TEXTSTYLE_1
 70
0
 40
0.0
 41
0.8
 50
0.0
 71
0
 42
0.2
  3
gdt
  4

  0
STYLE
  5
201
100
AcDbSymbolTableRecord
100
AcDbTextStyleTableRecord
  2
TEXTSTYLE_2
 70
0
 40
0.0
 41
1.0
 50
0.0
 71
0
 42
0.2
  3
txt
  4

  0
STYLE
  5
202
100
AcDbSymbolTableRecord
100
AcDbTextStyleTableRecord
  2
TEXTSTYLE_3
 70
0
 40
0.0
 41
1.0
 50
0.0
 71
0
 42
0.2
  3
gdt
  4

  0
ENDTAB
  0
TABLE
  2
VIEW
  5
6
100
AcDbSymbolTable
 70
0
  0
ENDTAB
  0
TABLE
  2
UCS
  5
7
100
AcDbSymbolTable
 70
0
  0
ENDTAB
  0
TABLE
  2
APPID
  5
9
100
AcDbSymbolTable
 70
1
  0
APPID
  5
203
100
AcDbSymbolTableRecord
100
AcDbRegAppTableRecord
  2
ACAD
 70
0
  0
ENDTAB
  0
TABLE
  2
BLOCK_RECORD
  5
1
100
AcDbSymbolTable
 70
0
  0
BLOCK_RECORD
  5
204
100
AcDbSymbolTableRecord
100
AcDbBlockTableRecord
  2
*Model_Space
  0
BLOCK_RECORD
  5
205
100
AcDbSymbolTableRecord
100
AcDbBlockTableRecord
  2
*Paper_Space
  0
BLOCK_RECORD
  5
206
100
AcDbSymbolTableRecord
100
AcDbBlockTableRecord
  2
_OPEN
  0
BLOCK_RECORD
  5
207
100
AcDbSymbolTableRecord
100
AcDbBlockTableRecord
  2
*D0
  0
BLOCK_RECORD
  5
208
100
AcDbSymbolTableRecord
100
AcDbBlockTableRecord
  2
*D1
  0
BLOCK_RECORD
  5
209
100
AcDbSymbolTableRecord
100
AcDbBlockTableRecord
  2
*D2
  0
BLOCK_RECORD
  5
20A
100
AcDbSymbolTableRecord
100
AcDbBlockTableRecord
  2
*D3
  0
ENDTAB
  0
TABLE
  2
DIMSTYLE
  5
A
100
AcDbSymbolTable
 70
1
100
AcDbDimStyleTable
 71
0
  0
DIMSTYLE
105
20B
100
AcDbSymbolTableRecord
100
AcDbDimStyleTableRecord
  2
STANDARD
 70
0
  3

  4

 40
1.0
 41
2.0
 42
0.0
 43
0.38
 44
1.0
 45
0.0
 46
0.0
 47
0.0001
 48
0.0001
140
2.5
141
0.09
142
0.0
143
25.4
144
1.0
145
0.0
146
1.0
147
0.625
 71
1.0
 72
0.0
 73
0
 74
0
 75
0
 76
0
 77
1
 78
8
170
0
171
2
172
0
173
0
174
0
175
0
176
0
177
0
178
0
270
2
271
4
272
4
273
2
274
2
275
0
280
0
281
0
282
0
283
1
284
8
285
0
286
0
287
3
288
0
340
11
278
46
341
206
342
206
343
206
344
206
  0
DIMSTYLE
105
20C
100
AcDbSymbolTableRecord
100
AcDbDimStyleTableRecord
  2
DIMSTYLE_1
 70
0
  3
<>
  4

 40
1.0
 41
2.0
 42
0.0
 43
0.38
 44
1.0
 45
0.0
 46
0.0
 47
0.1
 48
0.1
140
4.0
141
0.09
142
0.0
143
25.4
144
1.0
145
0.0
146
1.0
147
0.625
 71
0.0
 72
0.0
 73
0
 74
0
 75
0
 76
0
 77
1
 78
8
170
0
171
2
172
1
173
0
174
0
175
0
176
0
177
0
178
0
270
2
271
4
272
4
273
2
274
2
275
0
280
0
281
0
282
0
283
1
284
8
285
0
286
0
287
3
288
1
340
201
278
46
289
2
341
206
342
206
343
206
344
206
  0
DIMSTYLE
105
20D
100
AcDbSymbolTableRecord
100
AcDbDimStyleTableRecord
  2
DIMSTYLE_2
 70
0
  3

  4

 40
1.0
 41
2.0
 42
0.0
 43
0.38
 44
1.0
 45
0.0
 46
0.0
 47
0.1
 48
0.1
140
4.0
141
0.09
142
0.0
143
25.4
144
1.0
145
0.0
146
1.0
147
1.0
 71
0.0
 72
0.0
 73
0
 74
0
 75
0
 76
0
 77
1
 78
8
170
0
171
2
172
0
173
0
174
0
175
0
176
0
177
0
178
0
270
2
271
4
272
4
273
2
274
2
275
0
280
0
281
0
282
0
283
1
284
8
285
0
286
0
287
3
288
0
340
201
278
46
341
206
342
206
343
206
344
206
  0
ENDTAB
  0
ENDSEC
  0
SECTION
  2
BLOCKS
  0
BLOCK
  5
20
100
AcDbEntity
  8
0
100
AcDbBlockBegin
  2
*Model_Space
 70
0
 10
0.0
 20
0.0
 30
0.0
  3
*Model_Space
  1

  0
ENDBLK
  5
21
100
AcDbEntity
  8
0
100
AcDbBlockEnd
  0
BLOCK
  5
1C
100
AcDbEntity
  8
0
100
AcDbBlockBegin
  2
*Paper_Space
 70
0
 10
0.0
 20
0.0
 30
0.0
  3
*Paper_Space
  1

  0
ENDBLK
  5
1D
100
AcDbEntity
  8
0
100
AcDbBlockEnd
  0
BLOCK
  5
20E
100
AcDbEntity
  8
0
100
AcDbBlockBegin
  2
_OPEN
 70
64
 10
0.0
 20
0.0
  3
_OPEN
  1

  0
LINE
  5
20F
100
AcDbEntity
  8
0
  6
BYBLOCK
 62
0
100
AcDbLine
 10
0.0
 20
0.0
 11
-1.0
 21
0.25
  0
LINE
  5
210
100
AcDbEntity
  8
0
  6
BYBLOCK
 62
0
100
AcDbLine
 10
-1.0
 20
-0.25
 11
0.0
 21
0.0
  0
LINE
  5
211
100
AcDbEntity
  8
0
  6
BYBLOCK
 62
0
100
AcDbLine
 10
-1.0
 20
0.0
 11
0.0
 21
0.0
  0
ENDBLK
  5
212
100
AcDbEntity
  8
0
  6
BYBLOCK
 62
0
100
AcDbBlockEnd
  0
BLOCK
  5
213
100
AcDbEntity
  8
418-2011-30_M48-F_DXF_DIMENSION
100
AcDbBlockBegin
 62
2
  6
CONTINUOUS
  2
*D0
 70
65
 10
0.0
 20
0.0
  3
*D0
  1

  0
MTEXT
  5
214
100
AcDbEntity
  8
418-2011-30_M48-F_DXF_DIMENSION
100
AcDbMText
 62
2
  6
CONTINUOUS
  7
TEXTSTYLE_3
 71
2
 72
1
 10
141.4567538771
 20
182.3380386123
 30
0.0
 11
0.7278552496
 21
-0.685730804
 31
0.0
 44
0.9
  1
{\Fgdt;n}\Ftxt;59
 40
4.0
 41
13.3333333333
  0
LINE
  5
215
100
AcDbEntity
  8
418-2011-30_M48-F_DXF_DIMENSION
100
AcDbLine
 62
2
  6
CONTINUOUS
 10
129.2346379683
 20
186.9833047835
 11
142.8804681881
 21
174.1272236707
  0
LINE
  5
216
100
AcDbEntity
  8
418-2011-30_M48-F_DXF_DIMENSION
100
AcDbLine
 62
2
  6
CONTINUOUS
 10
142.8804681881
 20
174.1272236707
 11
107.7629081031
 21
207.2123635023
  0
LINE
  5
217
100
AcDbEntity
  8
418-2011-30_M48-F_DXF_DIMENSION
100
AcDbLine
 62
2
  6
CONTINUOUS
 10
86.2911782379
 20
227.441422221
 11
107.7629081031
 21
207.2123635023
  0
LINE
  5
218
100
AcDbEntity
  8
418-2011-30_M48-F_DXF_DIMENSION
100
AcDbLine
 62
2
  6
CONTINUOUS
 10
107.7629081031
 20
207.2123635023
 11
84.1076124896
 21
229.4986146324
  0
INSERT
  5
219
100
AcDbEntity
  8
418-2011-30_M48-F_DXF_DIMENSION
100
AcDbBlockReference
 62
2
  6
CONTINUOUS
  2
_OPEN
 10
129.2346379677
 20
186.9833047841
 41
2.0
 42
2.0
 43
2.0
 50
136.706697135
  0
INSERT
  5
21A
100
AcDbEntity
  8
418-2011-30_M48-F_DXF_DIMENSION
100
AcDbBlockReference
 62
2
  6
CONTINUOUS
  2
_OPEN
 10
86.2911782385
 20
227.4414222204
 41
2.0
 42
2.0
 43
2.0
 50
316.7047321794
  0
ENDBLK
  5
21B
100
AcDbEntity
  8
0
  6
BYBLOCK
 62
0
100
AcDbBlockEnd
  0
BLOCK
  5
21C
100
AcDbEntity
  8
418-2011-30_M48-F_DXF_DIMENSION
100
AcDbBlockBegin
 62
2
  6
CONTINUOUS
  2
*D1
 70
65
 10
0.0
 20
0.0
  3
*D1
  1

  0
MTEXT
  5
21D
100
AcDbEntity
  8
418-2011-30_M48-F_DXF_DIMENSION
100
AcDbMText
 62
2
  6
CONTINUOUS
  7
TEXTSTYLE_2
 71
2
 72
1
 10
271.1646599085
 20
175.0395078692
 30
0.0
 11
1.0
 21
0.0
 31
0.0
 44
0.9
  1
3.5
 40
4.0
 41
12.0
  0
LINE
  5
21E
100
AcDbEntity
  8
418-2011-30_M48-F_DXF_DIMENSION
100
AcDbLine
 62
2
  6
CONTINUOUS
 10
254.1146599085
 20
180.6989759065
 11
254.1146599085
 21
171.0395078692
  0
LINE
  5
21F
100
AcDbEntity
  8
418-2011-30_M48-F_DXF_DIMENSION
100
AcDbLine
 62
2
  6
CONTINUOUS
 10
254.1146599085
 20
171.0395078692
 11
254.1146599085
 21
169.0395078692
  0
LINE
  5
220
100
AcDbEntity
  8
418-2011-30_M48-F_DXF_DIMENSION
100
AcDbLine
 62
2
  6
CONTINUOUS
 10
257.6146599085
 20
182.6989759065
 11
257.6146599085
 21
171.0395078692
  0
LINE
  5
221
100
AcDbEntity
  8
418-2011-30_M48-F_DXF_DIMENSION
100
AcDbLine
 62
2
  6
CONTINUOUS
 10
257.6146599085
 20
171.0395078692
 11
257.6146599085
 21
169.0395078692
  0
LINE
  5
222
100
AcDbEntity
  8
418-2011-30_M48-F_DXF_DIMENSION
100
AcDbLine
 62
2
  6
CONTINUOUS
 10
254.1146599085
 20
170.0395078692
 11
251.1146599085
 21
170.0395078692
  0
LINE
  5
223
100
AcDbEntity
  8
418-2011-30_M48-F_DXF_DIMENSION
100
AcDbLine
 62
2
  6
CONTINUOUS
 10
251.1146599085
 20
170.0395078692
 11
255.8646599085
 21
170.0395078692
  0
LINE
  5
224
100
AcDbEntity
  8
418-2011-30_M48-F_DXF_DIMENSION
100
AcDbLine
 62
2
  6
CONTINUOUS
 10
257.6146599085
 20
170.0395078692
 11
277.1646599085
 21
170.0395078692
  0
LINE
  5
225
100
AcDbEntity
  8
418-2011-30_M48-F_DXF_DIMENSION
100
AcDbLine
 62
2
  6
CONTINUOUS
 10
277.1646599085
 20
170.0395078692
 11
255.8646599085
 21
170.0395078692
  0
INSERT
  5
226
100
AcDbEntity
  8
418-2011-30_M48-F_DXF_DIMENSION
100
AcDbBlockReference
 62
2
  6
CONTINUOUS
  2
_OPEN
 10
254.1146599085
 20
170.0395078692
 41
2.0
 42
2.0
 43
2.0
  0
INSERT
  5
227
100
AcDbEntity
  8
418-2011-30_M48-F_DXF_DIMENSION
100
AcDbBlockReference
 62
2
  6
CONTINUOUS
  2
_OPEN
 10
257.6146599085
 20
170.0395078692
 41
2.0
 42
2.0
 43
2.0
 50
180.0
  0
ENDBLK
  5
228
100
AcDbEntity
  8
0
  6
BYBLOCK
 62
0
100
AcDbBlockEnd
  0
BLOCK
  5
229
100
AcDbEntity
  8
418-2011-30_M48-F_DXF_DIMENSION
100
AcDbBlockBegin
 62
2
  6
CONTINUOUS
  2
*D2
 70
65
 10
0.0
 20
0.0
  3
*D2
  1

  0
MTEXT
  5
22A
100
AcDbEntity
  8
418-2011-30_M48-F_DXF_DIMENSION
100
AcDbMText
 62
2
  6
CONTINUOUS
  7
TEXTSTYLE_2
 71
2
 72
1
 10
149.0580305728
 20
111.4952947609
 30
0.0
 11
0.0
 21
1.0
 31
0.0
 44
0.9
  1
39.94
 40
4.0
 41
20.0
  0
LINE
  5
22B
100
AcDbEntity
  8
418-2011-30_M48-F_DXF_DIMENSION
100
AcDbLine
 62
2
  6
CONTINUOUS
 10
133.7629081031
 20
91.5252947609
 11
153.0580305728
 21
91.5252947609
  0
LINE
  5
22C
100
AcDbEntity
  8
418-2011-30_M48-F_DXF_DIMENSION
100
AcDbLine
 62
2
  6
CONTINUOUS
 10
153.0580305728
 20
91.5252947609
 11
155.0580305728
 21
91.5252947609
  0
LINE
  5
22D
100
AcDbEntity
  8
418-2011-30_M48-F_DXF_DIMENSION
100
AcDbLine
 62
2
  6
CONTINUOUS
 10
134.9629081031
 20
131.4652947609
 11
153.0580305728
 21
131.4652947609
  0
LINE
  5
22E
100
AcDbEntity
  8
418-2011-30_M48-F_DXF_DIMENSION
100
AcDbLine
 62
2
  6
CONTINUOUS
 10
153.0580305728
 20
131.4652947609
 11
155.0580305728
 21
131.4652947609
  0
LINE
  5
22F
100
AcDbEntity
  8
418-2011-30_M48-F_DXF_DIMENSION
100
AcDbLine
 62
2
  6
CONTINUOUS
 10
154.0580305728
 20
91.5252947609
 11
154.0580305728
 21
111.4952947609
  0
LINE
  5
230
100
AcDbEntity
  8
418-2011-30_M48-F_DXF_DIMENSION
100
AcDbLine
 62
2
  6
CONTINUOUS
 10
154.0580305728
 20
131.4652947609
 11
154.0580305728
 21
111.4952947609
  0
INSERT
  5
231
100
AcDbEntity
  8
418-2011-30_M48-F_DXF_DIMENSION
100
AcDbBlockReference
 62
2
  6
CONTINUOUS
  2
_OPEN
 10
154.0580305728
 20
91.5252947609
 41
2.0
 42
2.0
 43
2.0
 50
270.0
  0
INSERT
  5
232
100
AcDbEntity
  8
418-2011-30_M48-F_DXF_DIMENSION
100
AcDbBlockReference
 62
2
  6
CONTINUOUS
  2
_OPEN
 10
154.0580305728
 20
131.4652947609
 41
2.0
 42
2.0
 43
2.0
 50
90.0
  0
ENDBLK
  5
233
100
AcDbEntity
  8
0
  6
BYBLOCK
 62
0
100
AcDbBlockEnd
  0
BLOCK
  5
234
100
AcDbEntity
  8
418-2011-30_M48-F_DXF_DIMENSION
100
AcDbBlockBegin
 62
2
  6
CONTINUOUS
  2
*D3
 70
65
 10
0.0
 20
0.0
  3
*D3
  1

  0
MTEXT
  5
235
100
AcDbEntity
  8
418-2011-30_M48-F_DXF_DIMENSION
100
AcDbMText
 62
2
  6
CONTINUOUS
  7
TEXTSTYLE_2
 71
2
 72
1
 10
266.9620891576
 20
206.6989759065
 30
0.0
 11
0.0
 21
1.0
 31
0.0
 44
0.9
  1
M48 ×0.75
 40
4.0
 41
36.0
  0
LINE
  5
236
100
AcDbEntity
  8
418-2011-30_M48-F_DXF_DIMENSION
100
AcDbLine
 62
2
  6
CONTINUOUS
 10
257.6146599085
 20
230.6989759065
 11
270.9620891576
 21
230.6989759065
  0
LINE
  5
237
100
AcDbEntity
  8
418-2011-30_M48-F_DXF_DIMENSION
100
AcDbLine
 62
2
  6
CONTINUOUS
 10
270.9620891576
 20
230.6989759065
 11
272.9620891576
 21
230.6989759065
  0
LINE
  5
238
100
AcDbEntity
  8
418-2011-30_M48-F_DXF_DIMENSION
100
AcDbLine
 62
2
  6
CONTINUOUS
 10
257.6146599085
 20
182.6989759065
 11
270.9620891576
 21
182.6989759065
  0
LINE
  5
239
100
AcDbEntity
  8
418-2011-30_M48-F_DXF_DIMENSION
100
AcDbLine
 62
2
  6
CONTINUOUS
 10
270.9620891576
 20
182.6989759065
 11
272.9620891576
 21
182.6989759065
  0
LINE
  5
23A
100
AcDbEntity
  8
418-2011-30_M48-F_DXF_DIMENSION
100
AcDbLine
 62
2
  6
CONTINUOUS
 10
271.9620891576
 20
230.6989759065
 11
271.9620891576
 21
206.6989759065
  0
LINE
  5
23B
100
AcDbEntity
  8
418-2011-30_M48-F_DXF_DIMENSION
100
AcDbLine
 62
2
  6
CONTINUOUS
 10
271.9620891576
 20
182.6989759065
 11
271.9620891576
 21
206.6989759065
  0
INSERT
  5
23C
100
AcDbEntity
  8
418-2011-30_M48-F_DXF_DIMENSION
100
AcDbBlockReference
 62
2
  6
CONTINUOUS
  2
_OPEN
 10
271.9620891576
 20
230.6989759065
 41
2.0
 42
2.0
 43
2.0
 50
90.0
  0
INSERT
  5
23D
100
AcDbEntity
  8
418-2011-30_M48-F_DXF_DIMENSION
100
AcDbBlockReference
 62
2
  6
CONTINUOUS
  2
_OPEN
 10
271.9620891576
 20
182.6989759065
 41
2.0
 42
2.0
 43
2.0
 50
270.0
  0
ENDBLK
  5
23E
100
AcDbEntity
  8
0
  6
BYBLOCK
 62
0
100
AcDbBlockEnd
  0
ENDSEC
  0
SECTION
  2
ENTITIES
  0
DIMENSION
  5
23F
100
AcDbEntity
  8
418-2011-30_M48-F_DXF_DIMENSION
100
AcDbDimension
 62
2
  6
CONTINUOUS
  2
*D0
 10
129.2346379677
 20
186.9833047841
 11
140.0852922691
 21
180.882328113
 70
163
 71
2
  1
%%c59
  3
DIMSTYLE_1
100
AcDbDiametricDimension
 15
86.2911782385
 25
227.4414222204
  0
DIMENSION
  5
240
100
AcDbEntity
  8
418-2011-30_M48-F_DXF_DIMENSION
100
AcDbDimension
 62
2
  6
CONTINUOUS
  2
*D1
 10
257.6146599085
 20
170.0395078692
 11
271.289665808
 21
170.0395078692
 70
160
 71
2
  1
3.5
  3
DIMSTYLE_2
100
AcDbAlignedDimension
 13
254.1146599085
 23
180.6989759065
 14
257.6146599085
 24
182.6989759065
100
AcDbRotatedDimension
  0
DIMENSION
  5
241
100
AcDbEntity
  8
418-2011-30_M48-F_DXF_DIMENSION
100
AcDbDimension
 62
2
  6
CONTINUOUS
  2
*D2
 10
154.0580305728
 20
131.4652947609
 11
154.0580305728
 21
111.6202998458
 70
160
 71
2
  1
39.94
  3
DIMSTYLE_2
100
AcDbAlignedDimension
 13
133.7629081031
 23
91.5252947609
 14
134.9629081031
 24
131.4652947609
 50
90.0
100
AcDbRotatedDimension
  0
DIMENSION
  5
242
100
AcDbEntity
  8
418-2011-30_M48-F_DXF_DIMENSION
100
AcDbDimension
 62
2
  6
CONTINUOUS
  2
*D3
 10
271.9620891576
 20
182.6989759065
 11
271.9620891576
 21
206.6989749535
 70
160
 71
2
  1
M48 ×0.75
  3
DIMSTYLE_2
100
AcDbAlignedDimension
 13
257.6146599085
 23
230.6989759065
 14
257.6146599085
 24
182.6989759065
 50
270.0
100
AcDbRotatedDimension
  0
MTEXT
  5
243
100
AcDbEntity
  8
418-2011-30_M48-F__DXF_TEXT
100
AcDbMText
 62
7
  6
CONTINUOUS
  7
TEXTSTYLE_2
 71
1
 72
1
 10
113.651796992
 20
173.6157270109
 30
0.0
 11
1.0
 21
0.0
 31
0.0
 44
0.6
  1
A
 40
5.0
 41
5.0
  0
MTEXT
  5
244
100
AcDbEntity
  8
418-2011-30_M48-F__DXF_TEXT
100
AcDbMText
 62
7
  6
CONTINUOUS
  7
TEXTSTYLE_2
 71
1
 72
1
 10
113.651796992
 20
247.6498635023
 30
0.0
 11
1.0
 21
0.0
 31
0.0
 44
0.6
  1
A
 40
5.0
 41
5.0
  0
LINE
  5
245
100
AcDbEntity
  8
0
100
AcDbLine
 62
7
  6
CONTINUOUS
 10
78.2629081031
 20
130.1652947609
 11
78.2629081031
 21
119.9652947609
  0
LINE
  5
246
100
AcDbEntity
  8
0
100
AcDbLine
 62
7
  6
CONTINUOUS
 10
81.2629081031
 20
113.9652947609
 11
81.2629081031
 21
92.0252947609
  0
LINE
  5
247
100
AcDbEntity
  8
0
100
AcDbLine
 62
7
  6
CONTINUOUS
 10
83.7629081031
 20
90.5252947609
 11
83.7629081031
 21
88.0252947609
  0
LINE
  5
248
100
AcDbEntity
  8
0
100
AcDbLine
 62
7
  6
CONTINUOUS
 10
83.9629081031
 20
91.5252947609
 11
83.9629081031
 21
90.5252947609
  0
LINE
  5
249
100
AcDbEntity
  8
0
100
AcDbLine
 62
7
  6
CONTINUOUS
 10
81.2629081031
 20
92.0252947609
 11
81.7629081031
 21
91.5252947609
  0
LINE
  5
24A
100
AcDbEntity
  8
0
100
AcDbLine
 62
7
  6
CONTINUOUS
 10
78.2629081031
 20
119.9652947609
 11
81.2629081031
 21
113.9652947609
  0
LINE
  5
24B
100
AcDbEntity
  8
0
100
AcDbLine
 62
7
  6
CONTINUOUS
 10
88.8129081031
 20
188.9623635023
 11
88.8129081031
 21
189.4623635023
  0
LINE
  5
24C
100
AcDbEntity
  8
0
100
AcDbLine
 62
7
  6
CONTINUOUS
 10
88.8129081031
 20
224.9623635023
 11
88.8129081031
 21
225.4623635023
  0
LINE
  5
24D
100
AcDbEntity
  8
0
100
AcDbLine
 62
7
  6
CONTINUOUS
 10
89.5129081031
 20
224.9623635023
 11
89.5129081031
 21
224.2623635023
  0
LINE
  5
24E
100
AcDbEntity
  8
0
100
AcDbLine
 62
7
  6
CONTINUOUS
 10
89.5129081031
 20
188.9623635023
 11
89.5129081031
 21
188.2623635023
  0
LINE
  5
24F
100
AcDbEntity
  8
0
100
AcDbLine
 62
7
  6
CONTINUOUS
 10
89.5129081031
 20
189.4623635023
 11
89.5129081031
 21
190.1623635023
  0
LINE
  5
250
100
AcDbEntity
  8
0
100
AcDbLine
 62
7
  6
CONTINUOUS
 10
89.5129081031
 20
225.4623635023
 11
89.5129081031
 21
226.1623635023
  0
LINE
  5
251
100
AcDbEntity
  8
0
100
AcDbLine
 62
7
  6
CONTINUOUS
 10
90.0129081031
 20
224.9623635023
 11
90.0129081031
 21
224.2623635023
  0
LINE
  5
252
100
AcDbEntity
  8
0
100
AcDbLine
 62
7
  6
CONTINUOUS
 10
90.0129081031
 20
188.9623635023
 11
90.0129081031
 21
188.2623635023
  0
LINE
  5
253
100
AcDbEntity
  8
0
100
AcDbLine
 62
7
  6
CONTINUOUS
 10
90.0129081031
 20
189.4623635023
 11
90.0129081031
 21
190.1623635023
  0
LINE
  5
254
100
AcDbEntity
  8
0
100
AcDbLine
 62
7
  6
CONTINUOUS
 10
90.0129081031
 20
225.4623635023
 11
90.0129081031
 21
226.1623635023
  0
LINE
  5
255
100
AcDbEntity
  8
0
100
AcDbLine
 62
7
  6
CONTINUOUS
 10
90.7129081031
 20
188.9623635023
 11
90.7129081031
 21
189.4623635023
  0
LINE
  5
256
100
AcDbEntity
  8
0
100
AcDbLine
 62
7
  6
CONTINUOUS
 10
90.7129081031
 20
224.9623635023
 11
90.7129081031
 21
225.4623635023
  0
LINE
  5
257
100
AcDbEntity
  8
0
100
AcDbLine
 62
7
  6
CONTINUOUS
 10
117.0605098614
 20
227.1511348171
 11
117.8000918194
 21
228.7371734444
  0
LINE
  5
258
100
AcDbEntity
  8
0
100
AcDbLine
 62
7
  6
CONTINUOUS
 10
93.62158069
 20
190.3593857537
 11
92.496702373
 21
189.0188079782
  0
LINE
  5
259
100
AcDbEntity
  8
0
100
AcDbLine
 62
7
  6
CONTINUOUS
 10
102.7629081031
 20
179.1543878091
 11
102.7629081031
 21
174.1887355974
  0
LINE
  5
25A
100
AcDbEntity
  8
0
100
AcDbLine
 62
7
  6
CONTINUOUS
 10
102.7629081031
 20
130.1652947609
 11
102.7629081031
 21
120.7652947609
  0
LINE
  5
25B
100
AcDbEntity
  8
0
100
AcDbLine
 62
7
  6
CONTINUOUS
 10
106.7629081031
 20
132.4652947609
 11
106.7629081031
 21
131.4652947609
  0
LINE
  5
25C
100
AcDbEntity
  8
0
100
AcDbLine
 62
7
  6
CONTINUOUS
 10
107.7629081031
 20
169.6782270109
 11
107.7629081031
 21
164.6782270109
  0
LINE
  5
25D
100
AcDbEntity
  8
DEFAULT_1
100
AcDbLine
 62
1
  6
CENTER
 10
107.7629081031
 20
134.9550242531
 11
107.7629081031
 21
86.1727937925
  0
LINE
  5
25E
100
AcDbEntity
  8
DEFAULT_1
100
AcDbLine
 62
1
  6
CENTER
 10
107.7629081031
 20
169.6782270109
 11
107.7629081031
 21
238.7123635023
  0
LINE
  5
25F
100
AcDbEntity
  8
0
100
AcDbLine
 62
7
  6
CONTINUOUS
 10
107.7629081031
 20
238.7123635023
 11
107.7629081031
 21
243.7123635023
  0
LINE
  5
260
100
AcDbEntity
  8
0
100
AcDbLine
 62
7
  6
CONTINUOUS
 10
108.7629081031
 20
131.4652947609
 11
108.7629081031
 21
132.4652947609
  0
LINE
  5
261
100
AcDbEntity
  8
0
100
AcDbLine
 62
7
  6
CONTINUOUS
 10
112.7629081031
 20
179.1543878091
 11
112.7629081031
 21
174.1887355974
  0
LINE
  5
262
100
AcDbEntity
  8
0
100
AcDbLine
 62
7
  6
CONTINUOUS
 10
112.7629081031
 20
120.7652947609
 11
112.7629081031
 21
130.1652947609
  0
LINE
  5
263
100
AcDbEntity
  8
0
100
AcDbLine
 62
7
  6
CONTINUOUS
 10
107.7629081031
 20
241.2123635023
 11
111.7629081031
 21
242.4623635023
  0
LINE
  5
264
100
AcDbEntity
  8
0
100
AcDbLine
 62
7
  6
CONTINUOUS
 10
124.8129081031
 20
188.9623635023
 11
124.8129081031
 21
189.4623635023
  0
LINE
  5
265
100
AcDbEntity
  8
0
100
AcDbLine
 62
7
  6
CONTINUOUS
 10
124.8129081031
 20
224.9623635023
 11
124.8129081031
 21
225.4623635023
  0
LINE
  5
266
100
AcDbEntity
  8
0
100
AcDbLine
 62
7
  6
CONTINUOUS
 10
125.5129081031
 20
224.9623635023
 11
125.5129081031
 21
224.2623635023
  0
LINE
  5
267
100
AcDbEntity
  8
0
100
AcDbLine
 62
7
  6
CONTINUOUS
 10
125.5129081031
 20
188.9623635023
 11
125.5129081031
 21
188.2623635023
  0
LINE
  5
268
100
AcDbEntity
  8
0
100
AcDbLine
 62
7
  6
CONTINUOUS
 10
125.5129081031
 20
189.4623635023
 11
125.5129081031
 21
190.1623635023
  0
LINE
  5
269
100
AcDbEntity
  8
0
100
AcDbLine
 62
7
  6
CONTINUOUS
 10
125.5129081031
 20
225.4623635023
 11
125.5129081031
 21
226.1623635023
  0
LINE
  5
26A
100
AcDbEntity
  8
0
100
AcDbLine
 62
7
  6
CONTINUOUS
 10
126.0129081031
 20
224.9623635023
 11
126.0129081031
 21
224.2623635023
  0
LINE
  5
26B
100
AcDbEntity
  8
0
100
AcDbLine
 62
7
  6
CONTINUOUS
 10
126.0129081031
 20
188.9623635023
 11
126.0129081031
 21
188.2623635023
  0
LINE
  5
26C
100
AcDbEntity
  8
0
100
AcDbLine
 62
7
  6
CONTINUOUS
 10
126.0129081031
 20
189.4623635023
 11
126.0129081031
 21
190.1623635023
  0
LINE
  5
26D
100
AcDbEntity
  8
0
100
AcDbLine
 62
7
  6
CONTINUOUS
 10
126.0129081031
 20
225.4623635023
 11
126.0129081031
 21
226.1623635023
  0
LINE
  5
26E
100
AcDbEntity
  8
0
100
AcDbLine
 62
7
  6
CONTINUOUS
 10
126.7129081031
 20
188.9623635023
 11
126.7129081031
 21
189.4623635023
  0
LINE
  5
26F
100
AcDbEntity
  8
0
100
AcDbLine
 62
7
  6
CONTINUOUS
 10
126.7129081031
 20
224.9623635023
 11
126.7129081031
 21
225.4623635023
  0
LINE
  5
270
100
AcDbEntity
  8
0
100
AcDbLine
 62
7
  6
CONTINUOUS
 10
131.5629081031
 20
90.5252947609
 11
131.5629081031
 21
91.5252947609
  0
LINE
  5
271
100
AcDbEntity
  8
0
100
AcDbLine
 62
7
  6
CONTINUOUS
 10
131.7629081031
 20
88.0252947609
 11
131.7629081031
 21
90.5252947609
  0
LINE
  5
272
100
AcDbEntity
  8
0
100
AcDbLine
 62
7
  6
CONTINUOUS
 10
134.2629081031
 20
92.0252947609
 11
134.2629081031
 21
113.9652947609
  0
LINE
  5
273
100
AcDbEntity
  8
0
100
AcDbLine
 62
7
  6
CONTINUOUS
 10
137.2629081031
 20
119.9652947609
 11
137.2629081031
 21
130.1652947609
  0
LINE
  5
274
100
AcDbEntity
  8
0
100
AcDbLine
 62
7
  6
CONTINUOUS
 10
80.5629081031
 20
131.4652947609
 11
79.2629081031
 21
130.1652947609
  0
LINE
  5
275
100
AcDbEntity
  8
0
100
AcDbLine
 62
7
  6
CONTINUOUS
 10
136.2629081031
 20
130.1652947609
 11
134.9629081031
 21
131.4652947609
  0
LINE
  5
276
100
AcDbEntity
  8
0
100
AcDbLine
 62
7
  6
CONTINUOUS
 10
98.4653063448
 20
227.1511348171
 11
97.7257243868
 21
228.7371734444
  0
LINE
  5
277
100
AcDbEntity
  8
0
100
AcDbLine
 62
7
  6
CONTINUOUS
 10
134.2629081031
 20
113.9652947609
 11
137.2629081031
 21
119.9652947609
  0
LINE
  5
278
100
AcDbEntity
  8
0
100
AcDbLine
 62
7
  6
CONTINUOUS
 10
215.4746599085
 20
235.1989759065
 11
214.1746599085
 21
233.8989759065
  0
LINE
  5
279
100
AcDbEntity
  8
0
100
AcDbLine
 62
7
  6
CONTINUOUS
 10
131.7629081031
 20
88.0252947609
 11
83.7629081031
 21
88.0252947609
  0
LINE
  5
27A
100
AcDbEntity
  8
0
100
AcDbLine
 62
7
  6
CONTINUOUS
 10
131.7629131131
 20
90.5252947609
 11
83.7629030931
 21
90.5252947609
  0
LINE
  5
27B
100
AcDbEntity
  8
0
100
AcDbLine
 62
7
  6
CONTINUOUS
 10
133.7629081031
 20
91.5252947609
 11
81.7629081031
 21
91.5252947609
  0
LINE
  5
27C
100
AcDbEntity
  8
0
100
AcDbLine
 62
7
  6
CONTINUOUS
 10
81.2629081031
 20
92.0252947609
 11
134.2629081031
 21
92.0252947609
  0
LINE
  5
27D
100
AcDbEntity
  8
0
100
AcDbLine
 62
7
  6
CONTINUOUS
 10
111.7629081031
 20
168.4282270109
 11
107.7629081031
 21
167.1782270109
  0
LINE
  5
27E
100
AcDbEntity
  8
0
100
AcDbLine
 62
7
  6
CONTINUOUS
 10
121.9042355162
 20
190.3593857537
 11
123.0291138332
 21
189.0188079782
  0
LINE
  5
27F
100
AcDbEntity
  8
0
100
AcDbLine
 62
7
  6
CONTINUOUS
 10
134.2629081031
 20
113.9652947609
 11
81.2629081031
 21
113.9652947609
  0
LINE
  5
280
100
AcDbEntity
  8
0
100
AcDbLine
 62
7
  6
CONTINUOUS
 10
78.2629081031
 20
119.9652947609
 11
137.2629081031
 21
119.9652947609
  0
LINE
  5
281
100
AcDbEntity
  8
0
100
AcDbLine
 62
7
  6
CONTINUOUS
 10
102.7629081031
 20
120.7652947609
 11
112.7629081031
 21
120.7652947609
  0
LINE
  5
282
100
AcDbEntity
  8
0
100
AcDbLine
 62
7
  6
CONTINUOUS
 10
112.7129081031
 20
121.4652947609
 11
102.8129081031
 21
121.4652947609
  0
LINE
  5
283
100
AcDbEntity
  8
0
100
AcDbLine
 62
7
  6
CONTINUOUS
 10
112.7129081031
 20
122.9652947609
 11
102.8129081031
 21
122.9652947609
  0
LINE
  5
284
100
AcDbEntity
  8
0
100
AcDbLine
 62
7
  6
CONTINUOUS
 10
112.7129081031
 20
123.4652947609
 11
102.8129081031
 21
123.4652947609
  0
LINE
  5
285
100
AcDbEntity
  8
0
100
AcDbLine
 62
7
  6
CONTINUOUS
 10
133.7629081031
 20
91.5252947609
 11
134.2629081031
 21
92.0252947609
  0
LINE
  5
286
100
AcDbEntity
  8
0
100
AcDbLine
 62
7
  6
CONTINUOUS
 10
225.6746599085
 20
177.1989759065
 11
231.6746599085
 21
180.1989759065
  0
LINE
  5
287
100
AcDbEntity
  8
0
100
AcDbLine
 62
7
  6
CONTINUOUS
 10
112.7129081031
 20
124.4652947609
 11
102.8129081031
 21
124.4652947609
  0
LINE
  5
288
100
AcDbEntity
  8
0
100
AcDbLine
 62
7
  6
CONTINUOUS
 10
112.7129081031
 20
124.9652947609
 11
102.8129081031
 21
124.9652947609
  0
LINE
  5
289
100
AcDbEntity
  8
0
100
AcDbLine
 62
7
  6
CONTINUOUS
 10
112.7129081031
 20
125.9652947609
 11
102.8129081031
 21
125.9652947609
  0
LINE
  5
28A
100
AcDbEntity
  8
0
100
AcDbLine
 62
7
  6
CONTINUOUS
 10
112.7129081031
 20
126.4652947609
 11
102.8129081031
 21
126.4652947609
  0
LINE
  5
28B
100
AcDbEntity
  8
0
100
AcDbLine
 62
7
  6
CONTINUOUS
 10
112.7129081031
 20
127.4652947609
 11
102.8129081031
 21
127.4652947609
  0
LINE
  5
28C
100
AcDbEntity
  8
0
100
AcDbLine
 62
7
  6
CONTINUOUS
 10
112.7129081031
 20
127.9652947609
 11
102.8129081031
 21
127.9652947609
  0
LINE
  5
28D
100
AcDbEntity
  8
0
100
AcDbLine
 62
7
  6
CONTINUOUS
 10
112.7129081031
 20
128.9652947609
 11
102.8129081031
 21
128.9652947609
  0
LINE
  5
28E
100
AcDbEntity
  8
0
100
AcDbLine
 62
7
  6
CONTINUOUS
 10
137.2629081031
 20
129.4652947609
 11
112.7629081031
 21
129.4652947609
  0
LINE
  5
28F
100
AcDbEntity
  8
0
100
AcDbLine
 62
7
  6
CONTINUOUS
 10
102.7629081031
 20
129.4652947609
 11
78.2629081031
 21
129.4652947609
  0
LINE
  5
290
100
AcDbEntity
  8
0
100
AcDbLine
 62
7
  6
CONTINUOUS
 10
137.2629081031
 20
130.1652947609
 11
78.2629081031
 21
130.1652947609
  0
LINE
  5
291
100
AcDbEntity
  8
0
100
AcDbLine
 62
7
  6
CONTINUOUS
 10
80.5629081031
 20
131.4652947609
 11
134.9629081031
 21
131.4652947609
  0
LINE
  5
292
100
AcDbEntity
  8
0
100
AcDbLine
 62
7
  6
CONTINUOUS
 10
108.7629081031
 20
132.4652947609
 11
106.7629081031
 21
132.4652947609
  0
LINE
  5
293
100
AcDbEntity
  8
0
100
AcDbLine
 62
7
  6
CONTINUOUS
 10
107.7629081031
 20
167.1782270109
 11
111.7629081031
 21
165.9282270109
  0
LINE
  5
294
100
AcDbEntity
  8
0
100
AcDbLine
 62
7
  6
CONTINUOUS
 10
213.1746599085
 20
182.3489759065
 11
213.1746599085
 21
180.3489759065
  0
LINE
  5
295
100
AcDbEntity
  8
0
100
AcDbLine
 62
7
  6
CONTINUOUS
 10
214.1746599085
 20
179.4989759065
 11
214.1746599085
 21
233.8989759065
  0
LINE
  5
296
100
AcDbEntity
  8
0
100
AcDbLine
 62
7
  6
CONTINUOUS
 10
215.4746599085
 20
235.1989759065
 11
215.4746599085
 21
178.1989759065
  0
LINE
  5
297
100
AcDbEntity
  8
0
100
AcDbLine
 62
7
  6
CONTINUOUS
 10
216.1746599085
 20
236.1989759065
 11
216.1746599085
 21
177.1989759065
  0
LINE
  5
298
100
AcDbEntity
  8
0
100
AcDbLine
 62
7
  6
CONTINUOUS
 10
216.6746599085
 20
177.1989759065
 11
216.6746599085
 21
176.1989759065
  0
LINE
  5
299
100
AcDbEntity
  8
0
100
AcDbLine
 62
7
  6
CONTINUOUS
 10
218.1746599085
 20
176.1989759065
 11
218.1746599085
 21
175.1989759065
  0
LINE
  5
29A
100
AcDbEntity
  8
0
100
AcDbLine
 62
7
  6
CONTINUOUS
 10
219.6746599085
 20
175.1989759065
 11
219.6746599085
 21
174.1989759065
  0
LINE
  5
29B
100
AcDbEntity
  8
0
100
AcDbLine
 62
7
  6
CONTINUOUS
 10
221.1746599085
 20
174.1989759065
 11
221.1746599085
 21
173.2989759065
  0
LINE
  5
29C
100
AcDbEntity
  8
0
100
AcDbLine
 62
7
  6
CONTINUOUS
 10
224.1746599085
 20
177.6257923862
 11
224.1746599085
 21
173.2989759065
  0
LINE
  5
29D
100
AcDbEntity
  8
0
100
AcDbLine
 62
7
  6
CONTINUOUS
 10
224.8746599085
 20
177.1989759065
 11
224.8746599085
 21
177.6257923862
  0
LINE
  5
29E
100
AcDbEntity
  8
0
100
AcDbLine
 62
7
  6
CONTINUOUS
 10
225.6746599085
 20
177.1989759065
 11
225.6746599085
 21
236.1989759065
  0
LINE
  5
29F
100
AcDbEntity
  8
0
100
AcDbLine
 62
7
  6
CONTINUOUS
 10
231.6746599085
 20
233.1989759065
 11
231.6746599085
 21
180.1989759065
  0
LINE
  5
2A0
100
AcDbEntity
  8
0
100
AcDbLine
 62
7
  6
CONTINUOUS
 10
253.6146599085
 20
180.1989759065
 11
254.1146599085
 21
180.6989759065
  0
LINE
  5
2A1
100
AcDbEntity
  8
0
100
AcDbLine
 62
7
  6
CONTINUOUS
 10
117.7629081031
 20
167.1782270109
 11
107.7629081031
 21
167.1782270109
  0
LINE
  5
2A2
100
AcDbEntity
  8
0
100
AcDbLine
 62
7
  6
CONTINUOUS
 10
214.1746599085
 20
179.4989759065
 11
215.4746599085
 21
178.1989759065
  0
LINE
  5
2A3
100
AcDbEntity
  8
0
100
AcDbLine
 62
7
  6
CONTINUOUS
 10
253.6146599085
 20
180.1989759065
 11
253.6146599085
 21
233.1989759065
  0
LINE
  5
2A4
100
AcDbEntity
  8
0
100
AcDbLine
 62
7
  6
CONTINUOUS
 10
254.1146599085
 20
232.6989759065
 11
254.1146599085
 21
180.6989759065
  0
LINE
  5
2A5
100
AcDbEntity
  8
0
100
AcDbLine
 62
7
  6
CONTINUOUS
 10
221.1746599085
 20
173.2989759065
 11
224.1746599085
 21
173.2989759065
  0
LINE
  5
2A6
100
AcDbEntity
  8
0
100
AcDbLine
 62
7
  6
CONTINUOUS
 10
219.6746599085
 20
174.1989759065
 11
221.1746599085
 21
174.1989759065
  0
LINE
  5
2A7
100
AcDbEntity
  8
0
100
AcDbLine
 62
7
  6
CONTINUOUS
 10
218.1746599085
 20
175.1989759065
 11
219.6746599085
 21
175.1989759065
  0
LINE
  5
2A8
100
AcDbEntity
  8
0
100
AcDbLine
 62
7
  6
CONTINUOUS
 10
216.6746599085
 20
176.1989759065
 11
218.1746599085
 21
176.1989759065
  0
LINE
  5
2A9
100
AcDbEntity
  8
0
100
AcDbLine
 62
7
  6
CONTINUOUS
 10
216.1746599085
 20
177.1989759065
 11
216.6746599085
 21
177.1989759065
  0
LINE
  5
2AA
100
AcDbEntity
  8
0
100
AcDbLine
 62
7
  6
CONTINUOUS
 10
224.8746599085
 20
177.1989759065
 11
225.6746599085
 21
177.1989759065
  0
LINE
  5
2AB
100
AcDbEntity
  8
0
100
AcDbLine
 62
7
  6
CONTINUOUS
 10
224.8746599085
 20
177.6257923862
 11
216.1746599085
 21
177.6257923862
  0
LINE
  5
2AC
100
AcDbEntity
  8
0
100
AcDbLine
 62
7
  6
CONTINUOUS
 10
216.1746599085
 20
178.6410002133
 11
215.4746599085
 21
178.6410002133
  0
LINE
  5
2AD
100
AcDbEntity
  8
0
100
AcDbLine
 62
7
  6
CONTINUOUS
 10
231.6746599085
 20
180.1989759065
 11
253.6146599085
 21
180.1989759065
  0
LINE
  5
2AE
100
AcDbEntity
  8
0
100
AcDbLine
 62
7
  6
CONTINUOUS
 10
213.1746599085
 20
180.3489759065
 11
214.1746599085
 21
180.3489759065
  0
LINE
  5
2AF
100
AcDbEntity
  8
0
100
AcDbLine
 62
7
  6
CONTINUOUS
 10
214.1746599085
 20
182.3489759065
 11
213.1746599085
 21
182.3489759065
  0
LINE
  5
2B0
100
AcDbEntity
  8
0
100
AcDbLine
 62
7
  6
CONTINUOUS
 10
255.1146599085
 20
182.6989759065
 11
257.6146599085
 21
182.6989759065
  0
LINE
  5
2B1
100
AcDbEntity
  8
0
100
AcDbLine
 62
7
  6
CONTINUOUS
 10
254.1146599085
 20
182.8989759065
 11
255.1146599085
 21
182.8989759065
  0
LINE
  5
2B2
100
AcDbEntity
  8
0
100
AcDbLine
 62
7
  6
CONTINUOUS
 10
255.1146599085
 20
230.6989809165
 11
255.1146599085
 21
182.6989708965
  0
LINE
  5
2B3
100
AcDbEntity
  8
0
100
AcDbLine
 62
7
  6
CONTINUOUS
 10
257.6146599085
 20
230.6989759065
 11
257.6146599085
 21
182.6989759065
  0
LINE
  5
2B4
100
AcDbEntity
  8
0
100
AcDbLine
 62
7
  6
CONTINUOUS
 10
89.5129081031
 20
188.2623635023
 11
90.0129081031
 21
188.2623635023
  0
LINE
  5
2B5
100
AcDbEntity
  8
0
100
AcDbLine
 62
7
  6
CONTINUOUS
 10
125.5129081031
 20
188.2623635023
 11
126.0129081031
 21
188.2623635023
  0
LINE
  5
2B6
100
AcDbEntity
  8
0
100
AcDbLine
 62
7
  6
CONTINUOUS
 10
126.7129081031
 20
188.9623635023
 11
126.0129081031
 21
188.9623635023
  0
LINE
  5
2B7
100
AcDbEntity
  8
0
100
AcDbLine
 62
7
  6
CONTINUOUS
 10
90.7129081031
 20
188.9623635023
 11
90.0129081031
 21
188.9623635023
  0
LINE
  5
2B8
100
AcDbEntity
  8
0
100
AcDbLine
 62
7
  6
CONTINUOUS
 10
88.8129081031
 20
188.9623635023
 11
89.5129081031
 21
188.9623635023
  0
LINE
  5
2B9
100
AcDbEntity
  8
0
100
AcDbLine
 62
7
  6
CONTINUOUS
 10
124.8129081031
 20
188.9623635023
 11
125.5129081031
 21
188.9623635023
  0
LINE
  5
2BA
100
AcDbEntity
  8
0
100
AcDbLine
 62
7
  6
CONTINUOUS
 10
126.7129081031
 20
189.4623635023
 11
126.0129081031
 21
189.4623635023
  0
LINE
  5
2BB
100
AcDbEntity
  8
0
100
AcDbLine
 62
7
  6
CONTINUOUS
 10
90.7129081031
 20
189.4623635023
 11
90.0129081031
 21
189.4623635023
  0
LINE
  5
2BC
100
AcDbEntity
  8
0
100
AcDbLine
 62
7
  6
CONTINUOUS
 10
88.8129081031
 20
189.4623635023
 11
89.5129081031
 21
189.4623635023
  0
LINE
  5
2BD
100
AcDbEntity
  8
0
100
AcDbLine
 62
7
  6
CONTINUOUS
 10
124.8129081031
 20
189.4623635023
 11
125.5129081031
 21
189.4623635023
  0
LINE
  5
2BE
100
AcDbEntity
  8
0
100
AcDbLine
 62
7
  6
CONTINUOUS
 10
89.5129081031
 20
190.1623635023
 11
90.0129081031
 21
190.1623635023
  0
LINE
  5
2BF
100
AcDbEntity
  8
0
100
AcDbLine
 62
7
  6
CONTINUOUS
 10
125.5129081031
 20
190.1623635023
 11
126.0129081031
 21
190.1623635023
  0
LINE
  5
2C0
100
AcDbEntity
  8
DEFAULT_1
100
AcDbLine
 62
1
  6
CENTER
 10
262.8785803673
 20
206.6989759065
 11
211.922633938
 21
206.6989759065
  0
LINE
  5
2C1
100
AcDbEntity
  8
0
100
AcDbLine
 62
7
  6
CONTINUOUS
 10
85.7629081031
 20
207.2123635023
 11
84.0129081031
 21
207.2123635023
  0
LINE
  5
2C2
100
AcDbEntity
  8
DEFAULT_1
100
AcDbLine
 62
1
  6
CENTER
 10
76.2629081031
 20
207.2123635023
 11
84.0129081031
 21
207.2123635023
  0
LINE
  5
2C3
100
AcDbEntity
  8
DEFAULT_1
100
AcDbLine
 62
1
  6
CENTER
 10
85.7629081031
 20
207.2123635023
 11
129.7629081031
 21
207.2123635023
  0
LINE
  5
2C4
100
AcDbEntity
  8
DEFAULT_1
100
AcDbLine
 62
1
  6
CENTER
 10
131.5129081031
 20
207.2123635023
 11
139.2629081031
 21
207.2123635023
  0
LINE
  5
2C5
100
AcDbEntity
  8
0
100
AcDbLine
 62
7
  6
CONTINUOUS
 10
129.7629081031
 20
207.2123635023
 11
131.5129081031
 21
207.2123635023
  0
LINE
  5
2C6
100
AcDbEntity
  8
0
100
AcDbLine
 62
7
  6
CONTINUOUS
 10
111.7629081031
 20
239.9623635023
 11
107.7629081031
 21
241.2123635023
  0
LINE
  5
2C7
100
AcDbEntity
  8
0
100
AcDbLine
 62
7
  6
CONTINUOUS
 10
89.5129081031
 20
224.2623635023
 11
90.0129081031
 21
224.2623635023
  0
LINE
  5
2C8
100
AcDbEntity
  8
0
100
AcDbLine
 62
7
  6
CONTINUOUS
 10
125.5129081031
 20
224.2623635023
 11
126.0129081031
 21
224.2623635023
  0
LINE
  5
2C9
100
AcDbEntity
  8
0
100
AcDbLine
 62
7
  6
CONTINUOUS
 10
126.7129081031
 20
224.9623635023
 11
126.0129081031
 21
224.9623635023
  0
LINE
  5
2CA
100
AcDbEntity
  8
0
100
AcDbLine
 62
7
  6
CONTINUOUS
 10
90.7129081031
 20
224.9623635023
 11
90.0129081031
 21
224.9623635023
  0
LINE
  5
2CB
100
AcDbEntity
  8
0
100
AcDbLine
 62
7
  6
CONTINUOUS
 10
88.8129081031
 20
224.9623635023
 11
89.5129081031
 21
224.9623635023
  0
LINE
  5
2CC
100
AcDbEntity
  8
0
100
AcDbLine
 62
7
  6
CONTINUOUS
 10
124.8129081031
 20
224.9623635023
 11
125.5129081031
 21
224.9623635023
  0
LINE
  5
2CD
100
AcDbEntity
  8
0
100
AcDbLine
 62
7
  6
CONTINUOUS
 10
126.7129081031
 20
225.4623635023
 11
126.0129081031
 21
225.4623635023
  0
LINE
  5
2CE
100
AcDbEntity
  8
0
100
AcDbLine
 62
7
  6
CONTINUOUS
 10
90.7129081031
 20
225.4623635023
 11
90.0129081031
 21
225.4623635023
  0
LINE
  5
2CF
100
AcDbEntity
  8
0
100
AcDbLine
 62
7
  6
CONTINUOUS
 10
88.8129081031
 20
225.4623635023
 11
89.5129081031
 21
225.4623635023
  0
LINE
  5
2D0
100
AcDbEntity
  8
0
100
AcDbLine
 62
7
  6
CONTINUOUS
 10
124.8129081031
 20
225.4623635023
 11
125.5129081031
 21
225.4623635023
  0
LINE
  5
2D1
100
AcDbEntity
  8
0
100
AcDbLine
 62
7
  6
CONTINUOUS
 10
89.5129081031
 20
226.1623635023
 11
90.0129081031
 21
226.1623635023
  0
LINE
  5
2D2
100
AcDbEntity
  8
0
100
AcDbLine
 62
7
  6
CONTINUOUS
 10
125.5129081031
 20
226.1623635023
 11
126.0129081031
 21
226.1623635023
  0
LINE
  5
2D3
100
AcDbEntity
  8
0
100
AcDbLine
 62
7
  6
CONTINUOUS
 10
255.1146599085
 20
230.4989759065
 11
254.1146599085
 21
230.4989759065
  0
LINE
  5
2D4
100
AcDbEntity
  8
0
100
AcDbLine
 62
7
  6
CONTINUOUS
 10
257.6146599085
 20
230.6989759065
 11
255.1146599085
 21
230.6989759065
  0
LINE
  5
2D5
100
AcDbEntity
  8
0
100
AcDbLine
 62
7
  6
CONTINUOUS
 10
231.6746599085
 20
233.1989759065
 11
225.6746599085
 21
236.1989759065
  0
LINE
  5
2D6
100
AcDbEntity
  8
0
100
AcDbLine
 62
7
  6
CONTINUOUS
 10
253.6146599085
 20
233.1989759065
 11
231.6746599085
 21
233.1989759065
  0
LINE
  5
2D7
100
AcDbEntity
  8
0
100
AcDbLine
 62
7
  6
CONTINUOUS
 10
216.1746599085
 20
235.1989759065
 11
215.4746599085
 21
235.1989759065
  0
LINE
  5
2D8
100
AcDbEntity
  8
0
100
AcDbLine
 62
7
  6
CONTINUOUS
 10
225.6746599085
 20
236.1989759065
 11
216.1746599085
 21
236.1989759065
  0
LINE
  5
2D9
100
AcDbEntity
  8
0
100
AcDbLine
 62
7
  6
CONTINUOUS
 10
117.7629081031
 20
241.2123635023
 11
107.7629081031
 21
241.2123635023
  0
LINE
  5
2DA
100
AcDbEntity
  8
0
100
AcDbLine
 62
7
  6
CONTINUOUS
 10
254.1146599085
 20
232.6989759065
 11
253.6146599085
 21
233.1989759065
  0
ARC
  5
2DB
100
AcDbEntity
  8
0
100
AcDbCircle
 62
7
  6
CONTINUOUS
 10
107.7629081031
 20
207.2123635023
 40
33.4
100
AcDbArc
 50
261.3904237743
 51
278.6095762257
  0
ARC
  5
2DC
100
AcDbEntity
  8
0
100
AcDbCircle
 62
7
  6
CONTINUOUS
 10
107.7629081031
 20
207.2123635023
 40
32.5
100
AcDbArc
 50
261.1501169016
 51
278.8498830984
  0
ARC
  5
2DD
100
AcDbEntity
  8
0
100
AcDbCircle
 62
7
  6
CONTINUOUS
 10
107.7629081031
 20
207.2123635023
 40
31.5
100
AcDbArc
 50
260.8668022163
 51
279.1331977837
  0
ARC
  5
2DE
100
AcDbEntity
  8
0
100
AcDbCircle
 62
7
  6
CONTINUOUS
 10
107.7629081031
 20
207.2123635023
 40
31.0
100
AcDbArc
 50
260.7182009133
 51
279.2817990867
  0
ARC
  5
2DF
100
AcDbEntity
  8
0
100
AcDbCircle
 62
7
  6
CONTINUOUS
 10
107.7629081031
 20
207.2123635023
 40
30.0
100
AcDbArc
 50
260.4059317731
 51
279.5940682269
  0
CIRCLE
  5
2E0
100
AcDbEntity
  8
0
100
AcDbCircle
 62
7
  6
CONTINUOUS
 10
107.7629081031
 20
207.2123635023
 40
29.5
  0
CIRCLE
  5
2E1
100
AcDbEntity
  8
0
100
AcDbCircle
 62
7
  6
CONTINUOUS
 10
107.7629081031
 20
207.2123635023
 40
28.5
  0
CIRCLE
  5
2E2
100
AcDbEntity
  8
0
100
AcDbCircle
 62
7
  6
CONTINUOUS
 10
107.7629081031
 20
207.2123635023
 40
27.2
  0
CIRCLE
  5
2E3
100
AcDbEntity
  8
DEFAULT_1
100
AcDbCircle
 62
7
  6
CENTER
 10
107.7629081031
 20
207.2123635023
 40
25.35
  0
CIRCLE
  5
2E4
100
AcDbEntity
  8
0
100
AcDbCircle
 62
7
  6
CONTINUOUS
 10
107.7629081031
 20
207.2123635023
 40
23.75
  0
CIRCLE
  5
2E5
100
AcDbEntity
  8
0
100
AcDbCircle
 62
7
  6
CONTINUOUS
 10
107.7629081031
 20
207.2123635023
 40
22.0
  0
CIRCLE
  5
2E6
100
AcDbEntity
  8
0
100
AcDbCircle
 62
7
  6
CONTINUOUS
 10
125.7629081031
 20
225.2123635023
 40
1.25
  0
CIRCLE
  5
2E7
100
AcDbEntity
  8
0
100
AcDbCircle
 62
7
  6
CONTINUOUS
 10
89.7629081031
 20
225.2123635023
 40
1.25
  0
CIRCLE
  5
2E8
100
AcDbEntity
  8
0
100
AcDbCircle
 62
7
  6
CONTINUOUS
 10
125.7629081031
 20
189.2123635023
 40
1.25
  0
CIRCLE
  5
2E9
100
AcDbEntity
  8
0
100
AcDbCircle
 62
7
  6
CONTINUOUS
 10
89.7629081031
 20
189.2123635023
 40
1.25
  0
CIRCLE
  5
2EA
100
AcDbEntity
  8
0
100
AcDbCircle
 62
7
  6
CONTINUOUS
 10
107.7629081031
 20
181.8623635023
 40
1.0
  0
ENDSEC
  0
SECTION
  2
OBJECTS
  0
DICTIONARY
  5
C
100
AcDbDictionary
280
0
281
1
  3
ACAD_GROUP
350
D
  3
ACAD_MLINESTYLE
350
17
  3
ACAD_LAYOUT
350
1A
  3
ACAD_PLOTSETTINGS
350
19
  3
ACAD_PLOTSTYLENAME
350
E
  0
DICTIONARY
  5
D
102
{ACAD_REACTORS
330
C
102
}
100
AcDbDictionary
280
0
281
1
  0
ACDBDICTIONARYWDFLT
  5
E
102
{ACAD_REACTORS
330
C
102
}
100
AcDbDictionary
281
1
  3
Normal
350
F
100
AcDbDictionaryWithDefault
340
F
  0
DICTIONARY
  5
17
102
{ACAD_REACTORS
330
C
102
}
100
AcDbDictionary
280
0
281
1
  3
Standard
350
18
  0
DICTIONARY
  5
19
102
{ACAD_REACTORS
330
C
102
}
100
AcDbDictionary
281
1
  0
DICTIONARY
  5
1A
102
{ACAD_REACTORS
330
C
102
}
100
AcDbDictionary
281
1
  3
Model
350
2EB
  3
Layout1
350
2EC
  0
ACDBPLACEHOLDER
  5
F
102
{ACAD_REACTORS
330
E
102
}
  0
MLINESTYLE
  5
18
102
{ACAD_REACTORS
330
17
102
}
100
AcDbMlineStyle
  2
STANDARD
 70
0
  3

 62
256
 51
90.0
 52
90.0
 71
2
 49
0.5
 62
256
  6
BYLAYER
 49
-0.5
 62
256
  6
BYLAYER
  0
LAYOUT
  5
2EB
102
{ACAD_REACTORS
330
1A
102
}
100
AcDbPlotSettings
  1

  2
none_device
  4

  6

 40
0.0
 41
0.0
 42
0.0
 43
0.0
 44
443.6675240546
 45
304.8210255836
 46
0.0
 47
0.0
 48
0.0
 49
0.0
140
0.0
141
0.0
142
1.0
143
1.0
 70
1024
 72
1
 73
0
 74
0
  7

 75
0
147
1.0
148
0.0
149
0.0
100
AcDbLayout
  1
Model
 70
0
 71
0
 10
0.0
 20
0.0
 11
443.6675240546
 21
304.8210255836
 12
0.0
 22
0.0
 32
0.0
 14
0.0
 24
0.0
 34
0.0
 15
0.0
 25
0.0
 35
0.0
146
0.0
 13
0.0
 23
0.0
 33
0.0
 16
1.0
 26
0.0
 36
0.0
 17
0.0
 27
1.0
 37
0.0
 76
0
330
204
345
0
346
0
  0
LAYOUT
  5
2EC
102
{ACAD_REACTORS
330
1A
102
}
100
AcDbPlotSettings
  1

  2
none_device
  4

  6

 40
0.0
 41
0.0
 42
0.0
 43
0.0
 44
443.6675240546
 45
304.8210255836
 46
0.0
 47
0.0
 48
0.0
 49
0.0
140
0.0
141
0.0
142
1.0
143
1.0
 70
0
 72
1
 73
0
 74
0
  7

 75
0
147
1.0
148
0.0
149
0.0
100
AcDbLayout
  1
Layout1
 70
0
 71
1
 10
0.0
 20
0.0
 11
443.6675240546
 21
304.8210255836
 12
0.0
 22
0.0
 32
0.0
 14
0.0
 24
0.0
 34
0.0
 15
0.0
 25
0.0
 35
0.0
146
0.0
 13
0.0
 23
0.0
 33
0.0
 16
1.0
 26
0.0
 36
0.0
 17
0.0
 27
1.0
 37
0.0
 76
0
330
205
345
0
346
0
  0
ENDSEC
  0
EOF
