  0
SECTION
  2
HEADER
  9
$ACADVER
  1
AC1006
  9
$INSBASE
 10
0.0
 20
0.0
 30
0.0
  9
$EXTMIN
 10
     -416.000000
 20
     -416.000000
  9
$EXTMAX
 10
      403.755585
 20
      144.873428
  9
$LIMMIN
 10
     -416.000000
 20
     -416.000000
  9
$LIMMAX
 10
      403.755585
 20
      144.873428
  9
$VIEWCTR
 10
       -6.122208
 20
       -6.122208
  9
$ORTHOMODE
 70
     0
  9
$ANGBASE
 50
0.0
  9
$ANGDIR
 70
     0
  9
$SPLINETYPE
 70
     6
  9
$SPLINESEGS
 70
     8
9
$DIMASZ
 40
        3.500000
9
$DIMEXE
 40
        0.700000
9
$DIMEXO
 40
        1.000000
9
$DIMTXT
 40
        3.500000
9
$DIMGAP
 40
        0.700000
9
$DIMTAD
 70
1
9
$DIMTIH
 70
0
9
$DIMTOH
 70
0
  0
ENDSEC
  0
SECTION
  2
TABLES
  0
TABLE
  2
LTYPE
 70
     5
  0
LTYPE
  2
CONTINUOUS
 70
    64
  3
SOLID LINE
 72
    65
 73
     0
 40
0.0
  0
LTYPE
  2
DASHED
 70
    64
  3
-- -- -- -- -- --
 72
    65
 73
     2
 40
  0.75  
 49
  0.50  
 49
 -0.25  
  0
LTYPE
  2
DOT
 70
    64
  3
....................
 72
    65
 73
     2
 40
  0.25  
 49
  0.02  
 49
 -0.23  
  0
LTYPE
  2
CENTER
 70
    64
  3
-- . -- . -- . -- .
 72
    65
 73
    4
 40
  2.00  
 49
  1.25  
 49
 -0.25  
 49
  0.25  
 49
 -0.25  
  0
LTYPE
  2
PHANTOM
 70
    64
  3
-- .. -- .. -- ..
 72
    65
 73
    6
 40
  2.50  
 49
  1.25  
 49
 -0.25  
 49
  0.25  
 49
 -0.25  
 49
  0.25  
 49
 -0.25  
  0
ENDTAB
  0
TABLE
  2
LAYER
 70
     2
  0
LAYER
  2
LVL0000
 70
    64
 62
     3
  6
CONTINUOUS
  0
LAYER
  2
LVL0001
 70
    64
 62
     2
  6
CONTINUOUS
  0
ENDTAB
  0
TABLE
  2
STYLE
 70
     2
  0
STYLE
  2
STANDARD
 70
    64
 40
0.0
 41
1.0
 50
0.0
 71
     0
 42
5.0
  3
ROMANS
  4
BIGFONT
  0
STYLE
  2
BIGFONT
 70
    64
 40
0.0
 41
1.0
 50
0.0
 71
     0
 42
5.0
  3
ROMANS
  4
BIGFONT
  0
ENDTAB
  0
TABLE
  2
VIEW
 70
     0
  0
ENDTAB
  0
TABLE
  2
UCS
 70
     0
  0
ENDTAB
  0
TABLE
  2
DWGMGR
 70
     0
  0
ENDTAB
  0
ENDSEC
  0
SECTION
  2
BLOCKS
  0
BLOCK
  8
0
  2
BLK0001
 70
    64
 10
        0.000000
 20
        0.000000
  0
POLYLINE
  8
LVL0000
 66
1
 70
4
 75
6
  0
VERTEX
  8
LVL0000
 10
      171.125939
 20
       11.450784
 70
 16
  0
VERTEX
  8
LVL0000
 10
      171.510713
 20
       10.670397
 70
 16
  0
VERTEX
  8
LVL0000
 10
      171.895487
 20
        9.890009
 70
 16
  0
VERTEX
  8
LVL0000
 10
      172.142673
 20
        8.975840
 70
 16
  0
VERTEX
  8
LVL0000
 10
      171.125939
 20
       11.450784
 70
  8
  0
VERTEX
  8
LVL0000
 10
      171.269961
 20
       11.157877
 70
  8
  0
VERTEX
  8
LVL0000
 10
      171.412370
 20
       10.863403
 70
  8
  0
VERTEX
  8
LVL0000
 10
      171.551554
 20
       10.565793
 70
  8
  0
VERTEX
  8
LVL0000
 10
      171.685902
 20
       10.263480
 70
  8
  0
VERTEX
  8
LVL0000
 10
      171.813800
 20
        9.954896
 70
  8
  0
VERTEX
  8
LVL0000
 10
      171.933636
 20
        9.638473
 70
  8
  0
VERTEX
  8
LVL0000
 10
      172.043798
 20
        9.312644
 70
  8
  0
VERTEX
  8
LVL0000
 10
      172.142673
 20
        8.975840
 70
  8
  0
SEQEND
  0
POLYLINE
  8
LVL0000
 66
1
 70
4
 75
6
  0
VERTEX
  8
LVL0000
 10
      172.142673
 20
        8.975840
 70
 16
  0
VERTEX
  8
LVL0000
 10
      172.317555
 20
        8.329074
 70
 16
  0
VERTEX
  8
LVL0000
 10
      172.423568
 20
        7.615344
 70
 16
  0
VERTEX
  8
LVL0000
 10
      172.142673
 20
        7.082843
 70
 16
  0
VERTEX
  8
LVL0000
 10
      172.142673
 20
        8.975840
 70
  8
  0
VERTEX
  8
LVL0000
 10
      172.204404
 20
        8.730649
 70
  8
  0
VERTEX
  8
LVL0000
 10
      172.255952
 20
        8.482088
 70
  8
  0
VERTEX
  8
LVL0000
 10
      172.293590
 20
        8.233066
 70
  8
  0
VERTEX
  8
LVL0000
 10
      172.313590
 20
        7.986492
 70
  8
  0
VERTEX
  8
LVL0000
 10
      172.312225
 20
        7.745274
 70
  8
  0
VERTEX
  8
LVL0000
 10
      172.285769
 20
        7.512321
 70
  8
  0
VERTEX
  8
LVL0000
 10
      172.230494
 20
        7.290541
 70
  8
  0
VERTEX
  8
LVL0000
 10
      172.142673
 20
        7.082843
 70
  8
  0
SEQEND
  0
POLYLINE
  8
LVL0000
 66
1
 70
4
 75
6
  0
VERTEX
  8
LVL0000
 10
      172.142673
 20
        7.082843
 70
 16
  0
VERTEX
  8
LVL0000
 10
      171.838071
 20
        6.505400
 70
 16
  0
VERTEX
  8
LVL0000
 10
      171.078496
 20
        6.141067
 70
 16
  0
VERTEX
  8
LVL0000
 10
      170.691152
 20
        5.631322
 70
 16
  0
VERTEX
  8
LVL0000
 10
      172.142673
 20
        7.082843
 70
  8
  0
VERTEX
  8
LVL0000
 10
      172.008736
 20
        6.875591
 70
  8
  0
VERTEX
  8
LVL0000
 10
      171.841839
 20
        6.684117
 70
  8
  0
VERTEX
  8
LVL0000
 10
      171.651676
 20
        6.504219
 70
  8
  0
VERTEX
  8
LVL0000
 10
      171.447941
 20
        6.331696
 70
  8
  0
VERTEX
  8
LVL0000
 10
      171.240327
 20
        6.162346
 70
  8
  0
VERTEX
  8
LVL0000
 10
      171.038528
 20
        5.991968
 70
  8
  0
VERTEX
  8
LVL0000
 10
      170.852239
 20
        5.816360
 70
  8
  0
VERTEX
  8
LVL0000
 10
      170.691152
 20
        5.631322
 70
  8
  0
SEQEND
  0
POLYLINE
  8
LVL0000
 66
1
 70
4
 75
6
  0
VERTEX
  8
LVL0000
 10
      170.691152
 20
        5.631322
 70
 16
  0
VERTEX
  8
LVL0000
 10
      170.002382
 20
        4.724901
 70
 16
  0
VERTEX
  8
LVL0000
 10
      170.490582
 20
        3.358693
 70
 16
  0
VERTEX
  8
LVL0000
 10
      170.978781
 20
        1.992486
 70
 16
  0
VERTEX
  8
LVL0000
 10
      170.691152
 20
        5.631322
 70
  8
  0
VERTEX
  8
LVL0000
 10
      170.485735
 20
        5.270759
 70
  8
  0
VERTEX
  8
LVL0000
 10
      170.376866
 20
        4.872480
 70
  8
  0
VERTEX
  8
LVL0000
 10
      170.350753
 20
        4.441872
 70
  8
  0
VERTEX
  8
LVL0000
 10
      170.393603
 20
        3.984324
 70
  8
  0
VERTEX
  8
LVL0000
 10
      170.491623
 20
        3.505223
 70
  8
  0
VERTEX
  8
LVL0000
 10
      170.631021
 20
        3.009957
 70
  8
  0
VERTEX
  8
LVL0000
 10
      170.798005
 20
        2.503916
 70
  8
  0
VERTEX
  8
LVL0000
 10
      170.978781
 20
        1.992486
 70
  8
  0
SEQEND
  0
ENDBLK
  0
BLOCK
  8
0
  2
BLK0002
 70
    64
 10
        0.000000
 20
        0.000000
  0
POLYLINE
  8
LVL0000
 66
1
 70
4
 75
6
  0
VERTEX
  8
LVL0000
 10
      173.125939
 20
       11.450784
 70
 16
  0
VERTEX
  8
LVL0000
 10
      173.510713
 20
       10.670397
 70
 16
  0
VERTEX
  8
LVL0000
 10
      173.895487
 20
        9.890009
 70
 16
  0
VERTEX
  8
LVL0000
 10
      174.142673
 20
        8.975840
 70
 16
  0
VERTEX
  8
LVL0000
 10
      173.125939
 20
       11.450784
 70
  8
  0
VERTEX
  8
LVL0000
 10
      173.269961
 20
       11.157877
 70
  8
  0
VERTEX
  8
LVL0000
 10
      173.412370
 20
       10.863403
 70
  8
  0
VERTEX
  8
LVL0000
 10
      173.551554
 20
       10.565793
 70
  8
  0
VERTEX
  8
LVL0000
 10
      173.685902
 20
       10.263480
 70
  8
  0
VERTEX
  8
LVL0000
 10
      173.813800
 20
        9.954896
 70
  8
  0
VERTEX
  8
LVL0000
 10
      173.933636
 20
        9.638473
 70
  8
  0
VERTEX
  8
LVL0000
 10
      174.043798
 20
        9.312644
 70
  8
  0
VERTEX
  8
LVL0000
 10
      174.142673
 20
        8.975840
 70
  8
  0
SEQEND
  0
POLYLINE
  8
LVL0000
 66
1
 70
4
 75
6
  0
VERTEX
  8
LVL0000
 10
      174.142673
 20
        8.975840
 70
 16
  0
VERTEX
  8
LVL0000
 10
      174.317555
 20
        8.329074
 70
 16
  0
VERTEX
  8
LVL0000
 10
      174.423568
 20
        7.615344
 70
 16
  0
VERTEX
  8
LVL0000
 10
      174.142673
 20
        7.082843
 70
 16
  0
VERTEX
  8
LVL0000
 10
      174.142673
 20
        8.975840
 70
  8
  0
VERTEX
  8
LVL0000
 10
      174.204404
 20
        8.730649
 70
  8
  0
VERTEX
  8
LVL0000
 10
      174.255952
 20
        8.482088
 70
  8
  0
VERTEX
  8
LVL0000
 10
      174.293590
 20
        8.233066
 70
  8
  0
VERTEX
  8
LVL0000
 10
      174.313590
 20
        7.986492
 70
  8
  0
VERTEX
  8
LVL0000
 10
      174.312225
 20
        7.745274
 70
  8
  0
VERTEX
  8
LVL0000
 10
      174.285769
 20
        7.512321
 70
  8
  0
VERTEX
  8
LVL0000
 10
      174.230494
 20
        7.290541
 70
  8
  0
VERTEX
  8
LVL0000
 10
      174.142673
 20
        7.082843
 70
  8
  0
SEQEND
  0
POLYLINE
  8
LVL0000
 66
1
 70
4
 75
6
  0
VERTEX
  8
LVL0000
 10
      174.142673
 20
        7.082843
 70
 16
  0
VERTEX
  8
LVL0000
 10
      173.838071
 20
        6.505400
 70
 16
  0
VERTEX
  8
LVL0000
 10
      173.078496
 20
        6.141067
 70
 16
  0
VERTEX
  8
LVL0000
 10
      172.691152
 20
        5.631322
 70
 16
  0
VERTEX
  8
LVL0000
 10
      174.142673
 20
        7.082843
 70
  8
  0
VERTEX
  8
LVL0000
 10
      174.008736
 20
        6.875591
 70
  8
  0
VERTEX
  8
LVL0000
 10
      173.841839
 20
        6.684117
 70
  8
  0
VERTEX
  8
LVL0000
 10
      173.651676
 20
        6.504219
 70
  8
  0
VERTEX
  8
LVL0000
 10
      173.447941
 20
        6.331696
 70
  8
  0
VERTEX
  8
LVL0000
 10
      173.240327
 20
        6.162346
 70
  8
  0
VERTEX
  8
LVL0000
 10
      173.038528
 20
        5.991968
 70
  8
  0
VERTEX
  8
LVL0000
 10
      172.852239
 20
        5.816360
 70
  8
  0
VERTEX
  8
LVL0000
 10
      172.691152
 20
        5.631322
 70
  8
  0
SEQEND
  0
POLYLINE
  8
LVL0000
 66
1
 70
4
 75
6
  0
VERTEX
  8
LVL0000
 10
      172.691152
 20
        5.631322
 70
 16
  0
VERTEX
  8
LVL0000
 10
      172.002382
 20
        4.724901
 70
 16
  0
VERTEX
  8
LVL0000
 10
      172.490582
 20
        3.358693
 70
 16
  0
VERTEX
  8
LVL0000
 10
      172.978781
 20
        1.992486
 70
 16
  0
VERTEX
  8
LVL0000
 10
      172.691152
 20
        5.631322
 70
  8
  0
VERTEX
  8
LVL0000
 10
      172.485735
 20
        5.270759
 70
  8
  0
VERTEX
  8
LVL0000
 10
      172.376866
 20
        4.872480
 70
  8
  0
VERTEX
  8
LVL0000
 10
      172.350753
 20
        4.441872
 70
  8
  0
VERTEX
  8
LVL0000
 10
      172.393603
 20
        3.984324
 70
  8
  0
VERTEX
  8
LVL0000
 10
      172.491623
 20
        3.505223
 70
  8
  0
VERTEX
  8
LVL0000
 10
      172.631021
 20
        3.009957
 70
  8
  0
VERTEX
  8
LVL0000
 10
      172.798005
 20
        2.503916
 70
  8
  0
VERTEX
  8
LVL0000
 10
      172.978781
 20
        1.992486
 70
  8
  0
SEQEND
  0
ENDBLK
  0
BLOCK
  8
0
  2
BLK0003
 70
    64
 10
        0.000000
 20
        0.000000
  0
POLYLINE
  8
LVL0000
 66
1
 70
4
 75
6
  0
VERTEX
  8
LVL0000
 10
      171.125939
 20
       94.650784
 70
 16
  0
VERTEX
  8
LVL0000
 10
      171.510713
 20
       93.870397
 70
 16
  0
VERTEX
  8
LVL0000
 10
      171.895487
 20
       93.090009
 70
 16
  0
VERTEX
  8
LVL0000
 10
      172.142673
 20
       92.175840
 70
 16
  0
VERTEX
  8
LVL0000
 10
      171.125939
 20
       94.650784
 70
  8
  0
VERTEX
  8
LVL0000
 10
      171.269961
 20
       94.357877
 70
  8
  0
VERTEX
  8
LVL0000
 10
      171.412370
 20
       94.063403
 70
  8
  0
VERTEX
  8
LVL0000
 10
      171.551554
 20
       93.765793
 70
  8
  0
VERTEX
  8
LVL0000
 10
      171.685902
 20
       93.463480
 70
  8
  0
VERTEX
  8
LVL0000
 10
      171.813800
 20
       93.154896
 70
  8
  0
VERTEX
  8
LVL0000
 10
      171.933636
 20
       92.838473
 70
  8
  0
VERTEX
  8
LVL0000
 10
      172.043798
 20
       92.512644
 70
  8
  0
VERTEX
  8
LVL0000
 10
      172.142673
 20
       92.175840
 70
  8
  0
SEQEND
  0
POLYLINE
  8
LVL0000
 66
1
 70
4
 75
6
  0
VERTEX
  8
LVL0000
 10
      172.142673
 20
       92.175840
 70
 16
  0
VERTEX
  8
LVL0000
 10
      172.317555
 20
       91.529074
 70
 16
  0
VERTEX
  8
LVL0000
 10
      172.423568
 20
       90.815344
 70
 16
  0
VERTEX
  8
LVL0000
 10
      172.142673
 20
       90.282843
 70
 16
  0
VERTEX
  8
LVL0000
 10
      172.142673
 20
       92.175840
 70
  8
  0
VERTEX
  8
LVL0000
 10
      172.204404
 20
       91.930649
 70
  8
  0
VERTEX
  8
LVL0000
 10
      172.255952
 20
       91.682088
 70
  8
  0
VERTEX
  8
LVL0000
 10
      172.293590
 20
       91.433066
 70
  8
  0
VERTEX
  8
LVL0000
 10
      172.313590
 20
       91.186492
 70
  8
  0
VERTEX
  8
LVL0000
 10
      172.312225
 20
       90.945274
 70
  8
  0
VERTEX
  8
LVL0000
 10
      172.285769
 20
       90.712321
 70
  8
  0
VERTEX
  8
LVL0000
 10
      172.230494
 20
       90.490541
 70
  8
  0
VERTEX
  8
LVL0000
 10
      172.142673
 20
       90.282843
 70
  8
  0
SEQEND
  0
POLYLINE
  8
LVL0000
 66
1
 70
4
 75
6
  0
VERTEX
  8
LVL0000
 10
      172.142673
 20
       90.282843
 70
 16
  0
VERTEX
  8
LVL0000
 10
      171.838071
 20
       89.705400
 70
 16
  0
VERTEX
  8
LVL0000
 10
      171.078496
 20
       89.341067
 70
 16
  0
VERTEX
  8
LVL0000
 10
      170.691152
 20
       88.831322
 70
 16
  0
VERTEX
  8
LVL0000
 10
      172.142673
 20
       90.282843
 70
  8
  0
VERTEX
  8
LVL0000
 10
      172.008736
 20
       90.075591
 70
  8
  0
VERTEX
  8
LVL0000
 10
      171.841839
 20
       89.884117
 70
  8
  0
VERTEX
  8
LVL0000
 10
      171.651676
 20
       89.704219
 70
  8
  0
VERTEX
  8
LVL0000
 10
      171.447941
 20
       89.531696
 70
  8
  0
VERTEX
  8
LVL0000
 10
      171.240327
 20
       89.362346
 70
  8
  0
VERTEX
  8
LVL0000
 10
      171.038528
 20
       89.191968
 70
  8
  0
VERTEX
  8
LVL0000
 10
      170.852239
 20
       89.016360
 70
  8
  0
VERTEX
  8
LVL0000
 10
      170.691152
 20
       88.831322
 70
  8
  0
SEQEND
  0
POLYLINE
  8
LVL0000
 66
1
 70
4
 75
6
  0
VERTEX
  8
LVL0000
 10
      170.691152
 20
       88.831322
 70
 16
  0
VERTEX
  8
LVL0000
 10
      170.002382
 20
       87.924901
 70
 16
  0
VERTEX
  8
LVL0000
 10
      170.490582
 20
       86.558693
 70
 16
  0
VERTEX
  8
LVL0000
 10
      170.978781
 20
       85.192486
 70
 16
  0
VERTEX
  8
LVL0000
 10
      170.691152
 20
       88.831322
 70
  8
  0
VERTEX
  8
LVL0000
 10
      170.485735
 20
       88.470759
 70
  8
  0
VERTEX
  8
LVL0000
 10
      170.376866
 20
       88.072480
 70
  8
  0
VERTEX
  8
LVL0000
 10
      170.350753
 20
       87.641872
 70
  8
  0
VERTEX
  8
LVL0000
 10
      170.393603
 20
       87.184324
 70
  8
  0
VERTEX
  8
LVL0000
 10
      170.491623
 20
       86.705223
 70
  8
  0
VERTEX
  8
LVL0000
 10
      170.631021
 20
       86.209957
 70
  8
  0
VERTEX
  8
LVL0000
 10
      170.798005
 20
       85.703916
 70
  8
  0
VERTEX
  8
LVL0000
 10
      170.978781
 20
       85.192486
 70
  8
  0
SEQEND
  0
ENDBLK
  0
BLOCK
  8
0
  2
BLK0004
 70
    64
 10
        0.000000
 20
        0.000000
  0
POLYLINE
  8
LVL0000
 66
1
 70
4
 75
6
  0
VERTEX
  8
LVL0000
 10
      173.125939
 20
       94.650784
 70
 16
  0
VERTEX
  8
LVL0000
 10
      173.510713
 20
       93.870397
 70
 16
  0
VERTEX
  8
LVL0000
 10
      173.895487
 20
       93.090009
 70
 16
  0
VERTEX
  8
LVL0000
 10
      174.142673
 20
       92.175840
 70
 16
  0
VERTEX
  8
LVL0000
 10
      173.125939
 20
       94.650784
 70
  8
  0
VERTEX
  8
LVL0000
 10
      173.269961
 20
       94.357877
 70
  8
  0
VERTEX
  8
LVL0000
 10
      173.412370
 20
       94.063403
 70
  8
  0
VERTEX
  8
LVL0000
 10
      173.551554
 20
       93.765793
 70
  8
  0
VERTEX
  8
LVL0000
 10
      173.685902
 20
       93.463480
 70
  8
  0
VERTEX
  8
LVL0000
 10
      173.813800
 20
       93.154896
 70
  8
  0
VERTEX
  8
LVL0000
 10
      173.933636
 20
       92.838473
 70
  8
  0
VERTEX
  8
LVL0000
 10
      174.043798
 20
       92.512644
 70
  8
  0
VERTEX
  8
LVL0000
 10
      174.142673
 20
       92.175840
 70
  8
  0
SEQEND
  0
POLYLINE
  8
LVL0000
 66
1
 70
4
 75
6
  0
VERTEX
  8
LVL0000
 10
      174.142673
 20
       92.175840
 70
 16
  0
VERTEX
  8
LVL0000
 10
      174.317555
 20
       91.529074
 70
 16
  0
VERTEX
  8
LVL0000
 10
      174.423568
 20
       90.815344
 70
 16
  0
VERTEX
  8
LVL0000
 10
      174.142673
 20
       90.282843
 70
 16
  0
VERTEX
  8
LVL0000
 10
      174.142673
 20
       92.175840
 70
  8
  0
VERTEX
  8
LVL0000
 10
      174.204404
 20
       91.930649
 70
  8
  0
VERTEX
  8
LVL0000
 10
      174.255952
 20
       91.682088
 70
  8
  0
VERTEX
  8
LVL0000
 10
      174.293590
 20
       91.433066
 70
  8
  0
VERTEX
  8
LVL0000
 10
      174.313590
 20
       91.186492
 70
  8
  0
VERTEX
  8
LVL0000
 10
      174.312225
 20
       90.945274
 70
  8
  0
VERTEX
  8
LVL0000
 10
      174.285769
 20
       90.712321
 70
  8
  0
VERTEX
  8
LVL0000
 10
      174.230494
 20
       90.490541
 70
  8
  0
VERTEX
  8
LVL0000
 10
      174.142673
 20
       90.282843
 70
  8
  0
SEQEND
  0
POLYLINE
  8
LVL0000
 66
1
 70
4
 75
6
  0
VERTEX
  8
LVL0000
 10
      174.142673
 20
       90.282843
 70
 16
  0
VERTEX
  8
LVL0000
 10
      173.838071
 20
       89.705400
 70
 16
  0
VERTEX
  8
LVL0000
 10
      173.078496
 20
       89.341067
 70
 16
  0
VERTEX
  8
LVL0000
 10
      172.691152
 20
       88.831322
 70
 16
  0
VERTEX
  8
LVL0000
 10
      174.142673
 20
       90.282843
 70
  8
  0
VERTEX
  8
LVL0000
 10
      174.008736
 20
       90.075591
 70
  8
  0
VERTEX
  8
LVL0000
 10
      173.841839
 20
       89.884117
 70
  8
  0
VERTEX
  8
LVL0000
 10
      173.651676
 20
       89.704219
 70
  8
  0
VERTEX
  8
LVL0000
 10
      173.447941
 20
       89.531696
 70
  8
  0
VERTEX
  8
LVL0000
 10
      173.240327
 20
       89.362346
 70
  8
  0
VERTEX
  8
LVL0000
 10
      173.038528
 20
       89.191968
 70
  8
  0
VERTEX
  8
LVL0000
 10
      172.852239
 20
       89.016360
 70
  8
  0
VERTEX
  8
LVL0000
 10
      172.691152
 20
       88.831322
 70
  8
  0
SEQEND
  0
POLYLINE
  8
LVL0000
 66
1
 70
4
 75
6
  0
VERTEX
  8
LVL0000
 10
      172.691152
 20
       88.831322
 70
 16
  0
VERTEX
  8
LVL0000
 10
      172.002382
 20
       87.924901
 70
 16
  0
VERTEX
  8
LVL0000
 10
      172.490582
 20
       86.558693
 70
 16
  0
VERTEX
  8
LVL0000
 10
      172.978781
 20
       85.192486
 70
 16
  0
VERTEX
  8
LVL0000
 10
      172.691152
 20
       88.831322
 70
  8
  0
VERTEX
  8
LVL0000
 10
      172.485735
 20
       88.470759
 70
  8
  0
VERTEX
  8
LVL0000
 10
      172.376866
 20
       88.072480
 70
  8
  0
VERTEX
  8
LVL0000
 10
      172.350753
 20
       87.641872
 70
  8
  0
VERTEX
  8
LVL0000
 10
      172.393603
 20
       87.184324
 70
  8
  0
VERTEX
  8
LVL0000
 10
      172.491623
 20
       86.705223
 70
  8
  0
VERTEX
  8
LVL0000
 10
      172.631021
 20
       86.209957
 70
  8
  0
VERTEX
  8
LVL0000
 10
      172.798005
 20
       85.703916
 70
  8
  0
VERTEX
  8
LVL0000
 10
      172.978781
 20
       85.192486
 70
  8
  0
SEQEND
  0
ENDBLK
  0
BLOCK
  8
0
  2
BLK0005
 70
    64
 10
        0.000000
 20
        0.000000
  0
TEXT
  8
LVL0000
 62
  4
 10
      171.143906
 20
      121.107445
 30
        0.000000
 40
        3.500000
  1
ＩＶＳ２００Ｋ３＝３０００
 50
        0.000000
 41
        0.835000
 51
        0.000000
  7
BIGFONT
  0
LINE
  8
LVL0000
 62
  4
 10
      128.600006
 20
       96.000000
 30
        0.000000
 11
      128.600006
 21
      121.107445
 31
        0.000000
  0
LINE
  8
LVL0000
 62
  4
 10
      250.000000
 20
      102.199997
 30
        0.000000
 11
      250.000000
 21
      121.107445
 31
        0.000000
  0
LINE
  8
LVL0000
 62
  4
 10
      132.100006
 20
      121.323746
 30
        0.000000
 11
      128.600006
 21
      120.407448
 31
        0.000000
  0
LINE
  8
LVL0000
 62
  4
 10
      128.600006
 20
      120.407448
 30
        0.000000
 11
      132.100006
 21
      119.491150
 31
        0.000000
  0
LINE
  8
LVL0000
 62
  4
 10
      246.500000
 20
      119.491150
 30
        0.000000
 11
      250.000000
 21
      120.407448
 31
        0.000000
  0
LINE
  8
LVL0000
 62
  4
 10
      250.000000
 20
      120.407448
 30
        0.000000
 11
      246.500000
 21
      121.323746
 31
        0.000000
  0
LINE
  8
LVL0000
 62
  4
 10
      128.600006
 20
      120.407448
 30
        0.000000
 11
      250.000000
 21
      120.407448
 31
        0.000000
  0
ENDBLK
  0
BLOCK
  8
0
  2
BLK0006
 70
    64
 10
        0.000000
 20
        0.000000
  0
TEXT
  8
LVL0000
 62
  4
 10
      330.351379
 20
     -231.571915
 30
        0.000000
 40
        3.500000
  1
３１
 50
        0.000000
 41
        0.835000
 51
        0.000000
  7
BIGFONT
  0
LINE
  8
LVL0000
 62
  4
 10
      319.000000
 20
     -224.000000
 30
        0.000000
 11
      319.000000
 21
     -232.971909
 31
        0.000000
  0
LINE
  8
LVL0000
 62
  4
 10
      350.000000
 20
     -221.000000
 30
        0.000000
 11
      350.000000
 21
     -232.971909
 31
        0.000000
  0
LINE
  8
LVL0000
 62
  4
 10
      322.500000
 20
     -231.355606
 30
        0.000000
 11
      319.000000
 21
     -232.271912
 31
        0.000000
  0
LINE
  8
LVL0000
 62
  4
 10
      319.000000
 20
     -232.271912
 30
        0.000000
 11
      322.500000
 21
     -233.188217
 31
        0.000000
  0
LINE
  8
LVL0000
 62
  4
 10
      346.500000
 20
     -233.188217
 30
        0.000000
 11
      350.000000
 21
     -232.271912
 31
        0.000000
  0
LINE
  8
LVL0000
 62
  4
 10
      350.000000
 20
     -232.271912
 30
        0.000000
 11
      346.500000
 21
     -231.355606
 31
        0.000000
  0
LINE
  8
LVL0000
 62
  4
 10
      319.000000
 20
     -232.271912
 30
        0.000000
 11
      350.000000
 21
     -232.271912
 31
        0.000000
  0
ENDBLK
  0
BLOCK
  8
0
  2
BLK0007
 70
    64
 10
        0.000000
 20
        0.000000
  0
TEXT
  8
LVL0000
 62
  4
 10
      388.019562
 20
     -231.745941
 30
        0.000000
 40
        3.500000
  1
２５
 50
        0.000000
 41
        0.835000
 51
        0.000000
  7
BIGFONT
  0
LINE
  8
LVL0000
 62
  4
 10
      378.755585
 20
     -224.000000
 30
        0.000000
 11
      378.755585
 21
     -233.145935
 31
        0.000000
  0
LINE
  8
LVL0000
 62
  4
 10
      403.755585
 20
     -224.000000
 30
        0.000000
 11
      403.755585
 21
     -233.145935
 31
        0.000000
  0
LINE
  8
LVL0000
 62
  4
 10
      382.255585
 20
     -231.529633
 30
        0.000000
 11
      378.755585
 21
     -232.445938
 31
        0.000000
  0
LINE
  8
LVL0000
 62
  4
 10
      378.755585
 20
     -232.445938
 30
        0.000000
 11
      382.255585
 21
     -233.362244
 31
        0.000000
  0
LINE
  8
LVL0000
 62
  4
 10
      400.255585
 20
     -233.362244
 30
        0.000000
 11
      403.755585
 21
     -232.445938
 31
        0.000000
  0
LINE
  8
LVL0000
 62
  4
 10
      403.755585
 20
     -232.445938
 30
        0.000000
 11
      400.255585
 21
     -231.529633
 31
        0.000000
  0
LINE
  8
LVL0000
 62
  4
 10
      378.755585
 20
     -232.445938
 30
        0.000000
 11
      403.755585
 21
     -232.445938
 31
        0.000000
  0
ENDBLK
  0
BLOCK
  8
0
  2
BLK0008
 70
    64
 10
        0.000000
 20
        0.000000
  0
TEXT
  8
LVL0000
 62
  4
 10
      359.011200
 20
     -206.958252
 30
        0.000000
 40
        3.500000
  1
３８
 50
       90.000000
 41
        0.835000
 51
        0.000000
  7
BIGFONT
  0
LINE
  8
LVL0000
 62
  4
 10
      348.000000
 20
     -223.000000
 30
        0.000000
 11
      360.411194
 21
     -223.000000
 31
        0.000000
  0
LINE
  8
LVL0000
 62
  4
 10
      351.000000
 20
     -185.000000
 30
        0.000000
 11
      360.411194
 21
     -185.000000
 31
        0.000000
  0
LINE
  8
LVL0000
 62
  4
 10
      358.794891
 20
     -219.500000
 30
        0.000000
 11
      359.711182
 21
     -223.000000
 31
        0.000000
  0
LINE
  8
LVL0000
 62
  4
 10
      359.711182
 20
     -223.000000
 30
        0.000000
 11
      360.627472
 21
     -219.500000
 31
        0.000000
  0
LINE
  8
LVL0000
 62
  4
 10
      360.627472
 20
     -188.500000
 30
        0.000000
 11
      359.711182
 21
     -185.000000
 31
        0.000000
  0
LINE
  8
LVL0000
 62
  4
 10
      359.711182
 20
     -185.000000
 30
        0.000000
 11
      358.794891
 21
     -188.500000
 31
        0.000000
  0
LINE
  8
LVL0000
 62
  4
 10
      359.711182
 20
     -223.000000
 30
        0.000000
 11
      359.711182
 21
     -185.000000
 31
        0.000000
  0
ENDBLK
  0
BLOCK
  8
0
  2
BLK0009
 70
    64
 10
        0.000000
 20
        0.000000
  0
TEXT
  8
LVL0000
 62
  4
 10
       25.015833
 20
       -3.036660
 30
        0.000000
 40
        3.500000
  1
３０
 50
       90.000000
 41
        0.835000
 51
        0.000000
  7
BIGFONT
  0
LINE
  8
LVL0000
 62
  4
 10
       15.500000
 20
      -15.000000
 30
        0.000000
 11
       26.415833
 21
      -15.000000
 31
        0.000000
  0
LINE
  8
LVL0000
 62
  4
 10
       15.500000
 20
       15.000000
 30
        0.000000
 11
       26.415833
 21
       15.000000
 31
        0.000000
  0
LINE
  8
LVL0000
 62
  4
 10
       24.799534
 20
      -11.500000
 30
        0.000000
 11
       25.715832
 21
      -15.000000
 31
        0.000000
  0
LINE
  8
LVL0000
 62
  4
 10
       25.715832
 20
      -15.000000
 30
        0.000000
 11
       26.632130
 21
      -11.500000
 31
        0.000000
  0
LINE
  8
LVL0000
 62
  4
 10
       26.632130
 20
       11.500000
 30
        0.000000
 11
       25.715832
 21
       15.000000
 31
        0.000000
  0
LINE
  8
LVL0000
 62
  4
 10
       25.715832
 20
       15.000000
 30
        0.000000
 11
       24.799534
 21
       11.500000
 31
        0.000000
  0
LINE
  8
LVL0000
 62
  4
 10
       25.715832
 20
      -15.000000
 30
        0.000000
 11
       25.715832
 21
       15.000000
 31
        0.000000
  0
ENDBLK
  0
BLOCK
  8
0
  2
BLK0010
 70
    64
 10
        0.000000
 20
        0.000000
  0
TEXT
  8
LVL0000
 62
  4
 10
       -3.549598
 20
      -24.395731
 30
        0.000000
 40
        3.500000
  1
３０
 50
        0.000000
 41
        0.835000
 51
        0.000000
  7
BIGFONT
  0
LINE
  8
LVL0000
 62
  4
 10
      -15.000000
 20
      -15.500000
 30
        0.000000
 11
      -15.000000
 21
      -25.795731
 31
        0.000000
  0
LINE
  8
LVL0000
 62
  4
 10
       15.000000
 20
      -15.500000
 30
        0.000000
 11
       15.000000
 21
      -25.795731
 31
        0.000000
  0
LINE
  8
LVL0000
 62
  4
 10
      -11.500000
 20
      -24.179432
 30
        0.000000
 11
      -15.000000
 21
      -25.095730
 31
        0.000000
  0
LINE
  8
LVL0000
 62
  4
 10
      -15.000000
 20
      -25.095730
 30
        0.000000
 11
      -11.500000
 21
      -26.012028
 31
        0.000000
  0
LINE
  8
LVL0000
 62
  4
 10
       11.500000
 20
      -26.012028
 30
        0.000000
 11
       15.000000
 21
      -25.095730
 31
        0.000000
  0
LINE
  8
LVL0000
 62
  4
 10
       15.000000
 20
      -25.095730
 30
        0.000000
 11
       11.500000
 21
      -24.179432
 31
        0.000000
  0
LINE
  8
LVL0000
 62
  4
 10
      -15.000000
 20
      -25.095730
 30
        0.000000
 11
       15.000000
 21
      -25.095730
 31
        0.000000
  0
ENDBLK
  0
BLOCK
  8
0
  2
BLK0011
 70
    64
 10
        0.000000
 20
        0.000000
  0
TEXT
  8
LVL0000
 62
  4
 10
       64.785957
 20
      -24.538431
 30
        0.000000
 40
        3.500000
  1
４７
 50
        0.000000
 41
        0.835000
 51
        0.000000
  7
BIGFONT
  0
LINE
  8
LVL0000
 62
  4
 10
       43.000000
 20
      -15.500000
 30
        0.000000
 11
       43.000000
 21
      -25.938431
 31
        0.000000
  0
LINE
  8
LVL0000
 62
  4
 10
       90.000000
 20
      -16.000000
 30
        0.000000
 11
       90.000000
 21
      -25.938431
 31
        0.000000
  0
LINE
  8
LVL0000
 62
  4
 10
       46.500000
 20
      -24.322132
 30
        0.000000
 11
       43.000000
 21
      -25.238430
 31
        0.000000
  0
LINE
  8
LVL0000
 62
  4
 10
       43.000000
 20
      -25.238430
 30
        0.000000
 11
       46.500000
 21
      -26.154728
 31
        0.000000
  0
LINE
  8
LVL0000
 62
  4
 10
       86.500000
 20
      -26.154728
 30
        0.000000
 11
       90.000000
 21
      -25.238430
 31
        0.000000
  0
LINE
  8
LVL0000
 62
  4
 10
       90.000000
 20
      -25.238430
 30
        0.000000
 11
       86.500000
 21
      -24.322132
 31
        0.000000
  0
LINE
  8
LVL0000
 62
  4
 10
       43.000000
 20
      -25.238430
 30
        0.000000
 11
       90.000000
 21
      -25.238430
 31
        0.000000
  0
ENDBLK
  0
BLOCK
  8
0
  2
BLK0012
 70
    64
 10
        0.000000
 20
        0.000000
  0
POLYLINE
  8
LVL0000
 66
1
 70
4
 75
6
  0
VERTEX
  8
LVL0000
 10
      221.442497
 20
     -189.200001
 70
 16
  0
VERTEX
  8
LVL0000
 10
      221.713157
 20
     -189.771817
 70
 16
  0
VERTEX
  8
LVL0000
 10
      221.962163
 20
     -190.356578
 70
 16
  0
VERTEX
  8
LVL0000
 10
      222.142673
 20
     -191.024160
 70
 16
  0
VERTEX
  8
LVL0000
 10
      221.442497
 20
     -189.200001
 70
  8
  0
VERTEX
  8
LVL0000
 10
      221.542888
 20
     -189.415175
 70
  8
  0
VERTEX
  8
LVL0000
 10
      221.640700
 20
     -189.632382
 70
  8
  0
VERTEX
  8
LVL0000
 10
      221.735384
 20
     -189.852440
 70
  8
  0
VERTEX
  8
LVL0000
 10
      221.826391
 20
     -190.076168
 70
  8
  0
VERTEX
  8
LVL0000
 10
      221.913173
 20
     -190.304385
 70
  8
  0
VERTEX
  8
LVL0000
 10
      221.995179
 20
     -190.537911
 70
  8
  0
VERTEX
  8
LVL0000
 10
      222.071863
 20
     -190.777562
 70
  8
  0
VERTEX
  8
LVL0000
 10
      222.142673
 20
     -191.024160
 70
  8
  0
SEQEND
  0
POLYLINE
  8
LVL0000
 66
1
 70
4
 75
6
  0
VERTEX
  8
LVL0000
 10
      222.142673
 20
     -191.024160
 70
 16
  0
VERTEX
  8
LVL0000
 10
      222.317555
 20
     -191.670926
 70
 16
  0
VERTEX
  8
LVL0000
 10
      222.423568
 20
     -192.384656
 70
 16
  0
VERTEX
  8
LVL0000
 10
      222.142673
 20
     -192.917157
 70
 16
  0
VERTEX
  8
LVL0000
 10
      222.142673
 20
     -191.024160
 70
  8
  0
VERTEX
  8
LVL0000
 10
      222.204404
 20
     -191.269351
 70
  8
  0
VERTEX
  8
LVL0000
 10
      222.255952
 20
     -191.517912
 70
  8
  0
VERTEX
  8
LVL0000
 10
      222.293590
 20
     -191.766934
 70
  8
  0
VERTEX
  8
LVL0000
 10
      222.313590
 20
     -192.013508
 70
  8
  0
VERTEX
  8
LVL0000
 10
      222.312225
 20
     -192.254726
 70
  8
  0
VERTEX
  8
LVL0000
 10
      222.285769
 20
     -192.487679
 70
  8
  0
VERTEX
  8
LVL0000
 10
      222.230494
 20
     -192.709459
 70
  8
  0
VERTEX
  8
LVL0000
 10
      222.142673
 20
     -192.917157
 70
  8
  0
SEQEND
  0
POLYLINE
  8
LVL0000
 66
1
 70
4
 75
6
  0
VERTEX
  8
LVL0000
 10
      222.142673
 20
     -192.917157
 70
 16
  0
VERTEX
  8
LVL0000
 10
      221.838071
 20
     -193.494600
 70
 16
  0
VERTEX
  8
LVL0000
 10
      221.091701
 20
     -193.841555
 70
 16
  0
VERTEX
  8
LVL0000
 10
      220.691152
 20
     -194.368678
 70
 16
  0
VERTEX
  8
LVL0000
 10
      222.142673
 20
     -192.917157
 70
  8
  0
VERTEX
  8
LVL0000
 10
      222.009278
 20
     -193.123696
 70
  8
  0
VERTEX
  8
LVL0000
 10
      221.843696
 20
     -193.313439
 70
  8
  0
VERTEX
  8
LVL0000
 10
      221.655158
 20
     -193.491199
 70
  8
  0
VERTEX
  8
LVL0000
 10
      221.452893
 20
     -193.661788
 70
  8
  0
VERTEX
  8
LVL0000
 10
      221.246130
 20
     -193.830017
 70
  8
  0
VERTEX
  8
LVL0000
 10
      221.044099
 20
     -194.000701
 70
  8
  0
VERTEX
  8
LVL0000
 10
      220.856030
 20
     -194.178650
 70
  8
  0
VERTEX
  8
LVL0000
 10
      220.691152
 20
     -194.368678
 70
  8
  0
SEQEND
  0
POLYLINE
  8
LVL0000
 66
1
 70
4
 75
6
  0
VERTEX
  8
LVL0000
 10
      220.691152
 20
     -194.368678
 70
 16
  0
VERTEX
  8
LVL0000
 10
      220.138684
 20
     -195.095727
 70
 16
  0
VERTEX
  8
LVL0000
 10
      220.343452
 20
     -196.118592
 70
 16
  0
VERTEX
  8
LVL0000
 10
      220.698071
 20
     -197.199997
 70
 16
  0
VERTEX
  8
LVL0000
 10
      220.691152
 20
     -194.368678
 70
  8
  0
VERTEX
  8
LVL0000
 10
      220.518286
 20
     -194.654724
 70
  8
  0
VERTEX
  8
LVL0000
 10
      220.409292
 20
     -194.965723
 70
  8
  0
VERTEX
  8
LVL0000
 10
      220.357054
 20
     -195.298893
 70
  8
  0
VERTEX
  8
LVL0000
 10
      220.354454
 20
     -195.651454
 70
  8
  0
VERTEX
  8
LVL0000
 10
      220.394373
 20
     -196.020626
 70
  8
  0
VERTEX
  8
LVL0000
 10
      220.469694
 20
     -196.403627
 70
  8
  0
VERTEX
  8
LVL0000
 10
      220.573300
 20
     -196.797678
 70
  8
  0
VERTEX
  8
LVL0000
 10
      220.698071
 20
     -197.199997
 70
  8
  0
SEQEND
  0
ENDBLK
  0
BLOCK
  8
0
  2
BLK0013
 70
    64
 10
        0.000000
 20
        0.000000
  0
POLYLINE
  8
LVL0000
 66
1
 70
4
 75
6
  0
VERTEX
  8
LVL0000
 10
      221.442497
 20
     -274.200001
 70
 16
  0
VERTEX
  8
LVL0000
 10
      221.713157
 20
     -274.771817
 70
 16
  0
VERTEX
  8
LVL0000
 10
      221.962163
 20
     -275.356578
 70
 16
  0
VERTEX
  8
LVL0000
 10
      222.142673
 20
     -276.024160
 70
 16
  0
VERTEX
  8
LVL0000
 10
      221.442497
 20
     -274.200001
 70
  8
  0
VERTEX
  8
LVL0000
 10
      221.542888
 20
     -274.415175
 70
  8
  0
VERTEX
  8
LVL0000
 10
      221.640700
 20
     -274.632382
 70
  8
  0
VERTEX
  8
LVL0000
 10
      221.735384
 20
     -274.852440
 70
  8
  0
VERTEX
  8
LVL0000
 10
      221.826391
 20
     -275.076168
 70
  8
  0
VERTEX
  8
LVL0000
 10
      221.913173
 20
     -275.304385
 70
  8
  0
VERTEX
  8
LVL0000
 10
      221.995179
 20
     -275.537911
 70
  8
  0
VERTEX
  8
LVL0000
 10
      222.071863
 20
     -275.777562
 70
  8
  0
VERTEX
  8
LVL0000
 10
      222.142673
 20
     -276.024160
 70
  8
  0
SEQEND
  0
POLYLINE
  8
LVL0000
 66
1
 70
4
 75
6
  0
VERTEX
  8
LVL0000
 10
      222.142673
 20
     -276.024160
 70
 16
  0
VERTEX
  8
LVL0000
 10
      222.317555
 20
     -276.670926
 70
 16
  0
VERTEX
  8
LVL0000
 10
      222.423568
 20
     -277.384656
 70
 16
  0
VERTEX
  8
LVL0000
 10
      222.142673
 20
     -277.917157
 70
 16
  0
VERTEX
  8
LVL0000
 10
      222.142673
 20
     -276.024160
 70
  8
  0
VERTEX
  8
LVL0000
 10
      222.204404
 20
     -276.269351
 70
  8
  0
VERTEX
  8
LVL0000
 10
      222.255952
 20
     -276.517912
 70
  8
  0
VERTEX
  8
LVL0000
 10
      222.293590
 20
     -276.766934
 70
  8
  0
VERTEX
  8
LVL0000
 10
      222.313590
 20
     -277.013508
 70
  8
  0
VERTEX
  8
LVL0000
 10
      222.312225
 20
     -277.254726
 70
  8
  0
VERTEX
  8
LVL0000
 10
      222.285769
 20
     -277.487679
 70
  8
  0
VERTEX
  8
LVL0000
 10
      222.230494
 20
     -277.709459
 70
  8
  0
VERTEX
  8
LVL0000
 10
      222.142673
 20
     -277.917157
 70
  8
  0
SEQEND
  0
POLYLINE
  8
LVL0000
 66
1
 70
4
 75
6
  0
VERTEX
  8
LVL0000
 10
      222.142673
 20
     -277.917157
 70
 16
  0
VERTEX
  8
LVL0000
 10
      221.838071
 20
     -278.494600
 70
 16
  0
VERTEX
  8
LVL0000
 10
      221.091701
 20
     -278.841555
 70
 16
  0
VERTEX
  8
LVL0000
 10
      220.691152
 20
     -279.368678
 70
 16
  0
VERTEX
  8
LVL0000
 10
      222.142673
 20
     -277.917157
 70
  8
  0
VERTEX
  8
LVL0000
 10
      222.009278
 20
     -278.123696
 70
  8
  0
VERTEX
  8
LVL0000
 10
      221.843696
 20
     -278.313439
 70
  8
  0
VERTEX
  8
LVL0000
 10
      221.655158
 20
     -278.491199
 70
  8
  0
VERTEX
  8
LVL0000
 10
      221.452893
 20
     -278.661788
 70
  8
  0
VERTEX
  8
LVL0000
 10
      221.246130
 20
     -278.830017
 70
  8
  0
VERTEX
  8
LVL0000
 10
      221.044099
 20
     -279.000701
 70
  8
  0
VERTEX
  8
LVL0000
 10
      220.856030
 20
     -279.178650
 70
  8
  0
VERTEX
  8
LVL0000
 10
      220.691152
 20
     -279.368678
 70
  8
  0
SEQEND
  0
POLYLINE
  8
LVL0000
 66
1
 70
4
 75
6
  0
VERTEX
  8
LVL0000
 10
      220.691152
 20
     -279.368678
 70
 16
  0
VERTEX
  8
LVL0000
 10
      220.138684
 20
     -280.095727
 70
 16
  0
VERTEX
  8
LVL0000
 10
      220.343452
 20
     -281.118592
 70
 16
  0
VERTEX
  8
LVL0000
 10
      220.698071
 20
     -282.199997
 70
 16
  0
VERTEX
  8
LVL0000
 10
      220.691152
 20
     -279.368678
 70
  8
  0
VERTEX
  8
LVL0000
 10
      220.518286
 20
     -279.654724
 70
  8
  0
VERTEX
  8
LVL0000
 10
      220.409292
 20
     -279.965723
 70
  8
  0
VERTEX
  8
LVL0000
 10
      220.357054
 20
     -280.298893
 70
  8
  0
VERTEX
  8
LVL0000
 10
      220.354454
 20
     -280.651454
 70
  8
  0
VERTEX
  8
LVL0000
 10
      220.394373
 20
     -281.020626
 70
  8
  0
VERTEX
  8
LVL0000
 10
      220.469694
 20
     -281.403627
 70
  8
  0
VERTEX
  8
LVL0000
 10
      220.573300
 20
     -281.797678
 70
  8
  0
VERTEX
  8
LVL0000
 10
      220.698071
 20
     -282.199997
 70
  8
  0
SEQEND
  0
ENDBLK
  0
BLOCK
  8
0
  2
BLK0014
 70
    64
 10
        0.000000
 20
        0.000000
  0
POLYLINE
  8
LVL0000
 66
1
 70
4
 75
6
  0
VERTEX
  8
LVL0000
 10
      221.442497
 20
     -359.200001
 70
 16
  0
VERTEX
  8
LVL0000
 10
      221.713157
 20
     -359.771817
 70
 16
  0
VERTEX
  8
LVL0000
 10
      221.962163
 20
     -360.356578
 70
 16
  0
VERTEX
  8
LVL0000
 10
      222.142673
 20
     -361.024160
 70
 16
  0
VERTEX
  8
LVL0000
 10
      221.442497
 20
     -359.200001
 70
  8
  0
VERTEX
  8
LVL0000
 10
      221.542888
 20
     -359.415175
 70
  8
  0
VERTEX
  8
LVL0000
 10
      221.640700
 20
     -359.632382
 70
  8
  0
VERTEX
  8
LVL0000
 10
      221.735384
 20
     -359.852440
 70
  8
  0
VERTEX
  8
LVL0000
 10
      221.826391
 20
     -360.076168
 70
  8
  0
VERTEX
  8
LVL0000
 10
      221.913173
 20
     -360.304385
 70
  8
  0
VERTEX
  8
LVL0000
 10
      221.995179
 20
     -360.537911
 70
  8
  0
VERTEX
  8
LVL0000
 10
      222.071863
 20
     -360.777562
 70
  8
  0
VERTEX
  8
LVL0000
 10
      222.142673
 20
     -361.024160
 70
  8
  0
SEQEND
  0
POLYLINE
  8
LVL0000
 66
1
 70
4
 75
6
  0
VERTEX
  8
LVL0000
 10
      222.142673
 20
     -361.024160
 70
 16
  0
VERTEX
  8
LVL0000
 10
      222.317555
 20
     -361.670926
 70
 16
  0
VERTEX
  8
LVL0000
 10
      222.423568
 20
     -362.384656
 70
 16
  0
VERTEX
  8
LVL0000
 10
      222.142673
 20
     -362.917157
 70
 16
  0
VERTEX
  8
LVL0000
 10
      222.142673
 20
     -361.024160
 70
  8
  0
VERTEX
  8
LVL0000
 10
      222.204404
 20
     -361.269351
 70
  8
  0
VERTEX
  8
LVL0000
 10
      222.255952
 20
     -361.517912
 70
  8
  0
VERTEX
  8
LVL0000
 10
      222.293590
 20
     -361.766934
 70
  8
  0
VERTEX
  8
LVL0000
 10
      222.313590
 20
     -362.013508
 70
  8
  0
VERTEX
  8
LVL0000
 10
      222.312225
 20
     -362.254726
 70
  8
  0
VERTEX
  8
LVL0000
 10
      222.285769
 20
     -362.487679
 70
  8
  0
VERTEX
  8
LVL0000
 10
      222.230494
 20
     -362.709459
 70
  8
  0
VERTEX
  8
LVL0000
 10
      222.142673
 20
     -362.917157
 70
  8
  0
SEQEND
  0
POLYLINE
  8
LVL0000
 66
1
 70
4
 75
6
  0
VERTEX
  8
LVL0000
 10
      222.142673
 20
     -362.917157
 70
 16
  0
VERTEX
  8
LVL0000
 10
      221.838071
 20
     -363.494600
 70
 16
  0
VERTEX
  8
LVL0000
 10
      221.091701
 20
     -363.841555
 70
 16
  0
VERTEX
  8
LVL0000
 10
      220.691152
 20
     -364.368678
 70
 16
  0
VERTEX
  8
LVL0000
 10
      222.142673
 20
     -362.917157
 70
  8
  0
VERTEX
  8
LVL0000
 10
      222.009278
 20
     -363.123696
 70
  8
  0
VERTEX
  8
LVL0000
 10
      221.843696
 20
     -363.313439
 70
  8
  0
VERTEX
  8
LVL0000
 10
      221.655158
 20
     -363.491199
 70
  8
  0
VERTEX
  8
LVL0000
 10
      221.452893
 20
     -363.661788
 70
  8
  0
VERTEX
  8
LVL0000
 10
      221.246130
 20
     -363.830017
 70
  8
  0
VERTEX
  8
LVL0000
 10
      221.044099
 20
     -364.000701
 70
  8
  0
VERTEX
  8
LVL0000
 10
      220.856030
 20
     -364.178650
 70
  8
  0
VERTEX
  8
LVL0000
 10
      220.691152
 20
     -364.368678
 70
  8
  0
SEQEND
  0
POLYLINE
  8
LVL0000
 66
1
 70
4
 75
6
  0
VERTEX
  8
LVL0000
 10
      220.691152
 20
     -364.368678
 70
 16
  0
VERTEX
  8
LVL0000
 10
      220.138684
 20
     -365.095727
 70
 16
  0
VERTEX
  8
LVL0000
 10
      220.343452
 20
     -366.118592
 70
 16
  0
VERTEX
  8
LVL0000
 10
      220.698071
 20
     -367.199997
 70
 16
  0
VERTEX
  8
LVL0000
 10
      220.691152
 20
     -364.368678
 70
  8
  0
VERTEX
  8
LVL0000
 10
      220.518286
 20
     -364.654724
 70
  8
  0
VERTEX
  8
LVL0000
 10
      220.409292
 20
     -364.965723
 70
  8
  0
VERTEX
  8
LVL0000
 10
      220.357054
 20
     -365.298893
 70
  8
  0
VERTEX
  8
LVL0000
 10
      220.354454
 20
     -365.651454
 70
  8
  0
VERTEX
  8
LVL0000
 10
      220.394373
 20
     -366.020626
 70
  8
  0
VERTEX
  8
LVL0000
 10
      220.469694
 20
     -366.403627
 70
  8
  0
VERTEX
  8
LVL0000
 10
      220.573300
 20
     -366.797678
 70
  8
  0
VERTEX
  8
LVL0000
 10
      220.698071
 20
     -367.199997
 70
  8
  0
SEQEND
  0
ENDBLK
  0
ENDSEC
  0
SECTION
  2
ENTITIES
  0
INSERT
  8
LVL0000
 62
  2
  2
BLK0001
 10
        0.000000
 20
        0.000000
  0
INSERT
  8
LVL0000
 62
  2
  2
BLK0002
 10
        0.000000
 20
        0.000000
  0
INSERT
  8
LVL0000
 62
  2
  2
BLK0003
 10
        0.000000
 20
        0.000000
  0
INSERT
  8
LVL0000
 62
  2
  2
BLK0004
 10
        0.000000
 20
        0.000000
  0
LINE
  8
LVL0001
 10
       14.728289
 20
     -369.200000
 30
        0.000000
 11
       15.000000
 21
     -369.200000
 31
        0.000000
  0
LINE
  8
LVL0001
 10
       15.000000
 20
     -372.000000
 30
        0.000000
 11
       15.000000
 21
     -368.000000
 31
        0.000000
  0
LINE
  8
LVL0001
 10
       14.728289
 20
     -370.800000
 30
        0.000000
 11
       15.000000
 21
     -370.800000
 31
        0.000000
  0
LINE
  8
LVL0000
 10
       14.999971
 20
     -369.700000
 30
        0.000000
 11
       14.999971
 21
     -370.300000
 31
        0.000000
  0
LINE
  8
LVL0001
 10
       19.000000
 20
     -372.000000
 30
        0.000000
 11
       19.000000
 21
     -368.000000
 31
        0.000000
  0
LINE
  8
LVL0001
 10
       15.000000
 20
     -368.000000
 30
        0.000000
 11
       19.000000
 21
     -368.000000
 31
        0.000000
  0
LINE
  8
LVL0001
 10
       15.000000
 20
     -372.000000
 30
        0.000000
 11
       19.000000
 21
     -372.000000
 31
        0.000000
  0
LINE
  8
LVL0001
 10
       15.000000
 20
     -287.000000
 30
        0.000000
 11
       19.000000
 21
     -287.000000
 31
        0.000000
  0
LINE
  8
LVL0001
 10
       15.000000
 20
     -283.000000
 30
        0.000000
 11
       19.000000
 21
     -283.000000
 31
        0.000000
  0
LINE
  8
LVL0001
 10
       19.000000
 20
     -287.000000
 30
        0.000000
 11
       19.000000
 21
     -283.000000
 31
        0.000000
  0
LINE
  8
LVL0000
 10
       14.999971
 20
     -284.700000
 30
        0.000000
 11
       14.999971
 21
     -285.300000
 31
        0.000000
  0
LINE
  8
LVL0001
 10
       14.728289
 20
     -285.800000
 30
        0.000000
 11
       15.000000
 21
     -285.800000
 31
        0.000000
  0
LINE
  8
LVL0001
 10
       15.000000
 20
     -287.000000
 30
        0.000000
 11
       15.000000
 21
     -283.000000
 31
        0.000000
  0
LINE
  8
LVL0001
 10
       14.728289
 20
     -284.200000
 30
        0.000000
 11
       15.000000
 21
     -284.200000
 31
        0.000000
  0
LINE
  8
LVL0001
 10
       14.728289
 20
     -199.200000
 30
        0.000000
 11
       15.000000
 21
     -199.200000
 31
        0.000000
  0
LINE
  8
LVL0001
 10
       15.000000
 20
     -202.000000
 30
        0.000000
 11
       15.000000
 21
     -198.000000
 31
        0.000000
  0
LINE
  8
LVL0001
 10
       14.728289
 20
     -200.800000
 30
        0.000000
 11
       15.000000
 21
     -200.800000
 31
        0.000000
  0
LINE
  8
LVL0000
 10
       14.999971
 20
     -199.700000
 30
        0.000000
 11
       14.999971
 21
     -200.300000
 31
        0.000000
  0
LINE
  8
LVL0001
 10
       19.000000
 20
     -202.000000
 30
        0.000000
 11
       19.000000
 21
     -198.000000
 31
        0.000000
  0
LINE
  8
LVL0001
 10
       15.000000
 20
     -198.000000
 30
        0.000000
 11
       19.000000
 21
     -198.000000
 31
        0.000000
  0
LINE
  8
LVL0001
 10
       15.000000
 20
     -202.000000
 30
        0.000000
 11
       19.000000
 21
     -202.000000
 31
        0.000000
  0
DIMENSION
  8
LVL0000
 62
  4
  2
BLK0005
 10
      128.600006
 20
      120.407448
 11
      171.143906
 21
      121.107445
 13
      128.600006
 23
       95.000000
 14
      250.000000
 24
      101.199997
 50
        0.0
 70
  0
  0
TEXT
  8
LVL0000
 62
  2
 10
      176.664518
 20
      144.873421
 30
        0.000000
 40
        4.000000
  1
ＩＶＳ２００Ｋ３
 50
        0.000000
 41
        0.835000
 51
        0.000000
  7
BIGFONT
  0
TEXT
  8
LVL0000
 62
  2
 10
      176.664518
 20
      138.873421
 30
        0.000000
 40
        4.000000
  1
ＩＶＳ２００Ｋ５
 50
        0.000000
 41
        0.835000
 51
        0.000000
  7
BIGFONT
  0
TEXT
  8
LVL0000
 62
  2
 10
      171.245710
 20
      115.982641
 30
        0.000000
 40
        3.500000
  1
ＩＶＳ２００Ｋ５＝５０００
 50
        0.000000
 41
        0.835000
 51
        0.000000
  7
BIGFONT
  0
LINE
  8
LVL0000
 10
      -11.400000
 20
      -81.085209
 30
        0.000000
 11
      -11.400000
 21
      -84.800000
 31
        0.000000
  0
LINE
  8
LVL0000
 10
       11.400000
 20
      -81.085209
 30
        0.000000
 11
       11.400000
 21
      -84.800000
 31
        0.000000
  0
ARC
  8
LVL0000
 10
      -10.200000
 20
      -74.870344
 30
        0.000000
 40
        6.329656
 50
      250.857289
 51
      289.142711
  0
LINE
  8
LVL0000
 10
       -8.124365
 20
      -80.850000
 30
        0.000000
 11
      -12.275635
 21
      -80.850000
 31
        0.000000
  0
LINE
  8
LVL0000
 10
       -8.050000
 20
      -80.000000
 30
        0.000000
 11
       -8.124365
 21
      -80.850000
 31
        0.000000
  0
LINE
  8
LVL0000
 10
      -12.350000
 20
      -80.000000
 30
        0.000000
 11
      -12.275635
 21
      -80.850000
 31
        0.000000
  0
LINE
  8
LVL0000
 10
        8.050000
 20
      -80.000000
 30
        0.000000
 11
        8.124365
 21
      -80.850000
 31
        0.000000
  0
LINE
  8
LVL0000
 10
       12.350000
 20
      -80.000000
 30
        0.000000
 11
       12.275635
 21
      -80.850000
 31
        0.000000
  0
LINE
  8
LVL0000
 10
       12.275635
 20
      -80.850000
 30
        0.000000
 11
        8.124365
 21
      -80.850000
 31
        0.000000
  0
ARC
  8
LVL0000
 10
       10.200000
 20
      -74.870344
 30
        0.000000
 40
        6.329656
 50
      250.857289
 51
      289.142711
  0
ARC
  8
LVL0000
 10
       14.500000
 20
     -129.500000
 30
        0.000000
 40
        0.500000
 50
      270.000000
 51
      360.000000
  0
LINE
  8
LVL0000
 10
       14.500000
 20
     -130.000000
 30
        0.000000
 11
      -14.500000
 21
     -130.000000
 31
        0.000000
  0
LINE
  8
LVL0000
 10
        9.100000
 20
     -108.264000
 30
        0.000000
 11
        9.100000
 21
     -108.863998
 31
        0.000000
  0
ARC
  8
LVL0000
 10
        9.600000
 20
     -107.964001
 30
        0.000000
 40
        0.300000
 50
      270.000000
 51
      360.000000
  0
ARC
  8
LVL0000
 10
       10.800000
 20
     -107.964001
 30
        0.000000
 40
        0.300000
 50
      179.999990
 51
      270.000000
  0
ARC
  8
LVL0000
 10
       10.800000
 20
     -109.163998
 30
        0.000000
 40
        0.300000
 50
       90.000000
 51
      179.999990
  0
ARC
  8
LVL0000
 10
        9.600000
 20
     -109.163998
 30
        0.000000
 40
        0.300000
 50
        0.000000
 51
       90.000000
  0
LINE
  8
LVL0000
 10
       10.500000
 20
     -109.163998
 30
        0.000000
 11
       10.500000
 21
     -109.664000
 31
        0.000000
  0
LINE
  8
LVL0000
 10
        9.900000
 20
     -109.163998
 30
        0.000000
 11
        9.900000
 21
     -109.664000
 31
        0.000000
  0
LINE
  8
LVL0000
 10
        9.600000
 20
     -108.264000
 30
        0.000000
 11
        9.100000
 21
     -108.264000
 31
        0.000000
  0
LINE
  8
LVL0000
 10
        9.600000
 20
     -108.863998
 30
        0.000000
 11
        9.100000
 21
     -108.863998
 31
        0.000000
  0
LINE
  8
LVL0000
 10
       11.300000
 20
     -108.264000
 30
        0.000000
 11
       10.800000
 21
     -108.264000
 31
        0.000000
  0
LINE
  8
LVL0000
 10
       11.300000
 20
     -108.863998
 30
        0.000000
 11
       10.800000
 21
     -108.863998
 31
        0.000000
  0
LINE
  8
LVL0000
 10
        9.900000
 20
     -107.463999
 30
        0.000000
 11
        9.900000
 21
     -107.964001
 31
        0.000000
  0
LINE
  8
LVL0000
 10
       10.500000
 20
     -107.463999
 30
        0.000000
 11
       10.500000
 21
     -107.964001
 31
        0.000000
  0
LINE
  8
LVL0000
 10
       11.300000
 20
     -108.264000
 30
        0.000000
 11
       11.300000
 21
     -108.863998
 31
        0.000000
  0
LINE
  8
LVL0000
 10
       10.500000
 20
     -107.463999
 30
        0.000000
 11
        9.900000
 21
     -107.463999
 31
        0.000000
  0
LINE
  8
LVL0000
 10
       10.500000
 20
     -109.664000
 30
        0.000000
 11
        9.900000
 21
     -109.664000
 31
        0.000000
  0
CIRCLE
  8
LVL0000
 10
       10.200000
 20
     -108.500000
 30
        0.000000
 40
        2.150000
  0
LINE
  8
LVL0000
 10
       -9.100000
 20
     -108.264000
 30
        0.000000
 11
       -9.100000
 21
     -108.863998
 31
        0.000000
  0
ARC
  8
LVL0000
 10
       -9.600000
 20
     -107.964001
 30
        0.000000
 40
        0.300000
 50
      179.999995
 51
      270.000000
  0
ARC
  8
LVL0000
 10
      -10.800000
 20
     -107.964001
 30
        0.000000
 40
        0.300000
 50
      270.000000
 51
      360.000005
  0
ARC
  8
LVL0000
 10
      -10.800000
 20
     -109.163998
 30
        0.000000
 40
        0.300000
 50
        0.000005
 51
       90.000000
  0
ARC
  8
LVL0000
 10
       -9.600000
 20
     -109.163998
 30
        0.000000
 40
        0.300000
 50
       90.000000
 51
      179.999995
  0
LINE
  8
LVL0000
 10
      -10.500000
 20
     -109.163998
 30
        0.000000
 11
      -10.500000
 21
     -109.664000
 31
        0.000000
  0
LINE
  8
LVL0000
 10
       -9.900000
 20
     -109.163998
 30
        0.000000
 11
       -9.900000
 21
     -109.664000
 31
        0.000000
  0
LINE
  8
LVL0000
 10
       -9.600000
 20
     -108.264000
 30
        0.000000
 11
       -9.100000
 21
     -108.264000
 31
        0.000000
  0
LINE
  8
LVL0000
 10
       -9.600000
 20
     -108.863998
 30
        0.000000
 11
       -9.100000
 21
     -108.863998
 31
        0.000000
  0
LINE
  8
LVL0000
 10
      -11.300000
 20
     -108.264000
 30
        0.000000
 11
      -10.800000
 21
     -108.264000
 31
        0.000000
  0
LINE
  8
LVL0000
 10
      -11.300000
 20
     -108.863998
 30
        0.000000
 11
      -10.800000
 21
     -108.863998
 31
        0.000000
  0
LINE
  8
LVL0000
 10
       -9.900000
 20
     -107.463999
 30
        0.000000
 11
       -9.900000
 21
     -107.964001
 31
        0.000000
  0
LINE
  8
LVL0000
 10
      -10.500000
 20
     -107.463999
 30
        0.000000
 11
      -10.500000
 21
     -107.964001
 31
        0.000000
  0
LINE
  8
LVL0000
 10
      -11.300000
 20
     -108.264000
 30
        0.000000
 11
      -11.300000
 21
     -108.863998
 31
        0.000000
  0
LINE
  8
LVL0000
 10
      -10.500000
 20
     -107.463999
 30
        0.000000
 11
       -9.900000
 21
     -107.463999
 31
        0.000000
  0
LINE
  8
LVL0000
 10
      -10.500000
 20
     -109.664000
 30
        0.000000
 11
       -9.900000
 21
     -109.664000
 31
        0.000000
  0
CIRCLE
  8
LVL0000
 10
      -10.200000
 20
     -108.500000
 30
        0.000000
 40
        2.150000
  0
ARC
  8
LVL0000
 10
      -14.500000
 20
     -129.500000
 30
        0.000000
 40
        0.500000
 50
      179.999995
 51
      270.000000
  0
LINE
  8
LVL0000
 10
      -15.000000
 20
     -129.500000
 30
        0.000000
 11
      -15.000000
 21
     -100.500000
 31
        0.000000
  0
ARC
  8
LVL0000
 10
       14.500000
 20
     -100.500000
 30
        0.000000
 40
        0.500000
 50
        0.000000
 51
       90.000000
  0
LINE
  8
LVL0000
 10
       14.500000
 20
     -100.000000
 30
        0.000000
 11
      -14.500000
 21
     -100.000000
 31
        0.000000
  0
ARC
  8
LVL0000
 10
      -14.500000
 20
     -100.500000
 30
        0.000000
 40
        0.500000
 50
       90.000000
 51
      179.999995
  0
ARC
  8
LVL0000
 10
        5.598076
 20
     -121.050000
 30
        0.000000
 40
        0.200000
 50
       15.000000
 51
       90.000000
  0
LINE
  8
LVL0000
 10
        6.193185
 20
     -122.498236
 30
        0.000000
 11
        5.791261
 21
     -120.998236
 31
        0.000000
  0
ARC
  8
LVL0000
 10
        6.000000
 20
     -122.550000
 30
        0.000000
 40
        0.200000
 50
      270.000000
 51
      375.000000
  0
LINE
  8
LVL0000
 10
       -6.000000
 20
     -122.750000
 30
        0.000000
 11
        6.000000
 21
     -122.750000
 31
        0.000000
  0
ARC
  8
LVL0000
 10
       -6.000000
 20
     -122.550000
 30
        0.000000
 40
        0.200000
 50
      164.999995
 51
      270.000000
  0
LINE
  8
LVL0000
 10
       -5.791261
 20
     -120.998236
 30
        0.000000
 11
       -6.193185
 21
     -122.498236
 31
        0.000000
  0
ARC
  8
LVL0000
 10
       -5.598076
 20
     -121.050000
 30
        0.000000
 40
        0.200000
 50
       90.000000
 51
      164.999995
  0
LINE
  8
LVL0000
 10
        5.598076
 20
     -120.850000
 30
        0.000000
 11
       -5.598076
 21
     -120.850000
 31
        0.000000
  0
LINE
  8
LVL0000
 10
       10.505911
 20
     -120.186982
 30
        0.000000
 11
        9.858819
 21
     -120.834074
 31
        0.000000
  0
LINE
  8
LVL0000
 10
       11.213018
 20
     -120.894089
 30
        0.000000
 11
       10.565926
 21
     -121.541181
 31
        0.000000
  0
LINE
  8
LVL0000
 10
        9.341181
 20
     -122.765926
 30
        0.000000
 11
        8.694089
 21
     -123.413018
 31
        0.000000
  0
LINE
  8
LVL0000
 10
        8.634074
 20
     -122.058819
 30
        0.000000
 11
        7.986982
 21
     -122.705911
 31
        0.000000
  0
CIRCLE
  8
LVL0000
 10
        9.600000
 20
     -121.800000
 30
        0.000000
 40
        1.850000
  0
CIRCLE
  8
LVL0000
 10
        9.600000
 20
     -121.800000
 30
        0.000000
 40
        1.000000
  0
LINE
  8
LVL0000
 10
      -10.565926
 20
     -122.058819
 30
        0.000000
 11
      -11.213018
 21
     -122.705911
 31
        0.000000
  0
LINE
  8
LVL0000
 10
       -9.858819
 20
     -122.765926
 30
        0.000000
 11
      -10.505911
 21
     -123.413018
 31
        0.000000
  0
LINE
  8
LVL0000
 10
       -7.986982
 20
     -120.894089
 30
        0.000000
 11
       -8.634074
 21
     -121.541181
 31
        0.000000
  0
LINE
  8
LVL0000
 10
       -8.694089
 20
     -120.186982
 30
        0.000000
 11
       -9.341181
 21
     -120.834074
 31
        0.000000
  0
CIRCLE
  8
LVL0000
 10
       -9.600000
 20
     -121.800000
 30
        0.000000
 40
        1.000000
  0
CIRCLE
  8
LVL0000
 10
       -9.600000
 20
     -121.800000
 30
        0.000000
 40
        1.850000
  0
LINE
  8
LVL0000
 10
       -5.598076
 20
     -120.050000
 30
        0.000000
 11
        5.598076
 21
     -120.050000
 31
        0.000000
  0
ARC
  8
LVL0000
 10
       -5.598076
 20
     -121.050000
 30
        0.000000
 40
        1.000000
 50
       90.000000
 51
      164.999995
  0
LINE
  8
LVL0000
 10
       -6.965926
 20
     -122.291181
 30
        0.000000
 11
       -6.564002
 21
     -120.791181
 31
        0.000000
  0
ARC
  8
LVL0000
 10
       -6.000000
 20
     -122.550000
 30
        0.000000
 40
        1.000000
 50
      164.999995
 51
      270.000000
  0
LINE
  8
LVL0000
 10
       -6.000000
 20
     -123.550000
 30
        0.000000
 11
        6.000000
 21
     -123.550000
 31
        0.000000
  0
ARC
  8
LVL0000
 10
        6.000000
 20
     -122.550000
 30
        0.000000
 40
        1.000000
 50
      270.000000
 51
      375.000000
  0
LINE
  8
LVL0000
 10
        6.965926
 20
     -122.291181
 30
        0.000000
 11
        6.564002
 21
     -120.791181
 31
        0.000000
  0
ARC
  8
LVL0000
 10
        5.598076
 20
     -121.050000
 30
        0.000000
 40
        1.000000
 50
       15.000000
 51
       90.000000
  0
ARC
  8
LVL0000
 10
        6.650000
 20
     -123.400000
 30
        0.000000
 40
        1.000000
 50
      270.000000
 51
      360.000000
  0
LINE
  8
LVL0000
 10
        7.650000
 20
     -123.400000
 30
        0.000000
 11
        7.650000
 21
     -120.200000
 31
        0.000000
  0
ARC
  8
LVL0000
 10
        6.650000
 20
     -120.200000
 30
        0.000000
 40
        1.000000
 50
        0.000000
 51
       90.000000
  0
LINE
  8
LVL0000
 10
        6.650000
 20
     -119.200000
 30
        0.000000
 11
       -6.650000
 21
     -119.200000
 31
        0.000000
  0
LINE
  8
LVL0000
 10
        6.650000
 20
     -124.400000
 30
        0.000000
 11
       -6.650000
 21
     -124.400000
 31
        0.000000
  0
ARC
  8
LVL0000
 10
       -6.650000
 20
     -123.400000
 30
        0.000000
 40
        1.000000
 50
      179.999995
 51
      270.000000
  0
ARC
  8
LVL0000
 10
       -6.650000
 20
     -120.200000
 30
        0.000000
 40
        1.000000
 50
       90.000000
 51
      179.999995
  0
LINE
  8
LVL0000
 10
       -7.650000
 20
     -123.400000
 30
        0.000000
 11
       -7.650000
 21
     -120.200000
 31
        0.000000
  0
LINE
  8
LVL0000
 10
       15.000000
 20
     -129.500000
 30
        0.000000
 11
       15.000000
 21
     -100.500000
 31
        0.000000
  0
ARC
  8
LVL0000
 10
       12.835999
 20
     -382.900000
 30
        0.000000
 40
        0.300000
 50
       90.000000
 51
      180.000008
  0
ARC
  8
LVL0000
 10
       12.835999
 20
     -381.700000
 30
        0.000000
 40
        0.300000
 50
      180.000008
 51
      270.000000
  0
ARC
  8
LVL0000
 10
       11.636002
 20
     -381.700000
 30
        0.000000
 40
        0.300000
 50
      270.000000
 51
      360.000001
  0
ARC
  8
LVL0000
 10
       11.636002
 20
     -382.900000
 30
        0.000000
 40
        0.300000
 50
        0.000001
 51
       90.000000
  0
LINE
  8
LVL0000
 10
       11.636002
 20
     -382.000000
 30
        0.000000
 11
       11.136000
 21
     -382.000000
 31
        0.000000
  0
LINE
  8
LVL0000
 10
       11.636002
 20
     -382.600000
 30
        0.000000
 11
       11.136000
 21
     -382.600000
 31
        0.000000
  0
LINE
  8
LVL0000
 10
       12.536000
 20
     -382.900000
 30
        0.000000
 11
       12.536000
 21
     -383.400000
 31
        0.000000
  0
LINE
  8
LVL0000
 10
       11.936002
 20
     -382.900000
 30
        0.000000
 11
       11.936002
 21
     -383.400000
 31
        0.000000
  0
LINE
  8
LVL0000
 10
       12.536000
 20
     -381.200000
 30
        0.000000
 11
       12.536000
 21
     -381.700000
 31
        0.000000
  0
LINE
  8
LVL0000
 10
       11.936002
 20
     -381.200000
 30
        0.000000
 11
       11.936002
 21
     -381.700000
 31
        0.000000
  0
LINE
  8
LVL0000
 10
       13.336001
 20
     -382.600000
 30
        0.000000
 11
       12.835999
 21
     -382.600000
 31
        0.000000
  0
LINE
  8
LVL0000
 10
       13.336001
 20
     -382.000000
 30
        0.000000
 11
       12.835999
 21
     -382.000000
 31
        0.000000
  0
LINE
  8
LVL0000
 10
       12.536000
 20
     -381.200000
 30
        0.000000
 11
       11.936002
 21
     -381.200000
 31
        0.000000
  0
LINE
  8
LVL0000
 10
       12.536000
 20
     -383.400000
 30
        0.000000
 11
       11.936002
 21
     -383.400000
 31
        0.000000
  0
LINE
  8
LVL0000
 10
       13.336001
 20
     -382.000000
 30
        0.000000
 11
       13.336001
 21
     -382.600000
 31
        0.000000
  0
LINE
  8
LVL0000
 10
       11.136000
 20
     -382.000000
 30
        0.000000
 11
       11.136000
 21
     -382.600000
 31
        0.000000
  0
CIRCLE
  8
LVL0000
 10
       12.300000
 20
     -382.300000
 30
        0.000000
 40
        2.150000
  0
ARC
  8
LVL0000
 10
      -11.764001
 20
     -382.900000
 30
        0.000000
 40
        0.300000
 50
       90.000000
 51
      180.000008
  0
ARC
  8
LVL0000
 10
      -11.764001
 20
     -381.700000
 30
        0.000000
 40
        0.300000
 50
      180.000008
 51
      270.000000
  0
ARC
  8
LVL0000
 10
      -12.963998
 20
     -381.700000
 30
        0.000000
 40
        0.300000
 50
      270.000000
 51
      360.000001
  0
ARC
  8
LVL0000
 10
      -12.963998
 20
     -382.900000
 30
        0.000000
 40
        0.300000
 50
        0.000001
 51
       90.000000
  0
LINE
  8
LVL0000
 10
      -12.963998
 20
     -382.000000
 30
        0.000000
 11
      -13.464000
 21
     -382.000000
 31
        0.000000
  0
LINE
  8
LVL0000
 10
      -12.963998
 20
     -382.600000
 30
        0.000000
 11
      -13.464000
 21
     -382.600000
 31
        0.000000
  0
LINE
  8
LVL0000
 10
      -12.064000
 20
     -382.900000
 30
        0.000000
 11
      -12.064000
 21
     -383.400000
 31
        0.000000
  0
LINE
  8
LVL0000
 10
      -12.663998
 20
     -382.900000
 30
        0.000000
 11
      -12.663998
 21
     -383.400000
 31
        0.000000
  0
LINE
  8
LVL0000
 10
      -12.064000
 20
     -381.200000
 30
        0.000000
 11
      -12.064000
 21
     -381.700000
 31
        0.000000
  0
LINE
  8
LVL0000
 10
      -12.663998
 20
     -381.200000
 30
        0.000000
 11
      -12.663998
 21
     -381.700000
 31
        0.000000
  0
LINE
  8
LVL0000
 10
      -11.263999
 20
     -382.600000
 30
        0.000000
 11
      -11.764001
 21
     -382.600000
 31
        0.000000
  0
LINE
  8
LVL0000
 10
      -11.263999
 20
     -382.000000
 30
        0.000000
 11
      -11.764001
 21
     -382.000000
 31
        0.000000
  0
LINE
  8
LVL0000
 10
      -12.064000
 20
     -381.200000
 30
        0.000000
 11
      -12.663998
 21
     -381.200000
 31
        0.000000
  0
LINE
  8
LVL0000
 10
      -12.064000
 20
     -383.400000
 30
        0.000000
 11
      -12.663998
 21
     -383.400000
 31
        0.000000
  0
LINE
  8
LVL0000
 10
      -11.263999
 20
     -382.000000
 30
        0.000000
 11
      -11.263999
 21
     -382.600000
 31
        0.000000
  0
LINE
  8
LVL0000
 10
      -13.464000
 20
     -382.000000
 30
        0.000000
 11
      -13.464000
 21
     -382.600000
 31
        0.000000
  0
CIRCLE
  8
LVL0000
 10
      -12.300000
 20
     -382.300000
 30
        0.000000
 40
        2.150000
  0
ARC
  8
LVL0000
 10
       12.835999
 20
     -358.300000
 30
        0.000000
 40
        0.300000
 50
       90.000000
 51
      180.000008
  0
ARC
  8
LVL0000
 10
       12.835999
 20
     -357.100000
 30
        0.000000
 40
        0.300000
 50
      180.000008
 51
      270.000000
  0
ARC
  8
LVL0000
 10
       11.636002
 20
     -357.100000
 30
        0.000000
 40
        0.300000
 50
      270.000000
 51
      360.000001
  0
ARC
  8
LVL0000
 10
       11.636002
 20
     -358.300000
 30
        0.000000
 40
        0.300000
 50
        0.000001
 51
       90.000000
  0
LINE
  8
LVL0000
 10
       11.636002
 20
     -357.400000
 30
        0.000000
 11
       11.136000
 21
     -357.400000
 31
        0.000000
  0
LINE
  8
LVL0000
 10
       11.636002
 20
     -358.000000
 30
        0.000000
 11
       11.136000
 21
     -358.000000
 31
        0.000000
  0
LINE
  8
LVL0000
 10
       12.536000
 20
     -358.300000
 30
        0.000000
 11
       12.536000
 21
     -358.800000
 31
        0.000000
  0
LINE
  8
LVL0000
 10
       11.936002
 20
     -358.300000
 30
        0.000000
 11
       11.936002
 21
     -358.800000
 31
        0.000000
  0
LINE
  8
LVL0000
 10
       12.536000
 20
     -356.600000
 30
        0.000000
 11
       12.536000
 21
     -357.100000
 31
        0.000000
  0
LINE
  8
LVL0000
 10
       11.936002
 20
     -356.600000
 30
        0.000000
 11
       11.936002
 21
     -357.100000
 31
        0.000000
  0
LINE
  8
LVL0000
 10
       13.336001
 20
     -358.000000
 30
        0.000000
 11
       12.835999
 21
     -358.000000
 31
        0.000000
  0
LINE
  8
LVL0000
 10
       13.336001
 20
     -357.400000
 30
        0.000000
 11
       12.835999
 21
     -357.400000
 31
        0.000000
  0
LINE
  8
LVL0000
 10
       12.536000
 20
     -356.600000
 30
        0.000000
 11
       11.936002
 21
     -356.600000
 31
        0.000000
  0
LINE
  8
LVL0000
 10
       12.536000
 20
     -358.800000
 30
        0.000000
 11
       11.936002
 21
     -358.800000
 31
        0.000000
  0
LINE
  8
LVL0000
 10
       13.336001
 20
     -357.400000
 30
        0.000000
 11
       13.336001
 21
     -358.000000
 31
        0.000000
  0
LINE
  8
LVL0000
 10
       11.136000
 20
     -357.400000
 30
        0.000000
 11
       11.136000
 21
     -358.000000
 31
        0.000000
  0
CIRCLE
  8
LVL0000
 10
       12.300000
 20
     -357.700000
 30
        0.000000
 40
        2.150000
  0
ARC
  8
LVL0000
 10
      -11.764001
 20
     -358.300000
 30
        0.000000
 40
        0.300000
 50
       90.000000
 51
      180.000008
  0
ARC
  8
LVL0000
 10
      -11.764001
 20
     -357.100000
 30
        0.000000
 40
        0.300000
 50
      180.000008
 51
      270.000000
  0
ARC
  8
LVL0000
 10
      -12.963998
 20
     -357.100000
 30
        0.000000
 40
        0.300000
 50
      270.000000
 51
      360.000001
  0
ARC
  8
LVL0000
 10
      -12.963998
 20
     -358.300000
 30
        0.000000
 40
        0.300000
 50
        0.000001
 51
       90.000000
  0
LINE
  8
LVL0000
 10
      -12.963998
 20
     -357.400000
 30
        0.000000
 11
      -13.464000
 21
     -357.400000
 31
        0.000000
  0
LINE
  8
LVL0000
 10
      -12.963998
 20
     -358.000000
 30
        0.000000
 11
      -13.464000
 21
     -358.000000
 31
        0.000000
  0
LINE
  8
LVL0000
 10
      -12.064000
 20
     -358.300000
 30
        0.000000
 11
      -12.064000
 21
     -358.800000
 31
        0.000000
  0
LINE
  8
LVL0000
 10
      -12.663998
 20
     -358.300000
 30
        0.000000
 11
      -12.663998
 21
     -358.800000
 31
        0.000000
  0
LINE
  8
LVL0000
 10
      -12.064000
 20
     -356.600000
 30
        0.000000
 11
      -12.064000
 21
     -357.100000
 31
        0.000000
  0
LINE
  8
LVL0000
 10
      -12.663998
 20
     -356.600000
 30
        0.000000
 11
      -12.663998
 21
     -357.100000
 31
        0.000000
  0
LINE
  8
LVL0000
 10
      -11.263999
 20
     -358.000000
 30
        0.000000
 11
      -11.764001
 21
     -358.000000
 31
        0.000000
  0
LINE
  8
LVL0000
 10
      -11.263999
 20
     -357.400000
 30
        0.000000
 11
      -11.764001
 21
     -357.400000
 31
        0.000000
  0
LINE
  8
LVL0000
 10
      -12.064000
 20
     -356.600000
 30
        0.000000
 11
      -12.663998
 21
     -356.600000
 31
        0.000000
  0
LINE
  8
LVL0000
 10
      -12.064000
 20
     -358.800000
 30
        0.000000
 11
      -12.663998
 21
     -358.800000
 31
        0.000000
  0
LINE
  8
LVL0000
 10
      -11.263999
 20
     -357.400000
 30
        0.000000
 11
      -11.263999
 21
     -358.000000
 31
        0.000000
  0
LINE
  8
LVL0000
 10
      -13.464000
 20
     -357.400000
 30
        0.000000
 11
      -13.464000
 21
     -358.000000
 31
        0.000000
  0
CIRCLE
  8
LVL0000
 10
      -12.300000
 20
     -357.700000
 30
        0.000000
 40
        2.150000
  0
CIRCLE
  8
LVL0000
 10
      -12.300000
 20
     -272.700000
 30
        0.000000
 40
        2.150000
  0
LINE
  8
LVL0000
 10
      -13.464000
 20
     -272.400000
 30
        0.000000
 11
      -13.464000
 21
     -273.000000
 31
        0.000000
  0
LINE
  8
LVL0000
 10
      -11.263999
 20
     -272.400000
 30
        0.000000
 11
      -11.263999
 21
     -273.000000
 31
        0.000000
  0
LINE
  8
LVL0000
 10
      -12.064000
 20
     -273.800000
 30
        0.000000
 11
      -12.663998
 21
     -273.800000
 31
        0.000000
  0
LINE
  8
LVL0000
 10
      -12.064000
 20
     -271.600000
 30
        0.000000
 11
      -12.663998
 21
     -271.600000
 31
        0.000000
  0
LINE
  8
LVL0000
 10
      -11.263999
 20
     -272.400000
 30
        0.000000
 11
      -11.764001
 21
     -272.400000
 31
        0.000000
  0
LINE
  8
LVL0000
 10
      -11.263999
 20
     -273.000000
 30
        0.000000
 11
      -11.764001
 21
     -273.000000
 31
        0.000000
  0
LINE
  8
LVL0000
 10
      -12.663998
 20
     -271.600000
 30
        0.000000
 11
      -12.663998
 21
     -272.100000
 31
        0.000000
  0
LINE
  8
LVL0000
 10
      -12.064000
 20
     -271.600000
 30
        0.000000
 11
      -12.064000
 21
     -272.100000
 31
        0.000000
  0
LINE
  8
LVL0000
 10
      -12.663998
 20
     -273.300000
 30
        0.000000
 11
      -12.663998
 21
     -273.800000
 31
        0.000000
  0
LINE
  8
LVL0000
 10
      -12.064000
 20
     -273.300000
 30
        0.000000
 11
      -12.064000
 21
     -273.800000
 31
        0.000000
  0
LINE
  8
LVL0000
 10
      -12.963998
 20
     -273.000000
 30
        0.000000
 11
      -13.464000
 21
     -273.000000
 31
        0.000000
  0
LINE
  8
LVL0000
 10
      -12.963998
 20
     -272.400000
 30
        0.000000
 11
      -13.464000
 21
     -272.400000
 31
        0.000000
  0
ARC
  8
LVL0000
 10
      -12.963998
 20
     -273.300000
 30
        0.000000
 40
        0.300000
 50
        0.000001
 51
       90.000000
  0
ARC
  8
LVL0000
 10
      -12.963998
 20
     -272.100000
 30
        0.000000
 40
        0.300000
 50
      270.000000
 51
      360.000001
  0
ARC
  8
LVL0000
 10
      -11.764001
 20
     -272.100000
 30
        0.000000
 40
        0.300000
 50
      180.000008
 51
      270.000000
  0
ARC
  8
LVL0000
 10
      -11.764001
 20
     -273.300000
 30
        0.000000
 40
        0.300000
 50
       90.000000
 51
      180.000008
  0
CIRCLE
  8
LVL0000
 10
       12.300000
 20
     -272.700000
 30
        0.000000
 40
        2.150000
  0
LINE
  8
LVL0000
 10
       11.136000
 20
     -272.400000
 30
        0.000000
 11
       11.136000
 21
     -273.000000
 31
        0.000000
  0
LINE
  8
LVL0000
 10
       13.336001
 20
     -272.400000
 30
        0.000000
 11
       13.336001
 21
     -273.000000
 31
        0.000000
  0
LINE
  8
LVL0000
 10
       12.536000
 20
     -273.800000
 30
        0.000000
 11
       11.936002
 21
     -273.800000
 31
        0.000000
  0
LINE
  8
LVL0000
 10
       12.536000
 20
     -271.600000
 30
        0.000000
 11
       11.936002
 21
     -271.600000
 31
        0.000000
  0
LINE
  8
LVL0000
 10
       13.336001
 20
     -272.400000
 30
        0.000000
 11
       12.835999
 21
     -272.400000
 31
        0.000000
  0
LINE
  8
LVL0000
 10
       13.336001
 20
     -273.000000
 30
        0.000000
 11
       12.835999
 21
     -273.000000
 31
        0.000000
  0
LINE
  8
LVL0000
 10
       11.936002
 20
     -271.600000
 30
        0.000000
 11
       11.936002
 21
     -272.100000
 31
        0.000000
  0
LINE
  8
LVL0000
 10
       12.536000
 20
     -271.600000
 30
        0.000000
 11
       12.536000
 21
     -272.100000
 31
        0.000000
  0
LINE
  8
LVL0000
 10
       11.936002
 20
     -273.300000
 30
        0.000000
 11
       11.936002
 21
     -273.800000
 31
        0.000000
  0
LINE
  8
LVL0000
 10
       12.536000
 20
     -273.300000
 30
        0.000000
 11
       12.536000
 21
     -273.800000
 31
        0.000000
  0
LINE
  8
LVL0000
 10
       11.636002
 20
     -273.000000
 30
        0.000000
 11
       11.136000
 21
     -273.000000
 31
        0.000000
  0
LINE
  8
LVL0000
 10
       11.636002
 20
     -272.400000
 30
        0.000000
 11
       11.136000
 21
     -272.400000
 31
        0.000000
  0
ARC
  8
LVL0000
 10
       11.636002
 20
     -273.300000
 30
        0.000000
 40
        0.300000
 50
        0.000001
 51
       90.000000
  0
ARC
  8
LVL0000
 10
       11.636002
 20
     -272.100000
 30
        0.000000
 40
        0.300000
 50
      270.000000
 51
      360.000001
  0
ARC
  8
LVL0000
 10
       12.835999
 20
     -272.100000
 30
        0.000000
 40
        0.300000
 50
      180.000008
 51
      270.000000
  0
ARC
  8
LVL0000
 10
       12.835999
 20
     -273.300000
 30
        0.000000
 40
        0.300000
 50
       90.000000
 51
      180.000008
  0
CIRCLE
  8
LVL0000
 10
      -12.300000
 20
     -297.300000
 30
        0.000000
 40
        2.150000
  0
LINE
  8
LVL0000
 10
      -13.464000
 20
     -297.000000
 30
        0.000000
 11
      -13.464000
 21
     -297.600000
 31
        0.000000
  0
LINE
  8
LVL0000
 10
      -11.263999
 20
     -297.000000
 30
        0.000000
 11
      -11.263999
 21
     -297.600000
 31
        0.000000
  0
LINE
  8
LVL0000
 10
      -12.064000
 20
     -298.400000
 30
        0.000000
 11
      -12.663998
 21
     -298.400000
 31
        0.000000
  0
LINE
  8
LVL0000
 10
      -12.064000
 20
     -296.200000
 30
        0.000000
 11
      -12.663998
 21
     -296.200000
 31
        0.000000
  0
LINE
  8
LVL0000
 10
      -11.263999
 20
     -297.000000
 30
        0.000000
 11
      -11.764001
 21
     -297.000000
 31
        0.000000
  0
LINE
  8
LVL0000
 10
      -11.263999
 20
     -297.600000
 30
        0.000000
 11
      -11.764001
 21
     -297.600000
 31
        0.000000
  0
LINE
  8
LVL0000
 10
      -12.663998
 20
     -296.200000
 30
        0.000000
 11
      -12.663998
 21
     -296.700000
 31
        0.000000
  0
LINE
  8
LVL0000
 10
      -12.064000
 20
     -296.200000
 30
        0.000000
 11
      -12.064000
 21
     -296.700000
 31
        0.000000
  0
LINE
  8
LVL0000
 10
      -12.663998
 20
     -297.900000
 30
        0.000000
 11
      -12.663998
 21
     -298.400000
 31
        0.000000
  0
LINE
  8
LVL0000
 10
      -12.064000
 20
     -297.900000
 30
        0.000000
 11
      -12.064000
 21
     -298.400000
 31
        0.000000
  0
LINE
  8
LVL0000
 10
      -12.963998
 20
     -297.600000
 30
        0.000000
 11
      -13.464000
 21
     -297.600000
 31
        0.000000
  0
LINE
  8
LVL0000
 10
      -12.963998
 20
     -297.000000
 30
        0.000000
 11
      -13.464000
 21
     -297.000000
 31
        0.000000
  0
ARC
  8
LVL0000
 10
      -12.963998
 20
     -297.900000
 30
        0.000000
 40
        0.300000
 50
        0.000001
 51
       90.000000
  0
ARC
  8
LVL0000
 10
      -12.963998
 20
     -296.700000
 30
        0.000000
 40
        0.300000
 50
      270.000000
 51
      360.000001
  0
ARC
  8
LVL0000
 10
      -11.764001
 20
     -296.700000
 30
        0.000000
 40
        0.300000
 50
      180.000008
 51
      270.000000
  0
ARC
  8
LVL0000
 10
      -11.764001
 20
     -297.900000
 30
        0.000000
 40
        0.300000
 50
       90.000000
 51
      180.000008
  0
CIRCLE
  8
LVL0000
 10
       12.300000
 20
     -297.300000
 30
        0.000000
 40
        2.150000
  0
LINE
  8
LVL0000
 10
       11.136000
 20
     -297.000000
 30
        0.000000
 11
       11.136000
 21
     -297.600000
 31
        0.000000
  0
LINE
  8
LVL0000
 10
       13.336001
 20
     -297.000000
 30
        0.000000
 11
       13.336001
 21
     -297.600000
 31
        0.000000
  0
LINE
  8
LVL0000
 10
       12.536000
 20
     -298.400000
 30
        0.000000
 11
       11.936002
 21
     -298.400000
 31
        0.000000
  0
LINE
  8
LVL0000
 10
       12.536000
 20
     -296.200000
 30
        0.000000
 11
       11.936002
 21
     -296.200000
 31
        0.000000
  0
LINE
  8
LVL0000
 10
       13.336001
 20
     -297.000000
 30
        0.000000
 11
       12.835999
 21
     -297.000000
 31
        0.000000
  0
LINE
  8
LVL0000
 10
       13.336001
 20
     -297.600000
 30
        0.000000
 11
       12.835999
 21
     -297.600000
 31
        0.000000
  0
LINE
  8
LVL0000
 10
       11.936002
 20
     -296.200000
 30
        0.000000
 11
       11.936002
 21
     -296.700000
 31
        0.000000
  0
LINE
  8
LVL0000
 10
       12.536000
 20
     -296.200000
 30
        0.000000
 11
       12.536000
 21
     -296.700000
 31
        0.000000
  0
LINE
  8
LVL0000
 10
       11.936002
 20
     -297.900000
 30
        0.000000
 11
       11.936002
 21
     -298.400000
 31
        0.000000
  0
LINE
  8
LVL0000
 10
       12.536000
 20
     -297.900000
 30
        0.000000
 11
       12.536000
 21
     -298.400000
 31
        0.000000
  0
LINE
  8
LVL0000
 10
       11.636002
 20
     -297.600000
 30
        0.000000
 11
       11.136000
 21
     -297.600000
 31
        0.000000
  0
LINE
  8
LVL0000
 10
       11.636002
 20
     -297.000000
 30
        0.000000
 11
       11.136000
 21
     -297.000000
 31
        0.000000
  0
ARC
  8
LVL0000
 10
       11.636002
 20
     -297.900000
 30
        0.000000
 40
        0.300000
 50
        0.000001
 51
       90.000000
  0
ARC
  8
LVL0000
 10
       11.636002
 20
     -296.700000
 30
        0.000000
 40
        0.300000
 50
      270.000000
 51
      360.000001
  0
ARC
  8
LVL0000
 10
       12.835999
 20
     -296.700000
 30
        0.000000
 40
        0.300000
 50
      180.000008
 51
      270.000000
  0
ARC
  8
LVL0000
 10
       12.835999
 20
     -297.900000
 30
        0.000000
 40
        0.300000
 50
       90.000000
 51
      180.000008
  0
CIRCLE
  8
LVL0000
 10
      -12.300000
 20
     -187.700000
 30
        0.000000
 40
        2.150000
  0
LINE
  8
LVL0000
 10
      -13.464000
 20
     -187.400000
 30
        0.000000
 11
      -13.464000
 21
     -188.000000
 31
        0.000000
  0
LINE
  8
LVL0000
 10
      -11.263999
 20
     -187.400000
 30
        0.000000
 11
      -11.263999
 21
     -188.000000
 31
        0.000000
  0
LINE
  8
LVL0000
 10
      -12.064000
 20
     -188.800000
 30
        0.000000
 11
      -12.663998
 21
     -188.800000
 31
        0.000000
  0
LINE
  8
LVL0000
 10
      -12.064000
 20
     -186.600000
 30
        0.000000
 11
      -12.663998
 21
     -186.600000
 31
        0.000000
  0
LINE
  8
LVL0000
 10
      -11.263999
 20
     -187.400000
 30
        0.000000
 11
      -11.764001
 21
     -187.400000
 31
        0.000000
  0
LINE
  8
LVL0000
 10
      -11.263999
 20
     -188.000000
 30
        0.000000
 11
      -11.764001
 21
     -188.000000
 31
        0.000000
  0
LINE
  8
LVL0000
 10
      -12.663998
 20
     -186.600000
 30
        0.000000
 11
      -12.663998
 21
     -187.100000
 31
        0.000000
  0
LINE
  8
LVL0000
 10
      -12.064000
 20
     -186.600000
 30
        0.000000
 11
      -12.064000
 21
     -187.100000
 31
        0.000000
  0
LINE
  8
LVL0000
 10
      -12.663998
 20
     -188.300000
 30
        0.000000
 11
      -12.663998
 21
     -188.800000
 31
        0.000000
  0
LINE
  8
LVL0000
 10
      -12.064000
 20
     -188.300000
 30
        0.000000
 11
      -12.064000
 21
     -188.800000
 31
        0.000000
  0
LINE
  8
LVL0000
 10
      -12.963998
 20
     -188.000000
 30
        0.000000
 11
      -13.464000
 21
     -188.000000
 31
        0.000000
  0
LINE
  8
LVL0000
 10
      -12.963998
 20
     -187.400000
 30
        0.000000
 11
      -13.464000
 21
     -187.400000
 31
        0.000000
  0
ARC
  8
LVL0000
 10
      -12.963998
 20
     -188.300000
 30
        0.000000
 40
        0.300000
 50
        0.000001
 51
       90.000000
  0
ARC
  8
LVL0000
 10
      -12.963998
 20
     -187.100000
 30
        0.000000
 40
        0.300000
 50
      270.000000
 51
      360.000001
  0
ARC
  8
LVL0000
 10
      -11.764001
 20
     -187.100000
 30
        0.000000
 40
        0.300000
 50
      180.000008
 51
      270.000000
  0
ARC
  8
LVL0000
 10
      -11.764001
 20
     -188.300000
 30
        0.000000
 40
        0.300000
 50
       90.000000
 51
      180.000008
  0
CIRCLE
  8
LVL0000
 10
       12.300000
 20
     -187.700000
 30
        0.000000
 40
        2.150000
  0
LINE
  8
LVL0000
 10
       11.136000
 20
     -187.400000
 30
        0.000000
 11
       11.136000
 21
     -188.000000
 31
        0.000000
  0
LINE
  8
LVL0000
 10
       13.336001
 20
     -187.400000
 30
        0.000000
 11
       13.336001
 21
     -188.000000
 31
        0.000000
  0
LINE
  8
LVL0000
 10
       12.536000
 20
     -188.800000
 30
        0.000000
 11
       11.936002
 21
     -188.800000
 31
        0.000000
  0
LINE
  8
LVL0000
 10
       12.536000
 20
     -186.600000
 30
        0.000000
 11
       11.936002
 21
     -186.600000
 31
        0.000000
  0
LINE
  8
LVL0000
 10
       13.336001
 20
     -187.400000
 30
        0.000000
 11
       12.835999
 21
     -187.400000
 31
        0.000000
  0
LINE
  8
LVL0000
 10
       13.336001
 20
     -188.000000
 30
        0.000000
 11
       12.835999
 21
     -188.000000
 31
        0.000000
  0
LINE
  8
LVL0000
 10
       11.936002
 20
     -186.600000
 30
        0.000000
 11
       11.936002
 21
     -187.100000
 31
        0.000000
  0
LINE
  8
LVL0000
 10
       12.536000
 20
     -186.600000
 30
        0.000000
 11
       12.536000
 21
     -187.100000
 31
        0.000000
  0
LINE
  8
LVL0000
 10
       11.936002
 20
     -188.300000
 30
        0.000000
 11
       11.936002
 21
     -188.800000
 31
        0.000000
  0
LINE
  8
LVL0000
 10
       12.536000
 20
     -188.300000
 30
        0.000000
 11
       12.536000
 21
     -188.800000
 31
        0.000000
  0
LINE
  8
LVL0000
 10
       11.636002
 20
     -188.000000
 30
        0.000000
 11
       11.136000
 21
     -188.000000
 31
        0.000000
  0
LINE
  8
LVL0000
 10
       11.636002
 20
     -187.400000
 30
        0.000000
 11
       11.136000
 21
     -187.400000
 31
        0.000000
  0
ARC
  8
LVL0000
 10
       11.636002
 20
     -188.300000
 30
        0.000000
 40
        0.300000
 50
        0.000001
 51
       90.000000
  0
ARC
  8
LVL0000
 10
       11.636002
 20
     -187.100000
 30
        0.000000
 40
        0.300000
 50
      270.000000
 51
      360.000001
  0
ARC
  8
LVL0000
 10
       12.835999
 20
     -187.100000
 30
        0.000000
 40
        0.300000
 50
      180.000008
 51
      270.000000
  0
ARC
  8
LVL0000
 10
       12.835999
 20
     -188.300000
 30
        0.000000
 40
        0.300000
 50
       90.000000
 51
      180.000008
  0
CIRCLE
  8
LVL0000
 10
      -12.300000
 20
     -212.300000
 30
        0.000000
 40
        2.150000
  0
LINE
  8
LVL0000
 10
      -13.464000
 20
     -212.000000
 30
        0.000000
 11
      -13.464000
 21
     -212.600000
 31
        0.000000
  0
LINE
  8
LVL0000
 10
      -11.263999
 20
     -212.000000
 30
        0.000000
 11
      -11.263999
 21
     -212.600000
 31
        0.000000
  0
LINE
  8
LVL0000
 10
      -12.064000
 20
     -213.400000
 30
        0.000000
 11
      -12.663998
 21
     -213.400000
 31
        0.000000
  0
LINE
  8
LVL0000
 10
      -12.064000
 20
     -211.200000
 30
        0.000000
 11
      -12.663998
 21
     -211.200000
 31
        0.000000
  0
LINE
  8
LVL0000
 10
      -11.263999
 20
     -212.000000
 30
        0.000000
 11
      -11.764001
 21
     -212.000000
 31
        0.000000
  0
LINE
  8
LVL0000
 10
      -11.263999
 20
     -212.600000
 30
        0.000000
 11
      -11.764001
 21
     -212.600000
 31
        0.000000
  0
LINE
  8
LVL0000
 10
      -12.663998
 20
     -211.200000
 30
        0.000000
 11
      -12.663998
 21
     -211.700000
 31
        0.000000
  0
LINE
  8
LVL0000
 10
      -12.064000
 20
     -211.200000
 30
        0.000000
 11
      -12.064000
 21
     -211.700000
 31
        0.000000
  0
LINE
  8
LVL0000
 10
      -12.663998
 20
     -212.900000
 30
        0.000000
 11
      -12.663998
 21
     -213.400000
 31
        0.000000
  0
LINE
  8
LVL0000
 10
      -12.064000
 20
     -212.900000
 30
        0.000000
 11
      -12.064000
 21
     -213.400000
 31
        0.000000
  0
LINE
  8
LVL0000
 10
      -12.963998
 20
     -212.600000
 30
        0.000000
 11
      -13.464000
 21
     -212.600000
 31
        0.000000
  0
LINE
  8
LVL0000
 10
      -12.963998
 20
     -212.000000
 30
        0.000000
 11
      -13.464000
 21
     -212.000000
 31
        0.000000
  0
ARC
  8
LVL0000
 10
      -12.963998
 20
     -212.900000
 30
        0.000000
 40
        0.300000
 50
        0.000001
 51
       90.000000
  0
ARC
  8
LVL0000
 10
      -12.963998
 20
     -211.700000
 30
        0.000000
 40
        0.300000
 50
      270.000000
 51
      360.000001
  0
ARC
  8
LVL0000
 10
      -11.764001
 20
     -211.700000
 30
        0.000000
 40
        0.300000
 50
      180.000008
 51
      270.000000
  0
ARC
  8
LVL0000
 10
      -11.764001
 20
     -212.900000
 30
        0.000000
 40
        0.300000
 50
       90.000000
 51
      180.000008
  0
CIRCLE
  8
LVL0000
 10
       12.300000
 20
     -212.300000
 30
        0.000000
 40
        2.150000
  0
LINE
  8
LVL0000
 10
       11.136000
 20
     -212.000000
 30
        0.000000
 11
       11.136000
 21
     -212.600000
 31
        0.000000
  0
LINE
  8
LVL0000
 10
       13.336001
 20
     -212.000000
 30
        0.000000
 11
       13.336001
 21
     -212.600000
 31
        0.000000
  0
LINE
  8
LVL0000
 10
       12.536000
 20
     -213.400000
 30
        0.000000
 11
       11.936002
 21
     -213.400000
 31
        0.000000
  0
LINE
  8
LVL0000
 10
       12.536000
 20
     -211.200000
 30
        0.000000
 11
       11.936002
 21
     -211.200000
 31
        0.000000
  0
LINE
  8
LVL0000
 10
       13.336001
 20
     -212.000000
 30
        0.000000
 11
       12.835999
 21
     -212.000000
 31
        0.000000
  0
LINE
  8
LVL0000
 10
       13.336001
 20
     -212.600000
 30
        0.000000
 11
       12.835999
 21
     -212.600000
 31
        0.000000
  0
LINE
  8
LVL0000
 10
       11.936002
 20
     -211.200000
 30
        0.000000
 11
       11.936002
 21
     -211.700000
 31
        0.000000
  0
LINE
  8
LVL0000
 10
       12.536000
 20
     -211.200000
 30
        0.000000
 11
       12.536000
 21
     -211.700000
 31
        0.000000
  0
LINE
  8
LVL0000
 10
       11.936002
 20
     -212.900000
 30
        0.000000
 11
       11.936002
 21
     -213.400000
 31
        0.000000
  0
LINE
  8
LVL0000
 10
       12.536000
 20
     -212.900000
 30
        0.000000
 11
       12.536000
 21
     -213.400000
 31
        0.000000
  0
LINE
  8
LVL0000
 10
       11.636002
 20
     -212.600000
 30
        0.000000
 11
       11.136000
 21
     -212.600000
 31
        0.000000
  0
LINE
  8
LVL0000
 10
       11.636002
 20
     -212.000000
 30
        0.000000
 11
       11.136000
 21
     -212.000000
 31
        0.000000
  0
ARC
  8
LVL0000
 10
       11.636002
 20
     -212.900000
 30
        0.000000
 40
        0.300000
 50
        0.000001
 51
       90.000000
  0
ARC
  8
LVL0000
 10
       11.636002
 20
     -211.700000
 30
        0.000000
 40
        0.300000
 50
      270.000000
 51
      360.000001
  0
ARC
  8
LVL0000
 10
       12.835999
 20
     -211.700000
 30
        0.000000
 40
        0.300000
 50
      180.000008
 51
      270.000000
  0
ARC
  8
LVL0000
 10
       12.835999
 20
     -212.900000
 30
        0.000000
 40
        0.300000
 50
       90.000000
 51
      180.000008
  0
CIRCLE
  8
LVL0000
 10
       12.300000
 20
      -12.300000
 30
        0.000000
 40
        2.150000
  0
LINE
  8
LVL0000
 10
       11.136000
 20
      -12.000000
 30
        0.000000
 11
       11.136000
 21
      -12.600000
 31
        0.000000
  0
LINE
  8
LVL0000
 10
       13.336001
 20
      -12.000000
 30
        0.000000
 11
       13.336001
 21
      -12.600000
 31
        0.000000
  0
LINE
  8
LVL0000
 10
       12.536000
 20
      -13.400000
 30
        0.000000
 11
       11.936002
 21
      -13.400000
 31
        0.000000
  0
LINE
  8
LVL0000
 10
       12.536000
 20
      -11.200000
 30
        0.000000
 11
       11.936002
 21
      -11.200000
 31
        0.000000
  0
LINE
  8
LVL0000
 10
       13.336001
 20
      -12.000000
 30
        0.000000
 11
       12.835999
 21
      -12.000000
 31
        0.000000
  0
LINE
  8
LVL0000
 10
       13.336001
 20
      -12.600000
 30
        0.000000
 11
       12.835999
 21
      -12.600000
 31
        0.000000
  0
LINE
  8
LVL0000
 10
       11.936002
 20
      -11.200000
 30
        0.000000
 11
       11.936002
 21
      -11.700000
 31
        0.000000
  0
LINE
  8
LVL0000
 10
       12.536000
 20
      -11.200000
 30
        0.000000
 11
       12.536000
 21
      -11.700000
 31
        0.000000
  0
LINE
  8
LVL0000
 10
       11.936002
 20
      -12.900000
 30
        0.000000
 11
       11.936002
 21
      -13.400000
 31
        0.000000
  0
LINE
  8
LVL0000
 10
       12.536000
 20
      -12.900000
 30
        0.000000
 11
       12.536000
 21
      -13.400000
 31
        0.000000
  0
LINE
  8
LVL0000
 10
       11.636002
 20
      -12.600000
 30
        0.000000
 11
       11.136000
 21
      -12.600000
 31
        0.000000
  0
LINE
  8
LVL0000
 10
       11.636002
 20
      -12.000000
 30
        0.000000
 11
       11.136000
 21
      -12.000000
 31
        0.000000
  0
ARC
  8
LVL0000
 10
       11.636002
 20
      -12.900000
 30
        0.000000
 40
        0.300000
 50
        0.000001
 51
       90.000000
  0
ARC
  8
LVL0000
 10
       11.636002
 20
      -11.700000
 30
        0.000000
 40
        0.300000
 50
      270.000000
 51
      360.000001
  0
ARC
  8
LVL0000
 10
       12.835999
 20
      -11.700000
 30
        0.000000
 40
        0.300000
 50
      180.000008
 51
      270.000000
  0
ARC
  8
LVL0000
 10
       12.835999
 20
      -12.900000
 30
        0.000000
 40
        0.300000
 50
       90.000000
 51
      180.000008
  0
CIRCLE
  8
LVL0000
 10
      -12.300000
 20
      -12.300000
 30
        0.000000
 40
        2.150000
  0
LINE
  8
LVL0000
 10
      -13.464000
 20
      -12.000000
 30
        0.000000
 11
      -13.464000
 21
      -12.600000
 31
        0.000000
  0
LINE
  8
LVL0000
 10
      -11.263999
 20
      -12.000000
 30
        0.000000
 11
      -11.263999
 21
      -12.600000
 31
        0.000000
  0
LINE
  8
LVL0000
 10
      -12.064000
 20
      -13.400000
 30
        0.000000
 11
      -12.663998
 21
      -13.400000
 31
        0.000000
  0
LINE
  8
LVL0000
 10
      -12.064000
 20
      -11.200000
 30
        0.000000
 11
      -12.663998
 21
      -11.200000
 31
        0.000000
  0
LINE
  8
LVL0000
 10
      -11.263999
 20
      -12.000000
 30
        0.000000
 11
      -11.764001
 21
      -12.000000
 31
        0.000000
  0
LINE
  8
LVL0000
 10
      -11.263999
 20
      -12.600000
 30
        0.000000
 11
      -11.764001
 21
      -12.600000
 31
        0.000000
  0
LINE
  8
LVL0000
 10
      -12.663998
 20
      -11.200000
 30
        0.000000
 11
      -12.663998
 21
      -11.700000
 31
        0.000000
  0
LINE
  8
LVL0000
 10
      -12.064000
 20
      -11.200000
 30
        0.000000
 11
      -12.064000
 21
      -11.700000
 31
        0.000000
  0
LINE
  8
LVL0000
 10
      -12.663998
 20
      -12.900000
 30
        0.000000
 11
      -12.663998
 21
      -13.400000
 31
        0.000000
  0
LINE
  8
LVL0000
 10
      -12.064000
 20
      -12.900000
 30
        0.000000
 11
      -12.064000
 21
      -13.400000
 31
        0.000000
  0
LINE
  8
LVL0000
 10
      -12.963998
 20
      -12.600000
 30
        0.000000
 11
      -13.464000
 21
      -12.600000
 31
        0.000000
  0
LINE
  8
LVL0000
 10
      -12.963998
 20
      -12.000000
 30
        0.000000
 11
      -13.464000
 21
      -12.000000
 31
        0.000000
  0
ARC
  8
LVL0000
 10
      -12.963998
 20
      -12.900000
 30
        0.000000
 40
        0.300000
 50
        0.000001
 51
       90.000000
  0
ARC
  8
LVL0000
 10
      -12.963998
 20
      -11.700000
 30
        0.000000
 40
        0.300000
 50
      270.000000
 51
      360.000001
  0
ARC
  8
LVL0000
 10
      -11.764001
 20
      -11.700000
 30
        0.000000
 40
        0.300000
 50
      180.000008
 51
      270.000000
  0
ARC
  8
LVL0000
 10
      -11.764001
 20
      -12.900000
 30
        0.000000
 40
        0.300000
 50
       90.000000
 51
      180.000008
  0
CIRCLE
  8
LVL0000
 10
       12.300000
 20
       12.300000
 30
        0.000000
 40
        2.150000
  0
LINE
  8
LVL0000
 10
       11.136000
 20
       12.600000
 30
        0.000000
 11
       11.136000
 21
       12.000000
 31
        0.000000
  0
LINE
  8
LVL0000
 10
       13.336001
 20
       12.600000
 30
        0.000000
 11
       13.336001
 21
       12.000000
 31
        0.000000
  0
LINE
  8
LVL0000
 10
       12.536000
 20
       11.200000
 30
        0.000000
 11
       11.936002
 21
       11.200000
 31
        0.000000
  0
LINE
  8
LVL0000
 10
       12.536000
 20
       13.400000
 30
        0.000000
 11
       11.936002
 21
       13.400000
 31
        0.000000
  0
LINE
  8
LVL0000
 10
       13.336001
 20
       12.600000
 30
        0.000000
 11
       12.835999
 21
       12.600000
 31
        0.000000
  0
LINE
  8
LVL0000
 10
       13.336001
 20
       12.000000
 30
        0.000000
 11
       12.835999
 21
       12.000000
 31
        0.000000
  0
LINE
  8
LVL0000
 10
       11.936002
 20
       13.400000
 30
        0.000000
 11
       11.936002
 21
       12.900000
 31
        0.000000
  0
LINE
  8
LVL0000
 10
       12.536000
 20
       13.400000
 30
        0.000000
 11
       12.536000
 21
       12.900000
 31
        0.000000
  0
LINE
  8
LVL0000
 10
       11.936002
 20
       11.700000
 30
        0.000000
 11
       11.936002
 21
       11.200000
 31
        0.000000
  0
LINE
  8
LVL0000
 10
       12.536000
 20
       11.700000
 30
        0.000000
 11
       12.536000
 21
       11.200000
 31
        0.000000
  0
LINE
  8
LVL0000
 10
       11.636002
 20
       12.000000
 30
        0.000000
 11
       11.136000
 21
       12.000000
 31
        0.000000
  0
LINE
  8
LVL0000
 10
       11.636002
 20
       12.600000
 30
        0.000000
 11
       11.136000
 21
       12.600000
 31
        0.000000
  0
ARC
  8
LVL0000
 10
       11.636002
 20
       11.700000
 30
        0.000000
 40
        0.300000
 50
        0.000001
 51
       90.000000
  0
ARC
  8
LVL0000
 10
       11.636002
 20
       12.900000
 30
        0.000000
 40
        0.300000
 50
      270.000000
 51
      360.000001
  0
ARC
  8
LVL0000
 10
       12.835999
 20
       12.900000
 30
        0.000000
 40
        0.300000
 50
      180.000008
 51
      270.000000
  0
ARC
  8
LVL0000
 10
       12.835999
 20
       11.700000
 30
        0.000000
 40
        0.300000
 50
       90.000000
 51
      180.000008
  0
CIRCLE
  8
LVL0000
 10
      -12.300000
 20
       12.300000
 30
        0.000000
 40
        2.150000
  0
LINE
  8
LVL0000
 10
      -13.464000
 20
       12.600000
 30
        0.000000
 11
      -13.464000
 21
       12.000000
 31
        0.000000
  0
LINE
  8
LVL0000
 10
      -11.263999
 20
       12.600000
 30
        0.000000
 11
      -11.263999
 21
       12.000000
 31
        0.000000
  0
LINE
  8
LVL0000
 10
      -12.064000
 20
       11.200000
 30
        0.000000
 11
      -12.663998
 21
       11.200000
 31
        0.000000
  0
LINE
  8
LVL0000
 10
      -12.064000
 20
       13.400000
 30
        0.000000
 11
      -12.663998
 21
       13.400000
 31
        0.000000
  0
LINE
  8
LVL0000
 10
      -11.263999
 20
       12.600000
 30
        0.000000
 11
      -11.764001
 21
       12.600000
 31
        0.000000
  0
LINE
  8
LVL0000
 10
      -11.263999
 20
       12.000000
 30
        0.000000
 11
      -11.764001
 21
       12.000000
 31
        0.000000
  0
LINE
  8
LVL0000
 10
      -12.663998
 20
       13.400000
 30
        0.000000
 11
      -12.663998
 21
       12.900000
 31
        0.000000
  0
LINE
  8
LVL0000
 10
      -12.064000
 20
       13.400000
 30
        0.000000
 11
      -12.064000
 21
       12.900000
 31
        0.000000
  0
LINE
  8
LVL0000
 10
      -12.663998
 20
       11.700000
 30
        0.000000
 11
      -12.663998
 21
       11.200000
 31
        0.000000
  0
LINE
  8
LVL0000
 10
      -12.064000
 20
       11.700000
 30
        0.000000
 11
      -12.064000
 21
       11.200000
 31
        0.000000
  0
LINE
  8
LVL0000
 10
      -12.963998
 20
       12.000000
 30
        0.000000
 11
      -13.464000
 21
       12.000000
 31
        0.000000
  0
LINE
  8
LVL0000
 10
      -12.963998
 20
       12.600000
 30
        0.000000
 11
      -13.464000
 21
       12.600000
 31
        0.000000
  0
ARC
  8
LVL0000
 10
      -12.963998
 20
       11.700000
 30
        0.000000
 40
        0.300000
 50
        0.000001
 51
       90.000000
  0
ARC
  8
LVL0000
 10
      -12.963998
 20
       12.900000
 30
        0.000000
 40
        0.300000
 50
      270.000000
 51
      360.000001
  0
ARC
  8
LVL0000
 10
      -11.764001
 20
       12.900000
 30
        0.000000
 40
        0.300000
 50
      180.000008
 51
      270.000000
  0
ARC
  8
LVL0000
 10
      -11.764001
 20
       11.700000
 30
        0.000000
 40
        0.300000
 50
       90.000000
 51
      180.000008
  0
CIRCLE
  8
LVL0000
 10
      121.500000
 20
     -188.000000
 30
        0.000000
 40
        2.900000
  0
ARC
  8
LVL0000
 10
      120.900000
 20
     -188.599998
 30
        0.000000
 40
        0.300000
 50
        0.000000
 51
       90.000000
  0
ARC
  8
LVL0000
 10
      122.100000
 20
     -188.599998
 30
        0.000000
 40
        0.300000
 50
       90.000000
 51
      180.000010
  0
ARC
  8
LVL0000
 10
      122.100000
 20
     -187.400002
 30
        0.000000
 40
        0.300000
 50
      180.000010
 51
      270.000000
  0
ARC
  8
LVL0000
 10
      120.900000
 20
     -187.400002
 30
        0.000000
 40
        0.300000
 50
      270.000000
 51
      360.000000
  0
LINE
  8
LVL0000
 10
      121.800000
 20
     -187.400002
 30
        0.000000
 11
      121.800000
 21
     -186.900000
 31
        0.000000
  0
LINE
  8
LVL0000
 10
      121.200000
 20
     -187.400002
 30
        0.000000
 11
      121.200000
 21
     -186.900000
 31
        0.000000
  0
LINE
  8
LVL0000
 10
      120.900000
 20
     -188.299999
 30
        0.000000
 11
      120.400000
 21
     -188.299999
 31
        0.000000
  0
LINE
  8
LVL0000
 10
      120.900000
 20
     -187.700001
 30
        0.000000
 11
      120.400000
 21
     -187.700001
 31
        0.000000
  0
LINE
  8
LVL0000
 10
      122.600000
 20
     -188.299999
 30
        0.000000
 11
      122.100000
 21
     -188.299999
 31
        0.000000
  0
LINE
  8
LVL0000
 10
      122.600000
 20
     -187.700001
 30
        0.000000
 11
      122.100000
 21
     -187.700001
 31
        0.000000
  0
LINE
  8
LVL0000
 10
      121.200000
 20
     -189.100000
 30
        0.000000
 11
      121.200000
 21
     -188.599998
 31
        0.000000
  0
LINE
  8
LVL0000
 10
      121.800000
 20
     -189.100000
 30
        0.000000
 11
      121.800000
 21
     -188.599998
 31
        0.000000
  0
LINE
  8
LVL0000
 10
      122.600000
 20
     -188.299999
 30
        0.000000
 11
      122.600000
 21
     -187.700001
 31
        0.000000
  0
LINE
  8
LVL0000
 10
      120.400000
 20
     -188.299999
 30
        0.000000
 11
      120.400000
 21
     -187.700001
 31
        0.000000
  0
LINE
  8
LVL0000
 10
      121.800000
 20
     -189.100000
 30
        0.000000
 11
      121.200000
 21
     -189.100000
 31
        0.000000
  0
LINE
  8
LVL0000
 10
      121.800000
 20
     -186.900000
 30
        0.000000
 11
      121.200000
 21
     -186.900000
 31
        0.000000
  0
CIRCLE
  8
LVL0000
 10
      121.500000
 20
     -188.000000
 30
        0.000000
 40
        1.750000
  0
CIRCLE
  8
LVL0000
 10
      104.500000
 20
     -188.000000
 30
        0.000000
 40
        2.900000
  0
ARC
  8
LVL0000
 10
      103.900000
 20
     -188.599998
 30
        0.000000
 40
        0.300000
 50
        0.000000
 51
       90.000000
  0
ARC
  8
LVL0000
 10
      105.100000
 20
     -188.599998
 30
        0.000000
 40
        0.300000
 50
       90.000000
 51
      180.000010
  0
ARC
  8
LVL0000
 10
      105.100000
 20
     -187.400002
 30
        0.000000
 40
        0.300000
 50
      180.000010
 51
      270.000000
  0
ARC
  8
LVL0000
 10
      103.900000
 20
     -187.400002
 30
        0.000000
 40
        0.300000
 50
      270.000000
 51
      360.000000
  0
LINE
  8
LVL0000
 10
      104.800000
 20
     -187.400002
 30
        0.000000
 11
      104.800000
 21
     -186.900000
 31
        0.000000
  0
LINE
  8
LVL0000
 10
      104.200000
 20
     -187.400002
 30
        0.000000
 11
      104.200000
 21
     -186.900000
 31
        0.000000
  0
LINE
  8
LVL0000
 10
      103.900000
 20
     -188.299999
 30
        0.000000
 11
      103.400000
 21
     -188.299999
 31
        0.000000
  0
LINE
  8
LVL0000
 10
      103.900000
 20
     -187.700001
 30
        0.000000
 11
      103.400000
 21
     -187.700001
 31
        0.000000
  0
LINE
  8
LVL0000
 10
      105.600000
 20
     -188.299999
 30
        0.000000
 11
      105.100000
 21
     -188.299999
 31
        0.000000
  0
LINE
  8
LVL0000
 10
      105.600000
 20
     -187.700001
 30
        0.000000
 11
      105.100000
 21
     -187.700001
 31
        0.000000
  0
LINE
  8
LVL0000
 10
      104.200000
 20
     -189.100000
 30
        0.000000
 11
      104.200000
 21
     -188.599998
 31
        0.000000
  0
LINE
  8
LVL0000
 10
      104.800000
 20
     -189.100000
 30
        0.000000
 11
      104.800000
 21
     -188.599998
 31
        0.000000
  0
LINE
  8
LVL0000
 10
      105.600000
 20
     -188.299999
 30
        0.000000
 11
      105.600000
 21
     -187.700001
 31
        0.000000
  0
LINE
  8
LVL0000
 10
      103.400000
 20
     -188.299999
 30
        0.000000
 11
      103.400000
 21
     -187.700001
 31
        0.000000
  0
LINE
  8
LVL0000
 10
      104.800000
 20
     -189.100000
 30
        0.000000
 11
      104.200000
 21
     -189.100000
 31
        0.000000
  0
LINE
  8
LVL0000
 10
      104.800000
 20
     -186.900000
 30
        0.000000
 11
      104.200000
 21
     -186.900000
 31
        0.000000
  0
CIRCLE
  8
LVL0000
 10
      104.500000
 20
     -188.000000
 30
        0.000000
 40
        1.750000
  0
CIRCLE
  8
LVL0000
 10
      104.500000
 20
     -212.000000
 30
        0.000000
 40
        2.900000
  0
ARC
  8
LVL0000
 10
      103.900000
 20
     -212.599998
 30
        0.000000
 40
        0.300000
 50
        0.000000
 51
       90.000000
  0
ARC
  8
LVL0000
 10
      105.100000
 20
     -212.599998
 30
        0.000000
 40
        0.300000
 50
       90.000000
 51
      180.000010
  0
ARC
  8
LVL0000
 10
      105.100000
 20
     -211.400002
 30
        0.000000
 40
        0.300000
 50
      180.000010
 51
      270.000000
  0
ARC
  8
LVL0000
 10
      103.900000
 20
     -211.400002
 30
        0.000000
 40
        0.300000
 50
      270.000000
 51
      360.000000
  0
LINE
  8
LVL0000
 10
      104.800000
 20
     -211.400002
 30
        0.000000
 11
      104.800000
 21
     -210.900000
 31
        0.000000
  0
LINE
  8
LVL0000
 10
      104.200000
 20
     -211.400002
 30
        0.000000
 11
      104.200000
 21
     -210.900000
 31
        0.000000
  0
LINE
  8
LVL0000
 10
      103.900000
 20
     -212.299999
 30
        0.000000
 11
      103.400000
 21
     -212.299999
 31
        0.000000
  0
LINE
  8
LVL0000
 10
      103.900000
 20
     -211.700001
 30
        0.000000
 11
      103.400000
 21
     -211.700001
 31
        0.000000
  0
LINE
  8
LVL0000
 10
      105.600000
 20
     -212.299999
 30
        0.000000
 11
      105.100000
 21
     -212.299999
 31
        0.000000
  0
LINE
  8
LVL0000
 10
      105.600000
 20
     -211.700001
 30
        0.000000
 11
      105.100000
 21
     -211.700001
 31
        0.000000
  0
LINE
  8
LVL0000
 10
      104.200000
 20
     -213.100000
 30
        0.000000
 11
      104.200000
 21
     -212.599998
 31
        0.000000
  0
LINE
  8
LVL0000
 10
      104.800000
 20
     -213.100000
 30
        0.000000
 11
      104.800000
 21
     -212.599998
 31
        0.000000
  0
LINE
  8
LVL0000
 10
      105.600000
 20
     -212.299999
 30
        0.000000
 11
      105.600000
 21
     -211.700001
 31
        0.000000
  0
LINE
  8
LVL0000
 10
      103.400000
 20
     -212.299999
 30
        0.000000
 11
      103.400000
 21
     -211.700001
 31
        0.000000
  0
LINE
  8
LVL0000
 10
      104.800000
 20
     -213.100000
 30
        0.000000
 11
      104.200000
 21
     -213.100000
 31
        0.000000
  0
LINE
  8
LVL0000
 10
      104.800000
 20
     -210.900000
 30
        0.000000
 11
      104.200000
 21
     -210.900000
 31
        0.000000
  0
CIRCLE
  8
LVL0000
 10
      104.500000
 20
     -212.000000
 30
        0.000000
 40
        1.750000
  0
CIRCLE
  8
LVL0000
 10
      121.500000
 20
     -212.000000
 30
        0.000000
 40
        2.900000
  0
ARC
  8
LVL0000
 10
      120.900000
 20
     -212.599998
 30
        0.000000
 40
        0.300000
 50
        0.000000
 51
       90.000000
  0
ARC
  8
LVL0000
 10
      122.100000
 20
     -212.599998
 30
        0.000000
 40
        0.300000
 50
       90.000000
 51
      180.000010
  0
ARC
  8
LVL0000
 10
      122.100000
 20
     -211.400002
 30
        0.000000
 40
        0.300000
 50
      180.000010
 51
      270.000000
  0
ARC
  8
LVL0000
 10
      120.900000
 20
     -211.400002
 30
        0.000000
 40
        0.300000
 50
      270.000000
 51
      360.000000
  0
LINE
  8
LVL0000
 10
      121.800000
 20
     -211.400002
 30
        0.000000
 11
      121.800000
 21
     -210.900000
 31
        0.000000
  0
LINE
  8
LVL0000
 10
      121.200000
 20
     -211.400002
 30
        0.000000
 11
      121.200000
 21
     -210.900000
 31
        0.000000
  0
LINE
  8
LVL0000
 10
      120.900000
 20
     -212.299999
 30
        0.000000
 11
      120.400000
 21
     -212.299999
 31
        0.000000
  0
LINE
  8
LVL0000
 10
      120.900000
 20
     -211.700001
 30
        0.000000
 11
      120.400000
 21
     -211.700001
 31
        0.000000
  0
LINE
  8
LVL0000
 10
      122.600000
 20
     -212.299999
 30
        0.000000
 11
      122.100000
 21
     -212.299999
 31
        0.000000
  0
LINE
  8
LVL0000
 10
      122.600000
 20
     -211.700001
 30
        0.000000
 11
      122.100000
 21
     -211.700001
 31
        0.000000
  0
LINE
  8
LVL0000
 10
      121.200000
 20
     -213.100000
 30
        0.000000
 11
      121.200000
 21
     -212.599998
 31
        0.000000
  0
LINE
  8
LVL0000
 10
      121.800000
 20
     -213.100000
 30
        0.000000
 11
      121.800000
 21
     -212.599998
 31
        0.000000
  0
LINE
  8
LVL0000
 10
      122.600000
 20
     -212.299999
 30
        0.000000
 11
      122.600000
 21
     -211.700001
 31
        0.000000
  0
LINE
  8
LVL0000
 10
      120.400000
 20
     -212.299999
 30
        0.000000
 11
      120.400000
 21
     -211.700001
 31
        0.000000
  0
LINE
  8
LVL0000
 10
      121.800000
 20
     -213.100000
 30
        0.000000
 11
      121.200000
 21
     -213.100000
 31
        0.000000
  0
LINE
  8
LVL0000
 10
      121.800000
 20
     -210.900000
 30
        0.000000
 11
      121.200000
 21
     -210.900000
 31
        0.000000
  0
CIRCLE
  8
LVL0000
 10
      121.500000
 20
     -212.000000
 30
        0.000000
 40
        1.750000
  0
CIRCLE
  8
LVL0000
 10
      121.500000
 20
     -273.000000
 30
        0.000000
 40
        2.900000
  0
ARC
  8
LVL0000
 10
      120.900000
 20
     -273.599998
 30
        0.000000
 40
        0.300000
 50
        0.000000
 51
       90.000000
  0
ARC
  8
LVL0000
 10
      122.100000
 20
     -273.599998
 30
        0.000000
 40
        0.300000
 50
       90.000000
 51
      180.000010
  0
ARC
  8
LVL0000
 10
      122.100000
 20
     -272.400002
 30
        0.000000
 40
        0.300000
 50
      180.000010
 51
      270.000000
  0
ARC
  8
LVL0000
 10
      120.900000
 20
     -272.400002
 30
        0.000000
 40
        0.300000
 50
      270.000000
 51
      360.000000
  0
LINE
  8
LVL0000
 10
      121.800000
 20
     -272.400002
 30
        0.000000
 11
      121.800000
 21
     -271.900000
 31
        0.000000
  0
LINE
  8
LVL0000
 10
      121.200000
 20
     -272.400002
 30
        0.000000
 11
      121.200000
 21
     -271.900000
 31
        0.000000
  0
LINE
  8
LVL0000
 10
      120.900000
 20
     -273.299999
 30
        0.000000
 11
      120.400000
 21
     -273.299999
 31
        0.000000
  0
LINE
  8
LVL0000
 10
      120.900000
 20
     -272.700001
 30
        0.000000
 11
      120.400000
 21
     -272.700001
 31
        0.000000
  0
LINE
  8
LVL0000
 10
      122.600000
 20
     -273.299999
 30
        0.000000
 11
      122.100000
 21
     -273.299999
 31
        0.000000
  0
LINE
  8
LVL0000
 10
      122.600000
 20
     -272.700001
 30
        0.000000
 11
      122.100000
 21
     -272.700001
 31
        0.000000
  0
LINE
  8
LVL0000
 10
      121.200000
 20
     -274.100000
 30
        0.000000
 11
      121.200000
 21
     -273.599998
 31
        0.000000
  0
LINE
  8
LVL0000
 10
      121.800000
 20
     -274.100000
 30
        0.000000
 11
      121.800000
 21
     -273.599998
 31
        0.000000
  0
LINE
  8
LVL0000
 10
      122.600000
 20
     -273.299999
 30
        0.000000
 11
      122.600000
 21
     -272.700001
 31
        0.000000
  0
LINE
  8
LVL0000
 10
      120.400000
 20
     -273.299999
 30
        0.000000
 11
      120.400000
 21
     -272.700001
 31
        0.000000
  0
LINE
  8
LVL0000
 10
      121.800000
 20
     -274.100000
 30
        0.000000
 11
      121.200000
 21
     -274.100000
 31
        0.000000
  0
LINE
  8
LVL0000
 10
      121.800000
 20
     -271.900000
 30
        0.000000
 11
      121.200000
 21
     -271.900000
 31
        0.000000
  0
CIRCLE
  8
LVL0000
 10
      121.500000
 20
     -273.000000
 30
        0.000000
 40
        1.750000
  0
CIRCLE
  8
LVL0000
 10
      104.500000
 20
     -273.000000
 30
        0.000000
 40
        2.900000
  0
ARC
  8
LVL0000
 10
      103.900000
 20
     -273.599998
 30
        0.000000
 40
        0.300000
 50
        0.000000
 51
       90.000000
  0
ARC
  8
LVL0000
 10
      105.100000
 20
     -273.599998
 30
        0.000000
 40
        0.300000
 50
       90.000000
 51
      180.000010
  0
ARC
  8
LVL0000
 10
      105.100000
 20
     -272.400002
 30
        0.000000
 40
        0.300000
 50
      180.000010
 51
      270.000000
  0
ARC
  8
LVL0000
 10
      103.900000
 20
     -272.400002
 30
        0.000000
 40
        0.300000
 50
      270.000000
 51
      360.000000
  0
LINE
  8
LVL0000
 10
      104.800000
 20
     -272.400002
 30
        0.000000
 11
      104.800000
 21
     -271.900000
 31
        0.000000
  0
LINE
  8
LVL0000
 10
      104.200000
 20
     -272.400002
 30
        0.000000
 11
      104.200000
 21
     -271.900000
 31
        0.000000
  0
LINE
  8
LVL0000
 10
      103.900000
 20
     -273.299999
 30
        0.000000
 11
      103.400000
 21
     -273.299999
 31
        0.000000
  0
LINE
  8
LVL0000
 10
      103.900000
 20
     -272.700001
 30
        0.000000
 11
      103.400000
 21
     -272.700001
 31
        0.000000
  0
LINE
  8
LVL0000
 10
      105.600000
 20
     -273.299999
 30
        0.000000
 11
      105.100000
 21
     -273.299999
 31
        0.000000
  0
LINE
  8
LVL0000
 10
      105.600000
 20
     -272.700001
 30
        0.000000
 11
      105.100000
 21
     -272.700001
 31
        0.000000
  0
LINE
  8
LVL0000
 10
      104.200000
 20
     -274.100000
 30
        0.000000
 11
      104.200000
 21
     -273.599998
 31
        0.000000
  0
LINE
  8
LVL0000
 10
      104.800000
 20
     -274.100000
 30
        0.000000
 11
      104.800000
 21
     -273.599998
 31
        0.000000
  0
LINE
  8
LVL0000
 10
      105.600000
 20
     -273.299999
 30
        0.000000
 11
      105.600000
 21
     -272.700001
 31
        0.000000
  0
LINE
  8
LVL0000
 10
      103.400000
 20
     -273.299999
 30
        0.000000
 11
      103.400000
 21
     -272.700001
 31
        0.000000
  0
LINE
  8
LVL0000
 10
      104.800000
 20
     -274.100000
 30
        0.000000
 11
      104.200000
 21
     -274.100000
 31
        0.000000
  0
LINE
  8
LVL0000
 10
      104.800000
 20
     -271.900000
 30
        0.000000
 11
      104.200000
 21
     -271.900000
 31
        0.000000
  0
CIRCLE
  8
LVL0000
 10
      104.500000
 20
     -273.000000
 30
        0.000000
 40
        1.750000
  0
CIRCLE
  8
LVL0000
 10
      104.500000
 20
     -297.000000
 30
        0.000000
 40
        2.900000
  0
ARC
  8
LVL0000
 10
      103.900000
 20
     -297.599998
 30
        0.000000
 40
        0.300000
 50
        0.000000
 51
       90.000000
  0
ARC
  8
LVL0000
 10
      105.100000
 20
     -297.599998
 30
        0.000000
 40
        0.300000
 50
       90.000000
 51
      180.000010
  0
ARC
  8
LVL0000
 10
      105.100000
 20
     -296.400002
 30
        0.000000
 40
        0.300000
 50
      180.000010
 51
      270.000000
  0
ARC
  8
LVL0000
 10
      103.900000
 20
     -296.400002
 30
        0.000000
 40
        0.300000
 50
      270.000000
 51
      360.000000
  0
LINE
  8
LVL0000
 10
      104.800000
 20
     -296.400002
 30
        0.000000
 11
      104.800000
 21
     -295.900000
 31
        0.000000
  0
LINE
  8
LVL0000
 10
      104.200000
 20
     -296.400002
 30
        0.000000
 11
      104.200000
 21
     -295.900000
 31
        0.000000
  0
LINE
  8
LVL0000
 10
      103.900000
 20
     -297.299999
 30
        0.000000
 11
      103.400000
 21
     -297.299999
 31
        0.000000
  0
LINE
  8
LVL0000
 10
      103.900000
 20
     -296.700001
 30
        0.000000
 11
      103.400000
 21
     -296.700001
 31
        0.000000
  0
LINE
  8
LVL0000
 10
      105.600000
 20
     -297.299999
 30
        0.000000
 11
      105.100000
 21
     -297.299999
 31
        0.000000
  0
LINE
  8
LVL0000
 10
      105.600000
 20
     -296.700001
 30
        0.000000
 11
      105.100000
 21
     -296.700001
 31
        0.000000
  0
LINE
  8
LVL0000
 10
      104.200000
 20
     -298.100000
 30
        0.000000
 11
      104.200000
 21
     -297.599998
 31
        0.000000
  0
LINE
  8
LVL0000
 10
      104.800000
 20
     -298.100000
 30
        0.000000
 11
      104.800000
 21
     -297.599998
 31
        0.000000
  0
LINE
  8
LVL0000
 10
      105.600000
 20
     -297.299999
 30
        0.000000
 11
      105.600000
 21
     -296.700001
 31
        0.000000
  0
LINE
  8
LVL0000
 10
      103.400000
 20
     -297.299999
 30
        0.000000
 11
      103.400000
 21
     -296.700001
 31
        0.000000
  0
LINE
  8
LVL0000
 10
      104.800000
 20
     -298.100000
 30
        0.000000
 11
      104.200000
 21
     -298.100000
 31
        0.000000
  0
LINE
  8
LVL0000
 10
      104.800000
 20
     -295.900000
 30
        0.000000
 11
      104.200000
 21
     -295.900000
 31
        0.000000
  0
CIRCLE
  8
LVL0000
 10
      104.500000
 20
     -297.000000
 30
        0.000000
 40
        1.750000
  0
CIRCLE
  8
LVL0000
 10
      121.500000
 20
     -297.000000
 30
        0.000000
 40
        2.900000
  0
ARC
  8
LVL0000
 10
      120.900000
 20
     -297.599998
 30
        0.000000
 40
        0.300000
 50
        0.000000
 51
       90.000000
  0
ARC
  8
LVL0000
 10
      122.100000
 20
     -297.599998
 30
        0.000000
 40
        0.300000
 50
       90.000000
 51
      180.000010
  0
ARC
  8
LVL0000
 10
      122.100000
 20
     -296.400002
 30
        0.000000
 40
        0.300000
 50
      180.000010
 51
      270.000000
  0
ARC
  8
LVL0000
 10
      120.900000
 20
     -296.400002
 30
        0.000000
 40
        0.300000
 50
      270.000000
 51
      360.000000
  0
LINE
  8
LVL0000
 10
      121.800000
 20
     -296.400002
 30
        0.000000
 11
      121.800000
 21
     -295.900000
 31
        0.000000
  0
LINE
  8
LVL0000
 10
      121.200000
 20
     -296.400002
 30
        0.000000
 11
      121.200000
 21
     -295.900000
 31
        0.000000
  0
LINE
  8
LVL0000
 10
      120.900000
 20
     -297.299999
 30
        0.000000
 11
      120.400000
 21
     -297.299999
 31
        0.000000
  0
LINE
  8
LVL0000
 10
      120.900000
 20
     -296.700001
 30
        0.000000
 11
      120.400000
 21
     -296.700001
 31
        0.000000
  0
LINE
  8
LVL0000
 10
      122.600000
 20
     -297.299999
 30
        0.000000
 11
      122.100000
 21
     -297.299999
 31
        0.000000
  0
LINE
  8
LVL0000
 10
      122.600000
 20
     -296.700001
 30
        0.000000
 11
      122.100000
 21
     -296.700001
 31
        0.000000
  0
LINE
  8
LVL0000
 10
      121.200000
 20
     -298.100000
 30
        0.000000
 11
      121.200000
 21
     -297.599998
 31
        0.000000
  0
LINE
  8
LVL0000
 10
      121.800000
 20
     -298.100000
 30
        0.000000
 11
      121.800000
 21
     -297.599998
 31
        0.000000
  0
LINE
  8
LVL0000
 10
      122.600000
 20
     -297.299999
 30
        0.000000
 11
      122.600000
 21
     -296.700001
 31
        0.000000
  0
LINE
  8
LVL0000
 10
      120.400000
 20
     -297.299999
 30
        0.000000
 11
      120.400000
 21
     -296.700001
 31
        0.000000
  0
LINE
  8
LVL0000
 10
      121.800000
 20
     -298.100000
 30
        0.000000
 11
      121.200000
 21
     -298.100000
 31
        0.000000
  0
LINE
  8
LVL0000
 10
      121.800000
 20
     -295.900000
 30
        0.000000
 11
      121.200000
 21
     -295.900000
 31
        0.000000
  0
CIRCLE
  8
LVL0000
 10
      121.500000
 20
     -297.000000
 30
        0.000000
 40
        1.750000
  0
LINE
  8
LVL0000
 62
  2
 10
      350.000000
 20
     -250.037496
 30
        0.000000
 11
      350.000000
 21
     -275.037496
 31
        0.000000
  0
LINE
  8
LVL0000
 62
  2
 10
      319.000000
 20
     -252.037496
 30
        0.000000
 11
      319.000000
 21
     -273.037496
 31
        0.000000
  0
LINE
  8
LVL0000
 62
  2
 10
      321.000000
 20
     -250.037496
 30
        0.000000
 11
      350.000000
 21
     -250.037496
 31
        0.000000
  0
ARC
  8
LVL0000
 62
  2
 10
      321.000000
 20
     -252.037496
 30
        0.000000
 40
        2.000000
 50
       90.000000
 51
      179.999995
  0
LINE
  8
LVL0000
 62
  2
 10
      321.000000
 20
     -275.037496
 30
        0.000000
 11
      350.000000
 21
     -275.037496
 31
        0.000000
  0
ARC
  8
LVL0000
 62
  2
 10
      321.000000
 20
     -273.037496
 30
        0.000000
 40
        2.000000
 50
      179.999995
 51
      270.000000
  0
LINE
  8
LVL0000
 62
  2
 10
      403.755583
 20
     -223.000000
 30
        0.000000
 11
      378.755583
 21
     -223.000000
 31
        0.000000
  0
ARC
  8
LVL0000
 62
  2
 10
      401.755583
 20
     -187.000000
 30
        0.000000
 40
        2.000000
 50
        0.000000
 51
       90.000000
  0
LINE
  8
LVL0000
 62
  2
 10
      403.755583
 20
     -187.000000
 30
        0.000000
 11
      403.755583
 21
     -223.000000
 31
        0.000000
  0
ARC
  8
LVL0000
 62
  2
 10
      380.755583
 20
     -187.000000
 30
        0.000000
 40
        2.000000
 50
       90.000000
 51
      179.999995
  0
LINE
  8
LVL0000
 62
  2
 10
      401.755583
 20
     -185.000000
 30
        0.000000
 11
      380.755583
 21
     -185.000000
 31
        0.000000
  0
LINE
  8
LVL0000
 62
  2
 10
      378.755583
 20
     -187.000000
 30
        0.000000
 11
      378.755583
 21
     -223.000000
 31
        0.000000
  0
CIRCLE
  8
LVL0000
 62
  2
 10
      382.755583
 20
     -188.000000
 30
        0.000000
 40
        1.150000
  0
CIRCLE
  8
LVL0000
 62
  2
 10
      382.755583
 20
     -212.000000
 30
        0.000000
 40
        1.150000
  0
CIRCLE
  8
LVL0000
 62
  2
 10
      399.755583
 20
     -188.000000
 30
        0.000000
 40
        1.150000
  0
CIRCLE
  8
LVL0000
 62
  2
 10
      399.755583
 20
     -212.000000
 30
        0.000000
 40
        1.150000
  0
CIRCLE
  8
LVL0000
 62
  2
 10
      399.755583
 20
     -205.000000
 30
        0.000000
 40
        1.150000
  0
CIRCLE
  8
LVL0000
 62
  2
 10
      382.755583
 20
     -205.000000
 30
        0.000000
 40
        1.150000
  0
CIRCLE
  8
LVL0000
 62
  2
 10
      391.255583
 20
     -212.000000
 30
        0.000000
 40
        1.600000
  0
CIRCLE
  8
LVL0000
 62
  2
 10
      391.255583
 20
     -188.000000
 30
        0.000000
 40
        1.600000
  0
CIRCLE
  8
LVL0000
 62
  2
 10
      322.999970
 20
     -262.537496
 30
        0.000000
 40
        1.200000
  0
CIRCLE
  8
LVL0000
 62
  2
 10
      322.999970
 20
     -262.537496
 30
        0.000000
 40
        1.500000
  0
CIRCLE
  8
LVL0000
 62
  2
 10
      342.999970
 20
     -262.537496
 30
        0.000000
 40
        1.200000
  0
CIRCLE
  8
LVL0000
 62
  2
 10
      342.999970
 20
     -262.537496
 30
        0.000000
 40
        1.500000
  0
CIRCLE
  8
LVL0000
 62
  2
 10
      332.999970
 20
     -262.537496
 30
        0.000000
 40
        3.175000
  0
CIRCLE
  8
LVL0000
 62
  2
 10
      332.999970
 20
     -253.537496
 30
        0.000000
 40
        1.750000
  0
CIRCLE
  8
LVL0000
 62
  2
 10
      332.999970
 20
     -271.537496
 30
        0.000000
 40
        1.750000
  0
CIRCLE
  8
LVL0000
 62
  2
 10
      332.999970
 20
     -262.537496
 30
        0.000000
 40
        2.500000
  0
LINE
  8
LVL0000
 62
  2
 10
      319.000000
 20
     -221.000000
 30
        0.000000
 11
      319.000000
 21
     -223.000000
 31
        0.000000
  0
LINE
  8
LVL0000
 62
  2
 10
      319.000000
 20
     -221.000000
 30
        0.000000
 11
      347.000000
 21
     -221.000000
 31
        0.000000
  0
ARC
  8
LVL0000
 62
  2
 10
      347.000000
 20
     -220.000000
 30
        0.000000
 40
        1.000000
 50
      270.000000
 51
      360.000000
  0
LINE
  8
LVL0000
 62
  2
 10
      348.000000
 20
     -220.000000
 30
        0.000000
 11
      348.000000
 21
     -185.000000
 31
        0.000000
  0
LINE
  8
LVL0000
 62
  2
 10
      348.000000
 20
     -185.000000
 30
        0.000000
 11
      350.000000
 21
     -185.000000
 31
        0.000000
  0
LINE
  8
LVL0000
 62
  2
 10
      350.000000
 20
     -220.000000
 30
        0.000000
 11
      350.000000
 21
     -185.000000
 31
        0.000000
  0
ARC
  8
LVL0000
 62
  2
 10
      347.000000
 20
     -220.000000
 30
        0.000000
 40
        3.000000
 50
      270.000000
 51
      360.000000
  0
LINE
  8
LVL0000
 62
  2
 10
      319.000000
 20
     -223.000000
 30
        0.000000
 11
      347.000000
 21
     -223.000000
 31
        0.000000
  0
LINE
  8
LVL0000
  6
DOT
 62
  2
 10
      403.755583
 20
     -221.000000
 30
        0.000000
 11
      378.755583
 21
     -221.000000
 31
        0.000000
  0
LINE
  8
LVL0000
  6
DOT
 62
  2
 10
      348.000000
 20
     -250.037496
 30
        0.000000
 11
      348.000000
 21
     -275.037496
 31
        0.000000
  0
LINE
  8
LVL0000
 62
  2
 10
      329.300000
 20
     -219.500000
 30
        0.000000
 11
      336.700000
 21
     -219.500000
 31
        0.000000
  0
LINE
  8
LVL0000
 62
  2
 10
      329.300000
 20
     -221.000000
 30
        0.000000
 11
      329.300000
 21
     -219.500000
 31
        0.000000
  0
LINE
  8
LVL0000
 62
  2
 10
      336.700000
 20
     -221.000000
 30
        0.000000
 11
      336.700000
 21
     -219.500000
 31
        0.000000
  0
DIMENSION
  8
LVL0000
 62
  4
  2
BLK0006
 10
      319.000000
 20
     -232.271912
 11
      330.351379
 21
     -231.571915
 13
      319.000000
 23
     -223.000000
 14
      350.000000
 24
     -220.000000
 50
        0.0
 70
  0
  0
DIMENSION
  8
LVL0000
 62
  4
  2
BLK0007
 10
      378.755585
 20
     -232.445938
 11
      388.019562
 21
     -231.745941
 13
      378.755585
 23
     -223.000000
 14
      403.755585
 24
     -223.000000
 50
        0.0
 70
  0
  0
DIMENSION
  8
LVL0000
 62
  4
  2
BLK0008
 10
      359.711182
 20
     -223.000000
 11
      359.011200
 21
     -206.958252
 13
      347.000000
 23
     -223.000000
 14
      350.000000
 24
     -185.000000
 50
       90.0
 70
  0
  0
TEXT
  8
LVL0000
 62
  2
 10
      357.355039
 20
     -166.966348
 30
        0.000000
 40
        4.000000
  1
ＡＮＧＬＥ
 50
        0.000000
 41
        0.835000
 51
        0.000000
  7
BIGFONT
  0
DIMENSION
  8
LVL0000
 62
  4
  2
BLK0009
 10
       25.715832
 20
      -15.000000
 11
       25.015833
 21
       -3.036660
 13
       14.500000
 23
      -15.000000
 14
       14.500000
 24
       15.000000
 50
       90.0
 70
  0
  0
DIMENSION
  8
LVL0000
 62
  4
  2
BLK0010
 10
      -15.000000
 20
      -25.095730
 11
       -3.549598
 21
      -24.395731
 13
      -15.000000
 23
      -14.500000
 14
       15.000000
 24
      -14.500000
 50
        0.0
 70
  0
  0
DIMENSION
  8
LVL0000
 62
  4
  2
BLK0011
 10
       43.000000
 20
      -25.238430
 11
       64.785957
 21
      -24.538431
 13
       43.000000
 23
      -14.500000
 14
       90.000000
 24
      -15.000000
 50
        0.0
 70
  0
  0
LINE
  8
LVL0000
  6
CENTER
 62
  1
 10
        0.000000
 20
       17.893561
 30
        0.000000
 11
        0.000000
 21
      -19.084836
 31
        0.000000
  0
LINE
  8
LVL0000
  6
CENTER
 62
  1
 10
       18.130347
 20
        0.000000
 30
        0.000000
 11
      -17.971587
 21
        0.000000
 31
        0.000000
  0
LINE
  8
LVL0000
  6
CENTER
 62
  1
 10
       18.130347
 20
     -200.000000
 30
        0.000000
 11
      -17.971587
 21
     -200.000000
 31
        0.000000
  0
LINE
  8
LVL0000
  6
CENTER
 62
  1
 10
        0.000000
 20
     -182.106439
 30
        0.000000
 11
        0.000000
 21
     -219.084836
 31
        0.000000
  0
LINE
  8
LVL0000
 62
  2
 10
      -14.000000
 20
     -221.000000
 30
        0.000000
 11
      -14.000000
 21
     -223.000000
 31
        0.000000
  0
LINE
  8
LVL0000
 62
  2
 10
      -14.000000
 20
     -221.000000
 30
        0.000000
 11
       14.000000
 21
     -221.000000
 31
        0.000000
  0
ARC
  8
LVL0000
 62
  2
 10
       14.000000
 20
     -220.000000
 30
        0.000000
 40
        1.000000
 50
      270.000000
 51
      360.000000
  0
LINE
  8
LVL0000
 62
  2
 10
       15.000000
 20
     -220.000000
 30
        0.000000
 11
       15.000000
 21
     -185.000000
 31
        0.000000
  0
LINE
  8
LVL0000
 62
  2
 10
       15.000000
 20
     -185.000000
 30
        0.000000
 11
       17.000000
 21
     -185.000000
 31
        0.000000
  0
LINE
  8
LVL0000
 62
  2
 10
       17.000000
 20
     -220.000000
 30
        0.000000
 11
       17.000000
 21
     -185.000000
 31
        0.000000
  0
ARC
  8
LVL0000
 62
  2
 10
       14.000000
 20
     -220.000000
 30
        0.000000
 40
        3.000000
 50
      270.000000
 51
      360.000000
  0
LINE
  8
LVL0000
 62
  2
 10
      -14.000000
 20
     -223.000000
 30
        0.000000
 11
       14.000000
 21
     -223.000000
 31
        0.000000
  0
ARC
  8
LVL0000
 10
       14.612679
 20
      -45.100000
 30
        0.000000
 40
        0.300000
 50
        1.000000
 51
       90.000000
  0
LINE
  8
LVL0000
 10
       10.150000
 20
      -44.800000
 30
        0.000000
 11
       10.224365
 21
      -43.950000
 31
        0.000000
  0
LINE
  8
LVL0000
 10
       10.224365
 20
      -43.950000
 30
        0.000000
 11
       14.375635
 21
      -43.950000
 31
        0.000000
  0
ARC
  8
LVL0000
 10
       12.300000
 20
      -49.929656
 30
        0.000000
 40
        6.329656
 50
       70.857284
 51
      109.142706
  0
LINE
  8
LVL0000
 10
       14.450000
 20
      -44.800000
 30
        0.000000
 11
       14.375635
 21
      -43.950000
 31
        0.000000
  0
LINE
  8
LVL0000
 10
        0.000000
 20
      -44.800000
 30
        0.000000
 11
       14.612679
 21
      -44.800000
 31
        0.000000
  0
ARC
  8
LVL0000
 10
      -14.612679
 20
      -45.100000
 30
        0.000000
 40
        0.300000
 50
       90.000000
 51
      178.999995
  0
LINE
  8
LVL0000
 10
        0.000000
 20
      -44.800000
 30
        0.000000
 11
      -14.612679
 21
      -44.800000
 31
        0.000000
  0
LINE
  8
LVL0000
 10
      -14.450000
 20
      -44.800000
 30
        0.000000
 11
      -14.375635
 21
      -43.950000
 31
        0.000000
  0
ARC
  8
LVL0000
 10
      -12.300000
 20
      -49.929656
 30
        0.000000
 40
        6.329656
 50
       70.857289
 51
      109.142711
  0
LINE
  8
LVL0000
 10
      -10.224365
 20
      -43.950000
 30
        0.000000
 11
      -14.375635
 21
      -43.950000
 31
        0.000000
  0
LINE
  8
LVL0000
 10
      -10.150000
 20
      -44.800000
 30
        0.000000
 11
      -10.224365
 21
      -43.950000
 31
        0.000000
  0
LINE
  8
LVL0000
 10
       -7.800000
 20
      -80.000000
 30
        0.000000
 11
       -7.800000
 21
      -84.800000
 31
        0.000000
  0
LINE
  8
LVL0000
 10
      -11.400000
 20
      -84.800000
 30
        0.000000
 11
       -7.800000
 21
      -84.800000
 31
        0.000000
  0
LINE
  8
LVL0000
 10
        7.800000
 20
      -80.000000
 30
        0.000000
 11
        7.800000
 21
      -84.800000
 31
        0.000000
  0
LINE
  8
LVL0000
 10
       11.400000
 20
      -84.800000
 30
        0.000000
 11
        7.800000
 21
      -84.800000
 31
        0.000000
  0
CIRCLE
  8
LVL0000
 10
      -12.000000
 20
      -74.000000
 30
        0.000000
 40
        1.000000
  0
CIRCLE
  8
LVL0000
 10
      -12.000000
 20
      -74.000000
 30
        0.000000
 40
        0.800000
  0
CIRCLE
  8
LVL0000
 10
       12.000000
 20
      -74.000000
 30
        0.000000
 40
        1.000000
  0
CIRCLE
  8
LVL0000
 10
       12.000000
 20
      -74.000000
 30
        0.000000
 40
        0.800000
  0
LINE
  8
LVL0000
 10
        7.000000
 20
      -84.800000
 30
        0.000000
 11
       -7.000000
 21
      -84.800000
 31
        0.000000
  0
LINE
  8
LVL0000
 10
       15.000000
 20
      -80.000000
 30
        0.000000
 11
      -15.000000
 21
      -80.000000
 31
        0.000000
  0
LINE
  8
LVL0000
 10
       15.000000
 20
      -80.000000
 30
        0.000000
 11
       15.000000
 21
      -48.200000
 31
        0.000000
  0
LINE
  8
LVL0000
 10
      -15.000000
 20
      -80.000000
 30
        0.000000
 11
      -15.000000
 21
      -48.200000
 31
        0.000000
  0
LINE
  8
LVL0000
 10
       -7.000000
 20
      -80.000000
 30
        0.000000
 11
       -7.000000
 21
      -84.800000
 31
        0.000000
  0
LINE
  8
LVL0000
 10
        7.000000
 20
      -80.000000
 30
        0.000000
 11
        7.000000
 21
      -84.800000
 31
        0.000000
  0
CIRCLE
  8
LVL0000
 10
      -12.000000
 20
      -57.000000
 30
        0.000000
 40
        0.800000
  0
CIRCLE
  8
LVL0000
 10
      -12.000000
 20
      -57.000000
 30
        0.000000
 40
        1.000000
  0
CIRCLE
  8
LVL0000
 10
       12.000000
 20
      -57.000000
 30
        0.000000
 40
        1.000000
  0
CIRCLE
  8
LVL0000
 10
       12.000000
 20
      -57.000000
 30
        0.000000
 40
        0.800000
  0
LINE
  8
LVL0000
 10
       15.000000
 20
      -48.200000
 30
        0.000000
 11
      -15.000000
 21
      -48.200000
 31
        0.000000
  0
LINE
  8
LVL0000
 10
       15.000000
 20
      -48.500000
 30
        0.000000
 11
      -15.000000
 21
      -48.500000
 31
        0.000000
  0
LINE
  8
LVL0000
 10
       -0.500000
 20
      -36.000000
 30
        0.000000
 11
       -0.500000
 21
      -33.000000
 31
        0.000000
  0
LINE
  8
LVL0000
 10
       -1.500000
 20
      -36.000000
 30
        0.000000
 11
       -1.500000
 21
      -33.000000
 31
        0.000000
  0
LINE
  8
LVL0000
 10
       -2.500000
 20
      -36.000000
 30
        0.000000
 11
       -2.500000
 21
      -33.000000
 31
        0.000000
  0
LINE
  8
LVL0000
 10
       -3.500000
 20
      -36.000000
 30
        0.000000
 11
       -3.500000
 21
      -33.000000
 31
        0.000000
  0
LINE
  8
LVL0000
 10
       -4.500000
 20
      -36.000000
 30
        0.000000
 11
       -4.500000
 21
      -33.000000
 31
        0.000000
  0
LINE
  8
LVL0000
 10
       -5.500000
 20
      -36.000000
 30
        0.000000
 11
       -5.500000
 21
      -33.000000
 31
        0.000000
  0
LINE
  8
LVL0000
 10
       -6.500000
 20
      -36.000000
 30
        0.000000
 11
       -6.500000
 21
      -33.000000
 31
        0.000000
  0
LINE
  8
LVL0000
 10
       -7.500000
 20
      -36.000000
 30
        0.000000
 11
       -7.500000
 21
      -33.000000
 31
        0.000000
  0
LINE
  8
LVL0000
 10
       -8.500000
 20
      -36.000000
 30
        0.000000
 11
       -8.500000
 21
      -33.000000
 31
        0.000000
  0
LINE
  8
LVL0000
 10
       -9.500000
 20
      -36.000000
 30
        0.000000
 11
       -9.500000
 21
      -33.000000
 31
        0.000000
  0
LINE
  8
LVL0000
 10
      -10.500000
 20
      -36.000000
 30
        0.000000
 11
      -10.500000
 21
      -33.000000
 31
        0.000000
  0
LINE
  8
LVL0000
 10
      -11.500000
 20
      -36.000000
 30
        0.000000
 11
      -11.500000
 21
      -33.000000
 31
        0.000000
  0
LINE
  8
LVL0000
 10
      -12.500000
 20
      -36.000000
 30
        0.000000
 11
      -12.500000
 21
      -33.000000
 31
        0.000000
  0
LINE
  8
LVL0000
 10
      -13.500000
 20
      -36.000000
 30
        0.000000
 11
      -13.500000
 21
      -33.000000
 31
        0.000000
  0
LINE
  8
LVL0000
 10
      -14.500000
 20
      -36.000000
 30
        0.000000
 11
      -14.500000
 21
      -33.000000
 31
        0.000000
  0
LINE
  8
LVL0000
 10
       14.500000
 20
      -36.000000
 30
        0.000000
 11
       14.500000
 21
      -33.000000
 31
        0.000000
  0
LINE
  8
LVL0000
 10
      -14.500000
 20
      -36.000000
 30
        0.000000
 11
        0.000000
 21
      -36.000000
 31
        0.000000
  0
LINE
  8
LVL0000
 10
      -14.500000
 20
      -33.000000
 30
        0.000000
 11
       14.500000
 21
      -33.000000
 31
        0.000000
  0
LINE
  8
LVL0000
 10
      -14.299191
 20
      -36.200000
 30
        0.000000
 11
       14.299191
 21
      -36.200000
 31
        0.000000
  0
LINE
  8
LVL0000
 10
       15.000000
 20
      -48.200000
 30
        0.000000
 11
       14.799114
 21
      -36.691274
 31
        0.000000
  0
ARC
  8
LVL0000
 10
       14.299191
 20
      -36.700000
 30
        0.000000
 40
        0.500000
 50
        1.000000
 51
       90.000000
  0
ARC
  8
LVL0000
 10
      -14.299191
 20
      -36.700000
 30
        0.000000
 40
        0.500000
 50
       90.000000
 51
      178.999995
  0
LINE
  8
LVL0000
 10
      -15.000000
 20
      -48.200000
 30
        0.000000
 11
      -14.799114
 21
      -36.691274
 31
        0.000000
  0
LINE
  8
LVL0000
 10
       13.500000
 20
      -36.000000
 30
        0.000000
 11
       13.500000
 21
      -33.000000
 31
        0.000000
  0
LINE
  8
LVL0000
 10
       12.500000
 20
      -36.000000
 30
        0.000000
 11
       12.500000
 21
      -33.000000
 31
        0.000000
  0
LINE
  8
LVL0000
 10
       11.500000
 20
      -36.000000
 30
        0.000000
 11
       11.500000
 21
      -33.000000
 31
        0.000000
  0
LINE
  8
LVL0000
 10
       10.500000
 20
      -36.000000
 30
        0.000000
 11
       10.500000
 21
      -33.000000
 31
        0.000000
  0
LINE
  8
LVL0000
 10
        9.500000
 20
      -36.000000
 30
        0.000000
 11
        9.500000
 21
      -33.000000
 31
        0.000000
  0
LINE
  8
LVL0000
 10
        8.500000
 20
      -36.000000
 30
        0.000000
 11
        8.500000
 21
      -33.000000
 31
        0.000000
  0
LINE
  8
LVL0000
 10
        7.500000
 20
      -36.000000
 30
        0.000000
 11
        7.500000
 21
      -33.000000
 31
        0.000000
  0
LINE
  8
LVL0000
 10
        6.500000
 20
      -36.000000
 30
        0.000000
 11
        6.500000
 21
      -33.000000
 31
        0.000000
  0
LINE
  8
LVL0000
 10
        5.500000
 20
      -36.000000
 30
        0.000000
 11
        5.500000
 21
      -33.000000
 31
        0.000000
  0
LINE
  8
LVL0000
 10
        4.500000
 20
      -36.000000
 30
        0.000000
 11
        4.500000
 21
      -33.000000
 31
        0.000000
  0
LINE
  8
LVL0000
 10
        3.500000
 20
      -36.000000
 30
        0.000000
 11
        3.500000
 21
      -33.000000
 31
        0.000000
  0
LINE
  8
LVL0000
 10
        2.500000
 20
      -36.000000
 30
        0.000000
 11
        2.500000
 21
      -33.000000
 31
        0.000000
  0
LINE
  8
LVL0000
 10
        1.500000
 20
      -36.000000
 30
        0.000000
 11
        1.500000
 21
      -33.000000
 31
        0.000000
  0
LINE
  8
LVL0000
 10
        0.500000
 20
      -36.000000
 30
        0.000000
 11
        0.500000
 21
      -33.000000
 31
        0.000000
  0
LINE
  8
LVL0000
 10
        0.000000
 20
      -36.000000
 30
        0.000000
 11
       14.500000
 21
      -36.000000
 31
        0.000000
  0
LINE
  8
LVL0000
 10
       14.500000
 20
       15.000000
 30
        0.000000
 11
      -14.500000
 21
       15.000000
 31
        0.000000
  0
ARC
  8
LVL0000
 10
      -14.500000
 20
       14.500000
 30
        0.000000
 40
        0.500000
 50
       90.000000
 51
      179.999995
  0
LINE
  8
LVL0000
 10
      -15.000000
 20
       14.500000
 30
        0.000000
 11
      -15.000000
 21
      -14.500000
 31
        0.000000
  0
CIRCLE
  8
LVL0000
 10
        0.000000
 20
        0.000000
 30
        0.000000
 40
       14.696550
  0
CIRCLE
  8
LVL0000
 10
        0.000000
 20
        0.000000
 30
        0.000000
 40
       15.000000
  0
CIRCLE
  8
LVL0000
 10
        0.000000
 20
        0.000000
 30
        0.000000
 40
        5.000000
  0
CIRCLE
  8
LVL0000
 10
        0.000000
 20
        0.000000
 30
        0.000000
 40
        8.650000
  0
CIRCLE
  8
LVL0000
 10
        0.000000
 20
        0.000000
 30
        0.000000
 40
       12.270000
  0
CIRCLE
  8
LVL0000
 10
        0.000000
 20
        0.000000
 30
        0.000000
 40
       12.700000
  0
CIRCLE
  8
LVL0000
 10
        0.000000
 20
        0.000000
 30
        0.000000
 40
       14.500000
  0
ARC
  8
LVL0000
 10
       14.500000
 20
       14.500000
 30
        0.000000
 40
        0.500000
 50
        0.000000
 51
       90.000000
  0
LINE
  8
LVL0000
 10
       15.000000
 20
       14.500000
 30
        0.000000
 11
       15.000000
 21
      -14.500000
 31
        0.000000
  0
LINE
  8
LVL0000
 10
       14.500000
 20
      -15.000000
 30
        0.000000
 11
      -14.500000
 21
      -15.000000
 31
        0.000000
  0
ARC
  8
LVL0000
 10
      -14.500000
 20
      -14.500000
 30
        0.000000
 40
        0.500000
 50
      179.999995
 51
      270.000000
  0
ARC
  8
LVL0000
 10
       14.500000
 20
      -14.500000
 30
        0.000000
 40
        0.500000
 50
      270.000000
 51
      360.000000
  0
LINE
  8
LVL0000
 10
       15.000000
 20
     -185.500000
 30
        0.000000
 11
       15.000000
 21
     -214.500000
 31
        0.000000
  0
ARC
  8
LVL0000
 10
       14.500000
 20
     -214.500000
 30
        0.000000
 40
        0.500000
 50
      270.000000
 51
      360.000000
  0
ARC
  8
LVL0000
 10
      -14.500000
 20
     -214.500000
 30
        0.000000
 40
        0.500000
 50
      179.999995
 51
      270.000000
  0
LINE
  8
LVL0000
 10
       14.500000
 20
     -215.000000
 30
        0.000000
 11
      -14.500000
 21
     -215.000000
 31
        0.000000
  0
ARC
  8
LVL0000
 10
       14.500000
 20
     -185.500000
 30
        0.000000
 40
        0.500000
 50
        0.000000
 51
       90.000000
  0
LINE
  8
LVL0000
 10
      -15.000000
 20
     -185.500000
 30
        0.000000
 11
      -15.000000
 21
     -214.500000
 31
        0.000000
  0
ARC
  8
LVL0000
 10
      -14.500000
 20
     -185.500000
 30
        0.000000
 40
        0.500000
 50
       90.000000
 51
      179.999995
  0
LINE
  8
LVL0000
 10
       14.500000
 20
     -185.000000
 30
        0.000000
 11
      -14.500000
 21
     -185.000000
 31
        0.000000
  0
LINE
  8
LVL0000
 10
       17.400000
 20
     -214.900000
 30
        0.000000
 11
       17.400000
 21
     -209.100000
 31
        0.000000
  0
LINE
  8
LVL0000
 10
       17.000000
 20
     -214.900000
 30
        0.000000
 11
       17.400000
 21
     -214.900000
 31
        0.000000
  0
LINE
  8
LVL0000
 10
       17.000000
 20
     -209.100000
 30
        0.000000
 11
       17.400000
 21
     -209.100000
 31
        0.000000
  0
ARC
  8
LVL0000
 10
       17.941561
 20
     -210.899672
 30
        0.000000
 40
        0.600000
 50
       16.387689
 51
       85.000004
  0
ARC
  8
LVL0000
 10
       17.941561
 20
     -213.100328
 30
        0.000000
 40
        0.600000
 50
      275.000000
 51
      343.612316
  0
LINE
  8
LVL0000
 10
       17.400000
 20
     -210.250000
 30
        0.000000
 11
       17.993854
 21
     -210.301955
 31
        0.000000
  0
LINE
  8
LVL0000
 10
       17.400000
 20
     -213.750000
 30
        0.000000
 11
       17.993854
 21
     -213.698045
 31
        0.000000
  0
ARC
  8
LVL0000
 10
       14.200000
 20
     -212.000000
 30
        0.000000
 40
        4.500000
 50
      343.612316
 51
      376.387689
  0
ARC
  8
LVL0000
 10
       14.200000
 20
     -188.000000
 30
        0.000000
 40
        4.500000
 50
      343.612316
 51
      376.387689
  0
LINE
  8
LVL0000
 10
       17.400000
 20
     -189.750000
 30
        0.000000
 11
       17.993854
 21
     -189.698045
 31
        0.000000
  0
LINE
  8
LVL0000
 10
       17.400000
 20
     -186.250000
 30
        0.000000
 11
       17.993854
 21
     -186.301955
 31
        0.000000
  0
ARC
  8
LVL0000
 10
       17.941561
 20
     -189.100328
 30
        0.000000
 40
        0.600000
 50
      275.000000
 51
      343.612316
  0
ARC
  8
LVL0000
 10
       17.941561
 20
     -186.899672
 30
        0.000000
 40
        0.600000
 50
       16.387689
 51
       85.000004
  0
LINE
  8
LVL0000
 10
       17.000000
 20
     -185.100000
 30
        0.000000
 11
       17.400000
 21
     -185.100000
 31
        0.000000
  0
LINE
  8
LVL0000
 10
       17.000000
 20
     -190.900000
 30
        0.000000
 11
       17.400000
 21
     -190.900000
 31
        0.000000
  0
LINE
  8
LVL0000
 10
       17.400000
 20
     -190.900000
 30
        0.000000
 11
       17.400000
 21
     -185.100000
 31
        0.000000
  0
LINE
  8
LVL0000
 62
  2
 10
        3.700000
 20
     -221.000000
 30
        0.000000
 11
        3.700000
 21
     -219.500000
 31
        0.000000
  0
LINE
  8
LVL0000
 62
  2
 10
       -3.700000
 20
     -219.500000
 30
        0.000000
 11
        3.700000
 21
     -219.500000
 31
        0.000000
  0
LINE
  8
LVL0000
 62
  2
 10
       -3.700000
 20
     -221.000000
 30
        0.000000
 11
       -3.700000
 21
     -219.500000
 31
        0.000000
  0
LINE
  8
LVL0001
 10
        2.000000
 20
     -181.000000
 30
        0.000000
 11
       -2.000000
 21
     -181.000000
 31
        0.000000
  0
LINE
  8
LVL0001
 10
       -2.000000
 20
     -185.000000
 30
        0.000000
 11
       -2.000000
 21
     -181.000000
 31
        0.000000
  0
LINE
  8
LVL0001
 10
       -0.800000
 20
     -185.271711
 30
        0.000000
 11
       -0.800000
 21
     -185.000000
 31
        0.000000
  0
LINE
  8
LVL0001
 10
        2.000000
 20
     -185.000000
 30
        0.000000
 11
       -2.000000
 21
     -185.000000
 31
        0.000000
  0
LINE
  8
LVL0001
 10
        2.000000
 20
     -185.000000
 30
        0.000000
 11
        2.000000
 21
     -181.000000
 31
        0.000000
  0
LINE
  8
LVL0001
 10
        0.800000
 20
     -185.271711
 30
        0.000000
 11
        0.800000
 21
     -185.000000
 31
        0.000000
  0
CIRCLE
  8
LVL0001
 10
        0.000000
 20
     -200.000000
 30
        0.000000
 40
        5.385837
  0
CIRCLE
  8
LVL0001
 10
        0.000000
 20
     -200.000000
 30
        0.000000
 40
       14.000000
  0
CIRCLE
  8
LVL0001
 10
        0.000000
 20
     -200.000000
 30
        0.000000
 40
       14.750000
  0
LINE
  8
LVL0000
 10
       -0.300000
 20
     -185.000029
 30
        0.000000
 11
        0.300000
 21
     -185.000029
 31
        0.000000
  0
LINE
  8
LVL0001
 10
        2.000000
 20
     -266.000000
 30
        0.000000
 11
       -2.000000
 21
     -266.000000
 31
        0.000000
  0
LINE
  8
LVL0001
 10
       -2.000000
 20
     -270.000000
 30
        0.000000
 11
       -2.000000
 21
     -266.000000
 31
        0.000000
  0
LINE
  8
LVL0001
 10
       -0.800000
 20
     -270.271711
 30
        0.000000
 11
       -0.800000
 21
     -270.000000
 31
        0.000000
  0
LINE
  8
LVL0001
 10
        2.000000
 20
     -270.000000
 30
        0.000000
 11
       -2.000000
 21
     -270.000000
 31
        0.000000
  0
LINE
  8
LVL0001
 10
        2.000000
 20
     -270.000000
 30
        0.000000
 11
        2.000000
 21
     -266.000000
 31
        0.000000
  0
LINE
  8
LVL0001
 10
        0.800000
 20
     -270.271711
 30
        0.000000
 11
        0.800000
 21
     -270.000000
 31
        0.000000
  0
CIRCLE
  8
LVL0001
 10
        0.000000
 20
     -285.000000
 30
        0.000000
 40
        5.385837
  0
CIRCLE
  8
LVL0001
 10
        0.000000
 20
     -285.000000
 30
        0.000000
 40
       14.000000
  0
CIRCLE
  8
LVL0001
 10
        0.000000
 20
     -285.000000
 30
        0.000000
 40
       14.750000
  0
LINE
  8
LVL0000
 10
       -0.300000
 20
     -270.000029
 30
        0.000000
 11
        0.300000
 21
     -270.000029
 31
        0.000000
  0
LINE
  8
LVL0000
 62
  2
 10
       46.000000
 20
     -306.000000
 30
        0.000000
 11
       18.000000
 21
     -306.000000
 31
        0.000000
  0
LINE
  8
LVL0000
 62
  2
 10
       46.000000
 20
     -306.000000
 30
        0.000000
 11
       46.000000
 21
     -308.000000
 31
        0.000000
  0
LINE
  8
LVL0000
 62
  2
 10
       35.700000
 20
     -306.000000
 30
        0.000000
 11
       35.700000
 21
     -304.500000
 31
        0.000000
  0
LINE
  8
LVL0000
 62
  2
 10
       35.700000
 20
     -304.500000
 30
        0.000000
 11
       28.300000
 21
     -304.500000
 31
        0.000000
  0
LINE
  8
LVL0000
 62
  2
 10
       46.000000
 20
     -308.000000
 30
        0.000000
 11
       18.000000
 21
     -308.000000
 31
        0.000000
  0
ARC
  8
LVL0000
 62
  2
 10
       18.000000
 20
     -305.000000
 30
        0.000000
 40
        1.000000
 50
      179.999995
 51
      270.000000
  0
LINE
  8
LVL0000
 62
  2
 10
       28.300000
 20
     -306.000000
 30
        0.000000
 11
       28.300000
 21
     -304.500000
 31
        0.000000
  0
ARC
  8
LVL0000
 62
  2
 10
       18.000000
 20
     -305.000000
 30
        0.000000
 40
        3.000000
 50
      179.999995
 51
      270.000000
  0
LINE
  8
LVL0000
  6
CENTER
 62
  1
 10
       18.130347
 20
     -285.000000
 30
        0.000000
 11
      -17.971587
 21
     -285.000000
 31
        0.000000
  0
LINE
  8
LVL0000
  6
CENTER
 62
  1
 10
        0.000000
 20
     -267.106439
 30
        0.000000
 11
        0.000000
 21
     -304.084836
 31
        0.000000
  0
LINE
  8
LVL0000
 62
  2
 10
       15.000000
 20
     -305.000000
 30
        0.000000
 11
       15.000000
 21
     -270.000000
 31
        0.000000
  0
LINE
  8
LVL0000
 62
  2
 10
       15.000000
 20
     -270.000000
 30
        0.000000
 11
       17.000000
 21
     -270.000000
 31
        0.000000
  0
LINE
  8
LVL0000
 62
  2
 10
       17.000000
 20
     -305.000000
 30
        0.000000
 11
       17.000000
 21
     -270.000000
 31
        0.000000
  0
LINE
  8
LVL0000
 10
       15.000000
 20
     -270.500000
 30
        0.000000
 11
       15.000000
 21
     -299.500000
 31
        0.000000
  0
ARC
  8
LVL0000
 10
       14.500000
 20
     -299.500000
 30
        0.000000
 40
        0.500000
 50
      270.000000
 51
      360.000000
  0
ARC
  8
LVL0000
 10
      -14.500000
 20
     -299.500000
 30
        0.000000
 40
        0.500000
 50
      179.999995
 51
      270.000000
  0
LINE
  8
LVL0000
 10
       14.500000
 20
     -300.000000
 30
        0.000000
 11
      -14.500000
 21
     -300.000000
 31
        0.000000
  0
ARC
  8
LVL0000
 10
       14.500000
 20
     -270.500000
 30
        0.000000
 40
        0.500000
 50
        0.000000
 51
       90.000000
  0
LINE
  8
LVL0000
 10
      -15.000000
 20
     -270.500000
 30
        0.000000
 11
      -15.000000
 21
     -299.500000
 31
        0.000000
  0
ARC
  8
LVL0000
 10
      -14.500000
 20
     -270.500000
 30
        0.000000
 40
        0.500000
 50
       90.000000
 51
      179.999995
  0
LINE
  8
LVL0000
 10
       14.500000
 20
     -270.000000
 30
        0.000000
 11
      -14.500000
 21
     -270.000000
 31
        0.000000
  0
LINE
  8
LVL0000
 10
       17.400000
 20
     -299.900000
 30
        0.000000
 11
       17.400000
 21
     -294.100000
 31
        0.000000
  0
LINE
  8
LVL0000
 10
       17.000000
 20
     -299.900000
 30
        0.000000
 11
       17.400000
 21
     -299.900000
 31
        0.000000
  0
LINE
  8
LVL0000
 10
       17.000000
 20
     -294.100000
 30
        0.000000
 11
       17.400000
 21
     -294.100000
 31
        0.000000
  0
ARC
  8
LVL0000
 10
       17.941561
 20
     -295.899672
 30
        0.000000
 40
        0.600000
 50
       16.387689
 51
       85.000004
  0
ARC
  8
LVL0000
 10
       17.941561
 20
     -298.100328
 30
        0.000000
 40
        0.600000
 50
      275.000000
 51
      343.612316
  0
LINE
  8
LVL0000
 10
       17.400000
 20
     -295.250000
 30
        0.000000
 11
       17.993854
 21
     -295.301955
 31
        0.000000
  0
LINE
  8
LVL0000
 10
       17.400000
 20
     -298.750000
 30
        0.000000
 11
       17.993854
 21
     -298.698045
 31
        0.000000
  0
ARC
  8
LVL0000
 10
       14.200000
 20
     -297.000000
 30
        0.000000
 40
        4.500000
 50
      343.612316
 51
      376.387689
  0
ARC
  8
LVL0000
 10
       14.200000
 20
     -273.000000
 30
        0.000000
 40
        4.500000
 50
      343.612316
 51
      376.387689
  0
LINE
  8
LVL0000
 10
       17.400000
 20
     -274.750000
 30
        0.000000
 11
       17.993854
 21
     -274.698045
 31
        0.000000
  0
LINE
  8
LVL0000
 10
       17.400000
 20
     -271.250000
 30
        0.000000
 11
       17.993854
 21
     -271.301955
 31
        0.000000
  0
ARC
  8
LVL0000
 10
       17.941561
 20
     -274.100328
 30
        0.000000
 40
        0.600000
 50
      275.000000
 51
      343.612316
  0
ARC
  8
LVL0000
 10
       17.941561
 20
     -271.899672
 30
        0.000000
 40
        0.600000
 50
       16.387689
 51
       85.000004
  0
LINE
  8
LVL0000
 10
       17.000000
 20
     -270.100000
 30
        0.000000
 11
       17.400000
 21
     -270.100000
 31
        0.000000
  0
LINE
  8
LVL0000
 10
       17.000000
 20
     -275.900000
 30
        0.000000
 11
       17.400000
 21
     -275.900000
 31
        0.000000
  0
LINE
  8
LVL0000
 10
       17.400000
 20
     -275.900000
 30
        0.000000
 11
       17.400000
 21
     -270.100000
 31
        0.000000
  0
LINE
  8
LVL0000
 10
       14.500000
 20
     -355.000000
 30
        0.000000
 11
      -14.500000
 21
     -355.000000
 31
        0.000000
  0
ARC
  8
LVL0000
 10
      -14.500000
 20
     -355.500000
 30
        0.000000
 40
        0.500000
 50
       90.000000
 51
      179.999995
  0
LINE
  8
LVL0000
 10
      -15.000000
 20
     -355.500000
 30
        0.000000
 11
      -15.000000
 21
     -384.500000
 31
        0.000000
  0
ARC
  8
LVL0000
 10
       14.500000
 20
     -355.500000
 30
        0.000000
 40
        0.500000
 50
        0.000000
 51
       90.000000
  0
LINE
  8
LVL0000
 10
       14.500000
 20
     -385.000000
 30
        0.000000
 11
      -14.500000
 21
     -385.000000
 31
        0.000000
  0
ARC
  8
LVL0000
 10
      -14.500000
 20
     -384.500000
 30
        0.000000
 40
        0.500000
 50
      179.999995
 51
      270.000000
  0
ARC
  8
LVL0000
 10
       14.500000
 20
     -384.500000
 30
        0.000000
 40
        0.500000
 50
      270.000000
 51
      360.000000
  0
LINE
  8
LVL0000
 10
       15.000000
 20
     -355.500000
 30
        0.000000
 11
       15.000000
 21
     -384.500000
 31
        0.000000
  0
LINE
  8
LVL0000
  6
CENTER
 62
  1
 10
        0.000000
 20
     -352.106439
 30
        0.000000
 11
        0.000000
 21
     -389.084836
 31
        0.000000
  0
LINE
  8
LVL0000
  6
CENTER
 62
  1
 10
       18.130347
 20
     -370.000000
 30
        0.000000
 11
      -17.971587
 21
     -370.000000
 31
        0.000000
  0
LINE
  8
LVL0000
 10
       -0.300000
 20
     -355.000029
 30
        0.000000
 11
        0.300000
 21
     -355.000029
 31
        0.000000
  0
CIRCLE
  8
LVL0001
 10
        0.000000
 20
     -370.000000
 30
        0.000000
 40
       14.750000
  0
CIRCLE
  8
LVL0001
 10
        0.000000
 20
     -370.000000
 30
        0.000000
 40
       14.000000
  0
CIRCLE
  8
LVL0001
 10
        0.000000
 20
     -370.000000
 30
        0.000000
 40
        5.385837
  0
LINE
  8
LVL0001
 10
        0.800000
 20
     -355.271711
 30
        0.000000
 11
        0.800000
 21
     -355.000000
 31
        0.000000
  0
LINE
  8
LVL0001
 10
        2.000000
 20
     -355.000000
 30
        0.000000
 11
        2.000000
 21
     -351.000000
 31
        0.000000
  0
LINE
  8
LVL0001
 10
        2.000000
 20
     -355.000000
 30
        0.000000
 11
       -2.000000
 21
     -355.000000
 31
        0.000000
  0
LINE
  8
LVL0001
 10
       -0.800000
 20
     -355.271711
 30
        0.000000
 11
       -0.800000
 21
     -355.000000
 31
        0.000000
  0
LINE
  8
LVL0001
 10
       -2.000000
 20
     -355.000000
 30
        0.000000
 11
       -2.000000
 21
     -351.000000
 31
        0.000000
  0
LINE
  8
LVL0001
 10
        2.000000
 20
     -351.000000
 30
        0.000000
 11
       -2.000000
 21
     -351.000000
 31
        0.000000
  0
LINE
  8
LVL0000
 62
  2
 10
       20.000000
 20
     -385.000000
 30
        0.000000
 11
      -15.000000
 21
     -385.000000
 31
        0.000000
  0
LINE
  8
LVL0000
 62
  2
 10
       21.000000
 20
     -416.000000
 30
        0.000000
 11
       23.000000
 21
     -416.000000
 31
        0.000000
  0
LINE
  8
LVL0000
 10
       14.900000
 20
     -387.400000
 30
        0.000000
 11
        9.100000
 21
     -387.400000
 31
        0.000000
  0
LINE
  8
LVL0000
 10
       14.900000
 20
     -387.000000
 30
        0.000000
 11
       14.900000
 21
     -387.400000
 31
        0.000000
  0
LINE
  8
LVL0000
 10
        9.100000
 20
     -387.000000
 30
        0.000000
 11
        9.100000
 21
     -387.400000
 31
        0.000000
  0
ARC
  8
LVL0000
 10
       10.899672
 20
     -387.941561
 30
        0.000000
 40
        0.600000
 50
      184.999999
 51
      253.612314
  0
ARC
  8
LVL0000
 10
       13.100328
 20
     -387.941561
 30
        0.000000
 40
        0.600000
 50
      286.387686
 51
      355.000002
  0
LINE
  8
LVL0000
 10
       10.250000
 20
     -387.400000
 30
        0.000000
 11
       10.301955
 21
     -387.993854
 31
        0.000000
  0
LINE
  8
LVL0000
 10
       13.750000
 20
     -387.400000
 30
        0.000000
 11
       13.698045
 21
     -387.993854
 31
        0.000000
  0
ARC
  8
LVL0000
 10
       12.000000
 20
     -384.200000
 30
        0.000000
 40
        4.500000
 50
      253.612314
 51
      286.387686
  0
ARC
  8
LVL0000
 10
      -12.000000
 20
     -384.200000
 30
        0.000000
 40
        4.500000
 50
      253.612314
 51
      286.387686
  0
LINE
  8
LVL0000
 10
      -10.250000
 20
     -387.400000
 30
        0.000000
 11
      -10.301955
 21
     -387.993854
 31
        0.000000
  0
LINE
  8
LVL0000
 10
      -13.750000
 20
     -387.400000
 30
        0.000000
 11
      -13.698045
 21
     -387.993854
 31
        0.000000
  0
ARC
  8
LVL0000
 10
      -10.899672
 20
     -387.941561
 30
        0.000000
 40
        0.600000
 50
      286.387686
 51
      355.000002
  0
ARC
  8
LVL0000
 10
      -13.100328
 20
     -387.941561
 30
        0.000000
 40
        0.600000
 50
      184.999999
 51
      253.612314
  0
LINE
  8
LVL0000
 10
      -14.900000
 20
     -387.000000
 30
        0.000000
 11
      -14.900000
 21
     -387.400000
 31
        0.000000
  0
LINE
  8
LVL0000
 10
       -9.100000
 20
     -387.000000
 30
        0.000000
 11
       -9.100000
 21
     -387.400000
 31
        0.000000
  0
LINE
  8
LVL0000
 10
       -9.100000
 20
     -387.400000
 30
        0.000000
 11
      -14.900000
 21
     -387.400000
 31
        0.000000
  0
LINE
  8
LVL0000
 62
  2
 10
       21.000000
 20
     -416.000000
 30
        0.000000
 11
       21.000000
 21
     -388.000000
 31
        0.000000
  0
LINE
  8
LVL0000
 62
  2
 10
       21.000000
 20
     -405.700000
 30
        0.000000
 11
       19.500000
 21
     -405.700000
 31
        0.000000
  0
LINE
  8
LVL0000
 62
  2
 10
       19.500000
 20
     -405.700000
 30
        0.000000
 11
       19.500000
 21
     -398.300000
 31
        0.000000
  0
LINE
  8
LVL0000
 62
  2
 10
       23.000000
 20
     -416.000000
 30
        0.000000
 11
       23.000000
 21
     -388.000000
 31
        0.000000
  0
ARC
  8
LVL0000
 62
  2
 10
       20.000000
 20
     -388.000000
 30
        0.000000
 40
        1.000000
 50
        0.000000
 51
       90.000000
  0
LINE
  8
LVL0000
 62
  2
 10
       21.000000
 20
     -398.300000
 30
        0.000000
 11
       19.500000
 21
     -398.300000
 31
        0.000000
  0
ARC
  8
LVL0000
 62
  2
 10
       20.000000
 20
     -388.000000
 30
        0.000000
 40
        3.000000
 50
        0.000000
 51
       90.000000
  0
LINE
  8
LVL0000
 62
  2
 10
      -15.000000
 20
     -385.000000
 30
        0.000000
 11
      -15.000000
 21
     -387.000000
 31
        0.000000
  0
LINE
  8
LVL0000
 62
  2
 10
       20.000000
 20
     -387.000000
 30
        0.000000
 11
      -15.000000
 21
     -387.000000
 31
        0.000000
  0
TEXT
  8
LVL0000
 62
  2
 10
       49.017344
 20
     -172.646778
 30
        0.000000
 40
        4.000000
  1
ＩＶＳ２０Ｌ１６
 50
        0.000000
 41
        0.835000
 51
        0.000000
  7
BIGFONT
  0
LINE
  8
LVL0000
 10
      168.600000
 20
     -197.200000
 30
        0.000000
 11
      220.698072
 21
     -197.200000
 31
        0.000000
  0
LINE
  8
LVL0000
 10
      168.600000
 20
     -189.200000
 30
        0.000000
 11
      221.442497
 21
     -189.200000
 31
        0.000000
  0
LINE
  8
LVL0000
 10
      130.000000
 20
     -191.000000
 30
        0.000000
 11
      136.100000
 21
     -191.000000
 31
        0.000000
  0
LINE
  8
LVL0000
 10
      130.000000
 20
     -195.400000
 30
        0.000000
 11
      136.100000
 21
     -195.400000
 31
        0.000000
  0
LINE
  8
LVL0000
 10
      168.600000
 20
     -191.200000
 30
        0.000000
 11
      168.600000
 21
     -188.200000
 31
        0.000000
  0
LINE
  8
LVL0000
 10
      168.600000
 20
     -198.200000
 30
        0.000000
 11
      168.600000
 21
     -195.200000
 31
        0.000000
  0
LINE
  8
LVL0000
 10
      158.100000
 20
     -198.700000
 30
        0.000000
 11
      168.600000
 21
     -198.200000
 31
        0.000000
  0
LINE
  8
LVL0000
 10
      168.600000
 20
     -188.200000
 30
        0.000000
 11
      158.100000
 21
     -187.700000
 31
        0.000000
  0
LINE
  8
LVL0000
 10
      158.100000
 20
     -195.200000
 30
        0.000000
 11
      170.100000
 21
     -195.200000
 31
        0.000000
  0
LINE
  8
LVL0000
 10
      158.100000
 20
     -191.200000
 30
        0.000000
 11
      170.100000
 21
     -191.200000
 31
        0.000000
  0
LINE
  8
LVL0000
 10
      170.100000
 20
     -195.200000
 30
        0.000000
 11
      170.100000
 21
     -191.200000
 31
        0.000000
  0
LINE
  8
LVL0000
 10
      134.800000
 20
     -192.200000
 30
        0.000000
 11
      136.100000
 21
     -192.200000
 31
        0.000000
  0
LINE
  8
LVL0000
 10
      134.800000
 20
     -194.200000
 30
        0.000000
 11
      136.100000
 21
     -194.200000
 31
        0.000000
  0
LINE
  8
LVL0000
 10
      136.100000
 20
     -197.700000
 30
        0.000000
 11
      158.100000
 21
     -197.700000
 31
        0.000000
  0
LINE
  8
LVL0000
 10
      136.100000
 20
     -188.700000
 30
        0.000000
 11
      158.100000
 21
     -188.700000
 31
        0.000000
  0
LINE
  8
LVL0000
 10
      145.100000
 20
     -188.700000
 30
        0.000000
 11
      145.100000
 21
     -187.700000
 31
        0.000000
  0
LINE
  8
LVL0000
 10
      145.100000
 20
     -198.700000
 30
        0.000000
 11
      145.100000
 21
     -197.700000
 31
        0.000000
  0
LINE
  8
LVL0000
 10
      136.100000
 20
     -197.700000
 30
        0.000000
 11
      136.100000
 21
     -188.700000
 31
        0.000000
  0
LINE
  8
LVL0000
 10
      145.100000
 20
     -198.700000
 30
        0.000000
 11
      158.100000
 21
     -198.700000
 31
        0.000000
  0
LINE
  8
LVL0000
 10
      145.100000
 20
     -187.700000
 30
        0.000000
 11
      158.100000
 21
     -187.700000
 31
        0.000000
  0
LINE
  8
LVL0000
 10
      158.100000
 20
     -198.700000
 30
        0.000000
 11
      158.100000
 21
     -187.700000
 31
        0.000000
  0
LINE
  8
LVL0000
 10
      130.000000
 20
     -191.450000
 30
        0.000000
 11
      134.800000
 21
     -191.450000
 31
        0.000000
  0
LINE
  8
LVL0000
 10
      134.800000
 20
     -194.950000
 30
        0.000000
 11
      134.800000
 21
     -191.450000
 31
        0.000000
  0
LINE
  8
LVL0000
 10
      130.000000
 20
     -194.950000
 30
        0.000000
 11
      134.800000
 21
     -194.950000
 31
        0.000000
  0
LINE
  8
LVL0000
  6
DOT
 62
  2
 10
      125.500000
 20
     -221.000000
 30
        0.000000
 11
      100.500000
 21
     -221.000000
 31
        0.000000
  0
LINE
  8
LVL0000
 10
       86.000000
 20
     -214.500000
 30
        0.000000
 11
       83.000000
 21
     -214.500000
 31
        0.000000
  0
LINE
  8
LVL0000
 10
       86.000000
 20
     -202.500000
 30
        0.000000
 11
       83.000000
 21
     -202.500000
 31
        0.000000
  0
LINE
  8
LVL0000
 10
       86.000000
 20
     -203.500000
 30
        0.000000
 11
       83.000000
 21
     -203.500000
 31
        0.000000
  0
LINE
  8
LVL0000
 10
       86.000000
 20
     -204.500000
 30
        0.000000
 11
       83.000000
 21
     -204.500000
 31
        0.000000
  0
LINE
  8
LVL0000
 10
       86.000000
 20
     -205.500000
 30
        0.000000
 11
       83.000000
 21
     -205.500000
 31
        0.000000
  0
LINE
  8
LVL0000
 10
       86.000000
 20
     -206.500000
 30
        0.000000
 11
       83.000000
 21
     -206.500000
 31
        0.000000
  0
LINE
  8
LVL0000
 10
       86.000000
 20
     -207.500000
 30
        0.000000
 11
       83.000000
 21
     -207.500000
 31
        0.000000
  0
LINE
  8
LVL0000
 10
       86.000000
 20
     -208.500000
 30
        0.000000
 11
       83.000000
 21
     -208.500000
 31
        0.000000
  0
LINE
  8
LVL0000
 10
       86.000000
 20
     -209.500000
 30
        0.000000
 11
       83.000000
 21
     -209.500000
 31
        0.000000
  0
LINE
  8
LVL0000
 10
       86.000000
 20
     -210.500000
 30
        0.000000
 11
       83.000000
 21
     -210.500000
 31
        0.000000
  0
LINE
  8
LVL0000
 10
       86.000000
 20
     -211.500000
 30
        0.000000
 11
       83.000000
 21
     -211.500000
 31
        0.000000
  0
LINE
  8
LVL0000
 10
       86.000000
 20
     -212.500000
 30
        0.000000
 11
       83.000000
 21
     -212.500000
 31
        0.000000
  0
LINE
  8
LVL0000
 10
       86.000000
 20
     -213.500000
 30
        0.000000
 11
       83.000000
 21
     -213.500000
 31
        0.000000
  0
LINE
  8
LVL0000
 10
       83.000000
 20
     -185.500000
 30
        0.000000
 11
       83.000000
 21
     -214.500000
 31
        0.000000
  0
LINE
  8
LVL0000
 10
       86.000000
 20
     -185.500000
 30
        0.000000
 11
       83.000000
 21
     -185.500000
 31
        0.000000
  0
LINE
  8
LVL0000
 10
       86.000000
 20
     -186.500000
 30
        0.000000
 11
       83.000000
 21
     -186.500000
 31
        0.000000
  0
LINE
  8
LVL0000
 10
       86.000000
 20
     -187.500000
 30
        0.000000
 11
       83.000000
 21
     -187.500000
 31
        0.000000
  0
LINE
  8
LVL0000
 10
       86.000000
 20
     -188.500000
 30
        0.000000
 11
       83.000000
 21
     -188.500000
 31
        0.000000
  0
LINE
  8
LVL0000
 10
       86.000000
 20
     -189.500000
 30
        0.000000
 11
       83.000000
 21
     -189.500000
 31
        0.000000
  0
LINE
  8
LVL0000
 10
       86.000000
 20
     -190.500000
 30
        0.000000
 11
       83.000000
 21
     -190.500000
 31
        0.000000
  0
LINE
  8
LVL0000
 10
       86.000000
 20
     -191.500000
 30
        0.000000
 11
       83.000000
 21
     -191.500000
 31
        0.000000
  0
LINE
  8
LVL0000
 10
       86.000000
 20
     -192.500000
 30
        0.000000
 11
       83.000000
 21
     -192.500000
 31
        0.000000
  0
LINE
  8
LVL0000
 10
       86.000000
 20
     -193.500000
 30
        0.000000
 11
       83.000000
 21
     -193.500000
 31
        0.000000
  0
LINE
  8
LVL0000
 10
       86.000000
 20
     -194.500000
 30
        0.000000
 11
       83.000000
 21
     -194.500000
 31
        0.000000
  0
LINE
  8
LVL0000
 10
       86.000000
 20
     -195.500000
 30
        0.000000
 11
       83.000000
 21
     -195.500000
 31
        0.000000
  0
LINE
  8
LVL0000
 10
       86.000000
 20
     -196.500000
 30
        0.000000
 11
       83.000000
 21
     -196.500000
 31
        0.000000
  0
LINE
  8
LVL0000
 10
       86.000000
 20
     -197.500000
 30
        0.000000
 11
       83.000000
 21
     -197.500000
 31
        0.000000
  0
LINE
  8
LVL0000
 10
       86.000000
 20
     -198.500000
 30
        0.000000
 11
       83.000000
 21
     -198.500000
 31
        0.000000
  0
LINE
  8
LVL0000
 10
       86.000000
 20
     -199.500000
 30
        0.000000
 11
       83.000000
 21
     -199.500000
 31
        0.000000
  0
LINE
  8
LVL0000
 10
       86.000000
 20
     -200.500000
 30
        0.000000
 11
       83.000000
 21
     -200.500000
 31
        0.000000
  0
LINE
  8
LVL0000
 10
       86.000000
 20
     -201.500000
 30
        0.000000
 11
       83.000000
 21
     -201.500000
 31
        0.000000
  0
LINE
  8
LVL0000
 10
       86.000000
 20
     -200.000000
 30
        0.000000
 11
       86.000000
 21
     -214.500000
 31
        0.000000
  0
LINE
  8
LVL0000
 10
       98.200000
 20
     -215.000000
 30
        0.000000
 11
       98.200000
 21
     -185.000000
 31
        0.000000
  0
LINE
  8
LVL0000
 10
       98.500000
 20
     -215.000000
 30
        0.000000
 11
       98.500000
 21
     -185.000000
 31
        0.000000
  0
LINE
  8
LVL0000
 10
       86.000000
 20
     -185.500000
 30
        0.000000
 11
       86.000000
 21
     -200.000000
 31
        0.000000
  0
LINE
  8
LVL0000
 10
       86.200000
 20
     -185.700809
 30
        0.000000
 11
       86.200000
 21
     -214.299191
 31
        0.000000
  0
ARC
  8
LVL0000
 10
       86.700000
 20
     -185.700809
 30
        0.000000
 40
        0.500000
 50
       90.999997
 51
      179.999995
  0
LINE
  8
LVL0000
 10
       98.200000
 20
     -185.000000
 30
        0.000000
 11
       86.691274
 21
     -185.200886
 31
        0.000000
  0
LINE
  8
LVL0000
 10
      130.000000
 20
     -185.000000
 30
        0.000000
 11
       98.200000
 21
     -185.000000
 31
        0.000000
  0
LINE
  8
LVL0000
 10
      130.000000
 20
     -215.000000
 30
        0.000000
 11
       98.200000
 21
     -215.000000
 31
        0.000000
  0
ARC
  8
LVL0000
 10
       95.100000
 20
     -214.612679
 30
        0.000000
 40
        0.300000
 50
      179.999995
 51
      269.000003
  0
LINE
  8
LVL0000
 10
       94.800000
 20
     -210.150000
 30
        0.000000
 11
       93.950000
 21
     -210.224365
 31
        0.000000
  0
LINE
  8
LVL0000
 10
       93.950000
 20
     -210.224365
 30
        0.000000
 11
       93.950000
 21
     -214.375635
 31
        0.000000
  0
ARC
  8
LVL0000
 10
       99.929656
 20
     -212.300000
 30
        0.000000
 40
        6.329656
 50
      160.857286
 51
      199.142719
  0
LINE
  8
LVL0000
 10
       94.800000
 20
     -214.450000
 30
        0.000000
 11
       93.950000
 21
     -214.375635
 31
        0.000000
  0
LINE
  8
LVL0000
 10
       94.800000
 20
     -200.000000
 30
        0.000000
 11
       94.800000
 21
     -214.612679
 31
        0.000000
  0
ARC
  8
LVL0000
 10
       95.100000
 20
     -185.387321
 30
        0.000000
 40
        0.300000
 50
       90.999997
 51
      179.999995
  0
LINE
  8
LVL0000
 10
       94.800000
 20
     -200.000000
 30
        0.000000
 11
       94.800000
 21
     -185.387321
 31
        0.000000
  0
LINE
  8
LVL0000
 10
       94.800000
 20
     -185.550000
 30
        0.000000
 11
       93.950000
 21
     -185.624365
 31
        0.000000
  0
ARC
  8
LVL0000
 10
       99.929656
 20
     -187.700000
 30
        0.000000
 40
        6.329656
 50
      160.857281
 51
      199.142714
  0
LINE
  8
LVL0000
 10
       93.950000
 20
     -189.775635
 30
        0.000000
 11
       93.950000
 21
     -185.624365
 31
        0.000000
  0
LINE
  8
LVL0000
 10
       94.800000
 20
     -189.850000
 30
        0.000000
 11
       93.950000
 21
     -189.775635
 31
        0.000000
  0
LINE
  8
LVL0000
 10
       98.200000
 20
     -215.000000
 30
        0.000000
 11
       86.691274
 21
     -214.799114
 31
        0.000000
  0
ARC
  8
LVL0000
 10
       86.700000
 20
     -214.299191
 30
        0.000000
 40
        0.500000
 50
      179.999995
 51
      269.000003
  0
LINE
  8
LVL0000
 10
      130.000000
 20
     -215.000000
 30
        0.000000
 11
      130.000000
 21
     -185.000000
 31
        0.000000
  0
ARC
  8
LVL0000
 10
      124.870344
 20
     -206.500000
 30
        0.000000
 40
        6.329656
 50
      340.857286
 51
      379.142709
  0
LINE
  8
LVL0000
 10
      130.000000
 20
     -208.650000
 30
        0.000000
 11
      130.850000
 21
     -208.575635
 31
        0.000000
  0
LINE
  8
LVL0000
 10
      130.000000
 20
     -204.350000
 30
        0.000000
 11
      130.850000
 21
     -204.424365
 31
        0.000000
  0
LINE
  8
LVL0000
 10
      130.850000
 20
     -204.424365
 30
        0.000000
 11
      130.850000
 21
     -208.575635
 31
        0.000000
  0
LINE
  8
LVL0000
 62
  2
 10
      125.500000
 20
     -223.000000
 30
        0.000000
 11
      100.500000
 21
     -223.000000
 31
        0.000000
  0
LINE
  8
LVL0000
 62
  2
 10
      125.500000
 20
     -187.000000
 30
        0.000000
 11
      125.500000
 21
     -223.000000
 31
        0.000000
  0
ARC
  8
LVL0000
 62
  2
 10
      123.500000
 20
     -187.000000
 30
        0.000000
 40
        2.000000
 50
        0.000000
 51
       90.000000
  0
LINE
  8
LVL0000
 62
  2
 10
      123.500000
 20
     -185.000000
 30
        0.000000
 11
      102.500000
 21
     -185.000000
 31
        0.000000
  0
ARC
  8
LVL0000
 62
  2
 10
      102.500000
 20
     -187.000000
 30
        0.000000
 40
        2.000000
 50
       90.000000
 51
      179.999995
  0
LINE
  8
LVL0000
 62
  2
 10
      100.500000
 20
     -187.000000
 30
        0.000000
 11
      100.500000
 21
     -223.000000
 31
        0.000000
  0
LINE
  8
LVL0001
 10
       83.000000
 20
     -214.750000
 30
        0.000000
 11
       83.000000
 21
     -185.250000
 31
        0.000000
  0
LINE
  8
LVL0001
 10
       74.300000
 20
     -198.677124
 30
        0.000000
 11
       74.300000
 21
     -185.250000
 31
        0.000000
  0
LINE
  8
LVL0001
 10
       74.300000
 20
     -214.750000
 30
        0.000000
 11
       74.300000
 21
     -201.322876
 31
        0.000000
  0
LINE
  8
LVL0001
 10
       68.400000
 20
     -181.000000
 30
        0.000000
 11
       72.400000
 21
     -181.000000
 31
        0.000000
  0
LINE
  8
LVL0001
 10
       71.200000
 20
     -185.500000
 30
        0.000000
 11
       71.200000
 21
     -185.000000
 31
        0.000000
  0
LINE
  8
LVL0001
 10
       69.600000
 20
     -185.500000
 30
        0.000000
 11
       69.600000
 21
     -185.000000
 31
        0.000000
  0
CIRCLE
  8
LVL0001
 10
       75.800000
 20
     -200.000000
 30
        0.000000
 40
        2.000000
  0
LINE
  8
LVL0001
 10
       74.300000
 20
     -214.750000
 30
        0.000000
 11
       83.000000
 21
     -214.750000
 31
        0.000000
  0
LINE
  8
LVL0001
 10
       74.300000
 20
     -185.250000
 30
        0.000000
 11
       83.000000
 21
     -185.250000
 31
        0.000000
  0
LINE
  8
LVL0001
 10
       68.600000
 20
     -185.500000
 30
        0.000000
 11
       74.300000
 21
     -185.500000
 31
        0.000000
  0
LINE
  8
LVL0001
 10
       68.600000
 20
     -214.500000
 30
        0.000000
 11
       74.300000
 21
     -214.500000
 31
        0.000000
  0
LINE
  8
LVL0001
 10
       54.500000
 20
     -186.000000
 30
        0.000000
 11
       68.600000
 21
     -186.000000
 31
        0.000000
  0
LINE
  8
LVL0001
 10
       54.500000
 20
     -214.000000
 30
        0.000000
 11
       68.600000
 21
     -214.000000
 31
        0.000000
  0
LINE
  8
LVL0001
 10
       68.600000
 20
     -214.500000
 30
        0.000000
 11
       68.600000
 21
     -185.500000
 31
        0.000000
  0
LINE
  8
LVL0001
 10
       54.500000
 20
     -214.000000
 30
        0.000000
 11
       54.500000
 21
     -186.000000
 31
        0.000000
  0
LINE
  8
LVL0001
 10
       72.400000
 20
     -185.000000
 30
        0.000000
 11
       72.400000
 21
     -181.000000
 31
        0.000000
  0
LINE
  8
LVL0001
 10
       68.400000
 20
     -185.000000
 30
        0.000000
 11
       68.400000
 21
     -181.000000
 31
        0.000000
  0
LINE
  8
LVL0001
 10
       68.400000
 20
     -185.000000
 30
        0.000000
 11
       72.400000
 21
     -185.000000
 31
        0.000000
  0
INSERT
  8
LVL0000
 62
  2
  2
BLK0012
 10
        0.000000
 20
        0.000000
  0
TEXT
  8
LVL0000
 62
  2
 10
       49.017344
 20
     -257.646778
 30
        0.000000
 40
        4.000000
  1
ＩＶＳ２０Ｌ１６
 50
        0.000000
 41
        0.835000
 51
        0.000000
  7
BIGFONT
  0
LINE
  8
LVL0001
 10
       83.000000
 20
     -299.750000
 30
        0.000000
 11
       83.000000
 21
     -270.250000
 31
        0.000000
  0
LINE
  8
LVL0001
 10
       74.300000
 20
     -283.677124
 30
        0.000000
 11
       74.300000
 21
     -270.250000
 31
        0.000000
  0
LINE
  8
LVL0001
 10
       74.300000
 20
     -299.750000
 30
        0.000000
 11
       74.300000
 21
     -286.322876
 31
        0.000000
  0
LINE
  8
LVL0001
 10
       68.400000
 20
     -266.000000
 30
        0.000000
 11
       72.400000
 21
     -266.000000
 31
        0.000000
  0
LINE
  8
LVL0001
 10
       71.200000
 20
     -270.500000
 30
        0.000000
 11
       71.200000
 21
     -270.000000
 31
        0.000000
  0
LINE
  8
LVL0001
 10
       69.600000
 20
     -270.500000
 30
        0.000000
 11
       69.600000
 21
     -270.000000
 31
        0.000000
  0
CIRCLE
  8
LVL0001
 10
       75.800000
 20
     -285.000000
 30
        0.000000
 40
        2.000000
  0
LINE
  8
LVL0001
 10
       74.300000
 20
     -299.750000
 30
        0.000000
 11
       83.000000
 21
     -299.750000
 31
        0.000000
  0
LINE
  8
LVL0001
 10
       74.300000
 20
     -270.250000
 30
        0.000000
 11
       83.000000
 21
     -270.250000
 31
        0.000000
  0
LINE
  8
LVL0001
 10
       68.600000
 20
     -270.500000
 30
        0.000000
 11
       74.300000
 21
     -270.500000
 31
        0.000000
  0
LINE
  8
LVL0001
 10
       68.600000
 20
     -299.500000
 30
        0.000000
 11
       74.300000
 21
     -299.500000
 31
        0.000000
  0
LINE
  8
LVL0001
 10
       54.500000
 20
     -271.000000
 30
        0.000000
 11
       68.600000
 21
     -271.000000
 31
        0.000000
  0
LINE
  8
LVL0001
 10
       54.500000
 20
     -299.000000
 30
        0.000000
 11
       68.600000
 21
     -299.000000
 31
        0.000000
  0
LINE
  8
LVL0001
 10
       68.600000
 20
     -299.500000
 30
        0.000000
 11
       68.600000
 21
     -270.500000
 31
        0.000000
  0
LINE
  8
LVL0001
 10
       54.500000
 20
     -299.000000
 30
        0.000000
 11
       54.500000
 21
     -271.000000
 31
        0.000000
  0
LINE
  8
LVL0001
 10
       72.400000
 20
     -270.000000
 30
        0.000000
 11
       72.400000
 21
     -266.000000
 31
        0.000000
  0
LINE
  8
LVL0001
 10
       68.400000
 20
     -270.000000
 30
        0.000000
 11
       68.400000
 21
     -266.000000
 31
        0.000000
  0
LINE
  8
LVL0001
 10
       68.400000
 20
     -270.000000
 30
        0.000000
 11
       72.400000
 21
     -270.000000
 31
        0.000000
  0
LINE
  8
LVL0000
 10
      168.600000
 20
     -282.200000
 30
        0.000000
 11
      220.698072
 21
     -282.200000
 31
        0.000000
  0
LINE
  8
LVL0000
 10
      168.600000
 20
     -274.200000
 30
        0.000000
 11
      221.442497
 21
     -274.200000
 31
        0.000000
  0
LINE
  8
LVL0000
 10
      130.000000
 20
     -276.000000
 30
        0.000000
 11
      136.100000
 21
     -276.000000
 31
        0.000000
  0
LINE
  8
LVL0000
 10
      130.000000
 20
     -280.400000
 30
        0.000000
 11
      136.100000
 21
     -280.400000
 31
        0.000000
  0
LINE
  8
LVL0000
 10
      168.600000
 20
     -276.200000
 30
        0.000000
 11
      168.600000
 21
     -273.200000
 31
        0.000000
  0
LINE
  8
LVL0000
 10
      168.600000
 20
     -283.200000
 30
        0.000000
 11
      168.600000
 21
     -280.200000
 31
        0.000000
  0
LINE
  8
LVL0000
 10
      158.100000
 20
     -283.700000
 30
        0.000000
 11
      168.600000
 21
     -283.200000
 31
        0.000000
  0
LINE
  8
LVL0000
 10
      168.600000
 20
     -273.200000
 30
        0.000000
 11
      158.100000
 21
     -272.700000
 31
        0.000000
  0
LINE
  8
LVL0000
 10
      158.100000
 20
     -280.200000
 30
        0.000000
 11
      170.100000
 21
     -280.200000
 31
        0.000000
  0
LINE
  8
LVL0000
 10
      158.100000
 20
     -276.200000
 30
        0.000000
 11
      170.100000
 21
     -276.200000
 31
        0.000000
  0
LINE
  8
LVL0000
 10
      170.100000
 20
     -280.200000
 30
        0.000000
 11
      170.100000
 21
     -276.200000
 31
        0.000000
  0
LINE
  8
LVL0000
 10
      134.800000
 20
     -277.200000
 30
        0.000000
 11
      136.100000
 21
     -277.200000
 31
        0.000000
  0
LINE
  8
LVL0000
 10
      134.800000
 20
     -279.200000
 30
        0.000000
 11
      136.100000
 21
     -279.200000
 31
        0.000000
  0
LINE
  8
LVL0000
 10
      136.100000
 20
     -282.700000
 30
        0.000000
 11
      158.100000
 21
     -282.700000
 31
        0.000000
  0
LINE
  8
LVL0000
 10
      136.100000
 20
     -273.700000
 30
        0.000000
 11
      158.100000
 21
     -273.700000
 31
        0.000000
  0
LINE
  8
LVL0000
 10
      145.100000
 20
     -273.700000
 30
        0.000000
 11
      145.100000
 21
     -272.700000
 31
        0.000000
  0
LINE
  8
LVL0000
 10
      145.100000
 20
     -283.700000
 30
        0.000000
 11
      145.100000
 21
     -282.700000
 31
        0.000000
  0
LINE
  8
LVL0000
 10
      136.100000
 20
     -282.700000
 30
        0.000000
 11
      136.100000
 21
     -273.700000
 31
        0.000000
  0
LINE
  8
LVL0000
 10
      145.100000
 20
     -283.700000
 30
        0.000000
 11
      158.100000
 21
     -283.700000
 31
        0.000000
  0
LINE
  8
LVL0000
 10
      145.100000
 20
     -272.700000
 30
        0.000000
 11
      158.100000
 21
     -272.700000
 31
        0.000000
  0
LINE
  8
LVL0000
 10
      158.100000
 20
     -283.700000
 30
        0.000000
 11
      158.100000
 21
     -272.700000
 31
        0.000000
  0
LINE
  8
LVL0000
 10
      130.000000
 20
     -276.450000
 30
        0.000000
 11
      134.800000
 21
     -276.450000
 31
        0.000000
  0
LINE
  8
LVL0000
 10
      134.800000
 20
     -279.950000
 30
        0.000000
 11
      134.800000
 21
     -276.450000
 31
        0.000000
  0
LINE
  8
LVL0000
 10
      130.000000
 20
     -279.950000
 30
        0.000000
 11
      134.800000
 21
     -279.950000
 31
        0.000000
  0
LINE
  8
LVL0000
 10
       86.000000
 20
     -299.500000
 30
        0.000000
 11
       83.000000
 21
     -299.500000
 31
        0.000000
  0
LINE
  8
LVL0000
 10
       86.000000
 20
     -287.500000
 30
        0.000000
 11
       83.000000
 21
     -287.500000
 31
        0.000000
  0
LINE
  8
LVL0000
 10
       86.000000
 20
     -288.500000
 30
        0.000000
 11
       83.000000
 21
     -288.500000
 31
        0.000000
  0
LINE
  8
LVL0000
 10
       86.000000
 20
     -289.500000
 30
        0.000000
 11
       83.000000
 21
     -289.500000
 31
        0.000000
  0
LINE
  8
LVL0000
 10
       86.000000
 20
     -290.500000
 30
        0.000000
 11
       83.000000
 21
     -290.500000
 31
        0.000000
  0
LINE
  8
LVL0000
 10
       86.000000
 20
     -291.500000
 30
        0.000000
 11
       83.000000
 21
     -291.500000
 31
        0.000000
  0
LINE
  8
LVL0000
 10
       86.000000
 20
     -292.500000
 30
        0.000000
 11
       83.000000
 21
     -292.500000
 31
        0.000000
  0
LINE
  8
LVL0000
 10
       86.000000
 20
     -293.500000
 30
        0.000000
 11
       83.000000
 21
     -293.500000
 31
        0.000000
  0
LINE
  8
LVL0000
 10
       86.000000
 20
     -294.500000
 30
        0.000000
 11
       83.000000
 21
     -294.500000
 31
        0.000000
  0
LINE
  8
LVL0000
 10
       86.000000
 20
     -295.500000
 30
        0.000000
 11
       83.000000
 21
     -295.500000
 31
        0.000000
  0
LINE
  8
LVL0000
 10
       86.000000
 20
     -296.500000
 30
        0.000000
 11
       83.000000
 21
     -296.500000
 31
        0.000000
  0
LINE
  8
LVL0000
 10
       86.000000
 20
     -297.500000
 30
        0.000000
 11
       83.000000
 21
     -297.500000
 31
        0.000000
  0
LINE
  8
LVL0000
 10
       86.000000
 20
     -298.500000
 30
        0.000000
 11
       83.000000
 21
     -298.500000
 31
        0.000000
  0
LINE
  8
LVL0000
 10
       83.000000
 20
     -270.500000
 30
        0.000000
 11
       83.000000
 21
     -299.500000
 31
        0.000000
  0
LINE
  8
LVL0000
 10
       86.000000
 20
     -270.500000
 30
        0.000000
 11
       83.000000
 21
     -270.500000
 31
        0.000000
  0
LINE
  8
LVL0000
 10
       86.000000
 20
     -271.500000
 30
        0.000000
 11
       83.000000
 21
     -271.500000
 31
        0.000000
  0
LINE
  8
LVL0000
 10
       86.000000
 20
     -272.500000
 30
        0.000000
 11
       83.000000
 21
     -272.500000
 31
        0.000000
  0
LINE
  8
LVL0000
 10
       86.000000
 20
     -273.500000
 30
        0.000000
 11
       83.000000
 21
     -273.500000
 31
        0.000000
  0
LINE
  8
LVL0000
 10
       86.000000
 20
     -274.500000
 30
        0.000000
 11
       83.000000
 21
     -274.500000
 31
        0.000000
  0
LINE
  8
LVL0000
 10
       86.000000
 20
     -275.500000
 30
        0.000000
 11
       83.000000
 21
     -275.500000
 31
        0.000000
  0
LINE
  8
LVL0000
 10
       86.000000
 20
     -276.500000
 30
        0.000000
 11
       83.000000
 21
     -276.500000
 31
        0.000000
  0
LINE
  8
LVL0000
 10
       86.000000
 20
     -277.500000
 30
        0.000000
 11
       83.000000
 21
     -277.500000
 31
        0.000000
  0
LINE
  8
LVL0000
 10
       86.000000
 20
     -278.500000
 30
        0.000000
 11
       83.000000
 21
     -278.500000
 31
        0.000000
  0
LINE
  8
LVL0000
 10
       86.000000
 20
     -279.500000
 30
        0.000000
 11
       83.000000
 21
     -279.500000
 31
        0.000000
  0
LINE
  8
LVL0000
 10
       86.000000
 20
     -280.500000
 30
        0.000000
 11
       83.000000
 21
     -280.500000
 31
        0.000000
  0
LINE
  8
LVL0000
 10
       86.000000
 20
     -281.500000
 30
        0.000000
 11
       83.000000
 21
     -281.500000
 31
        0.000000
  0
LINE
  8
LVL0000
 10
       86.000000
 20
     -282.500000
 30
        0.000000
 11
       83.000000
 21
     -282.500000
 31
        0.000000
  0
LINE
  8
LVL0000
 10
       86.000000
 20
     -283.500000
 30
        0.000000
 11
       83.000000
 21
     -283.500000
 31
        0.000000
  0
LINE
  8
LVL0000
 10
       86.000000
 20
     -284.500000
 30
        0.000000
 11
       83.000000
 21
     -284.500000
 31
        0.000000
  0
LINE
  8
LVL0000
 10
       86.000000
 20
     -285.500000
 30
        0.000000
 11
       83.000000
 21
     -285.500000
 31
        0.000000
  0
LINE
  8
LVL0000
 10
       86.000000
 20
     -286.500000
 30
        0.000000
 11
       83.000000
 21
     -286.500000
 31
        0.000000
  0
LINE
  8
LVL0000
 10
       86.000000
 20
     -285.000000
 30
        0.000000
 11
       86.000000
 21
     -299.500000
 31
        0.000000
  0
LINE
  8
LVL0000
 10
       98.200000
 20
     -300.000000
 30
        0.000000
 11
       98.200000
 21
     -270.000000
 31
        0.000000
  0
LINE
  8
LVL0000
 10
       98.500000
 20
     -300.000000
 30
        0.000000
 11
       98.500000
 21
     -270.000000
 31
        0.000000
  0
LINE
  8
LVL0000
 10
       86.000000
 20
     -270.500000
 30
        0.000000
 11
       86.000000
 21
     -285.000000
 31
        0.000000
  0
LINE
  8
LVL0000
 10
       86.200000
 20
     -270.700809
 30
        0.000000
 11
       86.200000
 21
     -299.299191
 31
        0.000000
  0
ARC
  8
LVL0000
 10
       86.700000
 20
     -270.700809
 30
        0.000000
 40
        0.500000
 50
       90.999997
 51
      179.999995
  0
LINE
  8
LVL0000
 10
       98.200000
 20
     -270.000000
 30
        0.000000
 11
       86.691274
 21
     -270.200886
 31
        0.000000
  0
LINE
  8
LVL0000
 10
      130.000000
 20
     -270.000000
 30
        0.000000
 11
       98.200000
 21
     -270.000000
 31
        0.000000
  0
LINE
  8
LVL0000
 10
      130.000000
 20
     -300.000000
 30
        0.000000
 11
       98.200000
 21
     -300.000000
 31
        0.000000
  0
ARC
  8
LVL0000
 10
       95.100000
 20
     -299.612679
 30
        0.000000
 40
        0.300000
 50
      179.999995
 51
      269.000003
  0
LINE
  8
LVL0000
 10
       94.800000
 20
     -295.150000
 30
        0.000000
 11
       93.950000
 21
     -295.224365
 31
        0.000000
  0
LINE
  8
LVL0000
 10
       93.950000
 20
     -295.224365
 30
        0.000000
 11
       93.950000
 21
     -299.375635
 31
        0.000000
  0
ARC
  8
LVL0000
 10
       99.929656
 20
     -297.300000
 30
        0.000000
 40
        6.329656
 50
      160.857286
 51
      199.142719
  0
LINE
  8
LVL0000
 10
       94.800000
 20
     -299.450000
 30
        0.000000
 11
       93.950000
 21
     -299.375635
 31
        0.000000
  0
LINE
  8
LVL0000
 10
       94.800000
 20
     -285.000000
 30
        0.000000
 11
       94.800000
 21
     -299.612679
 31
        0.000000
  0
ARC
  8
LVL0000
 10
       95.100000
 20
     -270.387321
 30
        0.000000
 40
        0.300000
 50
       90.999997
 51
      179.999995
  0
LINE
  8
LVL0000
 10
       94.800000
 20
     -285.000000
 30
        0.000000
 11
       94.800000
 21
     -270.387321
 31
        0.000000
  0
LINE
  8
LVL0000
 10
       94.800000
 20
     -270.550000
 30
        0.000000
 11
       93.950000
 21
     -270.624365
 31
        0.000000
  0
ARC
  8
LVL0000
 10
       99.929656
 20
     -272.700000
 30
        0.000000
 40
        6.329656
 50
      160.857281
 51
      199.142714
  0
LINE
  8
LVL0000
 10
       93.950000
 20
     -274.775635
 30
        0.000000
 11
       93.950000
 21
     -270.624365
 31
        0.000000
  0
LINE
  8
LVL0000
 10
       94.800000
 20
     -274.850000
 30
        0.000000
 11
       93.950000
 21
     -274.775635
 31
        0.000000
  0
LINE
  8
LVL0000
 10
       98.200000
 20
     -300.000000
 30
        0.000000
 11
       86.691274
 21
     -299.799114
 31
        0.000000
  0
ARC
  8
LVL0000
 10
       86.700000
 20
     -299.299191
 30
        0.000000
 40
        0.500000
 50
      179.999995
 51
      269.000003
  0
LINE
  8
LVL0000
 10
      130.000000
 20
     -300.000000
 30
        0.000000
 11
      130.000000
 21
     -270.000000
 31
        0.000000
  0
ARC
  8
LVL0000
 10
      124.870344
 20
     -291.500000
 30
        0.000000
 40
        6.329656
 50
      340.857286
 51
      379.142709
  0
LINE
  8
LVL0000
 10
      130.000000
 20
     -293.650000
 30
        0.000000
 11
      130.850000
 21
     -293.575635
 31
        0.000000
  0
LINE
  8
LVL0000
 10
      130.000000
 20
     -289.350000
 30
        0.000000
 11
      130.850000
 21
     -289.424365
 31
        0.000000
  0
LINE
  8
LVL0000
 10
      130.850000
 20
     -289.424365
 30
        0.000000
 11
      130.850000
 21
     -293.575635
 31
        0.000000
  0
LINE
  8
LVL0000
 62
  2
 10
      125.500000
 20
     -272.000000
 30
        0.000000
 11
      125.500000
 21
     -308.000000
 31
        0.000000
  0
ARC
  8
LVL0000
 62
  2
 10
      123.500000
 20
     -272.000000
 30
        0.000000
 40
        2.000000
 50
        0.000000
 51
       90.000000
  0
LINE
  8
LVL0000
 62
  2
 10
      123.500000
 20
     -270.000000
 30
        0.000000
 11
      102.500000
 21
     -270.000000
 31
        0.000000
  0
ARC
  8
LVL0000
 62
  2
 10
      102.500000
 20
     -272.000000
 30
        0.000000
 40
        2.000000
 50
       90.000000
 51
      179.999995
  0
LINE
  8
LVL0000
 62
  2
 10
      100.500000
 20
     -272.000000
 30
        0.000000
 11
      100.500000
 21
     -308.000000
 31
        0.000000
  0
INSERT
  8
LVL0000
 62
  2
  2
BLK0013
 10
        0.000000
 20
        0.000000
  0
LINE
  8
LVL0000
 62
  2
 10
      125.500000
 20
     -308.000000
 30
        0.000000
 11
      100.500000
 21
     -308.000000
 31
        0.000000
  0
LINE
  8
LVL0000
 62
  2
 10
      125.500000
 20
     -306.000000
 30
        0.000000
 11
      100.500000
 21
     -306.000000
 31
        0.000000
  0
LINE
  8
LVL0000
 62
  2
 10
      109.300000
 20
     -306.000000
 30
        0.000000
 11
      109.300000
 21
     -304.500000
 31
        0.000000
  0
LINE
  8
LVL0000
 62
  2
 10
      116.700000
 20
     -306.000000
 30
        0.000000
 11
      116.700000
 21
     -304.500000
 31
        0.000000
  0
LINE
  8
LVL0000
 62
  2
 10
      116.700000
 20
     -304.500000
 30
        0.000000
 11
      109.300000
 21
     -304.500000
 31
        0.000000
  0
LINE
  8
LVL0001
 10
       68.600000
 20
     -355.500000
 30
        0.000000
 11
       74.300000
 21
     -355.500000
 31
        0.000000
  0
LINE
  8
LVL0001
 10
       74.300000
 20
     -355.250000
 30
        0.000000
 11
       83.000000
 21
     -355.250000
 31
        0.000000
  0
LINE
  8
LVL0001
 10
       74.300000
 20
     -384.750000
 30
        0.000000
 11
       83.000000
 21
     -384.750000
 31
        0.000000
  0
CIRCLE
  8
LVL0001
 10
       75.800000
 20
     -370.000000
 30
        0.000000
 40
        2.000000
  0
LINE
  8
LVL0001
 10
       69.600000
 20
     -355.500000
 30
        0.000000
 11
       69.600000
 21
     -355.000000
 31
        0.000000
  0
LINE
  8
LVL0001
 10
       71.200000
 20
     -355.500000
 30
        0.000000
 11
       71.200000
 21
     -355.000000
 31
        0.000000
  0
LINE
  8
LVL0001
 10
       68.400000
 20
     -351.000000
 30
        0.000000
 11
       72.400000
 21
     -351.000000
 31
        0.000000
  0
LINE
  8
LVL0001
 10
       74.300000
 20
     -384.750000
 30
        0.000000
 11
       74.300000
 21
     -371.322876
 31
        0.000000
  0
LINE
  8
LVL0001
 10
       74.300000
 20
     -368.677124
 30
        0.000000
 11
       74.300000
 21
     -355.250000
 31
        0.000000
  0
LINE
  8
LVL0001
 10
       83.000000
 20
     -384.750000
 30
        0.000000
 11
       83.000000
 21
     -355.250000
 31
        0.000000
  0
CIRCLE
  8
LVL0000
 10
      121.500000
 20
     -382.000000
 30
        0.000000
 40
        1.000000
  0
CIRCLE
  8
LVL0000
 10
      121.500000
 20
     -382.000000
 30
        0.000000
 40
        0.800000
  0
CIRCLE
  8
LVL0000
 10
      121.500000
 20
     -358.000000
 30
        0.000000
 40
        0.800000
  0
CIRCLE
  8
LVL0000
 10
      121.500000
 20
     -358.000000
 30
        0.000000
 40
        1.000000
  0
CIRCLE
  8
LVL0000
 10
      104.500000
 20
     -358.000000
 30
        0.000000
 40
        0.800000
  0
CIRCLE
  8
LVL0000
 10
      104.500000
 20
     -358.000000
 30
        0.000000
 40
        1.000000
  0
CIRCLE
  8
LVL0000
 10
      104.500000
 20
     -382.000000
 30
        0.000000
 40
        1.000000
  0
CIRCLE
  8
LVL0000
 10
      104.500000
 20
     -382.000000
 30
        0.000000
 40
        0.800000
  0
CIRCLE
  8
LVL0000
 62
  2
 10
      106.500000
 20
     -402.000030
 30
        0.000000
 40
        1.750000
  0
CIRCLE
  8
LVL0000
 62
  2
 10
      124.500000
 20
     -402.000030
 30
        0.000000
 40
        1.750000
  0
CIRCLE
  8
LVL0000
 62
  2
 10
      115.500000
 20
     -402.000030
 30
        0.000000
 40
        2.500000
  0
LINE
  8
LVL0000
  6
DOT
 62
  2
 10
      103.000000
 20
     -387.000000
 30
        0.000000
 11
      128.000000
 21
     -387.000000
 31
        0.000000
  0
LINE
  8
LVL0000
 62
  2
 10
      103.000000
 20
     -385.000000
 30
        0.000000
 11
      128.000000
 21
     -385.000000
 31
        0.000000
  0
LINE
  8
LVL0000
 62
  2
 10
      105.000000
 20
     -416.000000
 30
        0.000000
 11
      126.000000
 21
     -416.000000
 31
        0.000000
  0
LINE
  8
LVL0000
 62
  2
 10
      103.000000
 20
     -414.000000
 30
        0.000000
 11
      103.000000
 21
     -385.000000
 31
        0.000000
  0
ARC
  8
LVL0000
 62
  2
 10
      105.000000
 20
     -414.000000
 30
        0.000000
 40
        2.000000
 50
      179.999995
 51
      270.000000
  0
LINE
  8
LVL0000
 62
  2
 10
      128.000000
 20
     -414.000000
 30
        0.000000
 11
      128.000000
 21
     -385.000000
 31
        0.000000
  0
ARC
  8
LVL0000
 62
  2
 10
      126.000000
 20
     -414.000000
 30
        0.000000
 40
        2.000000
 50
      270.000000
 51
      360.000000
  0
CIRCLE
  8
LVL0000
 62
  2
 10
      115.500000
 20
     -412.000030
 30
        0.000000
 40
        1.200000
  0
CIRCLE
  8
LVL0000
 62
  2
 10
      115.500000
 20
     -412.000030
 30
        0.000000
 40
        1.500000
  0
CIRCLE
  8
LVL0000
 62
  2
 10
      115.500000
 20
     -392.000030
 30
        0.000000
 40
        1.200000
  0
CIRCLE
  8
LVL0000
 62
  2
 10
      115.500000
 20
     -392.000030
 30
        0.000000
 40
        1.500000
  0
CIRCLE
  8
LVL0000
 62
  2
 10
      115.500000
 20
     -402.000030
 30
        0.000000
 40
        3.175000
  0
TEXT
  8
LVL0000
 62
  2
 10
       49.017344
 20
     -342.646778
 30
        0.000000
 40
        4.000000
  1
ＩＶＳ２０Ｌ１６
 50
        0.000000
 41
        0.835000
 51
        0.000000
  7
BIGFONT
  0
INSERT
  8
LVL0000
 62
  2
  2
BLK0014
 10
        0.000000
 20
        0.000000
  0
LINE
  8
LVL0000
 10
      130.850000
 20
     -374.424365
 30
        0.000000
 11
      130.850000
 21
     -378.575635
 31
        0.000000
  0
LINE
  8
LVL0000
 10
      130.000000
 20
     -374.350000
 30
        0.000000
 11
      130.850000
 21
     -374.424365
 31
        0.000000
  0
LINE
  8
LVL0000
 10
      130.000000
 20
     -378.650000
 30
        0.000000
 11
      130.850000
 21
     -378.575635
 31
        0.000000
  0
ARC
  8
LVL0000
 10
      124.870344
 20
     -376.500000
 30
        0.000000
 40
        6.329656
 50
      340.857286
 51
      379.142709
  0
LINE
  8
LVL0000
 10
      130.000000
 20
     -385.000000
 30
        0.000000
 11
      130.000000
 21
     -355.000000
 31
        0.000000
  0
ARC
  8
LVL0000
 10
       86.700000
 20
     -384.299191
 30
        0.000000
 40
        0.500000
 50
      179.999995
 51
      269.000003
  0
LINE
  8
LVL0000
 10
       98.200000
 20
     -385.000000
 30
        0.000000
 11
       86.691274
 21
     -384.799114
 31
        0.000000
  0
LINE
  8
LVL0000
 10
       94.800000
 20
     -359.850000
 30
        0.000000
 11
       93.950000
 21
     -359.775635
 31
        0.000000
  0
LINE
  8
LVL0000
 10
       93.950000
 20
     -359.775635
 30
        0.000000
 11
       93.950000
 21
     -355.624365
 31
        0.000000
  0
ARC
  8
LVL0000
 10
       99.929656
 20
     -357.700000
 30
        0.000000
 40
        6.329656
 50
      160.857281
 51
      199.142714
  0
LINE
  8
LVL0000
 10
       94.800000
 20
     -355.550000
 30
        0.000000
 11
       93.950000
 21
     -355.624365
 31
        0.000000
  0
LINE
  8
LVL0000
 10
       94.800000
 20
     -370.000000
 30
        0.000000
 11
       94.800000
 21
     -355.387321
 31
        0.000000
  0
ARC
  8
LVL0000
 10
       95.100000
 20
     -355.387321
 30
        0.000000
 40
        0.300000
 50
       90.999997
 51
      179.999995
  0
LINE
  8
LVL0000
 10
       94.800000
 20
     -370.000000
 30
        0.000000
 11
       94.800000
 21
     -384.612679
 31
        0.000000
  0
LINE
  8
LVL0000
 10
       94.800000
 20
     -384.450000
 30
        0.000000
 11
       93.950000
 21
     -384.375635
 31
        0.000000
  0
ARC
  8
LVL0000
 10
       99.929656
 20
     -382.300000
 30
        0.000000
 40
        6.329656
 50
      160.857286
 51
      199.142719
  0
LINE
  8
LVL0000
 10
       93.950000
 20
     -380.224365
 30
        0.000000
 11
       93.950000
 21
     -384.375635
 31
        0.000000
  0
LINE
  8
LVL0000
 10
       94.800000
 20
     -380.150000
 30
        0.000000
 11
       93.950000
 21
     -380.224365
 31
        0.000000
  0
ARC
  8
LVL0000
 10
       95.100000
 20
     -384.612679
 30
        0.000000
 40
        0.300000
 50
      179.999995
 51
      269.000003
  0
LINE
  8
LVL0000
 10
      130.000000
 20
     -385.000000
 30
        0.000000
 11
       98.200000
 21
     -385.000000
 31
        0.000000
  0
LINE
  8
LVL0000
 10
      130.000000
 20
     -355.000000
 30
        0.000000
 11
       98.200000
 21
     -355.000000
 31
        0.000000
  0
LINE
  8
LVL0000
 10
       98.200000
 20
     -355.000000
 30
        0.000000
 11
       86.691274
 21
     -355.200886
 31
        0.000000
  0
ARC
  8
LVL0000
 10
       86.700000
 20
     -355.700809
 30
        0.000000
 40
        0.500000
 50
       90.999997
 51
      179.999995
  0
LINE
  8
LVL0000
 10
       86.200000
 20
     -355.700809
 30
        0.000000
 11
       86.200000
 21
     -384.299191
 31
        0.000000
  0
LINE
  8
LVL0000
 10
       86.000000
 20
     -355.500000
 30
        0.000000
 11
       86.000000
 21
     -370.000000
 31
        0.000000
  0
LINE
  8
LVL0000
 10
       98.500000
 20
     -385.000000
 30
        0.000000
 11
       98.500000
 21
     -355.000000
 31
        0.000000
  0
LINE
  8
LVL0000
 10
       98.200000
 20
     -385.000000
 30
        0.000000
 11
       98.200000
 21
     -355.000000
 31
        0.000000
  0
LINE
  8
LVL0000
 10
       86.000000
 20
     -370.000000
 30
        0.000000
 11
       86.000000
 21
     -384.500000
 31
        0.000000
  0
LINE
  8
LVL0000
 10
       86.000000
 20
     -371.500000
 30
        0.000000
 11
       83.000000
 21
     -371.500000
 31
        0.000000
  0
LINE
  8
LVL0000
 10
       86.000000
 20
     -370.500000
 30
        0.000000
 11
       83.000000
 21
     -370.500000
 31
        0.000000
  0
LINE
  8
LVL0000
 10
       86.000000
 20
     -369.500000
 30
        0.000000
 11
       83.000000
 21
     -369.500000
 31
        0.000000
  0
LINE
  8
LVL0000
 10
       86.000000
 20
     -368.500000
 30
        0.000000
 11
       83.000000
 21
     -368.500000
 31
        0.000000
  0
LINE
  8
LVL0000
 10
       86.000000
 20
     -367.500000
 30
        0.000000
 11
       83.000000
 21
     -367.500000
 31
        0.000000
  0
LINE
  8
LVL0000
 10
       86.000000
 20
     -366.500000
 30
        0.000000
 11
       83.000000
 21
     -366.500000
 31
        0.000000
  0
LINE
  8
LVL0000
 10
       86.000000
 20
     -365.500000
 30
        0.000000
 11
       83.000000
 21
     -365.500000
 31
        0.000000
  0
LINE
  8
LVL0000
 10
       86.000000
 20
     -364.500000
 30
        0.000000
 11
       83.000000
 21
     -364.500000
 31
        0.000000
  0
LINE
  8
LVL0000
 10
       86.000000
 20
     -363.500000
 30
        0.000000
 11
       83.000000
 21
     -363.500000
 31
        0.000000
  0
LINE
  8
LVL0000
 10
       86.000000
 20
     -362.500000
 30
        0.000000
 11
       83.000000
 21
     -362.500000
 31
        0.000000
  0
LINE
  8
LVL0000
 10
       86.000000
 20
     -361.500000
 30
        0.000000
 11
       83.000000
 21
     -361.500000
 31
        0.000000
  0
LINE
  8
LVL0000
 10
       86.000000
 20
     -360.500000
 30
        0.000000
 11
       83.000000
 21
     -360.500000
 31
        0.000000
  0
LINE
  8
LVL0000
 10
       86.000000
 20
     -359.500000
 30
        0.000000
 11
       83.000000
 21
     -359.500000
 31
        0.000000
  0
LINE
  8
LVL0000
 10
       86.000000
 20
     -358.500000
 30
        0.000000
 11
       83.000000
 21
     -358.500000
 31
        0.000000
  0
LINE
  8
LVL0000
 10
       86.000000
 20
     -357.500000
 30
        0.000000
 11
       83.000000
 21
     -357.500000
 31
        0.000000
  0
LINE
  8
LVL0000
 10
       86.000000
 20
     -356.500000
 30
        0.000000
 11
       83.000000
 21
     -356.500000
 31
        0.000000
  0
LINE
  8
LVL0000
 10
       86.000000
 20
     -355.500000
 30
        0.000000
 11
       83.000000
 21
     -355.500000
 31
        0.000000
  0
LINE
  8
LVL0000
 10
       83.000000
 20
     -355.500000
 30
        0.000000
 11
       83.000000
 21
     -384.500000
 31
        0.000000
  0
LINE
  8
LVL0000
 10
       86.000000
 20
     -383.500000
 30
        0.000000
 11
       83.000000
 21
     -383.500000
 31
        0.000000
  0
LINE
  8
LVL0000
 10
       86.000000
 20
     -382.500000
 30
        0.000000
 11
       83.000000
 21
     -382.500000
 31
        0.000000
  0
LINE
  8
LVL0000
 10
       86.000000
 20
     -381.500000
 30
        0.000000
 11
       83.000000
 21
     -381.500000
 31
        0.000000
  0
LINE
  8
LVL0000
 10
       86.000000
 20
     -380.500000
 30
        0.000000
 11
       83.000000
 21
     -380.500000
 31
        0.000000
  0
LINE
  8
LVL0000
 10
       86.000000
 20
     -379.500000
 30
        0.000000
 11
       83.000000
 21
     -379.500000
 31
        0.000000
  0
LINE
  8
LVL0000
 10
       86.000000
 20
     -378.500000
 30
        0.000000
 11
       83.000000
 21
     -378.500000
 31
        0.000000
  0
LINE
  8
LVL0000
 10
       86.000000
 20
     -377.500000
 30
        0.000000
 11
       83.000000
 21
     -377.500000
 31
        0.000000
  0
LINE
  8
LVL0000
 10
       86.000000
 20
     -376.500000
 30
        0.000000
 11
       83.000000
 21
     -376.500000
 31
        0.000000
  0
LINE
  8
LVL0000
 10
       86.000000
 20
     -375.500000
 30
        0.000000
 11
       83.000000
 21
     -375.500000
 31
        0.000000
  0
LINE
  8
LVL0000
 10
       86.000000
 20
     -374.500000
 30
        0.000000
 11
       83.000000
 21
     -374.500000
 31
        0.000000
  0
LINE
  8
LVL0000
 10
       86.000000
 20
     -373.500000
 30
        0.000000
 11
       83.000000
 21
     -373.500000
 31
        0.000000
  0
LINE
  8
LVL0000
 10
       86.000000
 20
     -372.500000
 30
        0.000000
 11
       83.000000
 21
     -372.500000
 31
        0.000000
  0
LINE
  8
LVL0000
 10
       86.000000
 20
     -384.500000
 30
        0.000000
 11
       83.000000
 21
     -384.500000
 31
        0.000000
  0
LINE
  8
LVL0000
 10
      130.000000
 20
     -364.950000
 30
        0.000000
 11
      134.800000
 21
     -364.950000
 31
        0.000000
  0
LINE
  8
LVL0000
 10
      134.800000
 20
     -364.950000
 30
        0.000000
 11
      134.800000
 21
     -361.450000
 31
        0.000000
  0
LINE
  8
LVL0000
 10
      130.000000
 20
     -361.450000
 30
        0.000000
 11
      134.800000
 21
     -361.450000
 31
        0.000000
  0
LINE
  8
LVL0000
 10
      158.100000
 20
     -368.700000
 30
        0.000000
 11
      158.100000
 21
     -357.700000
 31
        0.000000
  0
LINE
  8
LVL0000
 10
      145.100000
 20
     -357.700000
 30
        0.000000
 11
      158.100000
 21
     -357.700000
 31
        0.000000
  0
LINE
  8
LVL0000
 10
      145.100000
 20
     -368.700000
 30
        0.000000
 11
      158.100000
 21
     -368.700000
 31
        0.000000
  0
LINE
  8
LVL0000
 10
      136.100000
 20
     -367.700000
 30
        0.000000
 11
      136.100000
 21
     -358.700000
 31
        0.000000
  0
LINE
  8
LVL0000
 10
      145.100000
 20
     -368.700000
 30
        0.000000
 11
      145.100000
 21
     -367.700000
 31
        0.000000
  0
LINE
  8
LVL0000
 10
      145.100000
 20
     -358.700000
 30
        0.000000
 11
      145.100000
 21
     -357.700000
 31
        0.000000
  0
LINE
  8
LVL0000
 10
      136.100000
 20
     -358.700000
 30
        0.000000
 11
      158.100000
 21
     -358.700000
 31
        0.000000
  0
LINE
  8
LVL0000
 10
      136.100000
 20
     -367.700000
 30
        0.000000
 11
      158.100000
 21
     -367.700000
 31
        0.000000
  0
LINE
  8
LVL0000
 10
      134.800000
 20
     -364.200000
 30
        0.000000
 11
      136.100000
 21
     -364.200000
 31
        0.000000
  0
LINE
  8
LVL0000
 10
      134.800000
 20
     -362.200000
 30
        0.000000
 11
      136.100000
 21
     -362.200000
 31
        0.000000
  0
LINE
  8
LVL0000
 10
      170.100000
 20
     -365.200000
 30
        0.000000
 11
      170.100000
 21
     -361.200000
 31
        0.000000
  0
LINE
  8
LVL0000
 10
      158.100000
 20
     -361.200000
 30
        0.000000
 11
      170.100000
 21
     -361.200000
 31
        0.000000
  0
LINE
  8
LVL0000
 10
      158.100000
 20
     -365.200000
 30
        0.000000
 11
      170.100000
 21
     -365.200000
 31
        0.000000
  0
LINE
  8
LVL0000
 10
      168.600000
 20
     -358.200000
 30
        0.000000
 11
      158.100000
 21
     -357.700000
 31
        0.000000
  0
LINE
  8
LVL0000
 10
      158.100000
 20
     -368.700000
 30
        0.000000
 11
      168.600000
 21
     -368.200000
 31
        0.000000
  0
LINE
  8
LVL0000
 10
      168.600000
 20
     -368.200000
 30
        0.000000
 11
      168.600000
 21
     -365.200000
 31
        0.000000
  0
LINE
  8
LVL0000
 10
      168.600000
 20
     -361.200000
 30
        0.000000
 11
      168.600000
 21
     -358.200000
 31
        0.000000
  0
LINE
  8
LVL0000
 10
      130.000000
 20
     -365.400000
 30
        0.000000
 11
      136.100000
 21
     -365.400000
 31
        0.000000
  0
LINE
  8
LVL0000
 10
      130.000000
 20
     -361.000000
 30
        0.000000
 11
      136.100000
 21
     -361.000000
 31
        0.000000
  0
LINE
  8
LVL0000
 10
      168.600000
 20
     -359.200000
 30
        0.000000
 11
      221.442497
 21
     -359.200000
 31
        0.000000
  0
LINE
  8
LVL0000
 10
      168.600000
 20
     -367.200000
 30
        0.000000
 11
      220.698072
 21
     -367.200000
 31
        0.000000
  0
LINE
  8
LVL0001
 10
       68.400000
 20
     -355.000000
 30
        0.000000
 11
       72.400000
 21
     -355.000000
 31
        0.000000
  0
LINE
  8
LVL0001
 10
       68.400000
 20
     -355.000000
 30
        0.000000
 11
       68.400000
 21
     -351.000000
 31
        0.000000
  0
LINE
  8
LVL0001
 10
       72.400000
 20
     -355.000000
 30
        0.000000
 11
       72.400000
 21
     -351.000000
 31
        0.000000
  0
LINE
  8
LVL0001
 10
       54.500000
 20
     -384.000000
 30
        0.000000
 11
       54.500000
 21
     -356.000000
 31
        0.000000
  0
LINE
  8
LVL0001
 10
       68.600000
 20
     -384.500000
 30
        0.000000
 11
       68.600000
 21
     -355.500000
 31
        0.000000
  0
LINE
  8
LVL0001
 10
       54.500000
 20
     -384.000000
 30
        0.000000
 11
       68.600000
 21
     -384.000000
 31
        0.000000
  0
LINE
  8
LVL0001
 10
       54.500000
 20
     -356.000000
 30
        0.000000
 11
       68.600000
 21
     -356.000000
 31
        0.000000
  0
LINE
  8
LVL0001
 10
       68.600000
 20
     -384.500000
 30
        0.000000
 11
       74.300000
 21
     -384.500000
 31
        0.000000
  0
TEXT
  8
LVL0000
 62
  2
 10
      -17.799454
 20
       50.579687
 30
        0.000000
 40
        4.000000
  1
ＩＶＳ２００Ｃ６
 50
        0.000000
 41
        0.835000
 51
        0.000000
  7
BIGFONT
  0
LINE
  8
LVL0000
 10
       90.000000
 20
        9.000000
 30
        0.000000
 11
       96.100000
 21
        9.000000
 31
        0.000000
  0
LINE
  8
LVL0000
 10
       90.000000
 20
        4.600000
 30
        0.000000
 11
       96.100000
 21
        4.600000
 31
        0.000000
  0
LINE
  8
LVL0000
 10
      128.600000
 20
        8.800000
 30
        0.000000
 11
      128.600000
 21
       11.800000
 31
        0.000000
  0
LINE
  8
LVL0000
 10
      128.600000
 20
        1.800000
 30
        0.000000
 11
      128.600000
 21
        4.800000
 31
        0.000000
  0
LINE
  8
LVL0000
 10
      118.100000
 20
        1.300000
 30
        0.000000
 11
      128.600000
 21
        1.800000
 31
        0.000000
  0
LINE
  8
LVL0000
 10
      128.600000
 20
       11.800000
 30
        0.000000
 11
      118.100000
 21
       12.300000
 31
        0.000000
  0
LINE
  8
LVL0000
 10
      118.100000
 20
        4.800000
 30
        0.000000
 11
      130.100000
 21
        4.800000
 31
        0.000000
  0
LINE
  8
LVL0000
 10
      118.100000
 20
        8.800000
 30
        0.000000
 11
      130.100000
 21
        8.800000
 31
        0.000000
  0
LINE
  8
LVL0000
 10
      130.100000
 20
        4.800000
 30
        0.000000
 11
      130.100000
 21
        8.800000
 31
        0.000000
  0
LINE
  8
LVL0000
 10
       94.800000
 20
        7.800000
 30
        0.000000
 11
       96.100000
 21
        7.800000
 31
        0.000000
  0
LINE
  8
LVL0000
 10
       94.800000
 20
        5.800000
 30
        0.000000
 11
       96.100000
 21
        5.800000
 31
        0.000000
  0
LINE
  8
LVL0000
 10
       96.100000
 20
        2.300000
 30
        0.000000
 11
      118.100000
 21
        2.300000
 31
        0.000000
  0
LINE
  8
LVL0000
 10
       96.100000
 20
       11.300000
 30
        0.000000
 11
      118.100000
 21
       11.300000
 31
        0.000000
  0
LINE
  8
LVL0000
 10
      105.100000
 20
       11.300000
 30
        0.000000
 11
      105.100000
 21
       12.300000
 31
        0.000000
  0
LINE
  8
LVL0000
 10
      105.100000
 20
        1.300000
 30
        0.000000
 11
      105.100000
 21
        2.300000
 31
        0.000000
  0
LINE
  8
LVL0000
 10
       96.100000
 20
        2.300000
 30
        0.000000
 11
       96.100000
 21
       11.300000
 31
        0.000000
  0
LINE
  8
LVL0000
 10
      105.100000
 20
        1.300000
 30
        0.000000
 11
      118.100000
 21
        1.300000
 31
        0.000000
  0
LINE
  8
LVL0000
 10
      105.100000
 20
       12.300000
 30
        0.000000
 11
      118.100000
 21
       12.300000
 31
        0.000000
  0
LINE
  8
LVL0000
 10
      118.100000
 20
        1.300000
 30
        0.000000
 11
      118.100000
 21
       12.300000
 31
        0.000000
  0
LINE
  8
LVL0000
 10
       46.000000
 20
        0.000000
 30
        0.000000
 11
       46.000000
 21
      -14.500000
 31
        0.000000
  0
LINE
  8
LVL0000
 10
       46.000000
 20
       -1.500000
 30
        0.000000
 11
       43.000000
 21
       -1.500000
 31
        0.000000
  0
LINE
  8
LVL0000
 10
       46.000000
 20
       -0.500000
 30
        0.000000
 11
       43.000000
 21
       -0.500000
 31
        0.000000
  0
LINE
  8
LVL0000
 10
       58.200000
 20
      -15.000000
 30
        0.000000
 11
       58.200000
 21
       15.000000
 31
        0.000000
  0
LINE
  8
LVL0000
 10
       58.500000
 20
      -15.000000
 30
        0.000000
 11
       58.500000
 21
       15.000000
 31
        0.000000
  0
LINE
  8
LVL0000
 10
       46.000000
 20
        0.500000
 30
        0.000000
 11
       43.000000
 21
        0.500000
 31
        0.000000
  0
LINE
  8
LVL0000
 10
       46.000000
 20
        1.500000
 30
        0.000000
 11
       43.000000
 21
        1.500000
 31
        0.000000
  0
LINE
  8
LVL0000
 10
       46.000000
 20
        2.500000
 30
        0.000000
 11
       43.000000
 21
        2.500000
 31
        0.000000
  0
LINE
  8
LVL0000
 10
       46.000000
 20
        3.500000
 30
        0.000000
 11
       43.000000
 21
        3.500000
 31
        0.000000
  0
LINE
  8
LVL0000
 10
       46.000000
 20
        4.500000
 30
        0.000000
 11
       43.000000
 21
        4.500000
 31
        0.000000
  0
LINE
  8
LVL0000
 10
       46.000000
 20
        5.500000
 30
        0.000000
 11
       43.000000
 21
        5.500000
 31
        0.000000
  0
LINE
  8
LVL0000
 10
       46.000000
 20
        6.500000
 30
        0.000000
 11
       43.000000
 21
        6.500000
 31
        0.000000
  0
LINE
  8
LVL0000
 10
       46.000000
 20
        7.500000
 30
        0.000000
 11
       43.000000
 21
        7.500000
 31
        0.000000
  0
LINE
  8
LVL0000
 10
       46.000000
 20
        8.500000
 30
        0.000000
 11
       43.000000
 21
        8.500000
 31
        0.000000
  0
LINE
  8
LVL0000
 10
       46.000000
 20
        9.500000
 30
        0.000000
 11
       43.000000
 21
        9.500000
 31
        0.000000
  0
LINE
  8
LVL0000
 10
       46.000000
 20
       10.500000
 30
        0.000000
 11
       43.000000
 21
       10.500000
 31
        0.000000
  0
LINE
  8
LVL0000
 10
       46.000000
 20
       11.500000
 30
        0.000000
 11
       43.000000
 21
       11.500000
 31
        0.000000
  0
LINE
  8
LVL0000
 10
       46.000000
 20
       12.500000
 30
        0.000000
 11
       43.000000
 21
       12.500000
 31
        0.000000
  0
LINE
  8
LVL0000
 10
       46.000000
 20
       13.500000
 30
        0.000000
 11
       43.000000
 21
       13.500000
 31
        0.000000
  0
LINE
  8
LVL0000
 10
       46.000000
 20
       14.500000
 30
        0.000000
 11
       43.000000
 21
       14.500000
 31
        0.000000
  0
LINE
  8
LVL0000
 10
       46.000000
 20
       14.500000
 30
        0.000000
 11
       46.000000
 21
        0.000000
 31
        0.000000
  0
LINE
  8
LVL0000
 10
       43.000000
 20
       14.500000
 30
        0.000000
 11
       43.000000
 21
      -14.500000
 31
        0.000000
  0
LINE
  8
LVL0000
 10
       46.200000
 20
       14.299191
 30
        0.000000
 11
       46.200000
 21
      -14.299191
 31
        0.000000
  0
ARC
  8
LVL0000
 10
       46.700000
 20
       14.299191
 30
        0.000000
 40
        0.500000
 50
       90.999997
 51
      179.999995
  0
LINE
  8
LVL0000
 10
       58.200000
 20
       15.000000
 30
        0.000000
 11
       46.691274
 21
       14.799114
 31
        0.000000
  0
CIRCLE
  8
LVL0000
 10
       64.500000
 20
      -12.000000
 30
        0.000000
 40
        0.800000
  0
CIRCLE
  8
LVL0000
 10
       64.500000
 20
      -12.000000
 30
        0.000000
 40
        1.000000
  0
CIRCLE
  8
LVL0000
 10
       64.500000
 20
       12.000000
 30
        0.000000
 40
        1.000000
  0
CIRCLE
  8
LVL0000
 10
       64.500000
 20
       12.000000
 30
        0.000000
 40
        0.800000
  0
LINE
  8
LVL0000
 10
       90.000000
 20
       15.000000
 30
        0.000000
 11
       58.200000
 21
       15.000000
 31
        0.000000
  0
LINE
  8
LVL0000
 10
       90.000000
 20
      -15.000000
 30
        0.000000
 11
       90.000000
 21
       15.000000
 31
        0.000000
  0
LINE
  8
LVL0000
 10
       90.000000
 20
      -15.000000
 30
        0.000000
 11
       58.200000
 21
      -15.000000
 31
        0.000000
  0
LINE
  8
LVL0000
 10
       90.000000
 20
        8.550000
 30
        0.000000
 11
       94.800000
 21
        8.550000
 31
        0.000000
  0
LINE
  8
LVL0000
 10
       94.800000
 20
        5.050000
 30
        0.000000
 11
       94.800000
 21
        8.550000
 31
        0.000000
  0
ARC
  8
LVL0000
 10
       84.870344
 20
       -6.500000
 30
        0.000000
 40
        6.329656
 50
      340.857286
 51
      379.142709
  0
LINE
  8
LVL0000
 10
       90.000000
 20
       -8.650000
 30
        0.000000
 11
       90.850000
 21
       -8.575635
 31
        0.000000
  0
LINE
  8
LVL0000
 10
       90.000000
 20
       -4.350000
 30
        0.000000
 11
       90.850000
 21
       -4.424365
 31
        0.000000
  0
LINE
  8
LVL0000
 10
       90.850000
 20
       -4.424365
 30
        0.000000
 11
       90.850000
 21
       -8.575635
 31
        0.000000
  0
CIRCLE
  8
LVL0000
 10
       81.500000
 20
       12.000000
 30
        0.000000
 40
        1.000000
  0
CIRCLE
  8
LVL0000
 10
       81.500000
 20
       12.000000
 30
        0.000000
 40
        0.800000
  0
CIRCLE
  8
LVL0000
 10
       81.500000
 20
      -12.000000
 30
        0.000000
 40
        0.800000
  0
CIRCLE
  8
LVL0000
 10
       81.500000
 20
      -12.000000
 30
        0.000000
 40
        1.000000
  0
ARC
  8
LVL0000
 10
       55.100000
 20
      -14.612679
 30
        0.000000
 40
        0.300000
 50
      179.999995
 51
      269.000003
  0
LINE
  8
LVL0000
 10
       54.800000
 20
      -10.150000
 30
        0.000000
 11
       53.950000
 21
      -10.224365
 31
        0.000000
  0
LINE
  8
LVL0000
 10
       53.950000
 20
      -10.224365
 30
        0.000000
 11
       53.950000
 21
      -14.375635
 31
        0.000000
  0
ARC
  8
LVL0000
 10
       59.929656
 20
      -12.300000
 30
        0.000000
 40
        6.329656
 50
      160.857286
 51
      199.142719
  0
LINE
  8
LVL0000
 10
       54.800000
 20
      -14.450000
 30
        0.000000
 11
       53.950000
 21
      -14.375635
 31
        0.000000
  0
LINE
  8
LVL0000
 10
       54.800000
 20
        0.000000
 30
        0.000000
 11
       54.800000
 21
      -14.612679
 31
        0.000000
  0
ARC
  8
LVL0000
 10
       55.100000
 20
       14.612679
 30
        0.000000
 40
        0.300000
 50
       90.999997
 51
      179.999995
  0
LINE
  8
LVL0000
 10
       54.800000
 20
        0.000000
 30
        0.000000
 11
       54.800000
 21
       14.612679
 31
        0.000000
  0
LINE
  8
LVL0000
 10
       54.800000
 20
       14.450000
 30
        0.000000
 11
       53.950000
 21
       14.375635
 31
        0.000000
  0
ARC
  8
LVL0000
 10
       59.929656
 20
       12.300000
 30
        0.000000
 40
        6.329656
 50
      160.857281
 51
      199.142714
  0
LINE
  8
LVL0000
 10
       53.950000
 20
       10.224365
 30
        0.000000
 11
       53.950000
 21
       14.375635
 31
        0.000000
  0
LINE
  8
LVL0000
 10
       54.800000
 20
       10.150000
 30
        0.000000
 11
       53.950000
 21
       10.224365
 31
        0.000000
  0
LINE
  8
LVL0000
 10
       90.000000
 20
        5.050000
 30
        0.000000
 11
       94.800000
 21
        5.050000
 31
        0.000000
  0
LINE
  8
LVL0000
 10
       46.000000
 20
      -13.500000
 30
        0.000000
 11
       43.000000
 21
      -13.500000
 31
        0.000000
  0
LINE
  8
LVL0000
 10
       46.000000
 20
      -12.500000
 30
        0.000000
 11
       43.000000
 21
      -12.500000
 31
        0.000000
  0
LINE
  8
LVL0000
 10
       46.000000
 20
      -11.500000
 30
        0.000000
 11
       43.000000
 21
      -11.500000
 31
        0.000000
  0
LINE
  8
LVL0000
 10
       46.000000
 20
      -10.500000
 30
        0.000000
 11
       43.000000
 21
      -10.500000
 31
        0.000000
  0
LINE
  8
LVL0000
 10
       46.000000
 20
       -9.500000
 30
        0.000000
 11
       43.000000
 21
       -9.500000
 31
        0.000000
  0
LINE
  8
LVL0000
 10
       46.000000
 20
       -8.500000
 30
        0.000000
 11
       43.000000
 21
       -8.500000
 31
        0.000000
  0
LINE
  8
LVL0000
 10
       46.000000
 20
       -7.500000
 30
        0.000000
 11
       43.000000
 21
       -7.500000
 31
        0.000000
  0
LINE
  8
LVL0000
 10
       46.000000
 20
       -6.500000
 30
        0.000000
 11
       43.000000
 21
       -6.500000
 31
        0.000000
  0
LINE
  8
LVL0000
 10
       46.000000
 20
       -5.500000
 30
        0.000000
 11
       43.000000
 21
       -5.500000
 31
        0.000000
  0
LINE
  8
LVL0000
 10
       46.000000
 20
       -4.500000
 30
        0.000000
 11
       43.000000
 21
       -4.500000
 31
        0.000000
  0
LINE
  8
LVL0000
 10
       46.000000
 20
       -3.500000
 30
        0.000000
 11
       43.000000
 21
       -3.500000
 31
        0.000000
  0
LINE
  8
LVL0000
 10
       46.000000
 20
       -2.500000
 30
        0.000000
 11
       43.000000
 21
       -2.500000
 31
        0.000000
  0
LINE
  8
LVL0000
 10
       46.000000
 20
      -14.500000
 30
        0.000000
 11
       43.000000
 21
      -14.500000
 31
        0.000000
  0
LINE
  8
LVL0000
 10
       58.200000
 20
      -15.000000
 30
        0.000000
 11
       46.691274
 21
      -14.799114
 31
        0.000000
  0
ARC
  8
LVL0000
 10
       46.700000
 20
      -14.299191
 30
        0.000000
 40
        0.500000
 50
      179.999995
 51
      269.000003
  0
LINE
  8
LVL0000
 10
       54.800000
 20
      104.450000
 30
        0.000000
 11
       53.950000
 21
      104.375635
 31
        0.000000
  0
LINE
  8
LVL0000
 10
       54.800000
 20
       90.000000
 30
        0.000000
 11
       54.800000
 21
      104.612679
 31
        0.000000
  0
ARC
  8
LVL0000
 10
       55.100000
 20
      104.612679
 30
        0.000000
 40
        0.300000
 50
       90.999997
 51
      179.999995
  0
LINE
  8
LVL0000
 10
       54.800000
 20
       90.000000
 30
        0.000000
 11
       54.800000
 21
       75.387321
 31
        0.000000
  0
LINE
  8
LVL0000
 10
       54.800000
 20
       75.550000
 30
        0.000000
 11
       53.950000
 21
       75.624365
 31
        0.000000
  0
ARC
  8
LVL0000
 10
       59.929656
 20
       77.700000
 30
        0.000000
 40
        6.329656
 50
      160.857286
 51
      199.142719
  0
LINE
  8
LVL0000
 10
       53.950000
 20
       79.775635
 30
        0.000000
 11
       53.950000
 21
       75.624365
 31
        0.000000
  0
LINE
  8
LVL0000
 10
       54.800000
 20
       79.850000
 30
        0.000000
 11
       53.950000
 21
       79.775635
 31
        0.000000
  0
ARC
  8
LVL0000
 10
       55.100000
 20
       75.387321
 30
        0.000000
 40
        0.300000
 50
      179.999995
 51
      269.000003
  0
LINE
  8
LVL0000
 10
      118.100000
 20
       77.800000
 30
        0.000000
 11
      118.100000
 21
      102.200000
 31
        0.000000
  0
LINE
  8
LVL0000
 10
      118.100000
 20
       99.000000
 30
        0.000000
 11
      105.100000
 21
       99.000000
 31
        0.000000
  0
LINE
  8
LVL0000
 10
      118.100000
 20
       81.000000
 30
        0.000000
 11
      105.100000
 21
       81.000000
 31
        0.000000
  0
LINE
  8
LVL0000
 10
      105.100000
 20
       99.000000
 30
        0.000000
 11
      105.100000
 21
       81.000000
 31
        0.000000
  0
LINE
  8
LVL0000
 10
       96.100000
 20
       77.800000
 30
        0.000000
 11
       96.100000
 21
      102.200000
 31
        0.000000
  0
LINE
  8
LVL0000
 10
      118.100000
 20
       77.800000
 30
        0.000000
 11
       96.100000
 21
       77.800000
 31
        0.000000
  0
LINE
  8
LVL0000
 10
      118.100000
 20
      102.200000
 30
        0.000000
 11
       96.100000
 21
      102.200000
 31
        0.000000
  0
LINE
  8
LVL0000
 10
       94.800000
 20
       81.400000
 30
        0.000000
 11
       96.100000
 21
       81.400000
 31
        0.000000
  0
LINE
  8
LVL0000
 10
       94.800000
 20
       79.400000
 30
        0.000000
 11
       96.100000
 21
       79.400000
 31
        0.000000
  0
LINE
  8
LVL0000
 10
      118.100000
 20
       78.400000
 30
        0.000000
 11
      130.100000
 21
       78.400000
 31
        0.000000
  0
LINE
  8
LVL0000
 10
      118.100000
 20
       82.400000
 30
        0.000000
 11
      130.100000
 21
       82.400000
 31
        0.000000
  0
LINE
  8
LVL0000
 10
      130.100000
 20
       78.400000
 30
        0.000000
 11
      130.100000
 21
       82.400000
 31
        0.000000
  0
LINE
  8
LVL0000
 10
      130.100000
 20
       97.600000
 30
        0.000000
 11
      130.100000
 21
      101.600000
 31
        0.000000
  0
LINE
  8
LVL0000
 10
      118.100000
 20
      101.600000
 30
        0.000000
 11
      130.100000
 21
      101.600000
 31
        0.000000
  0
LINE
  8
LVL0000
 10
      118.100000
 20
       97.600000
 30
        0.000000
 11
      130.100000
 21
       97.600000
 31
        0.000000
  0
LINE
  8
LVL0000
 10
       94.800000
 20
       98.600000
 30
        0.000000
 11
       96.100000
 21
       98.600000
 31
        0.000000
  0
LINE
  8
LVL0000
 10
       94.800000
 20
      100.600000
 30
        0.000000
 11
       96.100000
 21
      100.600000
 31
        0.000000
  0
LINE
  8
LVL0000
 10
      128.600000
 20
       95.000000
 30
        0.000000
 11
      118.100000
 21
       95.500000
 31
        0.000000
  0
LINE
  8
LVL0000
 10
      118.100000
 20
       84.500000
 30
        0.000000
 11
      128.600000
 21
       85.000000
 31
        0.000000
  0
LINE
  8
LVL0000
 10
      128.600000
 20
       85.000000
 30
        0.000000
 11
      128.600000
 21
       95.000000
 31
        0.000000
  0
LINE
  8
LVL0000
 10
       96.100000
 20
       82.700000
 30
        0.000000
 11
       90.000000
 21
       82.700000
 31
        0.000000
  0
LINE
  8
LVL0000
 10
       96.100000
 20
       97.300000
 30
        0.000000
 11
       90.000000
 21
       97.300000
 31
        0.000000
  0
CIRCLE
  8
LVL0000
 10
       53.500000
 20
       90.000000
 30
        0.000000
 40
        1.040000
  0
CIRCLE
  8
LVL0000
 10
       53.500000
 20
       90.000000
 30
        0.000000
 40
        1.300000
  0
LINE
  8
LVL0000
 10
       46.000000
 20
       90.000000
 30
        0.000000
 11
       46.000000
 21
       75.500000
 31
        0.000000
  0
LINE
  8
LVL0000
 10
       46.000000
 20
       89.500000
 30
        0.000000
 11
       43.000000
 21
       89.500000
 31
        0.000000
  0
LINE
  8
LVL0000
 10
       46.000000
 20
       88.500000
 30
        0.000000
 11
       43.000000
 21
       88.500000
 31
        0.000000
  0
LINE
  8
LVL0000
 10
       46.000000
 20
       87.500000
 30
        0.000000
 11
       43.000000
 21
       87.500000
 31
        0.000000
  0
LINE
  8
LVL0000
 10
       46.000000
 20
       86.500000
 30
        0.000000
 11
       43.000000
 21
       86.500000
 31
        0.000000
  0
LINE
  8
LVL0000
 10
       46.000000
 20
       85.500000
 30
        0.000000
 11
       43.000000
 21
       85.500000
 31
        0.000000
  0
LINE
  8
LVL0000
 10
       46.000000
 20
       84.500000
 30
        0.000000
 11
       43.000000
 21
       84.500000
 31
        0.000000
  0
LINE
  8
LVL0000
 10
       46.000000
 20
       83.500000
 30
        0.000000
 11
       43.000000
 21
       83.500000
 31
        0.000000
  0
LINE
  8
LVL0000
 10
       46.000000
 20
       82.500000
 30
        0.000000
 11
       43.000000
 21
       82.500000
 31
        0.000000
  0
LINE
  8
LVL0000
 10
       46.000000
 20
       81.500000
 30
        0.000000
 11
       43.000000
 21
       81.500000
 31
        0.000000
  0
LINE
  8
LVL0000
 10
       46.000000
 20
       80.500000
 30
        0.000000
 11
       43.000000
 21
       80.500000
 31
        0.000000
  0
LINE
  8
LVL0000
 10
       46.000000
 20
       79.500000
 30
        0.000000
 11
       43.000000
 21
       79.500000
 31
        0.000000
  0
LINE
  8
LVL0000
 10
       46.000000
 20
       78.500000
 30
        0.000000
 11
       43.000000
 21
       78.500000
 31
        0.000000
  0
LINE
  8
LVL0000
 10
       46.000000
 20
       77.500000
 30
        0.000000
 11
       43.000000
 21
       77.500000
 31
        0.000000
  0
LINE
  8
LVL0000
 10
       46.000000
 20
       76.500000
 30
        0.000000
 11
       43.000000
 21
       76.500000
 31
        0.000000
  0
LINE
  8
LVL0000
 10
       58.200000
 20
      105.000000
 30
        0.000000
 11
       46.691274
 21
      104.799114
 31
        0.000000
  0
ARC
  8
LVL0000
 10
       46.700000
 20
      104.299191
 30
        0.000000
 40
        0.500000
 50
       90.999997
 51
      179.999995
  0
ARC
  8
LVL0000
 10
       46.700000
 20
       75.700809
 30
        0.000000
 40
        0.500000
 50
      179.999995
 51
      269.000003
  0
LINE
  8
LVL0000
 10
       58.200000
 20
       75.000000
 30
        0.000000
 11
       46.691274
 21
       75.200886
 31
        0.000000
  0
LINE
  8
LVL0000
 10
       46.200000
 20
      104.299191
 30
        0.000000
 11
       46.200000
 21
       75.700809
 31
        0.000000
  0
LINE
  8
LVL0000
 10
       43.000000
 20
      104.500000
 30
        0.000000
 11
       43.000000
 21
       75.500000
 31
        0.000000
  0
LINE
  8
LVL0000
 10
       46.000000
 20
      104.500000
 30
        0.000000
 11
       46.000000
 21
       90.000000
 31
        0.000000
  0
LINE
  8
LVL0000
 10
       46.000000
 20
       75.500000
 30
        0.000000
 11
       43.000000
 21
       75.500000
 31
        0.000000
  0
LINE
  8
LVL0000
 10
       46.000000
 20
      104.500000
 30
        0.000000
 11
       43.000000
 21
      104.500000
 31
        0.000000
  0
LINE
  8
LVL0000
 10
       46.000000
 20
      103.500000
 30
        0.000000
 11
       43.000000
 21
      103.500000
 31
        0.000000
  0
LINE
  8
LVL0000
 10
       46.000000
 20
      102.500000
 30
        0.000000
 11
       43.000000
 21
      102.500000
 31
        0.000000
  0
LINE
  8
LVL0000
 10
       46.000000
 20
      101.500000
 30
        0.000000
 11
       43.000000
 21
      101.500000
 31
        0.000000
  0
LINE
  8
LVL0000
 10
       46.000000
 20
      100.500000
 30
        0.000000
 11
       43.000000
 21
      100.500000
 31
        0.000000
  0
LINE
  8
LVL0000
 10
       46.000000
 20
       99.500000
 30
        0.000000
 11
       43.000000
 21
       99.500000
 31
        0.000000
  0
LINE
  8
LVL0000
 10
       46.000000
 20
       98.500000
 30
        0.000000
 11
       43.000000
 21
       98.500000
 31
        0.000000
  0
LINE
  8
LVL0000
 10
       46.000000
 20
       97.500000
 30
        0.000000
 11
       43.000000
 21
       97.500000
 31
        0.000000
  0
LINE
  8
LVL0000
 10
       46.000000
 20
       96.500000
 30
        0.000000
 11
       43.000000
 21
       96.500000
 31
        0.000000
  0
LINE
  8
LVL0000
 10
       46.000000
 20
       95.500000
 30
        0.000000
 11
       43.000000
 21
       95.500000
 31
        0.000000
  0
LINE
  8
LVL0000
 10
       46.000000
 20
       94.500000
 30
        0.000000
 11
       43.000000
 21
       94.500000
 31
        0.000000
  0
LINE
  8
LVL0000
 10
       46.000000
 20
       93.500000
 30
        0.000000
 11
       43.000000
 21
       93.500000
 31
        0.000000
  0
LINE
  8
LVL0000
 10
       46.000000
 20
       92.500000
 30
        0.000000
 11
       43.000000
 21
       92.500000
 31
        0.000000
  0
LINE
  8
LVL0000
 10
       46.000000
 20
       91.500000
 30
        0.000000
 11
       43.000000
 21
       91.500000
 31
        0.000000
  0
LINE
  8
LVL0000
 10
       46.000000
 20
       90.500000
 30
        0.000000
 11
       43.000000
 21
       90.500000
 31
        0.000000
  0
LINE
  8
LVL0000
 10
       58.500000
 20
       75.000000
 30
        0.000000
 11
       58.500000
 21
      105.000000
 31
        0.000000
  0
LINE
  8
LVL0000
 10
       58.200000
 20
       75.000000
 30
        0.000000
 11
       58.200000
 21
      105.000000
 31
        0.000000
  0
CIRCLE
  8
LVL0000
 10
       67.000000
 20
       78.000000
 30
        0.000000
 40
        0.800000
  0
CIRCLE
  8
LVL0000
 10
       67.000000
 20
       78.000000
 30
        0.000000
 40
        1.000000
  0
CIRCLE
  8
LVL0000
 10
       67.000000
 20
      102.000000
 30
        0.000000
 40
        1.000000
  0
CIRCLE
  8
LVL0000
 10
       67.000000
 20
      102.000000
 30
        0.000000
 40
        0.800000
  0
LINE
  8
LVL0000
 10
       90.000000
 20
      105.000000
 30
        0.000000
 11
       58.200000
 21
      105.000000
 31
        0.000000
  0
LINE
  8
LVL0000
 10
       90.000000
 20
       75.000000
 30
        0.000000
 11
       58.200000
 21
       75.000000
 31
        0.000000
  0
LINE
  8
LVL0000
 10
       90.000000
 20
       75.000000
 30
        0.000000
 11
       90.000000
 21
      105.000000
 31
        0.000000
  0
CIRCLE
  8
LVL0000
 10
       84.000000
 20
       78.000000
 30
        0.000000
 40
        0.800000
  0
CIRCLE
  8
LVL0000
 10
       84.000000
 20
       78.000000
 30
        0.000000
 40
        1.000000
  0
CIRCLE
  8
LVL0000
 10
       84.000000
 20
      102.000000
 30
        0.000000
 40
        0.800000
  0
CIRCLE
  8
LVL0000
 10
       84.000000
 20
      102.000000
 30
        0.000000
 40
        1.000000
  0
LINE
  8
LVL0000
 10
       90.000000
 20
       78.600000
 30
        0.000000
 11
       94.800000
 21
       78.600000
 31
        0.000000
  0
LINE
  8
LVL0000
 10
       94.800000
 20
       78.600000
 30
        0.000000
 11
       94.800000
 21
       82.200000
 31
        0.000000
  0
LINE
  8
LVL0000
 10
       90.000000
 20
       82.200000
 30
        0.000000
 11
       94.800000
 21
       82.200000
 31
        0.000000
  0
LINE
  8
LVL0000
 10
       94.800000
 20
      101.400000
 30
        0.000000
 11
       94.800000
 21
       97.800000
 31
        0.000000
  0
LINE
  8
LVL0000
 10
       90.000000
 20
      101.400000
 30
        0.000000
 11
       94.800000
 21
      101.400000
 31
        0.000000
  0
LINE
  8
LVL0000
 10
       90.000000
 20
       97.800000
 30
        0.000000
 11
       94.800000
 21
       97.800000
 31
        0.000000
  0
LINE
  8
LVL0000
 10
       54.800000
 20
      100.150000
 30
        0.000000
 11
       53.950000
 21
      100.224365
 31
        0.000000
  0
LINE
  8
LVL0000
 10
       53.950000
 20
      100.224365
 30
        0.000000
 11
       53.950000
 21
      104.375635
 31
        0.000000
  0
ARC
  8
LVL0000
 10
       59.929656
 20
      102.300000
 30
        0.000000
 40
        6.329656
 50
      160.857281
 51
      199.142714
  0
LINE
  8
LVL0000
 10
      282.490000
 20
       70.150000
 30
        0.000000
 11
      282.490000
 21
      109.850000
 31
        0.000000
  0
ARC
  8
LVL0000
 10
      255.490000
 20
      103.200000
 30
        0.000000
 40
        2.000000
 50
      270.000000
 51
      360.000000
  0
ARC
  8
LVL0000
 10
      255.490000
 20
       76.800000
 30
        0.000000
 40
        2.000000
 50
        0.000000
 51
       90.000000
  0
LINE
  8
LVL0000
 10
      282.490000
 20
       70.150000
 30
        0.000000
 11
      257.490000
 21
       70.150000
 31
        0.000000
  0
LINE
  8
LVL0000
 10
      255.490000
 20
       78.800000
 30
        0.000000
 11
      250.000000
 21
       78.800000
 31
        0.000000
  0
LINE
  8
LVL0000
 10
      250.000000
 20
       78.800000
 30
        0.000000
 11
      250.000000
 21
      101.200000
 31
        0.000000
  0
LINE
  8
LVL0000
 10
      255.490000
 20
      101.200000
 30
        0.000000
 11
      250.000000
 21
      101.200000
 31
        0.000000
  0
LINE
  8
LVL0000
 10
      282.490000
 20
      109.850000
 30
        0.000000
 11
      257.490000
 21
      109.850000
 31
        0.000000
  0
LINE
  8
LVL0000
 10
      257.490000
 20
       70.150000
 30
        0.000000
 11
      257.490000
 21
       76.800000
 31
        0.000000
  0
LINE
  8
LVL0000
 10
      257.490000
 20
      103.200000
 30
        0.000000
 11
      257.490000
 21
      109.850000
 31
        0.000000
  0
LINE
  8
LVL0000
 10
      242.590000
 20
       71.220000
 30
        0.000000
 11
      242.590000
 21
       77.520000
 31
        0.000000
  0
LINE
  8
LVL0000
 10
      248.890000
 20
       71.220000
 30
        0.000000
 11
      242.590000
 21
       71.220000
 31
        0.000000
  0
LINE
  8
LVL0000
 10
      248.890000
 20
       77.520000
 30
        0.000000
 11
      242.590000
 21
       77.520000
 31
        0.000000
  0
LINE
  8
LVL0000
 10
      248.890000
 20
       71.220000
 30
        0.000000
 11
      248.890000
 21
       77.520000
 31
        0.000000
  0
LINE
  8
LVL0000
 10
      257.490000
 20
       71.870000
 30
        0.000000
 11
      248.890000
 21
       71.870000
 31
        0.000000
  0
LINE
  8
LVL0000
 10
      257.490000
 20
       76.870000
 30
        0.000000
 11
      248.890000
 21
       76.870000
 31
        0.000000
  0
LINE
  8
LVL0000
 10
      248.890000
 20
      102.480000
 30
        0.000000
 11
      242.590000
 21
      102.480000
 31
        0.000000
  0
LINE
  8
LVL0000
 10
      257.490000
 20
      103.130000
 30
        0.000000
 11
      248.890000
 21
      103.130000
 31
        0.000000
  0
LINE
  8
LVL0000
 10
      257.490000
 20
      108.130000
 30
        0.000000
 11
      248.890000
 21
      108.130000
 31
        0.000000
  0
LINE
  8
LVL0000
 10
      248.890000
 20
      108.780000
 30
        0.000000
 11
      248.890000
 21
      102.480000
 31
        0.000000
  0
LINE
  8
LVL0000
 10
      248.890000
 20
      108.780000
 30
        0.000000
 11
      242.590000
 21
      108.780000
 31
        0.000000
  0
LINE
  8
LVL0000
 10
      242.590000
 20
      108.780000
 30
        0.000000
 11
      242.590000
 21
      102.480000
 31
        0.000000
  0
LINE
  8
LVL0000
 10
      285.090000
 20
       79.300000
 30
        0.000000
 11
      285.090000
 21
      100.700000
 31
        0.000000
  0
LINE
  8
LVL0000
 10
      285.090000
 20
       79.300000
 30
        0.000000
 11
      282.490000
 21
       79.300000
 31
        0.000000
  0
LINE
  8
LVL0000
 10
      285.090000
 20
      100.700000
 30
        0.000000
 11
      282.490000
 21
      100.700000
 31
        0.000000
  0
LINE
  8
LVL0000
 10
      248.190000
 20
       56.300000
 30
        0.000000
 11
      248.190000
 21
       63.300000
 31
        0.000000
  0
LINE
  8
LVL0000
 10
      248.190000
 20
       56.300000
 30
        0.000000
 11
      258.190000
 21
       55.300000
 31
        0.000000
  0
LINE
  8
LVL0000
 10
      248.190000
 20
       63.300000
 30
        0.000000
 11
      258.190000
 21
       64.300000
 31
        0.000000
  0
LINE
  8
LVL0000
 10
      258.190000
 20
       65.100000
 30
        0.000000
 11
      263.790000
 21
       65.100000
 31
        0.000000
  0
LINE
  8
LVL0000
 10
      258.190000
 20
       54.500000
 30
        0.000000
 11
      263.790000
 21
       54.500000
 31
        0.000000
  0
LINE
  8
LVL0000
 10
      266.190000
 20
       55.000000
 30
        0.000000
 11
      266.190000
 21
       64.600000
 31
        0.000000
  0
LINE
  8
LVL0000
 10
      266.190000
 20
       55.000000
 30
        0.000000
 11
      263.790000
 21
       54.500000
 31
        0.000000
  0
LINE
  8
LVL0000
 10
      266.190000
 20
       64.600000
 30
        0.000000
 11
      263.790000
 21
       65.100000
 31
        0.000000
  0
LINE
  8
LVL0000
 10
      258.190000
 20
       54.500000
 30
        0.000000
 11
      258.190000
 21
       65.100000
 31
        0.000000
  0
LINE
  8
LVL0000
 10
      263.790000
 20
       54.500000
 30
        0.000000
 11
      263.790000
 21
       65.100000
 31
        0.000000
  0
LINE
  8
LVL0000
 10
      266.190000
 20
       55.300000
 30
        0.000000
 11
      268.090000
 21
       55.300000
 31
        0.000000
  0
LINE
  8
LVL0000
 10
      266.190000
 20
       64.300000
 30
        0.000000
 11
      268.090000
 21
       64.300000
 31
        0.000000
  0
LINE
  8
LVL0000
 10
      271.490000
 20
       65.100000
 30
        0.000000
 11
      272.490000
 21
       65.100000
 31
        0.000000
  0
LINE
  8
LVL0000
 10
      268.890000
 20
       65.100000
 30
        0.000000
 11
      269.990000
 21
       65.100000
 31
        0.000000
  0
LINE
  8
LVL0000
 10
      271.490000
 20
       54.500000
 30
        0.000000
 11
      272.490000
 21
       54.500000
 31
        0.000000
  0
LINE
  8
LVL0000
 10
      268.890000
 20
       54.500000
 30
        0.000000
 11
      269.990000
 21
       54.500000
 31
        0.000000
  0
LINE
  8
LVL0000
 10
      277.490000
 20
       65.100000
 30
        0.000000
 11
      282.490000
 21
       65.100000
 31
        0.000000
  0
LINE
  8
LVL0000
 10
      277.490000
 20
       54.500000
 30
        0.000000
 11
      282.490000
 21
       54.500000
 31
        0.000000
  0
LINE
  8
LVL0000
 10
      272.490000
 20
       65.550000
 30
        0.000000
 11
      277.490000
 21
       65.550000
 31
        0.000000
  0
LINE
  8
LVL0000
 10
      272.490000
 20
       54.050000
 30
        0.000000
 11
      277.490000
 21
       54.050000
 31
        0.000000
  0
LINE
  8
LVL0000
 10
      271.490000
 20
       54.050000
 30
        0.000000
 11
      271.490000
 21
       65.550000
 31
        0.000000
  0
LINE
  8
LVL0000
 10
      269.990000
 20
       54.050000
 30
        0.000000
 11
      271.490000
 21
       54.050000
 31
        0.000000
  0
LINE
  8
LVL0000
 10
      269.990000
 20
       54.050000
 30
        0.000000
 11
      269.990000
 21
       65.550000
 31
        0.000000
  0
LINE
  8
LVL0000
 10
      269.990000
 20
       65.550000
 30
        0.000000
 11
      271.490000
 21
       65.550000
 31
        0.000000
  0
LINE
  8
LVL0000
 10
      277.490000
 20
       54.050000
 30
        0.000000
 11
      277.490000
 21
       65.550000
 31
        0.000000
  0
LINE
  8
LVL0000
 10
      272.490000
 20
       54.050000
 30
        0.000000
 11
      272.490000
 21
       65.550000
 31
        0.000000
  0
LINE
  8
LVL0000
 10
      282.490000
 20
       54.500000
 30
        0.000000
 11
      282.490000
 21
       65.100000
 31
        0.000000
  0
LINE
  8
LVL0000
 10
      268.090000
 20
       55.300000
 30
        0.000000
 11
      268.890000
 21
       54.500000
 31
        0.000000
  0
LINE
  8
LVL0000
 10
      268.090000
 20
       55.300000
 30
        0.000000
 11
      268.090000
 21
       64.300000
 31
        0.000000
  0
LINE
  8
LVL0000
 10
      268.890000
 20
       65.100000
 30
        0.000000
 11
      268.090000
 21
       64.300000
 31
        0.000000
  0
LINE
  8
LVL0000
 10
      224.690000
 20
       92.100000
 30
        0.000000
 11
      250.000000
 21
       92.100000
 31
        0.000000
  0
ARC
  8
LVL0000
 10
      224.690000
 20
       74.900000
 30
        0.000000
 40
       17.200000
 50
       90.000000
 51
      179.999995
  0
LINE
  8
LVL0000
 10
      224.690000
 20
       57.700000
 30
        0.000000
 11
      248.190000
 21
       57.700000
 31
        0.000000
  0
ARC
  8
LVL0000
 10
      224.690000
 20
       74.900000
 30
        0.000000
 40
       17.200000
 50
      179.999995
 51
      270.000000
  0
LINE
  8
LVL0000
 10
      224.690000
 20
       87.900000
 30
        0.000000
 11
      250.000000
 21
       87.900000
 31
        0.000000
  0
ARC
  8
LVL0000
 10
      224.690000
 20
       74.900000
 30
        0.000000
 40
       13.000000
 50
       90.000000
 51
      179.999995
  0
LINE
  8
LVL0000
 10
      224.690000
 20
       61.900000
 30
        0.000000
 11
      248.190000
 21
       61.900000
 31
        0.000000
  0
ARC
  8
LVL0000
 10
      224.690000
 20
       74.900000
 30
        0.000000
 40
       13.000000
 50
      179.999995
 51
      270.000000
  0
LINE
  8
LVL0000
 10
      217.923169
 20
       86.000000
 30
        0.000000
 11
      250.000000
 21
       86.000000
 31
        0.000000
  0
LINE
  8
LVL0000
 10
      250.000000
 20
        9.300000
 30
        0.000000
 11
      250.000000
 21
       13.225000
 31
        0.000000
  0
LINE
  8
LVL0000
 10
      250.000000
 20
        0.375000
 30
        0.000000
 11
      250.000000
 21
        4.300000
 31
        0.000000
  0
LINE
  8
LVL0000
 10
      282.490000
 20
        3.000000
 30
        0.000000
 11
      285.090000
 21
        3.000000
 31
        0.000000
  0
LINE
  8
LVL0000
 10
      282.490000
 20
       10.600000
 30
        0.000000
 11
      285.090000
 21
       10.600000
 31
        0.000000
  0
LINE
  8
LVL0000
 10
      285.090000
 20
        3.000000
 30
        0.000000
 11
      285.090000
 21
       10.600000
 31
        0.000000
  0
LINE
  8
LVL0000
 10
      250.000000
 20
       13.225000
 30
        0.000000
 11
      282.490000
 21
       13.225000
 31
        0.000000
  0
LINE
  8
LVL0000
 10
      250.000000
 20
        0.375000
 30
        0.000000
 11
      282.490000
 21
        0.375000
 31
        0.000000
  0
LINE
  8
LVL0000
 10
      242.590000
 20
        3.650000
 30
        0.000000
 11
      242.590000
 21
        9.950000
 31
        0.000000
  0
LINE
  8
LVL0000
 10
      248.890000
 20
        3.650000
 30
        0.000000
 11
      242.590000
 21
        3.650000
 31
        0.000000
  0
LINE
  8
LVL0000
 10
      248.890000
 20
        3.650000
 30
        0.000000
 11
      248.890000
 21
        9.950000
 31
        0.000000
  0
LINE
  8
LVL0000
 10
      257.490000
 20
        4.300000
 30
        0.000000
 11
      248.890000
 21
        4.300000
 31
        0.000000
  0
LINE
  8
LVL0000
 10
      248.890000
 20
        9.950000
 30
        0.000000
 11
      242.590000
 21
        9.950000
 31
        0.000000
  0
LINE
  8
LVL0000
 10
      257.490000
 20
        9.300000
 30
        0.000000
 11
      248.890000
 21
        9.300000
 31
        0.000000
  0
LINE
  8
LVL0000
 10
      282.490000
 20
        0.375000
 30
        0.000000
 11
      282.490000
 21
       13.225000
 31
        0.000000
  0
LINE
  8
LVL0000
 10
      257.490000
 20
        0.375000
 30
        0.000000
 11
      257.490000
 21
       13.225000
 31
        0.000000
  0
LINE
  8
LVL0000
 10
      216.540000
 20
       24.700000
 30
        0.000000
 11
      248.190000
 21
       24.700000
 31
        0.000000
  0
LINE
  8
LVL0000
 10
      216.540000
 20
       28.900000
 30
        0.000000
 11
      248.190000
 21
       28.900000
 31
        0.000000
  0
LINE
  8
LVL0000
 10
      216.540000
 20
       15.000000
 30
        0.000000
 11
      234.691179
 21
       15.000000
 31
        0.000000
  0
ARC
  8
LVL0000
 10
      234.691179
 20
      -15.000000
 30
        0.000000
 40
       30.000000
 50
       59.316581
 51
       90.000000
  0
ARC
  8
LVL0000
 10
      216.540000
 20
       19.850000
 30
        0.000000
 40
        4.850000
 50
      179.999995
 51
      270.000000
  0
ARC
  8
LVL0000
 10
      216.540000
 20
       19.850000
 30
        0.000000
 40
        4.850000
 50
       90.000000
 51
      179.999995
  0
ARC
  8
LVL0000
 10
      216.540000
 20
       19.850000
 30
        0.000000
 40
        9.050000
 50
       90.000000
 51
      179.999995
  0
ARC
  8
LVL0000
 10
      216.540000
 20
       19.850000
 30
        0.000000
 40
        9.050000
 50
      179.999995
 51
      270.000000
  0
LINE
  8
LVL0000
 10
      248.190000
 20
       23.300000
 30
        0.000000
 11
      248.190000
 21
       30.300000
 31
        0.000000
  0
LINE
  8
LVL0000
 10
      248.190000
 20
       23.300000
 30
        0.000000
 11
      258.190000
 21
       22.300000
 31
        0.000000
  0
LINE
  8
LVL0000
 10
      248.190000
 20
       30.300000
 30
        0.000000
 11
      258.190000
 21
       31.300000
 31
        0.000000
  0
LINE
  8
LVL0000
 10
      258.190000
 20
       32.100000
 30
        0.000000
 11
      263.790000
 21
       32.100000
 31
        0.000000
  0
LINE
  8
LVL0000
 10
      258.190000
 20
       21.500000
 30
        0.000000
 11
      263.790000
 21
       21.500000
 31
        0.000000
  0
LINE
  8
LVL0000
 10
      266.190000
 20
       22.000000
 30
        0.000000
 11
      266.190000
 21
       31.600000
 31
        0.000000
  0
LINE
  8
LVL0000
 10
      266.190000
 20
       22.000000
 30
        0.000000
 11
      263.790000
 21
       21.500000
 31
        0.000000
  0
LINE
  8
LVL0000
 10
      266.190000
 20
       31.600000
 30
        0.000000
 11
      263.790000
 21
       32.100000
 31
        0.000000
  0
LINE
  8
LVL0000
 10
      258.190000
 20
       21.500000
 30
        0.000000
 11
      258.190000
 21
       32.100000
 31
        0.000000
  0
LINE
  8
LVL0000
 10
      263.790000
 20
       21.500000
 30
        0.000000
 11
      263.790000
 21
       32.100000
 31
        0.000000
  0
LINE
  8
LVL0000
 10
      266.190000
 20
       22.300000
 30
        0.000000
 11
      268.090000
 21
       22.300000
 31
        0.000000
  0
LINE
  8
LVL0000
 10
      266.190000
 20
       31.300000
 30
        0.000000
 11
      268.090000
 21
       31.300000
 31
        0.000000
  0
LINE
  8
LVL0000
 10
      271.490000
 20
       32.100000
 30
        0.000000
 11
      272.490000
 21
       32.100000
 31
        0.000000
  0
LINE
  8
LVL0000
 10
      268.890000
 20
       32.100000
 30
        0.000000
 11
      269.990000
 21
       32.100000
 31
        0.000000
  0
LINE
  8
LVL0000
 10
      271.490000
 20
       21.500000
 30
        0.000000
 11
      272.490000
 21
       21.500000
 31
        0.000000
  0
LINE
  8
LVL0000
 10
      268.890000
 20
       21.500000
 30
        0.000000
 11
      269.990000
 21
       21.500000
 31
        0.000000
  0
LINE
  8
LVL0000
 10
      277.490000
 20
       32.100000
 30
        0.000000
 11
      282.490000
 21
       32.100000
 31
        0.000000
  0
LINE
  8
LVL0000
 10
      277.490000
 20
       21.500000
 30
        0.000000
 11
      282.490000
 21
       21.500000
 31
        0.000000
  0
LINE
  8
LVL0000
 10
      272.490000
 20
       32.550000
 30
        0.000000
 11
      277.490000
 21
       32.550000
 31
        0.000000
  0
LINE
  8
LVL0000
 10
      272.490000
 20
       21.050000
 30
        0.000000
 11
      277.490000
 21
       21.050000
 31
        0.000000
  0
LINE
  8
LVL0000
 10
      271.490000
 20
       21.050000
 30
        0.000000
 11
      271.490000
 21
       32.550000
 31
        0.000000
  0
LINE
  8
LVL0000
 10
      269.990000
 20
       21.050000
 30
        0.000000
 11
      271.490000
 21
       21.050000
 31
        0.000000
  0
LINE
  8
LVL0000
 10
      269.990000
 20
       21.050000
 30
        0.000000
 11
      269.990000
 21
       32.550000
 31
        0.000000
  0
LINE
  8
LVL0000
 10
      269.990000
 20
       32.550000
 30
        0.000000
 11
      271.490000
 21
       32.550000
 31
        0.000000
  0
LINE
  8
LVL0000
 10
      277.490000
 20
       21.050000
 30
        0.000000
 11
      277.490000
 21
       32.550000
 31
        0.000000
  0
LINE
  8
LVL0000
 10
      272.490000
 20
       21.050000
 30
        0.000000
 11
      272.490000
 21
       32.550000
 31
        0.000000
  0
LINE
  8
LVL0000
 10
      282.490000
 20
       21.500000
 30
        0.000000
 11
      282.490000
 21
       32.100000
 31
        0.000000
  0
LINE
  8
LVL0000
 10
      268.090000
 20
       22.300000
 30
        0.000000
 11
      268.890000
 21
       21.500000
 31
        0.000000
  0
LINE
  8
LVL0000
 10
      268.090000
 20
       22.300000
 30
        0.000000
 11
      268.090000
 21
       31.300000
 31
        0.000000
  0
LINE
  8
LVL0000
 10
      268.890000
 20
       32.100000
 30
        0.000000
 11
      268.090000
 21
       31.300000
 31
        0.000000
  0
LINE
  8
LVL0000
 10
      128.600000
 20
       86.000000
 30
        0.000000
 11
      170.698072
 21
       86.000000
 31
        0.000000
  0
LINE
  8
LVL0000
 10
      128.600000
 20
       94.000000
 30
        0.000000
 11
      171.442497
 21
       94.000000
 31
        0.000000
  0
LINE
  8
LVL0000
 10
      128.600000
 20
        2.800000
 30
        0.000000
 11
      170.698072
 21
        2.800000
 31
        0.000000
  0
LINE
  8
LVL0000
 10
      128.600000
 20
       10.800000
 30
        0.000000
 11
      171.442497
 21
       10.800000
 31
        0.000000
  0
LINE
  8
LVL0000
 10
      173.442497
 20
       94.000000
 30
        0.000000
 11
      250.000000
 21
       94.000000
 31
        0.000000
  0
LINE
  8
LVL0000
 10
      172.698072
 20
       86.000000
 30
        0.000000
 11
      211.551126
 21
       86.000000
 31
        0.000000
  0
LINE
  8
LVL0000
 10
      172.698072
 20
        2.800000
 30
        0.000000
 11
      250.000000
 21
        2.800000
 31
        0.000000
  0
LINE
  8
LVL0000
 10
      173.442497
 20
       10.800000
 30
        0.000000
 11
      250.000000
 21
       10.800000
 31
        0.000000
  0
ENDSEC
  0
EOF
