  0
SECTION
  2
HEADER
  9
$ACADVER
  1
AC1006
  9
$INSBASE
 10
0.0
 20
0.0
 30
0.0
  9
$EXTMIN
 10
     -149.949997
 20
     -149.949997
  9
$EXTMAX
 10
      257.689026
 20
      121.449997
  9
$LIMMIN
 10
     -149.949997
 20
     -149.949997
  9
$LIMMAX
 10
      257.689026
 20
      121.449997
  9
$VIEWCTR
 10
       53.869514
 20
       53.869514
  9
$ORTHOMODE
 70
     0
  9
$ANGBASE
 50
0.0
  9
$ANGDIR
 70
     0
  9
$SPLINETYPE
 70
     6
  9
$SPLINESEGS
 70
     8
9
$DIMASZ
 40
        3.000000
9
$DIMEXE
 40
        0.700000
9
$DIMEXO
 40
        1.000000
9
$DIMTXT
 40
        3.500000
9
$DIMGAP
 40
        0.700000
9
$DIMTAD
 70
1
9
$DIMTIH
 70
0
9
$DIMTOH
 70
0
  0
ENDSEC
  0
SECTION
  2
TABLES
  0
TABLE
  2
LTYPE
 70
     5
  0
LTYPE
  2
CONTINUOUS
 70
    64
  3
SOLID LINE
 72
    65
 73
     0
 40
0.0
  0
LTYPE
  2
DASHED
 70
    64
  3
-- -- -- -- -- --
 72
    65
 73
     2
 40
  0.75  
 49
  0.50  
 49
 -0.25  
  0
LTYPE
  2
DOT
 70
    64
  3
....................
 72
    65
 73
     2
 40
  0.25  
 49
  0.02  
 49
 -0.23  
  0
LTYPE
  2
CENTER
 70
    64
  3
-- . -- . -- . -- .
 72
    65
 73
    4
 40
  2.00  
 49
  1.25  
 49
 -0.25  
 49
  0.25  
 49
 -0.25  
  0
LTYPE
  2
PHANTOM
 70
    64
  3
-- .. -- .. -- ..
 72
    65
 73
    6
 40
  2.50  
 49
  1.25  
 49
 -0.25  
 49
  0.25  
 49
 -0.25  
 49
  0.25  
 49
 -0.25  
  0
ENDTAB
  0
TABLE
  2
LAYER
 70
     2
  0
LAYER
  2
LVL0000
 70
    64
 62
     3
  6
CONTINUOUS
  0
LAYER
  2
LVL0001
 70
    64
 62
     2
  6
CONTINUOUS
  0
ENDTAB
  0
TABLE
  2
STYLE
 70
     2
  0
STYLE
  2
STANDARD
 70
    64
 40
0.0
 41
1.0
 50
0.0
 71
     0
 42
5.0
  3
ROMANS
  4
BIGFONT
  0
STYLE
  2
BIGFONT
 70
    64
 40
0.0
 41
1.0
 50
0.0
 71
     0
 42
5.0
  3
ROMANS
  4
BIGFONT
  0
ENDTAB
  0
TABLE
  2
VIEW
 70
     0
  0
ENDTAB
  0
TABLE
  2
UCS
 70
     0
  0
ENDTAB
  0
TABLE
  2
DWGMGR
 70
     0
  0
ENDTAB
  0
ENDSEC
  0
SECTION
  2
BLOCKS
  0
BLOCK
  8
0
  2
BLK0001
 70
    64
 10
        0.000000
 20
        0.000000
  0
TEXT
  8
LVL0000
 62
  4
 10
       78.739876
 20
     -125.695541
 30
        0.000000
 40
        3.500000
  1
４２
 50
       90.000000
 41
        0.835000
 51
        0.000000
  7
BIGFONT
  0
LINE
  8
LVL0000
 62
  4
 10
       63.681141
 20
     -102.250000
 30
        0.000000
 11
       80.139877
 21
     -102.250000
 31
        0.000000
  0
LINE
  8
LVL0000
 62
  4
 10
       63.681141
 20
     -144.250000
 30
        0.000000
 11
       80.139877
 21
     -144.250000
 31
        0.000000
  0
LINE
  8
LVL0000
 62
  4
 10
       80.225281
 20
     -105.250000
 30
        0.000000
 11
       79.439880
 21
     -102.250000
 31
        0.000000
  0
LINE
  8
LVL0000
 62
  4
 10
       79.439880
 20
     -102.250000
 30
        0.000000
 11
       78.654480
 21
     -105.250000
 31
        0.000000
  0
LINE
  8
LVL0000
 62
  4
 10
       78.654480
 20
     -141.250000
 30
        0.000000
 11
       79.439880
 21
     -144.250000
 31
        0.000000
  0
LINE
  8
LVL0000
 62
  4
 10
       79.439880
 20
     -144.250000
 30
        0.000000
 11
       80.225281
 21
     -141.250000
 31
        0.000000
  0
LINE
  8
LVL0000
 62
  4
 10
       79.439880
 20
     -102.250000
 30
        0.000000
 11
       79.439880
 21
     -144.250000
 31
        0.000000
  0
ENDBLK
  0
BLOCK
  8
0
  2
BLK0002
 70
    64
 10
        0.000000
 20
        0.000000
  0
TEXT
  8
LVL0000
 62
  4
 10
       -5.940405
 20
      -76.368477
 30
        0.000000
 40
        3.500000
  1
１４８
 50
        0.000000
 41
        0.835000
 51
        0.000000
  7
BIGFONT
  0
LINE
  8
LVL0000
 62
  4
 10
      -74.000000
 20
      -46.000000
 30
        0.000000
 11
      -74.000000
 21
      -77.768478
 31
        0.000000
  0
LINE
  8
LVL0000
 62
  4
 10
       74.000000
 20
      -46.000000
 30
        0.000000
 11
       74.000000
 21
      -77.768478
 31
        0.000000
  0
LINE
  8
LVL0000
 62
  4
 10
      -70.500000
 20
      -76.152184
 30
        0.000000
 11
      -74.000000
 21
      -77.068481
 31
        0.000000
  0
LINE
  8
LVL0000
 62
  4
 10
      -74.000000
 20
      -77.068481
 30
        0.000000
 11
      -70.500000
 21
      -77.984779
 31
        0.000000
  0
LINE
  8
LVL0000
 62
  4
 10
       70.500000
 20
      -77.984779
 30
        0.000000
 11
       74.000000
 21
      -77.068481
 31
        0.000000
  0
LINE
  8
LVL0000
 62
  4
 10
       74.000000
 20
      -77.068481
 30
        0.000000
 11
       70.500000
 21
      -76.152184
 31
        0.000000
  0
LINE
  8
LVL0000
 62
  4
 10
      -74.000000
 20
      -77.068481
 30
        0.000000
 11
       74.000000
 21
      -77.068481
 31
        0.000000
  0
ENDBLK
  0
BLOCK
  8
0
  2
BLK0003
 70
    64
 10
        0.000000
 20
        0.000000
  0
TEXT
  8
LVL0000
 62
  4
 10
       -5.940405
 20
      -68.194374
 30
        0.000000
 40
        3.500000
  1
１３８
 50
        0.000000
 41
        0.835000
 51
        0.000000
  7
BIGFONT
  0
LINE
  8
LVL0000
 62
  4
 10
      -69.000000
 20
      -36.000000
 30
        0.000000
 11
      -69.000000
 21
      -69.594376
 31
        0.000000
  0
LINE
  8
LVL0000
 62
  4
 10
       69.000000
 20
      -36.000000
 30
        0.000000
 11
       69.000000
 21
      -69.594376
 31
        0.000000
  0
LINE
  8
LVL0000
 62
  4
 10
      -65.500000
 20
      -67.978081
 30
        0.000000
 11
      -69.000000
 21
      -68.894379
 31
        0.000000
  0
LINE
  8
LVL0000
 62
  4
 10
      -69.000000
 20
      -68.894379
 30
        0.000000
 11
      -65.500000
 21
      -69.810677
 31
        0.000000
  0
LINE
  8
LVL0000
 62
  4
 10
       65.500000
 20
      -69.810677
 30
        0.000000
 11
       69.000000
 21
      -68.894379
 31
        0.000000
  0
LINE
  8
LVL0000
 62
  4
 10
       69.000000
 20
      -68.894379
 30
        0.000000
 11
       65.500000
 21
      -67.978081
 31
        0.000000
  0
LINE
  8
LVL0000
 62
  4
 10
      -69.000000
 20
      -68.894379
 30
        0.000000
 11
       69.000000
 21
      -68.894379
 31
        0.000000
  0
ENDBLK
  0
BLOCK
  8
0
  2
BLK0004
 70
    64
 10
        0.000000
 20
        0.000000
  0
TEXT
  8
LVL0000
 62
  4
 10
       -5.197305
 20
      -60.009659
 30
        0.000000
 40
        3.500000
  1
１３０
 50
        0.000000
 41
        0.835000
 51
        0.000000
  7
BIGFONT
  0
LINE
  8
LVL0000
 62
  4
 10
      -65.000000
 20
      -49.000000
 30
        0.000000
 11
      -65.000000
 21
      -61.409660
 31
        0.000000
  0
LINE
  8
LVL0000
 62
  4
 10
       65.000000
 20
      -49.000000
 30
        0.000000
 11
       65.000000
 21
      -61.409660
 31
        0.000000
  0
LINE
  8
LVL0000
 62
  4
 10
      -61.500000
 20
      -59.793362
 30
        0.000000
 11
      -65.000000
 21
      -60.709660
 31
        0.000000
  0
LINE
  8
LVL0000
 62
  4
 10
      -65.000000
 20
      -60.709660
 30
        0.000000
 11
      -61.500000
 21
      -61.625957
 31
        0.000000
  0
LINE
  8
LVL0000
 62
  4
 10
       61.500000
 20
      -61.625957
 30
        0.000000
 11
       65.000000
 21
      -60.709660
 31
        0.000000
  0
LINE
  8
LVL0000
 62
  4
 10
       65.000000
 20
      -60.709660
 30
        0.000000
 11
       61.500000
 21
      -59.793362
 31
        0.000000
  0
LINE
  8
LVL0000
 62
  4
 10
      -65.000000
 20
      -60.709660
 30
        0.000000
 11
       65.000000
 21
      -60.709660
 31
        0.000000
  0
ENDBLK
  0
BLOCK
  8
0
  2
BLK0005
 70
    64
 10
        0.000000
 20
        0.000000
  0
TEXT
  8
LVL0000
 62
  4
 10
      265.111053
 20
       -1.762913
 30
        0.000000
 40
        3.500000
  1
７０
 50
       90.000000
 41
        0.835000
 51
        0.000000
  7
BIGFONT
  0
LINE
  8
LVL0000
 62
  4
 10
      253.689041
 20
      -35.000000
 30
        0.000000
 11
      266.511047
 21
      -35.000000
 31
        0.000000
  0
LINE
  8
LVL0000
 62
  4
 10
      253.689041
 20
       35.000000
 30
        0.000000
 11
      266.511047
 21
       35.000000
 31
        0.000000
  0
LINE
  8
LVL0000
 62
  4
 10
      264.894745
 20
      -31.500000
 30
        0.000000
 11
      265.811035
 21
      -35.000000
 31
        0.000000
  0
LINE
  8
LVL0000
 62
  4
 10
      265.811035
 20
      -35.000000
 30
        0.000000
 11
      266.727325
 21
      -31.500000
 31
        0.000000
  0
LINE
  8
LVL0000
 62
  4
 10
      266.727325
 20
       31.500000
 30
        0.000000
 11
      265.811035
 21
       35.000000
 31
        0.000000
  0
LINE
  8
LVL0000
 62
  4
 10
      265.811035
 20
       35.000000
 30
        0.000000
 11
      264.894745
 21
       31.500000
 31
        0.000000
  0
LINE
  8
LVL0000
 62
  4
 10
      265.811035
 20
      -35.000000
 30
        0.000000
 11
      265.811035
 21
       35.000000
 31
        0.000000
  0
ENDBLK
  0
BLOCK
  8
0
  2
BLK0006
 70
    64
 10
        0.000000
 20
        0.000000
  0
TEXT
  8
LVL0000
 62
  4
 10
      243.689041
 20
      -54.013302
 30
        0.000000
 40
        3.500000
  1
２３
 50
        0.000000
 41
        0.835000
 51
        0.000000
  7
BIGFONT
  0
LINE
  8
LVL0000
 62
  4
 10
      234.689041
 20
      -46.000000
 30
        0.000000
 11
      234.689041
 21
      -55.413303
 31
        0.000000
  0
LINE
  8
LVL0000
 62
  4
 10
      257.689026
 20
      -46.000000
 30
        0.000000
 11
      257.689026
 21
      -55.413303
 31
        0.000000
  0
LINE
  8
LVL0000
 62
  4
 10
      237.689041
 20
      -53.927902
 30
        0.000000
 11
      234.689041
 21
      -54.713303
 31
        0.000000
  0
LINE
  8
LVL0000
 62
  4
 10
      234.689041
 20
      -54.713303
 30
        0.000000
 11
      237.689041
 21
      -55.498703
 31
        0.000000
  0
LINE
  8
LVL0000
 62
  4
 10
      254.689026
 20
      -55.498703
 30
        0.000000
 11
      257.689026
 21
      -54.713303
 31
        0.000000
  0
LINE
  8
LVL0000
 62
  4
 10
      257.689026
 20
      -54.713303
 30
        0.000000
 11
      254.689026
 21
      -53.927902
 31
        0.000000
  0
LINE
  8
LVL0000
 62
  4
 10
      234.689041
 20
      -54.713303
 30
        0.000000
 11
      257.689026
 21
      -54.713303
 31
        0.000000
  0
ENDBLK
  0
BLOCK
  8
0
  2
BLK0007
 70
    64
 10
        0.000000
 20
        0.000000
  0
TEXT
  8
LVL0000
 62
  4
 10
      272.413147
 20
       -2.500000
 30
        0.000000
 40
        3.500000
  1
９１
 50
       90.000000
 41
        0.835000
 51
        0.000000
  7
BIGFONT
  0
LINE
  8
LVL0000
 62
  4
 10
      258.189026
 20
       45.500000
 30
        0.000000
 11
      273.813141
 21
       45.500000
 31
        0.000000
  0
LINE
  8
LVL0000
 62
  4
 10
      258.189026
 20
      -45.500000
 30
        0.000000
 11
      273.813141
 21
      -45.500000
 31
        0.000000
  0
LINE
  8
LVL0000
 62
  4
 10
      273.898529
 20
       42.500000
 30
        0.000000
 11
      273.113129
 21
       45.500000
 31
        0.000000
  0
LINE
  8
LVL0000
 62
  4
 10
      273.113129
 20
       45.500000
 30
        0.000000
 11
      272.327728
 21
       42.500000
 31
        0.000000
  0
LINE
  8
LVL0000
 62
  4
 10
      272.327728
 20
      -42.500000
 30
        0.000000
 11
      273.113129
 21
      -45.500000
 31
        0.000000
  0
LINE
  8
LVL0000
 62
  4
 10
      273.113129
 20
      -45.500000
 30
        0.000000
 11
      273.898529
 21
      -42.500000
 31
        0.000000
  0
LINE
  8
LVL0000
 62
  4
 10
      273.113129
 20
       45.500000
 30
        0.000000
 11
      273.113129
 21
      -45.500000
 31
        0.000000
  0
ENDBLK
  0
BLOCK
  8
0
  2
BLK0008
 70
    64
 10
        0.000000
 20
        0.000000
  0
TEXT
  8
LVL0000
 62
  4
 10
      270.101166
 20
      -70.577652
 30
        0.000000
 40
        3.500000
  1
５．７
 50
       90.000000
 41
        0.835000
 51
        0.000000
  7
BIGFONT
  0
LINE
  8
LVL0000
 62
  4
 10
      247.089035
 20
      -71.755997
 30
        0.000000
 11
      271.501160
 21
      -71.755997
 31
        0.000000
  0
LINE
  8
LVL0000
 62
  4
 10
      258.689026
 20
      -77.455994
 30
        0.000000
 11
      271.501160
 21
      -77.455994
 31
        0.000000
  0
LINE
  8
LVL0000
 62
  4
 10
      270.015747
 20
      -68.755997
 30
        0.000000
 11
      270.801147
 21
      -71.755997
 31
        0.000000
  0
LINE
  8
LVL0000
 62
  4
 10
      270.801147
 20
      -71.755997
 30
        0.000000
 11
      271.586548
 21
      -68.755997
 31
        0.000000
  0
LINE
  8
LVL0000
 62
  4
 10
      271.586548
 20
      -80.455994
 30
        0.000000
 11
      270.801147
 21
      -77.455994
 31
        0.000000
  0
LINE
  8
LVL0000
 62
  4
 10
      270.801147
 20
      -77.455994
 30
        0.000000
 11
      270.015747
 21
      -80.455994
 31
        0.000000
  0
LINE
  8
LVL0000
 62
  4
 10
      270.801178
 20
      -60.077652
 30
        0.000000
 11
      270.801147
 21
      -82.955994
 31
        0.000000
  0
ENDBLK
  0
BLOCK
  8
0
  2
BLK0009
 70
    64
 10
        0.000000
 20
        0.000000
  0
TEXT
  8
LVL0000
 62
  4
 10
      228.845901
 20
      -85.844131
 30
        0.000000
 40
        3.500000
  1
１１．６
 50
        0.000000
 41
        0.835000
 51
        0.000000
  7
BIGFONT
  0
LINE
  8
LVL0000
 62
  4
 10
      246.089035
 20
      -75.605995
 30
        0.000000
 11
      246.089035
 21
      -87.244133
 31
        0.000000
  0
LINE
  8
LVL0000
 62
  4
 10
      257.689026
 20
      -78.455994
 30
        0.000000
 11
      257.689026
 21
      -87.244133
 31
        0.000000
  0
LINE
  8
LVL0000
 62
  4
 10
      249.089035
 20
      -85.758736
 30
        0.000000
 11
      246.089035
 21
      -86.544136
 31
        0.000000
  0
LINE
  8
LVL0000
 62
  4
 10
      246.089035
 20
      -86.544136
 30
        0.000000
 11
      249.089035
 21
      -87.329536
 31
        0.000000
  0
LINE
  8
LVL0000
 62
  4
 10
      254.689026
 20
      -87.329536
 30
        0.000000
 11
      257.689026
 21
      -86.544136
 31
        0.000000
  0
LINE
  8
LVL0000
 62
  4
 10
      257.689026
 20
      -86.544136
 30
        0.000000
 11
      254.689026
 21
      -85.758736
 31
        0.000000
  0
LINE
  8
LVL0000
 62
  4
 10
      228.845901
 20
      -86.544128
 30
        0.000000
 11
      257.689026
 21
      -86.544136
 31
        0.000000
  0
ENDBLK
  0
BLOCK
  8
0
  2
BLK0010
 70
    64
 10
        0.000000
 20
        0.000000
  0
TEXT
  8
LVL0000
 62
  4
 10
       79.209312
 20
       -6.077355
 30
        0.000000
 40
        3.500000
  1
１００
 50
       90.000000
 41
        0.835000
 51
        0.000000
  7
BIGFONT
  0
LINE
  8
LVL0000
 62
  4
 10
       64.000000
 20
      -50.000000
 30
        0.000000
 11
       80.609314
 21
      -50.000000
 31
        0.000000
  0
LINE
  8
LVL0000
 62
  4
 10
       64.000000
 20
       50.000000
 30
        0.000000
 11
       80.609314
 21
       50.000000
 31
        0.000000
  0
LINE
  8
LVL0000
 62
  4
 10
       79.123917
 20
      -47.000000
 30
        0.000000
 11
       79.909317
 21
      -50.000000
 31
        0.000000
  0
LINE
  8
LVL0000
 62
  4
 10
       79.909317
 20
      -50.000000
 30
        0.000000
 11
       80.694717
 21
      -47.000000
 31
        0.000000
  0
LINE
  8
LVL0000
 62
  4
 10
       80.694717
 20
       47.000000
 30
        0.000000
 11
       79.909317
 21
       50.000000
 31
        0.000000
  0
LINE
  8
LVL0000
 62
  4
 10
       79.909317
 20
       50.000000
 30
        0.000000
 11
       79.123917
 21
       47.000000
 31
        0.000000
  0
LINE
  8
LVL0000
 62
  4
 10
       79.909317
 20
      -50.000000
 30
        0.000000
 11
       79.909317
 21
       50.000000
 31
        0.000000
  0
ENDBLK
  0
ENDSEC
  0
SECTION
  2
ENTITIES
  0
CIRCLE
  8
LVL0000
 10
       54.999111
 20
       87.750000
 30
        0.000000
 40
        2.500000
  0
CIRCLE
  8
LVL0000
 10
       54.999111
 20
       87.750000
 30
        0.000000
 40
        3.500000
  0
LINE
  8
LVL0000
 10
       56.799095
 20
       88.064316
 30
        0.000000
 11
       56.799095
 21
       87.435684
 31
        0.000000
  0
LINE
  8
LVL0000
 10
       55.924381
 20
       87.420418
 30
        0.000000
 11
       56.799095
 21
       87.435684
 31
        0.000000
  0
LINE
  8
LVL0000
 10
       55.518120
 20
       87.230976
 30
        0.000000
 11
       55.924381
 21
       87.420418
 31
        0.000000
  0
LINE
  8
LVL0000
 10
       55.518118
 20
       87.230976
 30
        0.000000
 11
       55.328676
 21
       86.824715
 31
        0.000000
  0
LINE
  8
LVL0000
 10
       55.328676
 20
       86.824715
 30
        0.000000
 11
       55.313408
 21
       85.950001
 31
        0.000000
  0
LINE
  8
LVL0000
 10
       55.313408
 20
       85.950001
 30
        0.000000
 11
       54.999111
 21
       85.950001
 31
        0.000000
  0
LINE
  8
LVL0000
 10
       54.684815
 20
       85.950001
 30
        0.000000
 11
       54.999111
 21
       85.950001
 31
        0.000000
  0
LINE
  8
LVL0000
 10
       54.669547
 20
       86.824715
 30
        0.000000
 11
       54.684815
 21
       85.950001
 31
        0.000000
  0
LINE
  8
LVL0000
 10
       54.480104
 20
       87.230976
 30
        0.000000
 11
       54.669547
 21
       86.824715
 31
        0.000000
  0
LINE
  8
LVL0000
 10
       54.480103
 20
       87.230976
 30
        0.000000
 11
       54.073841
 21
       87.420418
 31
        0.000000
  0
LINE
  8
LVL0000
 10
       54.073841
 20
       87.420418
 30
        0.000000
 11
       53.199127
 21
       87.435684
 31
        0.000000
  0
LINE
  8
LVL0000
 10
       53.199127
 20
       87.435684
 30
        0.000000
 11
       53.199127
 21
       87.749981
 31
        0.000000
  0
LINE
  8
LVL0000
 10
       55.313408
 20
       89.549999
 30
        0.000000
 11
       54.999111
 21
       89.549999
 31
        0.000000
  0
LINE
  8
LVL0000
 10
       55.328676
 20
       88.675285
 30
        0.000000
 11
       55.313408
 21
       89.549999
 31
        0.000000
  0
LINE
  8
LVL0000
 10
       55.518118
 20
       88.269024
 30
        0.000000
 11
       55.328676
 21
       88.675285
 31
        0.000000
  0
LINE
  8
LVL0000
 10
       55.518120
 20
       88.269024
 30
        0.000000
 11
       55.924381
 21
       88.079582
 31
        0.000000
  0
LINE
  8
LVL0000
 10
       55.924381
 20
       88.079582
 30
        0.000000
 11
       56.799095
 21
       88.064316
 31
        0.000000
  0
LINE
  8
LVL0000
 10
       53.199127
 20
       88.064316
 30
        0.000000
 11
       53.199127
 21
       87.750019
 31
        0.000000
  0
LINE
  8
LVL0000
 10
       54.073841
 20
       88.079582
 30
        0.000000
 11
       53.199127
 21
       88.064316
 31
        0.000000
  0
LINE
  8
LVL0000
 10
       54.480103
 20
       88.269024
 30
        0.000000
 11
       54.073841
 21
       88.079582
 31
        0.000000
  0
LINE
  8
LVL0000
 10
       54.684815
 20
       89.549999
 30
        0.000000
 11
       54.999111
 21
       89.549999
 31
        0.000000
  0
LINE
  8
LVL0000
 10
       54.669547
 20
       88.675285
 30
        0.000000
 11
       54.684815
 21
       89.549999
 31
        0.000000
  0
LINE
  8
LVL0000
 10
       54.480104
 20
       88.269024
 30
        0.000000
 11
       54.669547
 21
       88.675285
 31
        0.000000
  0
ARC
  8
LVL0001
 10
      -62.400000
 20
     -145.850000
 30
        0.000000
 40
        1.600000
 50
       90.000000
 51
      179.999995
  0
LINE
  8
LVL0001
 10
      -64.000000
 20
     -148.350000
 30
        0.000000
 11
      -64.000000
 21
     -145.850000
 31
        0.000000
  0
ARC
  8
LVL0001
 10
      -64.000000
 20
     -148.350000
 30
        0.000000
 40
        1.600000
 50
      270.000000
 51
      360.000000
  0
LINE
  8
LVL0001
 10
      -62.400000
 20
     -145.850000
 30
        0.000000
 11
      -62.400000
 21
     -148.350000
 31
        0.000000
  0
LINE
  8
LVL0001
 10
      -62.400000
 20
     -145.850000
 30
        0.000000
 11
      -51.000000
 21
     -145.850000
 31
        0.000000
  0
LINE
  8
LVL0001
 10
      -51.000000
 20
     -144.250000
 30
        0.000000
 11
      -51.000000
 21
     -145.850000
 31
        0.000000
  0
LINE
  8
LVL0001
 10
      -74.000000
 20
     -148.350000
 30
        0.000000
 11
      -64.000000
 21
     -148.350000
 31
        0.000000
  0
LINE
  8
LVL0001
 10
      -74.000000
 20
     -148.350000
 30
        0.000000
 11
      -74.000000
 21
     -149.950000
 31
        0.000000
  0
LINE
  8
LVL0001
 10
      -74.000000
 20
     -149.950000
 30
        0.000000
 11
      -64.000000
 21
     -149.950000
 31
        0.000000
  0
LINE
  8
LVL0001
 10
       74.000000
 20
     -149.950000
 30
        0.000000
 11
       64.000000
 21
     -149.950000
 31
        0.000000
  0
LINE
  8
LVL0001
 10
       74.000000
 20
     -148.350000
 30
        0.000000
 11
       74.000000
 21
     -149.950000
 31
        0.000000
  0
LINE
  8
LVL0001
 10
       74.000000
 20
     -148.350000
 30
        0.000000
 11
       64.000000
 21
     -148.350000
 31
        0.000000
  0
LINE
  8
LVL0001
 10
       51.000000
 20
     -144.250000
 30
        0.000000
 11
       51.000000
 21
     -145.850000
 31
        0.000000
  0
LINE
  8
LVL0001
 10
       62.400000
 20
     -145.850000
 30
        0.000000
 11
       51.000000
 21
     -145.850000
 31
        0.000000
  0
LINE
  8
LVL0001
 10
       62.400000
 20
     -145.850000
 30
        0.000000
 11
       62.400000
 21
     -148.350000
 31
        0.000000
  0
ARC
  8
LVL0001
 10
       64.000000
 20
     -148.350000
 30
        0.000000
 40
        1.600000
 50
      179.999995
 51
      270.000000
  0
LINE
  8
LVL0001
 10
       64.000000
 20
     -148.350000
 30
        0.000000
 11
       64.000000
 21
     -145.850000
 31
        0.000000
  0
ARC
  8
LVL0001
 10
       62.400000
 20
     -145.850000
 30
        0.000000
 40
        1.600000
 50
        0.000000
 51
       90.000000
  0
ARC
  8
LVL0000
 10
        1.650000
 20
     -126.950012
 30
        0.000000
 40
        3.400000
 50
       90.000000
 51
      190.000005
  0
ARC
  8
LVL0000
 10
       15.350000
 20
     -126.950012
 30
        0.000000
 40
        3.400000
 50
      350.000000
 51
      450.000000
  0
ARC
  8
LVL0000
 10
        2.461104
 20
     -131.550012
 30
        0.000000
 40
        3.400000
 50
      190.000005
 51
      270.000000
  0
LINE
  8
LVL0000
 10
       -1.698346
 20
     -127.540416
 30
        0.000000
 11
       -0.887242
 21
     -132.140416
 31
        0.000000
  0
LINE
  8
LVL0000
 10
        2.461104
 20
     -134.950012
 30
        0.000000
 11
       14.538896
 21
     -134.950012
 31
        0.000000
  0
ARC
  8
LVL0000
 10
       14.538896
 20
     -131.550012
 30
        0.000000
 40
        3.400000
 50
      270.000000
 51
      350.000000
  0
LINE
  8
LVL0000
 10
       18.698346
 20
     -127.540416
 30
        0.000000
 11
       17.887242
 21
     -132.140416
 31
        0.000000
  0
LINE
  8
LVL0000
 10
        1.650000
 20
     -123.550012
 30
        0.000000
 11
       15.350000
 21
     -123.550012
 31
        0.000000
  0
ARC
  8
LVL0000
 10
       35.650000
 20
     -126.950012
 30
        0.000000
 40
        3.400000
 50
       90.000000
 51
      190.000005
  0
ARC
  8
LVL0000
 10
       49.350000
 20
     -126.950012
 30
        0.000000
 40
        3.400000
 50
      350.000000
 51
      450.000000
  0
ARC
  8
LVL0000
 10
       36.461104
 20
     -131.550012
 30
        0.000000
 40
        3.400000
 50
      190.000005
 51
      270.000000
  0
LINE
  8
LVL0000
 10
       32.301654
 20
     -127.540416
 30
        0.000000
 11
       33.112758
 21
     -132.140416
 31
        0.000000
  0
LINE
  8
LVL0000
 10
       36.461104
 20
     -134.950012
 30
        0.000000
 11
       48.538896
 21
     -134.950012
 31
        0.000000
  0
ARC
  8
LVL0000
 10
       48.538896
 20
     -131.550012
 30
        0.000000
 40
        3.400000
 50
      270.000000
 51
      350.000000
  0
LINE
  8
LVL0000
 10
       52.698346
 20
     -127.540416
 30
        0.000000
 11
       51.887242
 21
     -132.140416
 31
        0.000000
  0
LINE
  8
LVL0000
 10
       35.650000
 20
     -123.550012
 30
        0.000000
 11
       49.350000
 21
     -123.550012
 31
        0.000000
  0
CIRCLE
  8
LVL0000
 10
       58.500000
 20
     -115.150000
 30
        0.000000
 40
        2.750000
  0
LINE
  8
LVL0000
 10
       58.500000
 20
     -113.850001
 30
        0.000000
 11
       58.270664
 21
     -113.850001
 31
        0.000000
  0
LINE
  8
LVL0000
 10
       58.158830
 20
     -114.808812
 30
        0.000000
 11
       58.257808
 21
     -114.586502
 31
        0.000000
  0
LINE
  8
LVL0000
 10
       58.257808
 20
     -114.586502
 30
        0.000000
 11
       58.270664
 21
     -113.850001
 31
        0.000000
  0
LINE
  8
LVL0000
 10
       58.158827
 20
     -114.808812
 30
        0.000000
 11
       57.936518
 21
     -114.907792
 31
        0.000000
  0
LINE
  8
LVL0000
 10
       57.936518
 20
     -114.907792
 30
        0.000000
 11
       57.200016
 21
     -114.920645
 31
        0.000000
  0
LINE
  8
LVL0000
 10
       57.200016
 20
     -115.149981
 30
        0.000000
 11
       57.200016
 21
     -114.920645
 31
        0.000000
  0
LINE
  8
LVL0000
 10
       59.063482
 20
     -114.907792
 30
        0.000000
 11
       59.799984
 21
     -114.920645
 31
        0.000000
  0
LINE
  8
LVL0000
 10
       59.799984
 20
     -115.149981
 30
        0.000000
 11
       59.799984
 21
     -114.920645
 31
        0.000000
  0
LINE
  8
LVL0000
 10
       58.841173
 20
     -114.808812
 30
        0.000000
 11
       59.063482
 21
     -114.907792
 31
        0.000000
  0
LINE
  8
LVL0000
 10
       58.841170
 20
     -114.808812
 30
        0.000000
 11
       58.742192
 21
     -114.586502
 31
        0.000000
  0
LINE
  8
LVL0000
 10
       58.742192
 20
     -114.586502
 30
        0.000000
 11
       58.729336
 21
     -113.850001
 31
        0.000000
  0
LINE
  8
LVL0000
 10
       58.500000
 20
     -113.850001
 30
        0.000000
 11
       58.729336
 21
     -113.850001
 31
        0.000000
  0
LINE
  8
LVL0000
 10
       57.200016
 20
     -115.150019
 30
        0.000000
 11
       57.200016
 21
     -115.379355
 31
        0.000000
  0
LINE
  8
LVL0000
 10
       57.936518
 20
     -115.392208
 30
        0.000000
 11
       57.200016
 21
     -115.379355
 31
        0.000000
  0
LINE
  8
LVL0000
 10
       58.158830
 20
     -115.491188
 30
        0.000000
 11
       58.257808
 21
     -115.713498
 31
        0.000000
  0
LINE
  8
LVL0000
 10
       58.158827
 20
     -115.491188
 30
        0.000000
 11
       57.936518
 21
     -115.392208
 31
        0.000000
  0
LINE
  8
LVL0000
 10
       58.257808
 20
     -115.713498
 30
        0.000000
 11
       58.270664
 21
     -116.449999
 31
        0.000000
  0
LINE
  8
LVL0000
 10
       58.500000
 20
     -116.449999
 30
        0.000000
 11
       58.270664
 21
     -116.449999
 31
        0.000000
  0
LINE
  8
LVL0000
 10
       58.500000
 20
     -116.449999
 30
        0.000000
 11
       58.729336
 21
     -116.449999
 31
        0.000000
  0
LINE
  8
LVL0000
 10
       58.742192
 20
     -115.713498
 30
        0.000000
 11
       58.729336
 21
     -116.449999
 31
        0.000000
  0
LINE
  8
LVL0000
 10
       58.841170
 20
     -115.491188
 30
        0.000000
 11
       58.742192
 21
     -115.713498
 31
        0.000000
  0
LINE
  8
LVL0000
 10
       58.841173
 20
     -115.491188
 30
        0.000000
 11
       59.063482
 21
     -115.392208
 31
        0.000000
  0
LINE
  8
LVL0000
 10
       59.063482
 20
     -115.392208
 30
        0.000000
 11
       59.799984
 21
     -115.379355
 31
        0.000000
  0
LINE
  8
LVL0000
 10
       59.799984
 20
     -115.150019
 30
        0.000000
 11
       59.799984
 21
     -115.379355
 31
        0.000000
  0
CIRCLE
  8
LVL0000
 10
       26.500000
 20
     -115.150000
 30
        0.000000
 40
        2.750000
  0
LINE
  8
LVL0000
 10
       26.500000
 20
     -113.850001
 30
        0.000000
 11
       26.270664
 21
     -113.850001
 31
        0.000000
  0
LINE
  8
LVL0000
 10
       26.158830
 20
     -114.808812
 30
        0.000000
 11
       26.257808
 21
     -114.586502
 31
        0.000000
  0
LINE
  8
LVL0000
 10
       26.257808
 20
     -114.586502
 30
        0.000000
 11
       26.270664
 21
     -113.850001
 31
        0.000000
  0
LINE
  8
LVL0000
 10
       26.158827
 20
     -114.808812
 30
        0.000000
 11
       25.936518
 21
     -114.907792
 31
        0.000000
  0
LINE
  8
LVL0000
 10
       25.936518
 20
     -114.907792
 30
        0.000000
 11
       25.200016
 21
     -114.920645
 31
        0.000000
  0
LINE
  8
LVL0000
 10
       25.200016
 20
     -115.149981
 30
        0.000000
 11
       25.200016
 21
     -114.920645
 31
        0.000000
  0
LINE
  8
LVL0000
 10
       27.063482
 20
     -114.907792
 30
        0.000000
 11
       27.799984
 21
     -114.920645
 31
        0.000000
  0
LINE
  8
LVL0000
 10
       27.799984
 20
     -115.149981
 30
        0.000000
 11
       27.799984
 21
     -114.920645
 31
        0.000000
  0
LINE
  8
LVL0000
 10
       26.841173
 20
     -114.808812
 30
        0.000000
 11
       27.063482
 21
     -114.907792
 31
        0.000000
  0
LINE
  8
LVL0000
 10
       26.841170
 20
     -114.808812
 30
        0.000000
 11
       26.742192
 21
     -114.586502
 31
        0.000000
  0
LINE
  8
LVL0000
 10
       26.742192
 20
     -114.586502
 30
        0.000000
 11
       26.729336
 21
     -113.850001
 31
        0.000000
  0
LINE
  8
LVL0000
 10
       26.500000
 20
     -113.850001
 30
        0.000000
 11
       26.729336
 21
     -113.850001
 31
        0.000000
  0
LINE
  8
LVL0000
 10
       25.200016
 20
     -115.150019
 30
        0.000000
 11
       25.200016
 21
     -115.379355
 31
        0.000000
  0
LINE
  8
LVL0000
 10
       25.936518
 20
     -115.392208
 30
        0.000000
 11
       25.200016
 21
     -115.379355
 31
        0.000000
  0
LINE
  8
LVL0000
 10
       26.158830
 20
     -115.491188
 30
        0.000000
 11
       26.257808
 21
     -115.713498
 31
        0.000000
  0
LINE
  8
LVL0000
 10
       26.158827
 20
     -115.491188
 30
        0.000000
 11
       25.936518
 21
     -115.392208
 31
        0.000000
  0
LINE
  8
LVL0000
 10
       26.257808
 20
     -115.713498
 30
        0.000000
 11
       26.270664
 21
     -116.449999
 31
        0.000000
  0
LINE
  8
LVL0000
 10
       26.500000
 20
     -116.449999
 30
        0.000000
 11
       26.270664
 21
     -116.449999
 31
        0.000000
  0
LINE
  8
LVL0000
 10
       26.500000
 20
     -116.449999
 30
        0.000000
 11
       26.729336
 21
     -116.449999
 31
        0.000000
  0
LINE
  8
LVL0000
 10
       26.742192
 20
     -115.713498
 30
        0.000000
 11
       26.729336
 21
     -116.449999
 31
        0.000000
  0
LINE
  8
LVL0000
 10
       26.841170
 20
     -115.491188
 30
        0.000000
 11
       26.742192
 21
     -115.713498
 31
        0.000000
  0
LINE
  8
LVL0000
 10
       26.841173
 20
     -115.491188
 30
        0.000000
 11
       27.063482
 21
     -115.392208
 31
        0.000000
  0
LINE
  8
LVL0000
 10
       27.063482
 20
     -115.392208
 30
        0.000000
 11
       27.799984
 21
     -115.379355
 31
        0.000000
  0
LINE
  8
LVL0000
 10
       27.799984
 20
     -115.150019
 30
        0.000000
 11
       27.799984
 21
     -115.379355
 31
        0.000000
  0
CIRCLE
  8
LVL0000
 10
      -52.000000
 20
     -129.250000
 30
        0.000000
 40
        6.500000
  0
LINE
  8
LVL0000
 10
      -62.000000
 20
     -123.750000
 30
        0.000000
 11
      -61.716849
 21
     -140.267140
 31
        0.000000
  0
LINE
  8
LVL0000
 10
       60.716987
 20
     -141.250000
 30
        0.000000
 11
      -60.716996
 21
     -141.250000
 31
        0.000000
  0
ARC
  8
LVL0000
 10
      -60.716996
 20
     -140.250000
 30
        0.000000
 40
        1.000000
 50
      180.982122
 51
      270.000000
  0
LINE
  8
LVL0000
 10
       36.461104
 20
     -134.950012
 30
        0.000000
 11
       48.538896
 21
     -134.950012
 31
        0.000000
  0
LINE
  8
LVL0000
 10
        2.461104
 20
     -134.950012
 30
        0.000000
 11
       14.538896
 21
     -134.950012
 31
        0.000000
  0
CIRCLE
  8
LVL0000
 10
       -4.000000
 20
     -129.250012
 30
        0.000000
 40
        1.600000
  0
CIRCLE
  8
LVL0000
 10
       21.000000
 20
     -129.250012
 30
        0.000000
 40
        1.600000
  0
ARC
  8
LVL0000
 10
        1.650000
 20
     -126.950012
 30
        0.000000
 40
        3.400000
 50
       90.000000
 51
      190.000005
  0
ARC
  8
LVL0000
 10
       15.350000
 20
     -126.950012
 30
        0.000000
 40
        3.400000
 50
      350.000000
 51
      450.000000
  0
ARC
  8
LVL0000
 10
        2.461104
 20
     -131.550012
 30
        0.000000
 40
        3.400000
 50
      190.000005
 51
      270.000000
  0
LINE
  8
LVL0000
 10
       -1.698346
 20
     -127.540416
 30
        0.000000
 11
       -0.887242
 21
     -132.140416
 31
        0.000000
  0
ARC
  8
LVL0000
 10
       14.538896
 20
     -131.550012
 30
        0.000000
 40
        3.400000
 50
      270.000000
 51
      350.000000
  0
LINE
  8
LVL0000
 10
       18.698346
 20
     -127.540416
 30
        0.000000
 11
       17.887242
 21
     -132.140416
 31
        0.000000
  0
LINE
  8
LVL0000
 10
        1.650000
 20
     -123.550012
 30
        0.000000
 11
       15.350000
 21
     -123.550012
 31
        0.000000
  0
CIRCLE
  8
LVL0000
 10
       30.000000
 20
     -129.250012
 30
        0.000000
 40
        1.600000
  0
CIRCLE
  8
LVL0000
 10
       55.000000
 20
     -129.250012
 30
        0.000000
 40
        1.600000
  0
ARC
  8
LVL0000
 10
       35.650000
 20
     -126.950012
 30
        0.000000
 40
        3.400000
 50
       90.000000
 51
      190.000005
  0
ARC
  8
LVL0000
 10
       49.350000
 20
     -126.950012
 30
        0.000000
 40
        3.400000
 50
      350.000000
 51
      450.000000
  0
ARC
  8
LVL0000
 10
       36.461104
 20
     -131.550012
 30
        0.000000
 40
        3.400000
 50
      190.000005
 51
      270.000000
  0
LINE
  8
LVL0000
 10
       32.301654
 20
     -127.540416
 30
        0.000000
 11
       33.112758
 21
     -132.140416
 31
        0.000000
  0
ARC
  8
LVL0000
 10
       48.538896
 20
     -131.550012
 30
        0.000000
 40
        3.400000
 50
      270.000000
 51
      350.000000
  0
LINE
  8
LVL0000
 10
       52.698346
 20
     -127.540416
 30
        0.000000
 11
       51.887242
 21
     -132.140416
 31
        0.000000
  0
LINE
  8
LVL0000
 10
       35.650000
 20
     -123.550012
 30
        0.000000
 11
       49.350000
 21
     -123.550012
 31
        0.000000
  0
LINE
  8
LVL0000
 10
       61.999848
 20
     -123.750000
 30
        0.000000
 11
       61.716841
 21
     -140.267132
 31
        0.000000
  0
ARC
  8
LVL0000
 10
       60.716987
 20
     -140.250000
 30
        0.000000
 40
        1.000000
 50
      270.000000
 51
      359.018381
  0
LINE
  8
LVL0000
 10
       59.516085
 20
     -105.250000
 30
        0.000000
 11
      -59.516085
 21
     -105.250000
 31
        0.000000
  0
LINE
  8
LVL0000
 10
       -4.500000
 20
     -108.250000
 30
        0.000000
 11
       -4.500000
 21
     -120.250000
 31
        0.000000
  0
LINE
  8
LVL0000
 10
       -4.500000
 20
     -120.250000
 30
        0.000000
 11
        8.500000
 21
     -120.250000
 31
        0.000000
  0
LINE
  8
LVL0000
 10
        8.500000
 20
     -108.250000
 30
        0.000000
 11
        8.500000
 21
     -120.250000
 31
        0.000000
  0
LINE
  8
LVL0000
 10
       -4.500000
 20
     -108.250000
 30
        0.000000
 11
        8.500000
 21
     -108.250000
 31
        0.000000
  0
ARC
  8
LVL0000
 10
        6.000000
 20
     -110.460000
 30
        0.000000
 40
        1.000000
 50
        0.000000
 51
       90.000000
  0
LINE
  8
LVL0000
 10
       -2.000000
 20
     -109.460000
 30
        0.000000
 11
        6.000000
 21
     -109.460000
 31
        0.000000
  0
ARC
  8
LVL0000
 10
       -2.000000
 20
     -110.460000
 30
        0.000000
 40
        1.000000
 50
       90.000000
 51
      179.999995
  0
LINE
  8
LVL0000
 10
       -3.000000
 20
     -110.460000
 30
        0.000000
 11
       -3.000000
 21
     -117.460000
 31
        0.000000
  0
ARC
  8
LVL0000
 10
       -2.000000
 20
     -117.460000
 30
        0.000000
 40
        1.000000
 50
      179.999995
 51
      270.000000
  0
LINE
  8
LVL0000
 10
       -2.000000
 20
     -118.460000
 30
        0.000000
 11
        6.000000
 21
     -118.460000
 31
        0.000000
  0
ARC
  8
LVL0000
 10
        6.000000
 20
     -117.460000
 30
        0.000000
 40
        1.000000
 50
      270.000000
 51
      360.000000
  0
LINE
  8
LVL0000
 10
        7.000000
 20
     -110.460000
 30
        0.000000
 11
        7.000000
 21
     -117.460000
 31
        0.000000
  0
LINE
  8
LVL0000
 10
        4.000000
 20
     -115.210000
 30
        0.000000
 11
        0.000000
 21
     -115.210000
 31
        0.000000
  0
LINE
  8
LVL0000
 10
        4.000000
 20
     -112.710000
 30
        0.000000
 11
        0.000000
 21
     -112.710000
 31
        0.000000
  0
LINE
  8
LVL0000
 10
        0.000000
 20
     -112.710000
 30
        0.000000
 11
        0.000000
 21
     -115.210000
 31
        0.000000
  0
LINE
  8
LVL0000
 10
        4.000000
 20
     -112.710000
 30
        0.000000
 11
        4.000000
 21
     -115.210000
 31
        0.000000
  0
LINE
  8
LVL0000
 10
        4.500000
 20
     -110.070000
 30
        0.000000
 11
        6.225000
 21
     -111.710000
 31
        0.000000
  0
LINE
  8
LVL0000
 10
       -0.500000
 20
     -110.070000
 30
        0.000000
 11
       -2.225000
 21
     -111.710000
 31
        0.000000
  0
LINE
  8
LVL0000
 10
       -2.225000
 20
     -112.960000
 30
        0.000000
 11
       -1.225000
 21
     -113.460000
 31
        0.000000
  0
LINE
  8
LVL0000
 10
        5.225000
 20
     -113.460000
 30
        0.000000
 11
        6.225000
 21
     -112.960000
 31
        0.000000
  0
LINE
  8
LVL0000
 10
       -2.225000
 20
     -117.850000
 30
        0.000000
 11
        6.225000
 21
     -117.850000
 31
        0.000000
  0
LINE
  8
LVL0000
 10
       -0.500000
 20
     -110.070000
 30
        0.000000
 11
        4.500000
 21
     -110.070000
 31
        0.000000
  0
LINE
  8
LVL0000
 10
       -2.225000
 20
     -111.710000
 30
        0.000000
 11
       -2.225000
 21
     -112.960000
 31
        0.000000
  0
LINE
  8
LVL0000
 10
        6.225000
 20
     -111.710000
 30
        0.000000
 11
        6.225000
 21
     -112.960000
 31
        0.000000
  0
LINE
  8
LVL0000
 10
        5.225000
 20
     -115.460000
 30
        0.000000
 11
        6.225000
 21
     -115.960000
 31
        0.000000
  0
LINE
  8
LVL0000
 10
        5.225000
 20
     -113.460000
 30
        0.000000
 11
        5.225000
 21
     -115.460000
 31
        0.000000
  0
LINE
  8
LVL0000
 10
        6.225000
 20
     -115.960000
 30
        0.000000
 11
        6.225000
 21
     -117.850000
 31
        0.000000
  0
LINE
  8
LVL0000
 10
       -1.225000
 20
     -115.460000
 30
        0.000000
 11
       -2.225000
 21
     -115.960000
 31
        0.000000
  0
LINE
  8
LVL0000
 10
       -1.225000
 20
     -113.460000
 30
        0.000000
 11
       -1.225000
 21
     -115.460000
 31
        0.000000
  0
LINE
  8
LVL0000
 10
       -2.225000
 20
     -115.960000
 30
        0.000000
 11
       -2.225000
 21
     -117.850000
 31
        0.000000
  0
LINE
  8
LVL0000
 10
      -57.000000
 20
     -120.250000
 30
        0.000000
 11
       61.500000
 21
     -120.250000
 31
        0.000000
  0
ARC
  8
LVL0000
 10
      -57.000000
 20
     -122.250000
 30
        0.000000
 40
        2.000000
 50
       90.000000
 51
      179.999995
  0
LINE
  8
LVL0000
 10
      -59.000000
 20
     -136.250000
 30
        0.000000
 11
      -59.000000
 21
     -122.250000
 31
        0.000000
  0
ARC
  8
LVL0000
 10
      -57.000000
 20
     -136.250000
 30
        0.000000
 40
        2.000000
 50
      179.999995
 51
      270.000000
  0
LINE
  8
LVL0000
 10
       57.000000
 20
     -138.250000
 30
        0.000000
 11
      -57.000000
 21
     -138.250000
 31
        0.000000
  0
ARC
  8
LVL0000
 10
       57.000000
 20
     -136.250000
 30
        0.000000
 40
        2.000000
 50
      270.000000
 51
      360.000000
  0
LINE
  8
LVL0000
 10
       59.000000
 20
     -122.250000
 30
        0.000000
 11
       59.000000
 21
     -136.250000
 31
        0.000000
  0
ARC
  8
LVL0000
 10
       57.000000
 20
     -122.250000
 30
        0.000000
 40
        2.000000
 50
        0.000000
 51
       90.000000
  0
LINE
  8
LVL0000
 10
       61.500000
 20
     -108.150000
 30
        0.000000
 11
       23.500000
 21
     -108.150000
 31
        0.000000
  0
LINE
  8
LVL0000
 10
       23.500000
 20
     -108.150000
 30
        0.000000
 11
       23.500000
 21
     -120.250000
 31
        0.000000
  0
CIRCLE
  8
LVL0000
 10
       29.987966
 20
     -129.250012
 30
        0.000000
 40
        1.299988
  0
LINE
  8
LVL0000
 10
       32.488027
 20
     -127.806622
 30
        0.000000
 11
       29.988027
 21
     -126.363263
 31
        0.000000
  0
LINE
  8
LVL0000
 10
       29.988027
 20
     -126.363263
 30
        0.000000
 11
       27.487966
 21
     -127.806622
 31
        0.000000
  0
LINE
  8
LVL0000
 10
       27.487966
 20
     -127.806622
 30
        0.000000
 11
       27.487966
 21
     -130.693372
 31
        0.000000
  0
LINE
  8
LVL0000
 10
       27.487966
 20
     -130.693372
 30
        0.000000
 11
       29.987966
 21
     -132.136761
 31
        0.000000
  0
LINE
  8
LVL0000
 10
       29.987966
 20
     -132.136761
 30
        0.000000
 11
       32.488027
 21
     -130.693372
 31
        0.000000
  0
LINE
  8
LVL0000
 10
       32.488027
 20
     -130.693372
 30
        0.000000
 11
       32.488027
 21
     -127.806622
 31
        0.000000
  0
CIRCLE
  8
LVL0000
 10
       55.007973
 20
     -129.250012
 30
        0.000000
 40
        1.299988
  0
LINE
  8
LVL0000
 10
       55.007973
 20
     -126.363263
 30
        0.000000
 11
       52.507973
 21
     -127.806622
 31
        0.000000
  0
LINE
  8
LVL0000
 10
       57.507973
 20
     -127.806622
 30
        0.000000
 11
       55.007973
 21
     -126.363263
 31
        0.000000
  0
LINE
  8
LVL0000
 10
       57.507973
 20
     -130.693402
 30
        0.000000
 11
       57.507973
 21
     -127.806622
 31
        0.000000
  0
LINE
  8
LVL0000
 10
       55.007973
 20
     -132.136761
 30
        0.000000
 11
       57.507973
 21
     -130.693402
 31
        0.000000
  0
LINE
  8
LVL0000
 10
       52.507973
 20
     -130.693402
 30
        0.000000
 11
       55.007973
 21
     -132.136761
 31
        0.000000
  0
LINE
  8
LVL0000
 10
       52.507973
 20
     -127.806622
 30
        0.000000
 11
       52.507973
 21
     -130.693402
 31
        0.000000
  0
LINE
  8
LVL0000
 10
       62.681140
 20
     -144.250000
 30
        0.000000
 11
      -62.681140
 21
     -144.250000
 31
        0.000000
  0
ARC
  8
LVL0000
 10
       62.681140
 20
     -142.250000
 30
        0.000000
 40
        2.000000
 50
      270.000000
 51
      359.000000
  0
LINE
  8
LVL0000
 10
       61.698212
 20
     -141.250000
 30
        0.000000
 11
      -61.698212
 21
     -141.250000
 31
        0.000000
  0
ARC
  8
LVL0000
 10
      -62.681140
 20
     -142.250000
 30
        0.000000
 40
        2.000000
 50
      181.000005
 51
      270.000000
  0
LINE
  8
LVL0000
 10
       65.000000
 20
     -123.250000
 30
        0.000000
 11
       64.680836
 21
     -104.215095
 31
        0.000000
  0
LINE
  8
LVL0000
 10
       62.000152
 20
     -123.267452
 30
        0.000000
 11
       61.694384
 21
     -105.250000
 31
        0.000000
  0
LINE
  8
LVL0000
 10
       62.000152
 20
     -123.267452
 30
        0.000000
 11
       61.694384
 21
     -105.250000
 31
        0.000000
  0
LINE
  8
LVL0000
 10
       65.000000
 20
     -123.250000
 30
        0.000000
 11
       61.999848
 21
     -123.250000
 31
        0.000000
  0
LINE
  8
LVL0000
 10
       65.000000
 20
     -123.250000
 30
        0.000000
 11
       64.680836
 21
     -142.284905
 31
        0.000000
  0
LINE
  8
LVL0000
 10
       61.999555
 20
     -123.250000
 30
        0.000000
 11
       61.698212
 21
     -141.250000
 31
        0.000000
  0
LINE
  8
LVL0000
 10
      -65.000000
 20
     -123.250000
 30
        0.000000
 11
      -64.680836
 21
     -104.215095
 31
        0.000000
  0
LINE
  8
LVL0000
 10
      -61.999555
 20
     -123.250000
 30
        0.000000
 11
      -61.698212
 21
     -105.250000
 31
        0.000000
  0
LINE
  8
LVL0000
 10
      -61.999555
 20
     -123.250000
 30
        0.000000
 11
      -65.000000
 21
     -123.250000
 31
        0.000000
  0
LINE
  8
LVL0000
 10
      -65.000000
 20
     -123.250000
 30
        0.000000
 11
      -64.680836
 21
     -142.284905
 31
        0.000000
  0
LINE
  8
LVL0000
 10
      -61.999555
 20
     -123.250000
 30
        0.000000
 11
      -61.698212
 21
     -141.250000
 31
        0.000000
  0
LINE
  8
LVL0000
 10
       62.681140
 20
     -102.250000
 30
        0.000000
 11
      -62.681140
 21
     -102.250000
 31
        0.000000
  0
ARC
  8
LVL0000
 10
       62.681140
 20
     -104.250000
 30
        0.000000
 40
        2.000000
 50
        1.000000
 51
       90.000000
  0
ARC
  8
LVL0000
 10
      -62.681140
 20
     -104.250000
 30
        0.000000
 40
        2.000000
 50
       90.000000
 51
      178.999995
  0
LINE
  8
LVL0000
 10
       61.698212
 20
     -105.250000
 30
        0.000000
 11
      -61.698212
 21
     -105.250000
 31
        0.000000
  0
CIRCLE
  8
LVL0000
 10
       42.497995
 20
     -127.830029
 30
        0.000000
 40
        0.500000
  0
CIRCLE
  8
LVL0000
 10
       45.237985
 20
     -127.830029
 30
        0.000000
 40
        0.500000
  0
CIRCLE
  8
LVL0000
 10
       47.987985
 20
     -127.830029
 30
        0.000000
 40
        0.500000
  0
CIRCLE
  8
LVL0000
 10
       38.388010
 20
     -130.669995
 30
        0.000000
 40
        0.500000
  0
CIRCLE
  8
LVL0000
 10
       41.128000
 20
     -130.669995
 30
        0.000000
 40
        0.500000
  0
CIRCLE
  8
LVL0000
 10
       43.867990
 20
     -130.669995
 30
        0.000000
 40
        0.500000
  0
CIRCLE
  8
LVL0000
 10
       46.617990
 20
     -130.669995
 30
        0.000000
 40
        0.500000
  0
CIRCLE
  8
LVL0000
 10
       37.018015
 20
     -127.830029
 30
        0.000000
 40
        0.500000
  0
CIRCLE
  8
LVL0000
 10
       39.758005
 20
     -127.830029
 30
        0.000000
 40
        0.500000
  0
ARC
  8
LVL0000
 10
       49.043007
 20
     -126.940015
 30
        0.000000
 40
        1.599976
 50
        0.000003
 51
       90.000000
  0
LINE
  8
LVL0000
 10
       50.643044
 20
     -126.940015
 30
        0.000000
 11
       49.779396
 21
     -131.837842
 31
        0.000000
  0
ARC
  8
LVL0000
 10
       48.203713
 20
     -131.560010
 30
        0.000000
 40
        1.599976
 50
      270.000000
 51
      350.000032
  0
LINE
  8
LVL0000
 10
       48.203713
 20
     -133.160046
 30
        0.000000
 11
       36.792287
 21
     -133.160046
 31
        0.000000
  0
LINE
  8
LVL0000
 10
       49.043007
 20
     -125.340039
 30
        0.000000
 11
       35.952993
 21
     -125.340039
 31
        0.000000
  0
ARC
  8
LVL0000
 10
       36.792287
 20
     -131.560010
 30
        0.000000
 40
        1.599990
 50
      189.999894
 51
      270.000000
  0
LINE
  8
LVL0000
 10
       34.352956
 20
     -126.940015
 30
        0.000000
 11
       35.216604
 21
     -131.837842
 31
        0.000000
  0
ARC
  8
LVL0000
 10
       35.952993
 20
     -126.940015
 30
        0.000000
 40
        1.599976
 50
       90.000000
 51
      180.000006
  0
CIRCLE
  8
LVL0000
 10
      -36.500000
 20
     -128.750015
 30
        0.000000
 40
        3.800049
  0
CIRCLE
  8
LVL0000
 10
      -36.500000
 20
     -128.750015
 30
        0.000000
 40
        4.799988
  0
CIRCLE
  8
LVL0000
 10
      -36.500000
 20
     -128.750015
 30
        0.000000
 40
        7.000000
  0
CIRCLE
  8
LVL0000
 10
      -36.500000
 20
     -128.750015
 30
        0.000000
 40
        5.949890
  0
CIRCLE
  8
LVL0000
 10
      -36.500000
 20
     -127.650015
 30
        0.000000
 40
        0.500000
  0
CIRCLE
  8
LVL0000
 10
      -37.450000
 20
     -129.300015
 30
        0.000000
 40
        0.500000
  0
CIRCLE
  8
LVL0000
 10
      -35.550000
 20
     -129.300015
 30
        0.000000
 40
        0.500000
  0
CIRCLE
  8
LVL0000
 10
      -36.500000
 20
     -131.500015
 30
        0.000000
 40
        0.500000
  0
CIRCLE
  8
LVL0000
 10
      -38.270000
 20
     -130.860015
 30
        0.000000
 40
        0.500000
  0
CIRCLE
  8
LVL0000
 10
      -34.730000
 20
     -130.860015
 30
        0.000000
 40
        0.500000
  0
CIRCLE
  8
LVL0000
 10
      -39.210000
 20
     -129.230015
 30
        0.000000
 40
        0.500000
  0
CIRCLE
  8
LVL0000
 10
      -33.790000
 20
     -129.230015
 30
        0.000000
 40
        0.500000
  0
CIRCLE
  8
LVL0000
 10
      -37.450000
 20
     -126.170015
 30
        0.000000
 40
        0.500000
  0
CIRCLE
  8
LVL0000
 10
      -35.550000
 20
     -126.170015
 30
        0.000000
 40
        0.500000
  0
CIRCLE
  8
LVL0000
 10
      -38.880000
 20
     -127.370015
 30
        0.000000
 40
        0.500000
  0
CIRCLE
  8
LVL0000
 10
      -34.120000
 20
     -127.370015
 30
        0.000000
 40
        0.500000
  0
CIRCLE
  8
LVL0000
 10
        8.497995
 20
     -127.830029
 30
        0.000000
 40
        0.500000
  0
CIRCLE
  8
LVL0000
 10
       11.237985
 20
     -127.830029
 30
        0.000000
 40
        0.500000
  0
CIRCLE
  8
LVL0000
 10
       13.987985
 20
     -127.830029
 30
        0.000000
 40
        0.500000
  0
CIRCLE
  8
LVL0000
 10
        4.388010
 20
     -130.669995
 30
        0.000000
 40
        0.500000
  0
CIRCLE
  8
LVL0000
 10
        7.128000
 20
     -130.669995
 30
        0.000000
 40
        0.500000
  0
CIRCLE
  8
LVL0000
 10
        9.867990
 20
     -130.669995
 30
        0.000000
 40
        0.500000
  0
CIRCLE
  8
LVL0000
 10
       12.617990
 20
     -130.669995
 30
        0.000000
 40
        0.500000
  0
CIRCLE
  8
LVL0000
 10
        3.018015
 20
     -127.830029
 30
        0.000000
 40
        0.500000
  0
CIRCLE
  8
LVL0000
 10
        5.758005
 20
     -127.830029
 30
        0.000000
 40
        0.500000
  0
LINE
  8
LVL0000
 10
       18.507973
 20
     -127.806622
 30
        0.000000
 11
       18.507973
 21
     -130.693402
 31
        0.000000
  0
LINE
  8
LVL0000
 10
       18.507973
 20
     -130.693402
 30
        0.000000
 11
       21.007973
 21
     -132.136761
 31
        0.000000
  0
LINE
  8
LVL0000
 10
       21.007973
 20
     -132.136761
 30
        0.000000
 11
       23.507973
 21
     -130.693402
 31
        0.000000
  0
LINE
  8
LVL0000
 10
       23.507973
 20
     -130.693402
 30
        0.000000
 11
       23.507973
 21
     -127.806622
 31
        0.000000
  0
LINE
  8
LVL0000
 10
       23.507973
 20
     -127.806622
 30
        0.000000
 11
       21.007973
 21
     -126.363263
 31
        0.000000
  0
LINE
  8
LVL0000
 10
       21.007973
 20
     -126.363263
 30
        0.000000
 11
       18.507973
 21
     -127.806622
 31
        0.000000
  0
ARC
  8
LVL0000
 10
       15.043007
 20
     -126.940015
 30
        0.000000
 40
        1.599976
 50
        0.000003
 51
       90.000000
  0
LINE
  8
LVL0000
 10
       16.643044
 20
     -126.940015
 30
        0.000000
 11
       15.779396
 21
     -131.837842
 31
        0.000000
  0
ARC
  8
LVL0000
 10
       14.203713
 20
     -131.560010
 30
        0.000000
 40
        1.599976
 50
      270.000000
 51
      350.000032
  0
CIRCLE
  8
LVL0000
 10
       21.007973
 20
     -129.250012
 30
        0.000000
 40
        1.299988
  0
LINE
  8
LVL0000
 10
       -1.511973
 20
     -130.693372
 30
        0.000000
 11
       -1.511973
 21
     -127.806622
 31
        0.000000
  0
LINE
  8
LVL0000
 10
       -4.012034
 20
     -132.136761
 30
        0.000000
 11
       -1.511973
 21
     -130.693372
 31
        0.000000
  0
LINE
  8
LVL0000
 10
       -6.512034
 20
     -130.693372
 30
        0.000000
 11
       -4.012034
 21
     -132.136761
 31
        0.000000
  0
LINE
  8
LVL0000
 10
       -6.512034
 20
     -127.806622
 30
        0.000000
 11
       -6.512034
 21
     -130.693372
 31
        0.000000
  0
LINE
  8
LVL0000
 10
       -4.011973
 20
     -126.363263
 30
        0.000000
 11
       -6.512034
 21
     -127.806622
 31
        0.000000
  0
LINE
  8
LVL0000
 10
       -1.511973
 20
     -127.806622
 30
        0.000000
 11
       -4.011973
 21
     -126.363263
 31
        0.000000
  0
LINE
  8
LVL0000
 10
       14.203713
 20
     -133.160046
 30
        0.000000
 11
        2.792287
 21
     -133.160046
 31
        0.000000
  0
LINE
  8
LVL0000
 10
       15.043007
 20
     -125.340039
 30
        0.000000
 11
        1.952993
 21
     -125.340039
 31
        0.000000
  0
ARC
  8
LVL0000
 10
        2.792287
 20
     -131.560010
 30
        0.000000
 40
        1.599990
 50
      189.999894
 51
      270.000000
  0
LINE
  8
LVL0000
 10
        0.352956
 20
     -126.940015
 30
        0.000000
 11
        1.216604
 21
     -131.837842
 31
        0.000000
  0
ARC
  8
LVL0000
 10
        1.952993
 20
     -126.940015
 30
        0.000000
 40
        1.599976
 50
       90.000000
 51
      180.000006
  0
CIRCLE
  8
LVL0000
 10
       -4.012034
 20
     -129.250012
 30
        0.000000
 40
        1.299988
  0
CIRCLE
  8
LVL0000
 10
      -17.500000
 20
     -128.750015
 30
        0.000000
 40
        3.800049
  0
CIRCLE
  8
LVL0000
 10
      -17.500000
 20
     -128.750015
 30
        0.000000
 40
        4.799988
  0
CIRCLE
  8
LVL0000
 10
      -17.500000
 20
     -128.750015
 30
        0.000000
 40
        7.000000
  0
CIRCLE
  8
LVL0000
 10
      -17.500000
 20
     -128.750015
 30
        0.000000
 40
        5.949890
  0
CIRCLE
  8
LVL0000
 10
      -17.500000
 20
     -127.650015
 30
        0.000000
 40
        0.500000
  0
CIRCLE
  8
LVL0000
 10
      -18.450000
 20
     -129.300015
 30
        0.000000
 40
        0.500000
  0
CIRCLE
  8
LVL0000
 10
      -16.550000
 20
     -129.300015
 30
        0.000000
 40
        0.500000
  0
CIRCLE
  8
LVL0000
 10
      -17.500000
 20
     -131.500015
 30
        0.000000
 40
        0.500000
  0
CIRCLE
  8
LVL0000
 10
      -19.270000
 20
     -130.860015
 30
        0.000000
 40
        0.500000
  0
CIRCLE
  8
LVL0000
 10
      -15.730000
 20
     -130.860015
 30
        0.000000
 40
        0.500000
  0
CIRCLE
  8
LVL0000
 10
      -20.210000
 20
     -129.230015
 30
        0.000000
 40
        0.500000
  0
CIRCLE
  8
LVL0000
 10
      -14.790000
 20
     -129.230015
 30
        0.000000
 40
        0.500000
  0
CIRCLE
  8
LVL0000
 10
      -18.450000
 20
     -126.170015
 30
        0.000000
 40
        0.500000
  0
CIRCLE
  8
LVL0000
 10
      -16.550000
 20
     -126.170015
 30
        0.000000
 40
        0.500000
  0
CIRCLE
  8
LVL0000
 10
      -19.880000
 20
     -127.370015
 30
        0.000000
 40
        0.500000
  0
CIRCLE
  8
LVL0000
 10
      -15.120000
 20
     -127.370015
 30
        0.000000
 40
        0.500000
  0
CIRCLE
  8
LVL0000
 10
      -52.000000
 20
     -129.250000
 30
        0.000000
 40
        4.150000
  0
CIRCLE
  8
LVL0000
 10
      -52.000000
 20
     -129.250000
 30
        0.000000
 40
        1.500000
  0
CIRCLE
  8
LVL0000
 10
      -52.000000
 20
     -129.250000
 30
        0.000000
 40
        6.500000
  0
DIMENSION
  8
LVL0000
 62
  4
  2
BLK0001
 10
       79.439880
 20
     -102.250000
 11
       78.739876
 21
     -125.695541
 13
       62.681141
 23
     -102.250000
 14
       62.681141
 24
     -144.250000
 50
       90.0
 70
  0
  0
DIMENSION
  8
LVL0000
 62
  4
  2
BLK0002
 10
      -74.000000
 20
      -77.068481
 11
       -5.940405
 21
      -76.368477
 13
      -74.000000
 23
      -45.000000
 14
       74.000000
 24
      -45.000000
 50
        0.0
 70
  0
  0
DIMENSION
  8
LVL0000
 62
  4
  2
BLK0003
 10
      -69.000000
 20
      -68.894379
 11
       -5.940405
 21
      -68.194374
 13
      -69.000000
 23
      -35.000000
 14
       69.000000
 24
      -35.000000
 50
        0.0
 70
  0
  0
DIMENSION
  8
LVL0000
 62
  4
  2
BLK0004
 10
      -65.000000
 20
      -60.709660
 11
       -5.197305
 21
      -60.009659
 13
      -65.000000
 23
      -48.000000
 14
       65.000000
 24
      -48.000000
 50
        0.0
 70
  0
  0
ARC
  8
LVL0001
 10
       62.400000
 20
      117.350000
 30
        0.000000
 40
        1.600000
 50
      270.000000
 51
      360.000000
  0
LINE
  8
LVL0001
 10
       64.000000
 20
      119.850000
 30
        0.000000
 11
       64.000000
 21
      117.350000
 31
        0.000000
  0
ARC
  8
LVL0001
 10
       64.000000
 20
      119.850000
 30
        0.000000
 40
        1.600000
 50
       90.000000
 51
      179.999995
  0
LINE
  8
LVL0001
 10
       62.400000
 20
      117.350000
 30
        0.000000
 11
       62.400000
 21
      119.850000
 31
        0.000000
  0
LINE
  8
LVL0001
 10
       62.400000
 20
      117.350000
 30
        0.000000
 11
       51.000000
 21
      117.350000
 31
        0.000000
  0
LINE
  8
LVL0001
 10
       51.000000
 20
      115.750000
 30
        0.000000
 11
       51.000000
 21
      117.350000
 31
        0.000000
  0
LINE
  8
LVL0001
 10
       74.000000
 20
      119.850000
 30
        0.000000
 11
       64.000000
 21
      119.850000
 31
        0.000000
  0
LINE
  8
LVL0001
 10
       74.000000
 20
      119.850000
 30
        0.000000
 11
       74.000000
 21
      121.450000
 31
        0.000000
  0
LINE
  8
LVL0001
 10
       74.000000
 20
      121.450000
 30
        0.000000
 11
       64.000000
 21
      121.450000
 31
        0.000000
  0
LINE
  8
LVL0001
 10
      -74.000000
 20
      121.450000
 30
        0.000000
 11
      -64.000000
 21
      121.450000
 31
        0.000000
  0
LINE
  8
LVL0001
 10
      -74.000000
 20
      119.850000
 30
        0.000000
 11
      -74.000000
 21
      121.450000
 31
        0.000000
  0
LINE
  8
LVL0001
 10
      -74.000000
 20
      119.850000
 30
        0.000000
 11
      -64.000000
 21
      119.850000
 31
        0.000000
  0
LINE
  8
LVL0001
 10
      -51.000000
 20
      115.750000
 30
        0.000000
 11
      -51.000000
 21
      117.350000
 31
        0.000000
  0
LINE
  8
LVL0001
 10
      -62.400000
 20
      117.350000
 30
        0.000000
 11
      -51.000000
 21
      117.350000
 31
        0.000000
  0
LINE
  8
LVL0001
 10
      -62.400000
 20
      117.350000
 30
        0.000000
 11
      -62.400000
 21
      119.850000
 31
        0.000000
  0
ARC
  8
LVL0001
 10
      -64.000000
 20
      119.850000
 30
        0.000000
 40
        1.600000
 50
        0.000000
 51
       90.000000
  0
LINE
  8
LVL0001
 10
      -64.000000
 20
      119.850000
 30
        0.000000
 11
      -64.000000
 21
      117.350000
 31
        0.000000
  0
ARC
  8
LVL0001
 10
      -62.400000
 20
      117.350000
 30
        0.000000
 40
        1.600000
 50
      179.999995
 51
      270.000000
  0
LINE
  8
LVL0000
 10
       65.000000
 20
       95.250000
 30
        0.000000
 11
       64.680836
 21
       76.715095
 31
        0.000000
  0
LINE
  8
LVL0000
 10
      -65.000000
 20
       95.250000
 30
        0.000000
 11
       65.000000
 21
       95.250000
 31
        0.000000
  0
LINE
  8
LVL0000
 10
      -61.999555
 20
       95.250000
 30
        0.000000
 11
      -61.698212
 21
      112.750000
 31
        0.000000
  0
LINE
  8
LVL0000
 10
      -61.999555
 20
       95.250000
 30
        0.000000
 11
      -61.698212
 21
       77.750000
 31
        0.000000
  0
LINE
  8
LVL0000
 10
       61.698212
 20
       77.750000
 30
        0.000000
 11
       46.500000
 21
       77.750000
 31
        0.000000
  0
LINE
  8
LVL0000
 10
      -57.500000
 20
       77.750000
 30
        0.000000
 11
      -61.698212
 21
       77.750000
 31
        0.000000
  0
LINE
  8
LVL0000
 10
      -57.500000
 20
       74.750000
 30
        0.000000
 11
      -57.500000
 21
       95.250000
 31
        0.000000
  0
LINE
  8
LVL0000
 10
      -65.000000
 20
       95.250000
 30
        0.000000
 11
      -64.680836
 21
      113.784905
 31
        0.000000
  0
ARC
  8
LVL0000
 10
      -62.681140
 20
      113.750000
 30
        0.000000
 40
        2.000000
 50
       90.000000
 51
      178.999995
  0
LINE
  8
LVL0000
 10
      -65.000000
 20
       95.250000
 30
        0.000000
 11
      -64.680836
 21
       76.715095
 31
        0.000000
  0
ARC
  8
LVL0000
 10
      -62.681140
 20
       76.750000
 30
        0.000000
 40
        2.000000
 50
      181.000005
 51
      270.000000
  0
ARC
  8
LVL0000
 10
       62.681140
 20
       76.750000
 30
        0.000000
 40
        2.000000
 50
      270.000000
 51
      359.000000
  0
LINE
  8
LVL0000
 10
       62.681140
 20
       74.750000
 30
        0.000000
 11
      -62.681140
 21
       74.750000
 31
        0.000000
  0
LINE
  8
LVL0000
 10
       28.190000
 20
       84.250000
 30
        0.000000
 11
       21.770000
 21
       84.250000
 31
        0.000000
  0
LINE
  8
LVL0000
 10
       21.770000
 20
       83.250000
 30
        0.000000
 11
       28.190000
 21
       83.250000
 31
        0.000000
  0
LINE
  8
LVL0000
 10
       25.580000
 20
       91.250000
 30
        0.000000
 11
       32.000000
 21
       91.250000
 31
        0.000000
  0
LINE
  8
LVL0000
 10
       25.580000
 20
       84.250000
 30
        0.000000
 11
       25.580000
 21
       91.250000
 31
        0.000000
  0
LINE
  8
LVL0000
 10
       25.580000
 20
       90.250000
 30
        0.000000
 11
       32.000000
 21
       90.250000
 31
        0.000000
  0
LINE
  8
LVL0000
 10
       32.000000
 20
       84.250000
 30
        0.000000
 11
       32.000000
 21
       91.250000
 31
        0.000000
  0
LINE
  8
LVL0000
 10
       35.810000
 20
       74.750000
 30
        0.000000
 11
       35.810000
 21
       84.250000
 31
        0.000000
  0
LINE
  8
LVL0000
 10
       29.390000
 20
       74.750000
 30
        0.000000
 11
       29.390000
 21
       84.250000
 31
        0.000000
  0
LINE
  8
LVL0000
 10
       29.390000
 20
       83.250000
 30
        0.000000
 11
       35.810000
 21
       83.250000
 31
        0.000000
  0
LINE
  8
LVL0000
 10
       35.810000
 20
       84.250000
 30
        0.000000
 11
       29.390000
 21
       84.250000
 31
        0.000000
  0
LINE
  8
LVL0000
 10
      -57.000000
 20
       74.750000
 30
        0.000000
 11
       46.000000
 21
       74.750000
 31
        0.000000
  0
LINE
  8
LVL0000
 10
      -46.810000
 20
       83.250000
 30
        0.000000
 11
      -40.390000
 21
       83.250000
 31
        0.000000
  0
LINE
  8
LVL0000
 10
      -40.390000
 20
       84.250000
 30
        0.000000
 11
      -46.810000
 21
       84.250000
 31
        0.000000
  0
LINE
  8
LVL0000
 10
      -46.810000
 20
       74.750000
 30
        0.000000
 11
      -46.810000
 21
       84.250000
 31
        0.000000
  0
LINE
  8
LVL0000
 10
      -40.390000
 20
       74.750000
 30
        0.000000
 11
      -40.390000
 21
       84.250000
 31
        0.000000
  0
LINE
  8
LVL0000
 10
      -43.000000
 20
       84.250000
 30
        0.000000
 11
      -43.000000
 21
       91.250000
 31
        0.000000
  0
LINE
  8
LVL0000
 10
      -36.580000
 20
       84.250000
 30
        0.000000
 11
      -36.580000
 21
       91.250000
 31
        0.000000
  0
LINE
  8
LVL0000
 10
      -43.000000
 20
       90.250000
 30
        0.000000
 11
      -36.580000
 21
       90.250000
 31
        0.000000
  0
LINE
  8
LVL0000
 10
      -43.000000
 20
       91.250000
 30
        0.000000
 11
      -36.580000
 21
       91.250000
 31
        0.000000
  0
LINE
  8
LVL0000
 10
      -32.770000
 20
       74.750000
 30
        0.000000
 11
      -32.770000
 21
       84.250000
 31
        0.000000
  0
LINE
  8
LVL0000
 10
      -39.190000
 20
       74.750000
 30
        0.000000
 11
      -39.190000
 21
       84.250000
 31
        0.000000
  0
LINE
  8
LVL0000
 10
      -32.770000
 20
       84.250000
 30
        0.000000
 11
      -39.190000
 21
       84.250000
 31
        0.000000
  0
LINE
  8
LVL0000
 10
      -39.190000
 20
       83.250000
 30
        0.000000
 11
      -32.770000
 21
       83.250000
 31
        0.000000
  0
LINE
  8
LVL0000
 10
      -35.380000
 20
       91.250000
 30
        0.000000
 11
      -28.960000
 21
       91.250000
 31
        0.000000
  0
LINE
  8
LVL0000
 10
      -35.380000
 20
       84.250000
 30
        0.000000
 11
      -35.380000
 21
       91.250000
 31
        0.000000
  0
LINE
  8
LVL0000
 10
      -35.380000
 20
       90.250000
 30
        0.000000
 11
      -28.960000
 21
       90.250000
 31
        0.000000
  0
LINE
  8
LVL0000
 10
      -28.960000
 20
       84.250000
 30
        0.000000
 11
      -28.960000
 21
       91.250000
 31
        0.000000
  0
LINE
  8
LVL0000
 10
      -21.340000
 20
       84.250000
 30
        0.000000
 11
      -21.340000
 21
       91.250000
 31
        0.000000
  0
LINE
  8
LVL0000
 10
      -27.760000
 20
       90.250000
 30
        0.000000
 11
      -21.340000
 21
       90.250000
 31
        0.000000
  0
LINE
  8
LVL0000
 10
      -27.760000
 20
       84.250000
 30
        0.000000
 11
      -27.760000
 21
       91.250000
 31
        0.000000
  0
LINE
  8
LVL0000
 10
      -27.760000
 20
       91.250000
 30
        0.000000
 11
      -21.340000
 21
       91.250000
 31
        0.000000
  0
LINE
  8
LVL0000
 10
      -31.570000
 20
       83.250000
 30
        0.000000
 11
      -25.150000
 21
       83.250000
 31
        0.000000
  0
LINE
  8
LVL0000
 10
      -25.150000
 20
       84.250000
 30
        0.000000
 11
      -31.570000
 21
       84.250000
 31
        0.000000
  0
LINE
  8
LVL0000
 10
      -31.570000
 20
       74.750000
 30
        0.000000
 11
      -31.570000
 21
       84.250000
 31
        0.000000
  0
LINE
  8
LVL0000
 10
      -25.150000
 20
       74.750000
 30
        0.000000
 11
      -25.150000
 21
       84.250000
 31
        0.000000
  0
LINE
  8
LVL0000
 10
      -17.530000
 20
       74.750000
 30
        0.000000
 11
      -17.530000
 21
       84.250000
 31
        0.000000
  0
LINE
  8
LVL0000
 10
      -23.950000
 20
       74.750000
 30
        0.000000
 11
      -23.950000
 21
       84.250000
 31
        0.000000
  0
LINE
  8
LVL0000
 10
      -17.530000
 20
       84.250000
 30
        0.000000
 11
      -23.950000
 21
       84.250000
 31
        0.000000
  0
LINE
  8
LVL0000
 10
      -23.950000
 20
       83.250000
 30
        0.000000
 11
      -17.530000
 21
       83.250000
 31
        0.000000
  0
LINE
  8
LVL0000
 10
      -20.140000
 20
       91.250000
 30
        0.000000
 11
      -13.720000
 21
       91.250000
 31
        0.000000
  0
LINE
  8
LVL0000
 10
      -20.140000
 20
       84.250000
 30
        0.000000
 11
      -20.140000
 21
       91.250000
 31
        0.000000
  0
LINE
  8
LVL0000
 10
      -20.140000
 20
       90.250000
 30
        0.000000
 11
      -13.720000
 21
       90.250000
 31
        0.000000
  0
LINE
  8
LVL0000
 10
      -13.720000
 20
       84.250000
 30
        0.000000
 11
      -13.720000
 21
       91.250000
 31
        0.000000
  0
LINE
  8
LVL0000
 10
       -6.100000
 20
       84.250000
 30
        0.000000
 11
       -6.100000
 21
       91.250000
 31
        0.000000
  0
LINE
  8
LVL0000
 10
      -12.520000
 20
       90.250000
 30
        0.000000
 11
       -6.100000
 21
       90.250000
 31
        0.000000
  0
LINE
  8
LVL0000
 10
      -12.520000
 20
       84.250000
 30
        0.000000
 11
      -12.520000
 21
       91.250000
 31
        0.000000
  0
LINE
  8
LVL0000
 10
      -12.520000
 20
       91.250000
 30
        0.000000
 11
       -6.100000
 21
       91.250000
 31
        0.000000
  0
LINE
  8
LVL0000
 10
      -16.330000
 20
       83.250000
 30
        0.000000
 11
       -9.910000
 21
       83.250000
 31
        0.000000
  0
LINE
  8
LVL0000
 10
       -9.910000
 20
       84.250000
 30
        0.000000
 11
      -16.330000
 21
       84.250000
 31
        0.000000
  0
LINE
  8
LVL0000
 10
      -16.330000
 20
       74.750000
 30
        0.000000
 11
      -16.330000
 21
       84.250000
 31
        0.000000
  0
LINE
  8
LVL0000
 10
       -9.910000
 20
       74.750000
 30
        0.000000
 11
       -9.910000
 21
       84.250000
 31
        0.000000
  0
LINE
  8
LVL0000
 10
       -2.290000
 20
       74.750000
 30
        0.000000
 11
       -2.290000
 21
       84.250000
 31
        0.000000
  0
LINE
  8
LVL0000
 10
       -8.710000
 20
       74.750000
 30
        0.000000
 11
       -8.710000
 21
       84.250000
 31
        0.000000
  0
LINE
  8
LVL0000
 10
       -2.290000
 20
       84.250000
 30
        0.000000
 11
       -8.710000
 21
       84.250000
 31
        0.000000
  0
LINE
  8
LVL0000
 10
       -8.710000
 20
       83.250000
 30
        0.000000
 11
       -2.290000
 21
       83.250000
 31
        0.000000
  0
LINE
  8
LVL0000
 10
       -4.900000
 20
       91.250000
 30
        0.000000
 11
        1.520000
 21
       91.250000
 31
        0.000000
  0
LINE
  8
LVL0000
 10
       -4.900000
 20
       84.250000
 30
        0.000000
 11
       -4.900000
 21
       91.250000
 31
        0.000000
  0
LINE
  8
LVL0000
 10
       -4.900000
 20
       90.250000
 30
        0.000000
 11
        1.520000
 21
       90.250000
 31
        0.000000
  0
LINE
  8
LVL0000
 10
        1.520000
 20
       84.250000
 30
        0.000000
 11
        1.520000
 21
       91.250000
 31
        0.000000
  0
LINE
  8
LVL0000
 10
        9.140000
 20
       84.250000
 30
        0.000000
 11
        9.140000
 21
       91.250000
 31
        0.000000
  0
LINE
  8
LVL0000
 10
        2.720000
 20
       90.250000
 30
        0.000000
 11
        9.140000
 21
       90.250000
 31
        0.000000
  0
LINE
  8
LVL0000
 10
        2.720000
 20
       84.250000
 30
        0.000000
 11
        2.720000
 21
       91.250000
 31
        0.000000
  0
LINE
  8
LVL0000
 10
        2.720000
 20
       91.250000
 30
        0.000000
 11
        9.140000
 21
       91.250000
 31
        0.000000
  0
LINE
  8
LVL0000
 10
       -1.090000
 20
       83.250000
 30
        0.000000
 11
        5.330000
 21
       83.250000
 31
        0.000000
  0
LINE
  8
LVL0000
 10
        5.330000
 20
       84.250000
 30
        0.000000
 11
       -1.090000
 21
       84.250000
 31
        0.000000
  0
LINE
  8
LVL0000
 10
       -1.090000
 20
       74.750000
 30
        0.000000
 11
       -1.090000
 21
       84.250000
 31
        0.000000
  0
LINE
  8
LVL0000
 10
        5.330000
 20
       74.750000
 30
        0.000000
 11
        5.330000
 21
       84.250000
 31
        0.000000
  0
LINE
  8
LVL0000
 10
       12.950000
 20
       74.750000
 30
        0.000000
 11
       12.950000
 21
       84.250000
 31
        0.000000
  0
LINE
  8
LVL0000
 10
        6.530000
 20
       74.750000
 30
        0.000000
 11
        6.530000
 21
       84.250000
 31
        0.000000
  0
LINE
  8
LVL0000
 10
       12.950000
 20
       84.250000
 30
        0.000000
 11
        6.530000
 21
       84.250000
 31
        0.000000
  0
LINE
  8
LVL0000
 10
        6.530000
 20
       83.250000
 30
        0.000000
 11
       12.950000
 21
       83.250000
 31
        0.000000
  0
LINE
  8
LVL0000
 10
       10.340000
 20
       91.250000
 30
        0.000000
 11
       16.760000
 21
       91.250000
 31
        0.000000
  0
LINE
  8
LVL0000
 10
       10.340000
 20
       84.250000
 30
        0.000000
 11
       10.340000
 21
       91.250000
 31
        0.000000
  0
LINE
  8
LVL0000
 10
       10.340000
 20
       90.250000
 30
        0.000000
 11
       16.760000
 21
       90.250000
 31
        0.000000
  0
LINE
  8
LVL0000
 10
       16.760000
 20
       84.250000
 30
        0.000000
 11
       16.760000
 21
       91.250000
 31
        0.000000
  0
LINE
  8
LVL0000
 10
       24.380000
 20
       84.250000
 30
        0.000000
 11
       24.380000
 21
       91.250000
 31
        0.000000
  0
LINE
  8
LVL0000
 10
       17.960000
 20
       90.250000
 30
        0.000000
 11
       24.380000
 21
       90.250000
 31
        0.000000
  0
LINE
  8
LVL0000
 10
       17.960000
 20
       84.250000
 30
        0.000000
 11
       17.960000
 21
       91.250000
 31
        0.000000
  0
LINE
  8
LVL0000
 10
       17.960000
 20
       91.250000
 30
        0.000000
 11
       24.380000
 21
       91.250000
 31
        0.000000
  0
LINE
  8
LVL0000
 10
       14.150000
 20
       83.250000
 30
        0.000000
 11
       20.570000
 21
       83.250000
 31
        0.000000
  0
LINE
  8
LVL0000
 10
       20.570000
 20
       84.250000
 30
        0.000000
 11
       14.150000
 21
       84.250000
 31
        0.000000
  0
LINE
  8
LVL0000
 10
       14.150000
 20
       74.750000
 30
        0.000000
 11
       14.150000
 21
       84.250000
 31
        0.000000
  0
LINE
  8
LVL0000
 10
       20.570000
 20
       74.750000
 30
        0.000000
 11
       20.570000
 21
       84.250000
 31
        0.000000
  0
LINE
  8
LVL0000
 10
       28.190000
 20
       74.750000
 30
        0.000000
 11
       28.190000
 21
       84.250000
 31
        0.000000
  0
LINE
  8
LVL0000
 10
       21.770000
 20
       74.750000
 30
        0.000000
 11
       21.770000
 21
       84.250000
 31
        0.000000
  0
ARC
  8
LVL0000
 10
       17.360000
 20
       87.050000
 30
        0.000000
 40
        7.000000
 50
      253.742982
 51
      286.257277
  0
LINE
  8
LVL0000
 10
       20.110000
 20
       82.050000
 30
        0.000000
 11
       14.610000
 21
       82.050000
 31
        0.000000
  0
LINE
  8
LVL0000
 10
       20.360000
 20
       82.050000
 30
        0.000000
 11
       20.360000
 21
       83.250000
 31
        0.000000
  0
LINE
  8
LVL0000
 10
       14.360000
 20
       82.050000
 30
        0.000000
 11
       14.360000
 21
       83.250000
 31
        0.000000
  0
LINE
  8
LVL0000
 10
       20.360000
 20
       82.050000
 30
        0.000000
 11
       14.360000
 21
       82.050000
 31
        0.000000
  0
LINE
  8
LVL0000
 10
       20.360000
 20
       83.250000
 30
        0.000000
 11
       14.360000
 21
       83.250000
 31
        0.000000
  0
ARC
  8
LVL0000
 10
       15.680322
 20
       81.289932
 30
        0.000000
 40
        1.000000
 50
      185.001324
 51
      253.744300
  0
ARC
  8
LVL0000
 10
       19.039676
 20
       81.289932
 30
        0.000000
 40
        1.000000
 50
      286.258466
 51
      354.998672
  0
LINE
  8
LVL0000
 10
       14.610000
 20
       82.050000
 30
        0.000000
 11
       14.684130
 21
       81.202753
 31
        0.000000
  0
LINE
  8
LVL0000
 10
       20.110000
 20
       82.050000
 30
        0.000000
 11
       20.035869
 21
       81.202753
 31
        0.000000
  0
ARC
  8
LVL0000
 10
       21.170000
 20
       94.050000
 30
        0.000000
 40
        7.000000
 50
      253.742982
 51
      286.257277
  0
LINE
  8
LVL0000
 10
       23.920000
 20
       89.050000
 30
        0.000000
 11
       18.420000
 21
       89.050000
 31
        0.000000
  0
LINE
  8
LVL0000
 10
       24.170000
 20
       89.050000
 30
        0.000000
 11
       24.170000
 21
       90.250000
 31
        0.000000
  0
LINE
  8
LVL0000
 10
       18.170000
 20
       89.050000
 30
        0.000000
 11
       18.170000
 21
       90.250000
 31
        0.000000
  0
LINE
  8
LVL0000
 10
       24.170000
 20
       89.050000
 30
        0.000000
 11
       18.170000
 21
       89.050000
 31
        0.000000
  0
LINE
  8
LVL0000
 10
       24.170000
 20
       90.250000
 30
        0.000000
 11
       18.170000
 21
       90.250000
 31
        0.000000
  0
ARC
  8
LVL0000
 10
       19.490322
 20
       88.289932
 30
        0.000000
 40
        1.000000
 50
      185.001324
 51
      253.744300
  0
ARC
  8
LVL0000
 10
       22.849676
 20
       88.289932
 30
        0.000000
 40
        1.000000
 50
      286.258466
 51
      354.998672
  0
LINE
  8
LVL0000
 10
       18.420000
 20
       89.050000
 30
        0.000000
 11
       18.494130
 21
       88.202753
 31
        0.000000
  0
LINE
  8
LVL0000
 10
       23.920000
 20
       89.050000
 30
        0.000000
 11
       23.845869
 21
       88.202753
 31
        0.000000
  0
ARC
  8
LVL0000
 10
       13.550000
 20
       94.050000
 30
        0.000000
 40
        7.000000
 50
      253.742982
 51
      286.257277
  0
LINE
  8
LVL0000
 10
       16.300000
 20
       89.050000
 30
        0.000000
 11
       10.800000
 21
       89.050000
 31
        0.000000
  0
LINE
  8
LVL0000
 10
       16.550000
 20
       89.050000
 30
        0.000000
 11
       16.550000
 21
       90.250000
 31
        0.000000
  0
LINE
  8
LVL0000
 10
       10.550000
 20
       89.050000
 30
        0.000000
 11
       10.550000
 21
       90.250000
 31
        0.000000
  0
LINE
  8
LVL0000
 10
       16.550000
 20
       89.050000
 30
        0.000000
 11
       10.550000
 21
       89.050000
 31
        0.000000
  0
LINE
  8
LVL0000
 10
       16.550000
 20
       90.250000
 30
        0.000000
 11
       10.550000
 21
       90.250000
 31
        0.000000
  0
ARC
  8
LVL0000
 10
       11.870322
 20
       88.289932
 30
        0.000000
 40
        1.000000
 50
      185.001324
 51
      253.744300
  0
ARC
  8
LVL0000
 10
       15.229676
 20
       88.289932
 30
        0.000000
 40
        1.000000
 50
      286.258466
 51
      354.998672
  0
LINE
  8
LVL0000
 10
       10.800000
 20
       89.050000
 30
        0.000000
 11
       10.874130
 21
       88.202753
 31
        0.000000
  0
LINE
  8
LVL0000
 10
       16.300000
 20
       89.050000
 30
        0.000000
 11
       16.225869
 21
       88.202753
 31
        0.000000
  0
ARC
  8
LVL0000
 10
        9.740000
 20
       87.050000
 30
        0.000000
 40
        7.000000
 50
      253.742982
 51
      286.257277
  0
LINE
  8
LVL0000
 10
       12.490000
 20
       82.050000
 30
        0.000000
 11
        6.990000
 21
       82.050000
 31
        0.000000
  0
LINE
  8
LVL0000
 10
       12.740000
 20
       82.050000
 30
        0.000000
 11
       12.740000
 21
       83.250000
 31
        0.000000
  0
LINE
  8
LVL0000
 10
        6.740000
 20
       82.050000
 30
        0.000000
 11
        6.740000
 21
       83.250000
 31
        0.000000
  0
LINE
  8
LVL0000
 10
       12.740000
 20
       82.050000
 30
        0.000000
 11
        6.740000
 21
       82.050000
 31
        0.000000
  0
LINE
  8
LVL0000
 10
       12.740000
 20
       83.250000
 30
        0.000000
 11
        6.740000
 21
       83.250000
 31
        0.000000
  0
ARC
  8
LVL0000
 10
        8.060322
 20
       81.289932
 30
        0.000000
 40
        1.000000
 50
      185.001324
 51
      253.744300
  0
ARC
  8
LVL0000
 10
       11.419676
 20
       81.289932
 30
        0.000000
 40
        1.000000
 50
      286.258466
 51
      354.998672
  0
LINE
  8
LVL0000
 10
        6.990000
 20
       82.050000
 30
        0.000000
 11
        7.064130
 21
       81.202753
 31
        0.000000
  0
LINE
  8
LVL0000
 10
       12.490000
 20
       82.050000
 30
        0.000000
 11
       12.415869
 21
       81.202753
 31
        0.000000
  0
ARC
  8
LVL0000
 10
        2.120000
 20
       87.050000
 30
        0.000000
 40
        7.000000
 50
      253.742982
 51
      286.257277
  0
LINE
  8
LVL0000
 10
        4.870000
 20
       82.050000
 30
        0.000000
 11
       -0.630000
 21
       82.050000
 31
        0.000000
  0
LINE
  8
LVL0000
 10
        5.120000
 20
       82.050000
 30
        0.000000
 11
        5.120000
 21
       83.250000
 31
        0.000000
  0
LINE
  8
LVL0000
 10
       -0.880000
 20
       82.050000
 30
        0.000000
 11
       -0.880000
 21
       83.250000
 31
        0.000000
  0
LINE
  8
LVL0000
 10
        5.120000
 20
       82.050000
 30
        0.000000
 11
       -0.880000
 21
       82.050000
 31
        0.000000
  0
LINE
  8
LVL0000
 10
        5.120000
 20
       83.250000
 30
        0.000000
 11
       -0.880000
 21
       83.250000
 31
        0.000000
  0
ARC
  8
LVL0000
 10
        0.440322
 20
       81.289932
 30
        0.000000
 40
        1.000000
 50
      185.001324
 51
      253.744300
  0
ARC
  8
LVL0000
 10
        3.799676
 20
       81.289932
 30
        0.000000
 40
        1.000000
 50
      286.258466
 51
      354.998672
  0
LINE
  8
LVL0000
 10
       -0.630000
 20
       82.050000
 30
        0.000000
 11
       -0.555870
 21
       81.202753
 31
        0.000000
  0
LINE
  8
LVL0000
 10
        4.870000
 20
       82.050000
 30
        0.000000
 11
        4.795869
 21
       81.202753
 31
        0.000000
  0
ARC
  8
LVL0000
 10
        5.930000
 20
       94.050000
 30
        0.000000
 40
        7.000000
 50
      253.742982
 51
      286.257277
  0
LINE
  8
LVL0000
 10
        8.680000
 20
       89.050000
 30
        0.000000
 11
        3.180000
 21
       89.050000
 31
        0.000000
  0
LINE
  8
LVL0000
 10
        8.930000
 20
       89.050000
 30
        0.000000
 11
        8.930000
 21
       90.250000
 31
        0.000000
  0
LINE
  8
LVL0000
 10
        2.930000
 20
       89.050000
 30
        0.000000
 11
        2.930000
 21
       90.250000
 31
        0.000000
  0
LINE
  8
LVL0000
 10
        8.930000
 20
       89.050000
 30
        0.000000
 11
        2.930000
 21
       89.050000
 31
        0.000000
  0
LINE
  8
LVL0000
 10
        8.930000
 20
       90.250000
 30
        0.000000
 11
        2.930000
 21
       90.250000
 31
        0.000000
  0
ARC
  8
LVL0000
 10
        4.250322
 20
       88.289932
 30
        0.000000
 40
        1.000000
 50
      185.001324
 51
      253.744300
  0
ARC
  8
LVL0000
 10
        7.609676
 20
       88.289932
 30
        0.000000
 40
        1.000000
 50
      286.258466
 51
      354.998672
  0
LINE
  8
LVL0000
 10
        3.180000
 20
       89.050000
 30
        0.000000
 11
        3.254130
 21
       88.202753
 31
        0.000000
  0
LINE
  8
LVL0000
 10
        8.680000
 20
       89.050000
 30
        0.000000
 11
        8.605869
 21
       88.202753
 31
        0.000000
  0
ARC
  8
LVL0000
 10
       -1.690000
 20
       94.050000
 30
        0.000000
 40
        7.000000
 50
      253.742982
 51
      286.257277
  0
LINE
  8
LVL0000
 10
        1.060000
 20
       89.050000
 30
        0.000000
 11
       -4.440000
 21
       89.050000
 31
        0.000000
  0
LINE
  8
LVL0000
 10
        1.310000
 20
       89.050000
 30
        0.000000
 11
        1.310000
 21
       90.250000
 31
        0.000000
  0
LINE
  8
LVL0000
 10
       -4.690000
 20
       89.050000
 30
        0.000000
 11
       -4.690000
 21
       90.250000
 31
        0.000000
  0
LINE
  8
LVL0000
 10
        1.310000
 20
       89.050000
 30
        0.000000
 11
       -4.690000
 21
       89.050000
 31
        0.000000
  0
LINE
  8
LVL0000
 10
        1.310000
 20
       90.250000
 30
        0.000000
 11
       -4.690000
 21
       90.250000
 31
        0.000000
  0
ARC
  8
LVL0000
 10
       -3.369678
 20
       88.289932
 30
        0.000000
 40
        1.000000
 50
      185.001324
 51
      253.744300
  0
ARC
  8
LVL0000
 10
       -0.010324
 20
       88.289932
 30
        0.000000
 40
        1.000000
 50
      286.258466
 51
      354.998672
  0
LINE
  8
LVL0000
 10
       -4.440000
 20
       89.050000
 30
        0.000000
 11
       -4.365870
 21
       88.202753
 31
        0.000000
  0
LINE
  8
LVL0000
 10
        1.060000
 20
       89.050000
 30
        0.000000
 11
        0.985869
 21
       88.202753
 31
        0.000000
  0
ARC
  8
LVL0000
 10
       -5.500000
 20
       87.050000
 30
        0.000000
 40
        7.000000
 50
      253.742982
 51
      286.257277
  0
LINE
  8
LVL0000
 10
       -2.750000
 20
       82.050000
 30
        0.000000
 11
       -8.250000
 21
       82.050000
 31
        0.000000
  0
LINE
  8
LVL0000
 10
       -2.500000
 20
       82.050000
 30
        0.000000
 11
       -2.500000
 21
       83.250000
 31
        0.000000
  0
LINE
  8
LVL0000
 10
       -8.500000
 20
       82.050000
 30
        0.000000
 11
       -8.500000
 21
       83.250000
 31
        0.000000
  0
LINE
  8
LVL0000
 10
       -2.500000
 20
       82.050000
 30
        0.000000
 11
       -8.500000
 21
       82.050000
 31
        0.000000
  0
LINE
  8
LVL0000
 10
       -2.500000
 20
       83.250000
 30
        0.000000
 11
       -8.500000
 21
       83.250000
 31
        0.000000
  0
ARC
  8
LVL0000
 10
       -7.179678
 20
       81.289932
 30
        0.000000
 40
        1.000000
 50
      185.001324
 51
      253.744300
  0
ARC
  8
LVL0000
 10
       -3.820324
 20
       81.289932
 30
        0.000000
 40
        1.000000
 50
      286.258466
 51
      354.998672
  0
LINE
  8
LVL0000
 10
       -8.250000
 20
       82.050000
 30
        0.000000
 11
       -8.175870
 21
       81.202753
 31
        0.000000
  0
LINE
  8
LVL0000
 10
       -2.750000
 20
       82.050000
 30
        0.000000
 11
       -2.824131
 21
       81.202753
 31
        0.000000
  0
ARC
  8
LVL0000
 10
      -13.120000
 20
       87.050000
 30
        0.000000
 40
        7.000000
 50
      253.742982
 51
      286.257277
  0
LINE
  8
LVL0000
 10
      -10.370000
 20
       82.050000
 30
        0.000000
 11
      -15.870000
 21
       82.050000
 31
        0.000000
  0
LINE
  8
LVL0000
 10
      -10.120000
 20
       82.050000
 30
        0.000000
 11
      -10.120000
 21
       83.250000
 31
        0.000000
  0
LINE
  8
LVL0000
 10
      -16.120000
 20
       82.050000
 30
        0.000000
 11
      -16.120000
 21
       83.250000
 31
        0.000000
  0
LINE
  8
LVL0000
 10
      -10.120000
 20
       82.050000
 30
        0.000000
 11
      -16.120000
 21
       82.050000
 31
        0.000000
  0
LINE
  8
LVL0000
 10
      -10.120000
 20
       83.250000
 30
        0.000000
 11
      -16.120000
 21
       83.250000
 31
        0.000000
  0
ARC
  8
LVL0000
 10
      -14.799678
 20
       81.289932
 30
        0.000000
 40
        1.000000
 50
      185.001324
 51
      253.744300
  0
ARC
  8
LVL0000
 10
      -11.440324
 20
       81.289932
 30
        0.000000
 40
        1.000000
 50
      286.258466
 51
      354.998672
  0
LINE
  8
LVL0000
 10
      -15.870000
 20
       82.050000
 30
        0.000000
 11
      -15.795870
 21
       81.202753
 31
        0.000000
  0
LINE
  8
LVL0000
 10
      -10.370000
 20
       82.050000
 30
        0.000000
 11
      -10.444131
 21
       81.202753
 31
        0.000000
  0
ARC
  8
LVL0000
 10
       -9.310000
 20
       94.050000
 30
        0.000000
 40
        7.000000
 50
      253.742982
 51
      286.257277
  0
LINE
  8
LVL0000
 10
       -6.560000
 20
       89.050000
 30
        0.000000
 11
      -12.060000
 21
       89.050000
 31
        0.000000
  0
LINE
  8
LVL0000
 10
       -6.310000
 20
       89.050000
 30
        0.000000
 11
       -6.310000
 21
       90.250000
 31
        0.000000
  0
LINE
  8
LVL0000
 10
      -12.310000
 20
       89.050000
 30
        0.000000
 11
      -12.310000
 21
       90.250000
 31
        0.000000
  0
LINE
  8
LVL0000
 10
       -6.310000
 20
       89.050000
 30
        0.000000
 11
      -12.310000
 21
       89.050000
 31
        0.000000
  0
LINE
  8
LVL0000
 10
       -6.310000
 20
       90.250000
 30
        0.000000
 11
      -12.310000
 21
       90.250000
 31
        0.000000
  0
ARC
  8
LVL0000
 10
      -10.989678
 20
       88.289932
 30
        0.000000
 40
        1.000000
 50
      185.001324
 51
      253.744300
  0
ARC
  8
LVL0000
 10
       -7.630324
 20
       88.289932
 30
        0.000000
 40
        1.000000
 50
      286.258466
 51
      354.998672
  0
LINE
  8
LVL0000
 10
      -12.060000
 20
       89.050000
 30
        0.000000
 11
      -11.985870
 21
       88.202753
 31
        0.000000
  0
LINE
  8
LVL0000
 10
       -6.560000
 20
       89.050000
 30
        0.000000
 11
       -6.634131
 21
       88.202753
 31
        0.000000
  0
ARC
  8
LVL0000
 10
      -16.930000
 20
       94.050000
 30
        0.000000
 40
        7.000000
 50
      253.742982
 51
      286.257277
  0
LINE
  8
LVL0000
 10
      -14.180000
 20
       89.050000
 30
        0.000000
 11
      -19.680000
 21
       89.050000
 31
        0.000000
  0
LINE
  8
LVL0000
 10
      -13.930000
 20
       89.050000
 30
        0.000000
 11
      -13.930000
 21
       90.250000
 31
        0.000000
  0
LINE
  8
LVL0000
 10
      -19.930000
 20
       89.050000
 30
        0.000000
 11
      -19.930000
 21
       90.250000
 31
        0.000000
  0
LINE
  8
LVL0000
 10
      -13.930000
 20
       89.050000
 30
        0.000000
 11
      -19.930000
 21
       89.050000
 31
        0.000000
  0
LINE
  8
LVL0000
 10
      -13.930000
 20
       90.250000
 30
        0.000000
 11
      -19.930000
 21
       90.250000
 31
        0.000000
  0
ARC
  8
LVL0000
 10
      -18.609678
 20
       88.289932
 30
        0.000000
 40
        1.000000
 50
      185.001324
 51
      253.744300
  0
ARC
  8
LVL0000
 10
      -15.250324
 20
       88.289932
 30
        0.000000
 40
        1.000000
 50
      286.258466
 51
      354.998672
  0
LINE
  8
LVL0000
 10
      -19.680000
 20
       89.050000
 30
        0.000000
 11
      -19.605870
 21
       88.202753
 31
        0.000000
  0
LINE
  8
LVL0000
 10
      -14.180000
 20
       89.050000
 30
        0.000000
 11
      -14.254131
 21
       88.202753
 31
        0.000000
  0
ARC
  8
LVL0000
 10
      -20.740000
 20
       87.050000
 30
        0.000000
 40
        7.000000
 50
      253.742982
 51
      286.257277
  0
LINE
  8
LVL0000
 10
      -17.990000
 20
       82.050000
 30
        0.000000
 11
      -23.490000
 21
       82.050000
 31
        0.000000
  0
LINE
  8
LVL0000
 10
      -17.740000
 20
       82.050000
 30
        0.000000
 11
      -17.740000
 21
       83.250000
 31
        0.000000
  0
LINE
  8
LVL0000
 10
      -23.740000
 20
       82.050000
 30
        0.000000
 11
      -23.740000
 21
       83.250000
 31
        0.000000
  0
LINE
  8
LVL0000
 10
      -17.740000
 20
       82.050000
 30
        0.000000
 11
      -23.740000
 21
       82.050000
 31
        0.000000
  0
LINE
  8
LVL0000
 10
      -17.740000
 20
       83.250000
 30
        0.000000
 11
      -23.740000
 21
       83.250000
 31
        0.000000
  0
ARC
  8
LVL0000
 10
      -22.419678
 20
       81.289932
 30
        0.000000
 40
        1.000000
 50
      185.001324
 51
      253.744300
  0
ARC
  8
LVL0000
 10
      -19.060324
 20
       81.289932
 30
        0.000000
 40
        1.000000
 50
      286.258466
 51
      354.998672
  0
LINE
  8
LVL0000
 10
      -23.490000
 20
       82.050000
 30
        0.000000
 11
      -23.415870
 21
       81.202753
 31
        0.000000
  0
LINE
  8
LVL0000
 10
      -17.990000
 20
       82.050000
 30
        0.000000
 11
      -18.064131
 21
       81.202753
 31
        0.000000
  0
ARC
  8
LVL0000
 10
      -28.360000
 20
       87.050000
 30
        0.000000
 40
        7.000000
 50
      253.742982
 51
      286.257277
  0
LINE
  8
LVL0000
 10
      -25.610000
 20
       82.050000
 30
        0.000000
 11
      -31.110000
 21
       82.050000
 31
        0.000000
  0
LINE
  8
LVL0000
 10
      -25.360000
 20
       82.050000
 30
        0.000000
 11
      -25.360000
 21
       83.250000
 31
        0.000000
  0
LINE
  8
LVL0000
 10
      -31.360000
 20
       82.050000
 30
        0.000000
 11
      -31.360000
 21
       83.250000
 31
        0.000000
  0
LINE
  8
LVL0000
 10
      -25.360000
 20
       82.050000
 30
        0.000000
 11
      -31.360000
 21
       82.050000
 31
        0.000000
  0
LINE
  8
LVL0000
 10
      -25.360000
 20
       83.250000
 30
        0.000000
 11
      -31.360000
 21
       83.250000
 31
        0.000000
  0
ARC
  8
LVL0000
 10
      -30.039678
 20
       81.289932
 30
        0.000000
 40
        1.000000
 50
      185.001324
 51
      253.744300
  0
ARC
  8
LVL0000
 10
      -26.680324
 20
       81.289932
 30
        0.000000
 40
        1.000000
 50
      286.258466
 51
      354.998672
  0
LINE
  8
LVL0000
 10
      -31.110000
 20
       82.050000
 30
        0.000000
 11
      -31.035870
 21
       81.202753
 31
        0.000000
  0
LINE
  8
LVL0000
 10
      -25.610000
 20
       82.050000
 30
        0.000000
 11
      -25.684131
 21
       81.202753
 31
        0.000000
  0
ARC
  8
LVL0000
 10
      -24.550000
 20
       94.050000
 30
        0.000000
 40
        7.000000
 50
      253.742982
 51
      286.257277
  0
LINE
  8
LVL0000
 10
      -21.800000
 20
       89.050000
 30
        0.000000
 11
      -27.300000
 21
       89.050000
 31
        0.000000
  0
LINE
  8
LVL0000
 10
      -21.550000
 20
       89.050000
 30
        0.000000
 11
      -21.550000
 21
       90.250000
 31
        0.000000
  0
LINE
  8
LVL0000
 10
      -27.550000
 20
       89.050000
 30
        0.000000
 11
      -27.550000
 21
       90.250000
 31
        0.000000
  0
LINE
  8
LVL0000
 10
      -21.550000
 20
       89.050000
 30
        0.000000
 11
      -27.550000
 21
       89.050000
 31
        0.000000
  0
LINE
  8
LVL0000
 10
      -21.550000
 20
       90.250000
 30
        0.000000
 11
      -27.550000
 21
       90.250000
 31
        0.000000
  0
ARC
  8
LVL0000
 10
      -26.229678
 20
       88.289932
 30
        0.000000
 40
        1.000000
 50
      185.001324
 51
      253.744300
  0
ARC
  8
LVL0000
 10
      -22.870324
 20
       88.289932
 30
        0.000000
 40
        1.000000
 50
      286.258466
 51
      354.998672
  0
LINE
  8
LVL0000
 10
      -27.300000
 20
       89.050000
 30
        0.000000
 11
      -27.225870
 21
       88.202753
 31
        0.000000
  0
LINE
  8
LVL0000
 10
      -21.800000
 20
       89.050000
 30
        0.000000
 11
      -21.874131
 21
       88.202753
 31
        0.000000
  0
ARC
  8
LVL0000
 10
      -32.170000
 20
       94.050000
 30
        0.000000
 40
        7.000000
 50
      253.742982
 51
      286.257277
  0
LINE
  8
LVL0000
 10
      -29.420000
 20
       89.050000
 30
        0.000000
 11
      -34.920000
 21
       89.050000
 31
        0.000000
  0
LINE
  8
LVL0000
 10
      -29.170000
 20
       89.050000
 30
        0.000000
 11
      -29.170000
 21
       90.250000
 31
        0.000000
  0
LINE
  8
LVL0000
 10
      -35.170000
 20
       89.050000
 30
        0.000000
 11
      -35.170000
 21
       90.250000
 31
        0.000000
  0
LINE
  8
LVL0000
 10
      -29.170000
 20
       89.050000
 30
        0.000000
 11
      -35.170000
 21
       89.050000
 31
        0.000000
  0
LINE
  8
LVL0000
 10
      -29.170000
 20
       90.250000
 30
        0.000000
 11
      -35.170000
 21
       90.250000
 31
        0.000000
  0
ARC
  8
LVL0000
 10
      -33.849678
 20
       88.289932
 30
        0.000000
 40
        1.000000
 50
      185.001324
 51
      253.744300
  0
ARC
  8
LVL0000
 10
      -30.490324
 20
       88.289932
 30
        0.000000
 40
        1.000000
 50
      286.258466
 51
      354.998672
  0
LINE
  8
LVL0000
 10
      -34.920000
 20
       89.050000
 30
        0.000000
 11
      -34.845870
 21
       88.202753
 31
        0.000000
  0
LINE
  8
LVL0000
 10
      -29.420000
 20
       89.050000
 30
        0.000000
 11
      -29.494131
 21
       88.202753
 31
        0.000000
  0
ARC
  8
LVL0000
 10
      -35.980000
 20
       87.050000
 30
        0.000000
 40
        7.000000
 50
      253.742982
 51
      286.257277
  0
LINE
  8
LVL0000
 10
      -33.230000
 20
       82.050000
 30
        0.000000
 11
      -38.730000
 21
       82.050000
 31
        0.000000
  0
LINE
  8
LVL0000
 10
      -32.980000
 20
       82.050000
 30
        0.000000
 11
      -32.980000
 21
       83.250000
 31
        0.000000
  0
LINE
  8
LVL0000
 10
      -38.980000
 20
       82.050000
 30
        0.000000
 11
      -38.980000
 21
       83.250000
 31
        0.000000
  0
LINE
  8
LVL0000
 10
      -32.980000
 20
       82.050000
 30
        0.000000
 11
      -38.980000
 21
       82.050000
 31
        0.000000
  0
LINE
  8
LVL0000
 10
      -32.980000
 20
       83.250000
 30
        0.000000
 11
      -38.980000
 21
       83.250000
 31
        0.000000
  0
ARC
  8
LVL0000
 10
      -37.659678
 20
       81.289932
 30
        0.000000
 40
        1.000000
 50
      185.001324
 51
      253.744300
  0
ARC
  8
LVL0000
 10
      -34.300324
 20
       81.289932
 30
        0.000000
 40
        1.000000
 50
      286.258466
 51
      354.998672
  0
LINE
  8
LVL0000
 10
      -38.730000
 20
       82.050000
 30
        0.000000
 11
      -38.655870
 21
       81.202753
 31
        0.000000
  0
LINE
  8
LVL0000
 10
      -33.230000
 20
       82.050000
 30
        0.000000
 11
      -33.304131
 21
       81.202753
 31
        0.000000
  0
ARC
  8
LVL0000
 10
      -39.790000
 20
       94.050000
 30
        0.000000
 40
        7.000000
 50
      253.742982
 51
      286.257277
  0
LINE
  8
LVL0000
 10
      -37.040000
 20
       89.050000
 30
        0.000000
 11
      -42.540000
 21
       89.050000
 31
        0.000000
  0
LINE
  8
LVL0000
 10
      -36.790000
 20
       89.050000
 30
        0.000000
 11
      -36.790000
 21
       90.250000
 31
        0.000000
  0
LINE
  8
LVL0000
 10
      -42.790000
 20
       89.050000
 30
        0.000000
 11
      -42.790000
 21
       90.250000
 31
        0.000000
  0
LINE
  8
LVL0000
 10
      -36.790000
 20
       89.050000
 30
        0.000000
 11
      -42.790000
 21
       89.050000
 31
        0.000000
  0
LINE
  8
LVL0000
 10
      -36.790000
 20
       90.250000
 30
        0.000000
 11
      -42.790000
 21
       90.250000
 31
        0.000000
  0
ARC
  8
LVL0000
 10
      -41.469678
 20
       88.289932
 30
        0.000000
 40
        1.000000
 50
      185.001324
 51
      253.744300
  0
ARC
  8
LVL0000
 10
      -38.110324
 20
       88.289932
 30
        0.000000
 40
        1.000000
 50
      286.258466
 51
      354.998672
  0
LINE
  8
LVL0000
 10
      -42.540000
 20
       89.050000
 30
        0.000000
 11
      -42.465870
 21
       88.202753
 31
        0.000000
  0
LINE
  8
LVL0000
 10
      -37.040000
 20
       89.050000
 30
        0.000000
 11
      -37.114131
 21
       88.202753
 31
        0.000000
  0
ARC
  8
LVL0000
 10
      -43.600000
 20
       87.050000
 30
        0.000000
 40
        7.000000
 50
      253.742982
 51
      286.257277
  0
LINE
  8
LVL0000
 10
      -40.850000
 20
       82.050000
 30
        0.000000
 11
      -46.350000
 21
       82.050000
 31
        0.000000
  0
LINE
  8
LVL0000
 10
      -40.600000
 20
       82.050000
 30
        0.000000
 11
      -40.600000
 21
       83.250000
 31
        0.000000
  0
LINE
  8
LVL0000
 10
      -46.600000
 20
       82.050000
 30
        0.000000
 11
      -46.600000
 21
       83.250000
 31
        0.000000
  0
LINE
  8
LVL0000
 10
      -40.600000
 20
       82.050000
 30
        0.000000
 11
      -46.600000
 21
       82.050000
 31
        0.000000
  0
LINE
  8
LVL0000
 10
      -40.600000
 20
       83.250000
 30
        0.000000
 11
      -46.600000
 21
       83.250000
 31
        0.000000
  0
ARC
  8
LVL0000
 10
      -45.279678
 20
       81.289932
 30
        0.000000
 40
        1.000000
 50
      185.001324
 51
      253.744300
  0
ARC
  8
LVL0000
 10
      -41.920324
 20
       81.289932
 30
        0.000000
 40
        1.000000
 50
      286.258466
 51
      354.998672
  0
LINE
  8
LVL0000
 10
      -46.350000
 20
       82.050000
 30
        0.000000
 11
      -46.275870
 21
       81.202753
 31
        0.000000
  0
LINE
  8
LVL0000
 10
      -40.850000
 20
       82.050000
 30
        0.000000
 11
      -40.924131
 21
       81.202753
 31
        0.000000
  0
ARC
  8
LVL0000
 10
       32.600000
 20
       87.050000
 30
        0.000000
 40
        7.000000
 50
      253.742982
 51
      286.257277
  0
LINE
  8
LVL0000
 10
       35.350000
 20
       82.050000
 30
        0.000000
 11
       29.850000
 21
       82.050000
 31
        0.000000
  0
LINE
  8
LVL0000
 10
       35.600000
 20
       82.050000
 30
        0.000000
 11
       35.600000
 21
       83.250000
 31
        0.000000
  0
LINE
  8
LVL0000
 10
       29.600000
 20
       82.050000
 30
        0.000000
 11
       29.600000
 21
       83.250000
 31
        0.000000
  0
LINE
  8
LVL0000
 10
       35.600000
 20
       82.050000
 30
        0.000000
 11
       29.600000
 21
       82.050000
 31
        0.000000
  0
LINE
  8
LVL0000
 10
       35.600000
 20
       83.250000
 30
        0.000000
 11
       29.600000
 21
       83.250000
 31
        0.000000
  0
ARC
  8
LVL0000
 10
       30.920322
 20
       81.289932
 30
        0.000000
 40
        1.000000
 50
      185.001324
 51
      253.744300
  0
ARC
  8
LVL0000
 10
       34.279676
 20
       81.289932
 30
        0.000000
 40
        1.000000
 50
      286.258466
 51
      354.998672
  0
LINE
  8
LVL0000
 10
       29.850000
 20
       82.050000
 30
        0.000000
 11
       29.924130
 21
       81.202753
 31
        0.000000
  0
LINE
  8
LVL0000
 10
       35.350000
 20
       82.050000
 30
        0.000000
 11
       35.275869
 21
       81.202753
 31
        0.000000
  0
ARC
  8
LVL0000
 10
       28.790000
 20
       94.050000
 30
        0.000000
 40
        7.000000
 50
      253.742982
 51
      286.257277
  0
LINE
  8
LVL0000
 10
       31.540000
 20
       89.050000
 30
        0.000000
 11
       26.040000
 21
       89.050000
 31
        0.000000
  0
LINE
  8
LVL0000
 10
       31.790000
 20
       89.050000
 30
        0.000000
 11
       31.790000
 21
       90.250000
 31
        0.000000
  0
LINE
  8
LVL0000
 10
       25.790000
 20
       89.050000
 30
        0.000000
 11
       25.790000
 21
       90.250000
 31
        0.000000
  0
LINE
  8
LVL0000
 10
       31.790000
 20
       89.050000
 30
        0.000000
 11
       25.790000
 21
       89.050000
 31
        0.000000
  0
LINE
  8
LVL0000
 10
       31.790000
 20
       90.250000
 30
        0.000000
 11
       25.790000
 21
       90.250000
 31
        0.000000
  0
ARC
  8
LVL0000
 10
       27.110322
 20
       88.289932
 30
        0.000000
 40
        1.000000
 50
      185.001324
 51
      253.744300
  0
ARC
  8
LVL0000
 10
       30.469676
 20
       88.289932
 30
        0.000000
 40
        1.000000
 50
      286.258466
 51
      354.998672
  0
LINE
  8
LVL0000
 10
       26.040000
 20
       89.050000
 30
        0.000000
 11
       26.114130
 21
       88.202753
 31
        0.000000
  0
LINE
  8
LVL0000
 10
       31.540000
 20
       89.050000
 30
        0.000000
 11
       31.465869
 21
       88.202753
 31
        0.000000
  0
ARC
  8
LVL0000
 10
       24.980000
 20
       87.050000
 30
        0.000000
 40
        7.000000
 50
      253.742982
 51
      286.257277
  0
LINE
  8
LVL0000
 10
       27.730000
 20
       82.050000
 30
        0.000000
 11
       22.230000
 21
       82.050000
 31
        0.000000
  0
LINE
  8
LVL0000
 10
       27.980000
 20
       82.050000
 30
        0.000000
 11
       27.980000
 21
       83.250000
 31
        0.000000
  0
LINE
  8
LVL0000
 10
       21.980000
 20
       82.050000
 30
        0.000000
 11
       21.980000
 21
       83.250000
 31
        0.000000
  0
LINE
  8
LVL0000
 10
       27.980000
 20
       82.050000
 30
        0.000000
 11
       21.980000
 21
       82.050000
 31
        0.000000
  0
LINE
  8
LVL0000
 10
       27.980000
 20
       83.250000
 30
        0.000000
 11
       21.980000
 21
       83.250000
 31
        0.000000
  0
ARC
  8
LVL0000
 10
       23.300322
 20
       81.289932
 30
        0.000000
 40
        1.000000
 50
      185.001324
 51
      253.744300
  0
ARC
  8
LVL0000
 10
       26.659676
 20
       81.289932
 30
        0.000000
 40
        1.000000
 50
      286.258466
 51
      354.998672
  0
LINE
  8
LVL0000
 10
       22.230000
 20
       82.050000
 30
        0.000000
 11
       22.304130
 21
       81.202753
 31
        0.000000
  0
LINE
  8
LVL0000
 10
       27.730000
 20
       82.050000
 30
        0.000000
 11
       27.655869
 21
       81.202753
 31
        0.000000
  0
LINE
  8
LVL0000
 10
       61.698212
 20
      112.750000
 30
        0.000000
 11
      -61.698212
 21
      112.750000
 31
        0.000000
  0
LINE
  8
LVL0000
 10
       62.000152
 20
       95.267452
 30
        0.000000
 11
       61.694384
 21
       77.750000
 31
        0.000000
  0
LINE
  8
LVL0000
 10
       61.999555
 20
       95.250000
 30
        0.000000
 11
       61.698212
 21
      112.750000
 31
        0.000000
  0
LINE
  8
LVL0000
 10
      -57.000000
 20
       94.250000
 30
        0.000000
 11
       46.000000
 21
       94.250000
 31
        0.000000
  0
LINE
  8
LVL0000
 10
       46.500000
 20
       74.750000
 30
        0.000000
 11
       46.500000
 21
       95.250000
 31
        0.000000
  0
LINE
  8
LVL0000
 10
       46.000000
 20
       74.750000
 30
        0.000000
 11
       46.000000
 21
       95.250000
 31
        0.000000
  0
LINE
  8
LVL0000
 10
      -57.000000
 20
       74.750000
 30
        0.000000
 11
      -57.000000
 21
       95.250000
 31
        0.000000
  0
LINE
  8
LVL0000
 10
       65.000000
 20
       95.250000
 30
        0.000000
 11
       64.680836
 21
      113.784905
 31
        0.000000
  0
ARC
  8
LVL0000
 10
       62.681140
 20
      113.750000
 30
        0.000000
 40
        2.000000
 50
        1.000000
 51
       90.000000
  0
LINE
  8
LVL0000
 10
       62.681140
 20
      115.750000
 30
        0.000000
 11
      -62.681140
 21
      115.750000
 31
        0.000000
  0
ARC
  8
LVL0001
 10
      -69.000000
 20
       35.000000
 30
        0.000000
 40
        2.250000
 50
      270.000000
 51
      450.000000
  0
ARC
  8
LVL0001
 10
      -69.000000
 20
      -35.000000
 30
        0.000000
 40
        2.250000
 50
      270.000000
 51
      450.000000
  0
LINE
  8
LVL0001
 10
      -74.000000
 20
       37.250000
 30
        0.000000
 11
      -69.000000
 21
       37.250000
 31
        0.000000
  0
LINE
  8
LVL0001
 10
      -74.000000
 20
       32.750000
 30
        0.000000
 11
      -69.000000
 21
       32.750000
 31
        0.000000
  0
LINE
  8
LVL0001
 10
      -74.000000
 20
      -32.750000
 30
        0.000000
 11
      -74.000000
 21
       32.750000
 31
        0.000000
  0
LINE
  8
LVL0001
 10
      -74.000000
 20
      -32.750000
 30
        0.000000
 11
      -69.000000
 21
      -32.750000
 31
        0.000000
  0
LINE
  8
LVL0001
 10
      -74.000000
 20
      -37.250000
 30
        0.000000
 11
      -69.000000
 21
      -37.250000
 31
        0.000000
  0
LINE
  8
LVL0001
 10
      -74.000000
 20
       45.000000
 30
        0.000000
 11
      -73.500000
 21
       45.500000
 31
        0.000000
  0
LINE
  8
LVL0001
 10
      -74.000000
 20
       37.250000
 30
        0.000000
 11
      -74.000000
 21
       45.000000
 31
        0.000000
  0
LINE
  8
LVL0001
 10
      -74.000000
 20
      -45.000000
 30
        0.000000
 11
      -74.000000
 21
      -37.250000
 31
        0.000000
  0
LINE
  8
LVL0001
 10
      -73.500000
 20
      -45.500000
 30
        0.000000
 11
      -74.000000
 21
      -45.000000
 31
        0.000000
  0
LINE
  8
LVL0001
 10
      -73.500000
 20
       45.500000
 30
        0.000000
 11
      -65.000000
 21
       45.500000
 31
        0.000000
  0
LINE
  8
LVL0001
 10
      -73.500000
 20
      -45.500000
 30
        0.000000
 11
      -65.000000
 21
      -45.500000
 31
        0.000000
  0
LINE
  8
LVL0001
 10
       73.500000
 20
      -45.500000
 30
        0.000000
 11
       65.000000
 21
      -45.500000
 31
        0.000000
  0
LINE
  8
LVL0001
 10
       73.500000
 20
       45.500000
 30
        0.000000
 11
       65.000000
 21
       45.500000
 31
        0.000000
  0
LINE
  8
LVL0001
 10
      159.867679
 20
      -45.500000
 30
        0.000000
 11
      159.867679
 21
       45.500000
 31
        0.000000
  0
LINE
  8
LVL0001
 10
      161.467679
 20
      -45.500000
 30
        0.000000
 11
      161.467679
 21
       45.500000
 31
        0.000000
  0
LINE
  8
LVL0001
 10
      161.467679
 20
       32.750000
 30
        0.000000
 11
      159.867679
 21
       32.750000
 31
        0.000000
  0
LINE
  8
LVL0001
 10
      161.467679
 20
       37.250000
 30
        0.000000
 11
      159.867679
 21
       37.250000
 31
        0.000000
  0
LINE
  8
LVL0001
 10
      161.467679
 20
      -37.250000
 30
        0.000000
 11
      159.867679
 21
      -37.250000
 31
        0.000000
  0
LINE
  8
LVL0001
 10
      161.467679
 20
      -32.750000
 30
        0.000000
 11
      159.867679
 21
      -32.750000
 31
        0.000000
  0
LINE
  8
LVL0001
 10
      161.467679
 20
       45.500000
 30
        0.000000
 11
      155.767679
 21
       45.500000
 31
        0.000000
  0
LINE
  8
LVL0001
 10
      161.467679
 20
      -45.500000
 30
        0.000000
 11
      155.767679
 21
      -45.500000
 31
        0.000000
  0
LINE
  8
LVL0001
 10
       73.500000
 20
      -45.500000
 30
        0.000000
 11
       74.000000
 21
      -45.000000
 31
        0.000000
  0
LINE
  8
LVL0001
 10
       74.000000
 20
      -45.000000
 30
        0.000000
 11
       74.000000
 21
      -37.250000
 31
        0.000000
  0
LINE
  8
LVL0001
 10
       74.000000
 20
       37.250000
 30
        0.000000
 11
       74.000000
 21
       45.000000
 31
        0.000000
  0
LINE
  8
LVL0001
 10
       74.000000
 20
       45.000000
 30
        0.000000
 11
       73.500000
 21
       45.500000
 31
        0.000000
  0
LINE
  8
LVL0001
 10
       74.000000
 20
      -37.250000
 30
        0.000000
 11
       69.000000
 21
      -37.250000
 31
        0.000000
  0
LINE
  8
LVL0001
 10
       74.000000
 20
      -32.750000
 30
        0.000000
 11
       69.000000
 21
      -32.750000
 31
        0.000000
  0
LINE
  8
LVL0001
 10
       74.000000
 20
      -32.750000
 30
        0.000000
 11
       74.000000
 21
       32.750000
 31
        0.000000
  0
LINE
  8
LVL0001
 10
       74.000000
 20
       32.750000
 30
        0.000000
 11
       69.000000
 21
       32.750000
 31
        0.000000
  0
LINE
  8
LVL0001
 10
       74.000000
 20
       37.250000
 30
        0.000000
 11
       69.000000
 21
       37.250000
 31
        0.000000
  0
ARC
  8
LVL0001
 10
       69.000000
 20
      -35.000000
 30
        0.000000
 40
        2.250000
 50
       90.000000
 51
      270.000000
  0
ARC
  8
LVL0001
 10
       69.000000
 20
       35.000000
 30
        0.000000
 40
        2.250000
 50
       90.000000
 51
      270.000000
  0
LINE
  8
LVL0001
  6
DOT
 10
      246.089039
 20
      -45.500000
 30
        0.000000
 11
      246.089039
 21
       45.500000
 31
        0.000000
  0
DIMENSION
  8
LVL0000
 62
  4
  2
BLK0005
 10
      265.811035
 20
      -35.000000
 11
      265.111053
 21
       -1.762913
 13
      252.689041
 23
      -35.000000
 14
      252.689041
 24
       35.000000
 50
       90.0
 70
  0
  0
LINE
  8
LVL0001
 10
      257.689039
 20
       37.250000
 30
        0.000000
 11
      252.689039
 21
       37.250000
 31
        0.000000
  0
ARC
  8
LVL0001
 10
      252.689039
 20
       35.000000
 30
        0.000000
 40
        2.250000
 50
       90.000000
 51
      270.000000
  0
LINE
  8
LVL0001
 10
      257.689039
 20
       32.750000
 30
        0.000000
 11
      252.689039
 21
       32.750000
 31
        0.000000
  0
LINE
  8
LVL0001
 10
      257.689039
 20
      -32.750000
 30
        0.000000
 11
      257.689039
 21
       32.750000
 31
        0.000000
  0
LINE
  8
LVL0001
 10
      257.689039
 20
      -32.750000
 30
        0.000000
 11
      252.689039
 21
      -32.750000
 31
        0.000000
  0
ARC
  8
LVL0001
 10
      252.689039
 20
      -35.000000
 30
        0.000000
 40
        2.250000
 50
       90.000000
 51
      270.000000
  0
LINE
  8
LVL0001
 10
      257.689039
 20
      -37.250000
 30
        0.000000
 11
      252.689039
 21
      -37.250000
 31
        0.000000
  0
ARC
  8
LVL0001
 10
      246.089039
 20
      -73.355994
 30
        0.000000
 40
        1.600000
 50
        0.000000
 51
       90.000000
  0
LINE
  8
LVL0001
 10
      247.689039
 20
      -75.855994
 30
        0.000000
 11
      247.689039
 21
      -73.355994
 31
        0.000000
  0
ARC
  8
LVL0001
 10
      247.689039
 20
      -75.855994
 30
        0.000000
 40
        1.600000
 50
      179.999995
 51
      270.000000
  0
LINE
  8
LVL0001
 10
      246.089039
 20
      -73.355994
 30
        0.000000
 11
      246.089039
 21
      -75.855994
 31
        0.000000
  0
LINE
  8
LVL0001
 10
      246.089039
 20
      -73.355994
 30
        0.000000
 11
      234.689039
 21
      -73.355994
 31
        0.000000
  0
LINE
  8
LVL0001
 10
      234.689039
 20
      -71.755994
 30
        0.000000
 11
      234.689039
 21
      -73.355994
 31
        0.000000
  0
LINE
  8
LVL0001
 10
      246.089039
 20
      -71.755994
 30
        0.000000
 11
      234.689039
 21
      -71.755994
 31
        0.000000
  0
CIRCLE
  8
LVL0001
 10
      241.689039
 20
       40.500000
 30
        0.000000
 40
        1.600000
  0
CIRCLE
  8
LVL0001
 10
      241.689039
 20
      -40.500000
 30
        0.000000
 40
        1.600000
  0
LINE
  8
LVL0001
 10
      235.189039
 20
       45.500000
 30
        0.000000
 11
      234.689039
 21
       45.000000
 31
        0.000000
  0
LINE
  8
LVL0001
 10
      257.189039
 20
       45.500000
 30
        0.000000
 11
      235.189039
 21
       45.500000
 31
        0.000000
  0
LINE
  8
LVL0001
 10
      257.689039
 20
       45.000000
 30
        0.000000
 11
      257.189039
 21
       45.500000
 31
        0.000000
  0
LINE
  8
LVL0001
 10
      257.689039
 20
       37.250000
 30
        0.000000
 11
      257.689039
 21
       45.000000
 31
        0.000000
  0
DIMENSION
  8
LVL0000
 62
  4
  2
BLK0006
 10
      234.689041
 20
      -54.713303
 11
      243.689041
 21
      -54.013302
 13
      234.689041
 23
      -45.000000
 14
      257.689026
 24
      -45.000000
 50
        0.0
 70
  0
  0
LINE
  8
LVL0001
 10
      234.689039
 20
      -45.000000
 30
        0.000000
 11
      235.189039
 21
      -45.500000
 31
        0.000000
  0
LINE
  8
LVL0001
 10
      247.689039
 20
      -45.500000
 30
        0.000000
 11
      247.689039
 21
       45.500000
 31
        0.000000
  0
LINE
  8
LVL0001
 10
      234.689039
 20
      -45.000000
 30
        0.000000
 11
      234.689039
 21
       45.000000
 31
        0.000000
  0
DIMENSION
  8
LVL0000
 62
  4
  2
BLK0007
 10
      273.113129
 20
       45.500000
 11
      272.413147
 21
       -2.500000
 13
      257.189026
 23
       45.500000
 14
      257.189026
 24
      -45.500000
 50
       90.0
 70
  0
  0
LINE
  8
LVL0001
 10
      257.689039
 20
      -45.000000
 30
        0.000000
 11
      257.689039
 21
      -37.250000
 31
        0.000000
  0
LINE
  8
LVL0001
 10
      257.189039
 20
      -45.500000
 30
        0.000000
 11
      257.689039
 21
      -45.000000
 31
        0.000000
  0
LINE
  8
LVL0001
 10
      257.189039
 20
      -45.500000
 30
        0.000000
 11
      235.189039
 21
      -45.500000
 31
        0.000000
  0
LINE
  8
LVL0001
 10
      257.689039
 20
      -75.855994
 30
        0.000000
 11
      247.689039
 21
      -75.855994
 31
        0.000000
  0
LINE
  8
LVL0001
 10
      257.689039
 20
      -75.855994
 30
        0.000000
 11
      257.689039
 21
      -77.455994
 31
        0.000000
  0
LINE
  8
LVL0001
 10
      257.689039
 20
      -77.455994
 30
        0.000000
 11
      247.689039
 21
      -77.455994
 31
        0.000000
  0
DIMENSION
  8
LVL0000
 62
  4
  2
BLK0008
 10
      270.801178
 20
      -60.077652
 11
      270.101166
 21
      -70.577652
 13
      246.089035
 23
      -71.755997
 14
      257.689026
 24
      -77.455994
 50
       90.0
 70
  0
  0
DIMENSION
  8
LVL0000
 62
  4
  2
BLK0009
 10
      228.845901
 20
      -86.544128
 11
      228.845901
 21
      -85.844131
 13
      246.089035
 23
      -74.605995
 14
      257.689026
 24
      -77.455994
 50
        0.0
 70
  0
  0
TEXT
  8
LVL0000
 62
  2
 10
      235.670077
 20
       58.666809
 30
        0.000000
 40
        4.000000
  1
ＡＮＧＬＥ
 50
        0.000000
 41
        0.835000
 51
        0.000000
  7
BIGFONT
  0
TEXT
  8
LVL0000
 62
  2
 10
      120.661451
 20
       97.635280
 30
        0.000000
 40
        4.000000
  1
ＩＶＳ３３Ｍ
 50
        0.000000
 41
        0.835000
 51
        0.000000
  7
BIGFONT
  0
TEXT
  8
LVL0000
 62
  2
 10
      120.661451
 20
      104.635280
 30
        0.000000
 40
        4.000000
  1
ＩＶＳ３２Ｍ
 50
        0.000000
 41
        0.835000
 51
        0.000000
  7
BIGFONT
  0
TEXT
  8
LVL0000
 62
  2
 10
      120.661451
 20
      111.635280
 30
        0.000000
 40
        4.000000
  1
ＩＶＳ３１Ｍ
 50
        0.000000
 41
        0.835000
 51
        0.000000
  7
BIGFONT
  0
DIMENSION
  8
LVL0000
 62
  4
  2
BLK0010
 10
       79.909317
 20
      -50.000000
 11
       79.209312
 21
       -6.077355
 13
       63.000000
 23
      -50.000000
 14
       63.000000
 24
       50.000000
 50
       90.0
 70
  0
  0
CIRCLE
  8
LVL0000
 10
      129.767679
 20
       43.000000
 30
        0.000000
 40
        3.150000
  0
LINE
  8
LVL0000
 10
      129.248671
 20
       43.519024
 30
        0.000000
 11
      129.438114
 21
       43.925285
 31
        0.000000
  0
LINE
  8
LVL0000
 10
      129.438114
 20
       43.925285
 30
        0.000000
 11
      129.453382
 21
       44.799999
 31
        0.000000
  0
LINE
  8
LVL0000
 10
      129.453382
 20
       44.799999
 30
        0.000000
 11
      129.767679
 21
       44.799999
 31
        0.000000
  0
LINE
  8
LVL0000
 10
      129.248670
 20
       43.519024
 30
        0.000000
 11
      128.842409
 21
       43.329582
 31
        0.000000
  0
LINE
  8
LVL0000
 10
      128.842409
 20
       43.329582
 30
        0.000000
 11
      127.967695
 21
       43.314316
 31
        0.000000
  0
LINE
  8
LVL0000
 10
      127.967695
 20
       43.314316
 30
        0.000000
 11
      127.967695
 21
       43.000019
 31
        0.000000
  0
LINE
  8
LVL0000
 10
      130.692949
 20
       43.329582
 30
        0.000000
 11
      131.567663
 21
       43.314316
 31
        0.000000
  0
LINE
  8
LVL0000
 10
      130.286687
 20
       43.519024
 30
        0.000000
 11
      130.692949
 21
       43.329582
 31
        0.000000
  0
LINE
  8
LVL0000
 10
      130.286686
 20
       43.519024
 30
        0.000000
 11
      130.097243
 21
       43.925285
 31
        0.000000
  0
LINE
  8
LVL0000
 10
      130.097243
 20
       43.925285
 30
        0.000000
 11
      130.081975
 21
       44.799999
 31
        0.000000
  0
LINE
  8
LVL0000
 10
      130.081975
 20
       44.799999
 30
        0.000000
 11
      129.767679
 21
       44.799999
 31
        0.000000
  0
LINE
  8
LVL0000
 10
      127.967695
 20
       42.685684
 30
        0.000000
 11
      127.967695
 21
       42.999981
 31
        0.000000
  0
LINE
  8
LVL0000
 10
      128.842409
 20
       42.670418
 30
        0.000000
 11
      127.967695
 21
       42.685684
 31
        0.000000
  0
LINE
  8
LVL0000
 10
      129.248670
 20
       42.480976
 30
        0.000000
 11
      128.842409
 21
       42.670418
 31
        0.000000
  0
LINE
  8
LVL0000
 10
      129.248671
 20
       42.480976
 30
        0.000000
 11
      129.438114
 21
       42.074715
 31
        0.000000
  0
LINE
  8
LVL0000
 10
      129.438114
 20
       42.074715
 30
        0.000000
 11
      129.453382
 21
       41.200001
 31
        0.000000
  0
LINE
  8
LVL0000
 10
      129.453382
 20
       41.200001
 30
        0.000000
 11
      129.767679
 21
       41.200001
 31
        0.000000
  0
LINE
  8
LVL0000
 10
      130.081975
 20
       41.200001
 30
        0.000000
 11
      129.767679
 21
       41.200001
 31
        0.000000
  0
LINE
  8
LVL0000
 10
      130.097243
 20
       42.074715
 30
        0.000000
 11
      130.081975
 21
       41.200001
 31
        0.000000
  0
LINE
  8
LVL0000
 10
      130.286686
 20
       42.480976
 30
        0.000000
 11
      130.097243
 21
       42.074715
 31
        0.000000
  0
LINE
  8
LVL0000
 10
      130.286687
 20
       42.480976
 30
        0.000000
 11
      130.692949
 21
       42.670418
 31
        0.000000
  0
LINE
  8
LVL0000
 10
      130.692949
 20
       42.670418
 30
        0.000000
 11
      131.567663
 21
       42.685684
 31
        0.000000
  0
LINE
  8
LVL0000
 10
      131.567663
 20
       43.314316
 30
        0.000000
 11
      131.567663
 21
       42.685684
 31
        0.000000
  0
CIRCLE
  8
LVL0000
 10
      129.767679
 20
      -41.500000
 30
        0.000000
 40
        3.150000
  0
LINE
  8
LVL0000
 10
      129.248671
 20
      -40.980976
 30
        0.000000
 11
      129.438114
 21
      -40.574715
 31
        0.000000
  0
LINE
  8
LVL0000
 10
      129.438114
 20
      -40.574715
 30
        0.000000
 11
      129.453382
 21
      -39.700001
 31
        0.000000
  0
LINE
  8
LVL0000
 10
      129.453382
 20
      -39.700001
 30
        0.000000
 11
      129.767679
 21
      -39.700001
 31
        0.000000
  0
LINE
  8
LVL0000
 10
      129.248670
 20
      -40.980976
 30
        0.000000
 11
      128.842409
 21
      -41.170418
 31
        0.000000
  0
LINE
  8
LVL0000
 10
      128.842409
 20
      -41.170418
 30
        0.000000
 11
      127.967695
 21
      -41.185684
 31
        0.000000
  0
LINE
  8
LVL0000
 10
      127.967695
 20
      -41.185684
 30
        0.000000
 11
      127.967695
 21
      -41.499981
 31
        0.000000
  0
LINE
  8
LVL0000
 10
      130.692949
 20
      -41.170418
 30
        0.000000
 11
      131.567663
 21
      -41.185684
 31
        0.000000
  0
LINE
  8
LVL0000
 10
      130.286687
 20
      -40.980976
 30
        0.000000
 11
      130.692949
 21
      -41.170418
 31
        0.000000
  0
LINE
  8
LVL0000
 10
      130.286686
 20
      -40.980976
 30
        0.000000
 11
      130.097243
 21
      -40.574715
 31
        0.000000
  0
LINE
  8
LVL0000
 10
      130.097243
 20
      -40.574715
 30
        0.000000
 11
      130.081975
 21
      -39.700001
 31
        0.000000
  0
LINE
  8
LVL0000
 10
      130.081975
 20
      -39.700001
 30
        0.000000
 11
      129.767679
 21
      -39.700001
 31
        0.000000
  0
LINE
  8
LVL0000
 10
      127.967695
 20
      -41.814316
 30
        0.000000
 11
      127.967695
 21
      -41.500019
 31
        0.000000
  0
LINE
  8
LVL0000
 10
      128.842409
 20
      -41.829582
 30
        0.000000
 11
      127.967695
 21
      -41.814316
 31
        0.000000
  0
LINE
  8
LVL0000
 10
      129.248670
 20
      -42.019024
 30
        0.000000
 11
      128.842409
 21
      -41.829582
 31
        0.000000
  0
LINE
  8
LVL0000
 10
      129.248671
 20
      -42.019024
 30
        0.000000
 11
      129.438114
 21
      -42.425285
 31
        0.000000
  0
LINE
  8
LVL0000
 10
      129.438114
 20
      -42.425285
 30
        0.000000
 11
      129.453382
 21
      -43.299999
 31
        0.000000
  0
LINE
  8
LVL0000
 10
      129.453382
 20
      -43.299999
 30
        0.000000
 11
      129.767679
 21
      -43.299999
 31
        0.000000
  0
LINE
  8
LVL0000
 10
      130.081975
 20
      -43.299999
 30
        0.000000
 11
      129.767679
 21
      -43.299999
 31
        0.000000
  0
LINE
  8
LVL0000
 10
      130.097243
 20
      -42.425285
 30
        0.000000
 11
      130.081975
 21
      -43.299999
 31
        0.000000
  0
LINE
  8
LVL0000
 10
      130.286686
 20
      -42.019024
 30
        0.000000
 11
      130.097243
 21
      -42.425285
 31
        0.000000
  0
LINE
  8
LVL0000
 10
      130.286687
 20
      -42.019024
 30
        0.000000
 11
      130.692949
 21
      -41.829582
 31
        0.000000
  0
LINE
  8
LVL0000
 10
      130.692949
 20
      -41.829582
 30
        0.000000
 11
      131.567663
 21
      -41.814316
 31
        0.000000
  0
LINE
  8
LVL0000
 10
      131.567663
 20
      -41.185684
 30
        0.000000
 11
      131.567663
 21
      -41.814316
 31
        0.000000
  0
LINE
  8
LVL0000
 10
      134.767679
 20
       50.000000
 30
        0.000000
 11
      134.767679
 21
      -50.500000
 31
        0.000000
  0
LINE
  8
LVL0000
 10
      135.267679
 20
       50.000000
 30
        0.000000
 11
      135.267679
 21
      -50.500000
 31
        0.000000
  0
LINE
  8
LVL0000
 10
      113.767679
 20
       48.000000
 30
        0.000000
 11
      113.767679
 21
      -48.500000
 31
        0.000000
  0
ARC
  8
LVL0000
 10
      115.767679
 20
       48.000000
 30
        0.000000
 40
        2.000000
 50
       90.000000
 51
      179.999995
  0
LINE
  8
LVL0000
 10
      155.767679
 20
       48.000000
 30
        0.000000
 11
      155.767679
 21
      -48.500000
 31
        0.000000
  0
LINE
  8
LVL0000
 10
      115.767679
 20
       50.000000
 30
        0.000000
 11
      153.767679
 21
       50.000000
 31
        0.000000
  0
LINE
  8
LVL0000
 10
      115.767679
 20
       50.000000
 30
        0.000000
 11
      153.767679
 21
       50.000000
 31
        0.000000
  0
ARC
  8
LVL0000
 10
      153.767679
 20
       48.000000
 30
        0.000000
 40
        2.000000
 50
        0.000000
 51
       90.000000
  0
LINE
  8
LVL0000
 10
      155.767679
 20
      -34.600000
 30
        0.000000
 11
      136.767679
 21
      -34.600000
 31
        0.000000
  0
LINE
  8
LVL0000
 10
      155.767679
 20
      -32.600000
 30
        0.000000
 11
      136.767679
 21
      -32.600000
 31
        0.000000
  0
LINE
  8
LVL0000
 10
      155.767679
 20
      -27.000000
 30
        0.000000
 11
      136.767679
 21
      -27.000000
 31
        0.000000
  0
LINE
  8
LVL0000
 10
      155.767679
 20
      -29.000000
 30
        0.000000
 11
      136.767679
 21
      -29.000000
 31
        0.000000
  0
LINE
  8
LVL0000
 10
      155.767679
 20
      -23.400000
 30
        0.000000
 11
      136.767679
 21
      -23.400000
 31
        0.000000
  0
LINE
  8
LVL0000
 10
      155.767679
 20
      -21.400000
 30
        0.000000
 11
      136.767679
 21
      -21.400000
 31
        0.000000
  0
LINE
  8
LVL0000
 10
      155.767679
 20
      -15.800000
 30
        0.000000
 11
      136.767679
 21
      -15.800000
 31
        0.000000
  0
LINE
  8
LVL0000
 10
      155.767679
 20
      -17.800000
 30
        0.000000
 11
      136.767679
 21
      -17.800000
 31
        0.000000
  0
LINE
  8
LVL0000
 10
      155.767679
 20
      -12.200000
 30
        0.000000
 11
      136.767679
 21
      -12.200000
 31
        0.000000
  0
LINE
  8
LVL0000
 10
      155.767679
 20
      -10.200000
 30
        0.000000
 11
      136.767679
 21
      -10.200000
 31
        0.000000
  0
LINE
  8
LVL0000
 10
      155.767679
 20
       -4.600000
 30
        0.000000
 11
      136.767679
 21
       -4.600000
 31
        0.000000
  0
LINE
  8
LVL0000
 10
      155.767679
 20
       -6.600000
 30
        0.000000
 11
      136.767679
 21
       -6.600000
 31
        0.000000
  0
LINE
  8
LVL0000
 10
      155.767679
 20
       -1.000000
 30
        0.000000
 11
      136.767679
 21
       -1.000000
 31
        0.000000
  0
LINE
  8
LVL0000
 10
      155.767679
 20
        1.000000
 30
        0.000000
 11
      136.767679
 21
        1.000000
 31
        0.000000
  0
LINE
  8
LVL0000
 10
      132.767679
 20
      -32.600000
 30
        0.000000
 11
      113.767679
 21
      -32.600000
 31
        0.000000
  0
LINE
  8
LVL0000
 10
      132.767679
 20
      -34.600000
 30
        0.000000
 11
      113.767679
 21
      -34.600000
 31
        0.000000
  0
LINE
  8
LVL0000
 10
      132.767679
 20
      -29.000000
 30
        0.000000
 11
      113.767679
 21
      -29.000000
 31
        0.000000
  0
LINE
  8
LVL0000
 10
      132.767679
 20
      -27.000000
 30
        0.000000
 11
      113.767679
 21
      -27.000000
 31
        0.000000
  0
LINE
  8
LVL0000
 10
      132.767679
 20
      -21.400000
 30
        0.000000
 11
      113.767679
 21
      -21.400000
 31
        0.000000
  0
LINE
  8
LVL0000
 10
      132.767679
 20
      -23.400000
 30
        0.000000
 11
      113.767679
 21
      -23.400000
 31
        0.000000
  0
LINE
  8
LVL0000
 10
      132.767679
 20
      -17.800000
 30
        0.000000
 11
      113.767679
 21
      -17.800000
 31
        0.000000
  0
LINE
  8
LVL0000
 10
      132.767679
 20
      -15.800000
 30
        0.000000
 11
      113.767679
 21
      -15.800000
 31
        0.000000
  0
LINE
  8
LVL0000
 10
      132.767679
 20
      -10.200000
 30
        0.000000
 11
      113.767679
 21
      -10.200000
 31
        0.000000
  0
LINE
  8
LVL0000
 10
      132.767679
 20
      -12.200000
 30
        0.000000
 11
      113.767679
 21
      -12.200000
 31
        0.000000
  0
LINE
  8
LVL0000
 10
      132.767679
 20
       -6.600000
 30
        0.000000
 11
      113.767679
 21
       -6.600000
 31
        0.000000
  0
LINE
  8
LVL0000
 10
      132.767679
 20
       -4.600000
 30
        0.000000
 11
      113.767679
 21
       -4.600000
 31
        0.000000
  0
LINE
  8
LVL0000
 10
      132.767679
 20
        1.000000
 30
        0.000000
 11
      113.767679
 21
        1.000000
 31
        0.000000
  0
LINE
  8
LVL0000
 10
      132.767679
 20
       -1.000000
 30
        0.000000
 11
      113.767679
 21
       -1.000000
 31
        0.000000
  0
LINE
  8
LVL0000
 10
      132.767679
 20
      -32.600000
 30
        0.000000
 11
      132.767679
 21
      -34.600000
 31
        0.000000
  0
LINE
  8
LVL0000
 10
      132.767679
 20
      -27.000000
 30
        0.000000
 11
      132.767679
 21
      -29.000000
 31
        0.000000
  0
LINE
  8
LVL0000
 10
      132.767679
 20
      -21.400000
 30
        0.000000
 11
      132.767679
 21
      -23.400000
 31
        0.000000
  0
LINE
  8
LVL0000
 10
      132.767679
 20
      -15.800000
 30
        0.000000
 11
      132.767679
 21
      -17.800000
 31
        0.000000
  0
LINE
  8
LVL0000
 10
      132.767679
 20
      -10.200000
 30
        0.000000
 11
      132.767679
 21
      -12.200000
 31
        0.000000
  0
LINE
  8
LVL0000
 10
      132.767679
 20
       -4.600000
 30
        0.000000
 11
      132.767679
 21
       -6.600000
 31
        0.000000
  0
LINE
  8
LVL0000
 10
      132.767679
 20
        1.000000
 30
        0.000000
 11
      132.767679
 21
       -1.000000
 31
        0.000000
  0
LINE
  8
LVL0000
 10
      136.767679
 20
      -21.400000
 30
        0.000000
 11
      136.767679
 21
      -23.400000
 31
        0.000000
  0
LINE
  8
LVL0000
 10
      136.767679
 20
      -15.800000
 30
        0.000000
 11
      136.767679
 21
      -17.800000
 31
        0.000000
  0
LINE
  8
LVL0000
 10
      136.767679
 20
      -10.200000
 30
        0.000000
 11
      136.767679
 21
      -12.200000
 31
        0.000000
  0
LINE
  8
LVL0000
 10
      136.767679
 20
       -4.600000
 30
        0.000000
 11
      136.767679
 21
       -6.600000
 31
        0.000000
  0
LINE
  8
LVL0000
 10
      136.767679
 20
        1.000000
 30
        0.000000
 11
      136.767679
 21
       -1.000000
 31
        0.000000
  0
LINE
  8
LVL0000
 10
      136.767679
 20
      -27.000000
 30
        0.000000
 11
      136.767679
 21
      -29.000000
 31
        0.000000
  0
LINE
  8
LVL0000
 10
      136.767679
 20
      -32.600000
 30
        0.000000
 11
      136.767679
 21
      -34.600000
 31
        0.000000
  0
LINE
  8
LVL0000
 10
      144.917679
 20
      -53.000000
 30
        0.000000
 11
      144.917679
 21
      -52.300049
 31
        0.000000
  0
LINE
  8
LVL0000
 10
      136.617679
 20
      -53.000000
 30
        0.000000
 11
      136.617679
 21
      -52.300049
 31
        0.000000
  0
LINE
  8
LVL0000
 10
      144.677679
 20
      -51.100006
 30
        0.000000
 11
      144.677679
 21
      -50.500000
 31
        0.000000
  0
LINE
  8
LVL0000
 10
      136.857718
 20
      -51.100006
 30
        0.000000
 11
      136.857718
 21
      -50.500000
 31
        0.000000
  0
LINE
  8
LVL0000
 10
      137.880942
 20
      -51.100006
 30
        0.000000
 11
      137.880942
 21
      -50.500000
 31
        0.000000
  0
LINE
  8
LVL0000
 10
      139.324301
 20
      -51.100006
 30
        0.000000
 11
      139.324301
 21
      -50.500000
 31
        0.000000
  0
LINE
  8
LVL0000
 10
      142.211050
 20
      -51.100006
 30
        0.000000
 11
      142.211050
 21
      -50.500000
 31
        0.000000
  0
LINE
  8
LVL0000
 10
      143.654440
 20
      -51.100006
 30
        0.000000
 11
      143.654440
 21
      -50.500000
 31
        0.000000
  0
LINE
  8
LVL0000
 10
      136.857718
 20
      -51.100006
 30
        0.000000
 11
      144.677679
 21
      -51.100006
 31
        0.000000
  0
LINE
  8
LVL0000
 10
      144.917679
 20
      -53.000000
 30
        0.000000
 11
      136.617679
 21
      -53.000000
 31
        0.000000
  0
LINE
  8
LVL0000
 10
      146.217691
 20
      -52.300049
 30
        0.000000
 11
      146.217691
 21
      -50.500000
 31
        0.000000
  0
LINE
  8
LVL0000
 10
      134.317674
 20
      -52.300049
 30
        0.000000
 11
      134.317672
 21
      -50.500000
 31
        0.000000
  0
LINE
  8
LVL0000
 10
      134.317674
 20
      -52.300049
 30
        0.000000
 11
      146.217691
 21
      -52.300049
 31
        0.000000
  0
ARC
  8
LVL0000
 10
      115.767679
 20
      -48.500000
 30
        0.000000
 40
        2.000000
 50
      179.999995
 51
      270.000000
  0
CIRCLE
  8
LVL0000
 10
      129.767679
 20
      -41.500000
 30
        0.000000
 40
        3.500000
  0
LINE
  8
LVL0000
 10
      115.767679
 20
      -50.500000
 30
        0.000000
 11
      153.767679
 21
      -50.500000
 31
        0.000000
  0
ARC
  8
LVL0000
 10
      153.767679
 20
      -48.500000
 30
        0.000000
 40
        2.000000
 50
      270.000000
 51
      360.000000
  0
CIRCLE
  8
LVL0000
 10
      129.767679
 20
       43.000000
 30
        0.000000
 40
        3.500000
  0
LINE
  8
LVL0000
 10
       42.019008
 20
       36.480974
 30
        0.000000
 11
       41.829566
 21
       36.074715
 31
        0.000000
  0
LINE
  8
LVL0000
 10
       41.829565
 20
       36.074715
 30
        0.000000
 11
       41.809061
 21
       34.900000
 31
        0.000000
  0
LINE
  8
LVL0000
 10
       41.500000
 20
       34.900000
 30
        0.000000
 11
       41.809061
 21
       34.900000
 31
        0.000000
  0
LINE
  8
LVL0000
 10
       41.500000
 20
       34.900000
 30
        0.000000
 11
       41.190939
 21
       34.900000
 31
        0.000000
  0
LINE
  8
LVL0000
 10
       41.170435
 20
       36.074715
 30
        0.000000
 11
       41.190939
 21
       34.900000
 31
        0.000000
  0
LINE
  8
LVL0000
 10
       40.980992
 20
       36.480974
 30
        0.000000
 11
       41.170434
 21
       36.074715
 31
        0.000000
  0
LINE
  8
LVL0000
 10
       43.599985
 20
       36.999981
 30
        0.000000
 11
       43.599985
 21
       36.690920
 31
        0.000000
  0
LINE
  8
LVL0000
 10
       42.425270
 20
       36.670418
 30
        0.000000
 11
       43.599985
 21
       36.690920
 31
        0.000000
  0
LINE
  8
LVL0000
 10
       42.019011
 20
       36.480976
 30
        0.000000
 11
       42.425270
 21
       36.670418
 31
        0.000000
  0
LINE
  8
LVL0000
 10
       42.425270
 20
       37.329582
 30
        0.000000
 11
       43.599985
 21
       37.309080
 31
        0.000000
  0
LINE
  8
LVL0000
 10
       43.599985
 20
       37.000019
 30
        0.000000
 11
       43.599985
 21
       37.309080
 31
        0.000000
  0
LINE
  8
LVL0000
 10
       41.500000
 20
       39.100000
 30
        0.000000
 11
       41.809061
 21
       39.100000
 31
        0.000000
  0
LINE
  8
LVL0000
 10
       41.829565
 20
       37.925285
 30
        0.000000
 11
       41.809061
 21
       39.100000
 31
        0.000000
  0
LINE
  8
LVL0000
 10
       42.019008
 20
       37.519026
 30
        0.000000
 11
       41.829566
 21
       37.925285
 31
        0.000000
  0
LINE
  8
LVL0000
 10
       42.019011
 20
       37.519024
 30
        0.000000
 11
       42.425270
 21
       37.329582
 31
        0.000000
  0
LINE
  8
LVL0000
 10
       41.170435
 20
       37.925285
 30
        0.000000
 11
       41.190939
 21
       39.100000
 31
        0.000000
  0
LINE
  8
LVL0000
 10
       40.980992
 20
       37.519026
 30
        0.000000
 11
       41.170434
 21
       37.925285
 31
        0.000000
  0
LINE
  8
LVL0000
 10
       41.500000
 20
       39.100000
 30
        0.000000
 11
       41.190939
 21
       39.100000
 31
        0.000000
  0
LINE
  8
LVL0000
 10
       40.980989
 20
       36.480976
 30
        0.000000
 11
       40.574730
 21
       36.670418
 31
        0.000000
  0
LINE
  8
LVL0000
 10
       40.574730
 20
       36.670418
 30
        0.000000
 11
       39.400015
 21
       36.690920
 31
        0.000000
  0
LINE
  8
LVL0000
 10
       39.400015
 20
       36.999981
 30
        0.000000
 11
       39.400015
 21
       36.690920
 31
        0.000000
  0
LINE
  8
LVL0000
 10
       39.400015
 20
       37.000019
 30
        0.000000
 11
       39.400015
 21
       37.309080
 31
        0.000000
  0
LINE
  8
LVL0000
 10
       40.574730
 20
       37.329582
 30
        0.000000
 11
       39.400015
 21
       37.309080
 31
        0.000000
  0
LINE
  8
LVL0000
 10
       40.980989
 20
       37.519024
 30
        0.000000
 11
       40.574730
 21
       37.329582
 31
        0.000000
  0
CIRCLE
  8
LVL0000
 10
       41.500000
 20
       37.000000
 30
        0.000000
 40
        3.500000
  0
LINE
  8
LVL0000
 10
      -53.019008
 20
       36.480974
 30
        0.000000
 11
      -52.829566
 21
       36.074715
 31
        0.000000
  0
LINE
  8
LVL0000
 10
      -52.829565
 20
       36.074715
 30
        0.000000
 11
      -52.809061
 21
       34.900000
 31
        0.000000
  0
LINE
  8
LVL0000
 10
      -52.500000
 20
       34.900000
 30
        0.000000
 11
      -52.809061
 21
       34.900000
 31
        0.000000
  0
LINE
  8
LVL0000
 10
      -52.500000
 20
       34.900000
 30
        0.000000
 11
      -52.190939
 21
       34.900000
 31
        0.000000
  0
LINE
  8
LVL0000
 10
      -52.170435
 20
       36.074715
 30
        0.000000
 11
      -52.190939
 21
       34.900000
 31
        0.000000
  0
LINE
  8
LVL0000
 10
      -51.980992
 20
       36.480974
 30
        0.000000
 11
      -52.170434
 21
       36.074715
 31
        0.000000
  0
LINE
  8
LVL0000
 10
      -54.599985
 20
       36.999981
 30
        0.000000
 11
      -54.599985
 21
       36.690920
 31
        0.000000
  0
LINE
  8
LVL0000
 10
      -53.425270
 20
       36.670418
 30
        0.000000
 11
      -54.599985
 21
       36.690920
 31
        0.000000
  0
LINE
  8
LVL0000
 10
      -53.019011
 20
       36.480976
 30
        0.000000
 11
      -53.425270
 21
       36.670418
 31
        0.000000
  0
LINE
  8
LVL0000
 10
      -53.425270
 20
       37.329582
 30
        0.000000
 11
      -54.599985
 21
       37.309080
 31
        0.000000
  0
LINE
  8
LVL0000
 10
      -54.599985
 20
       37.000019
 30
        0.000000
 11
      -54.599985
 21
       37.309080
 31
        0.000000
  0
LINE
  8
LVL0000
 10
      -52.500000
 20
       39.100000
 30
        0.000000
 11
      -52.809061
 21
       39.100000
 31
        0.000000
  0
LINE
  8
LVL0000
 10
      -52.829565
 20
       37.925285
 30
        0.000000
 11
      -52.809061
 21
       39.100000
 31
        0.000000
  0
LINE
  8
LVL0000
 10
      -53.019008
 20
       37.519026
 30
        0.000000
 11
      -52.829566
 21
       37.925285
 31
        0.000000
  0
LINE
  8
LVL0000
 10
      -53.019011
 20
       37.519024
 30
        0.000000
 11
      -53.425270
 21
       37.329582
 31
        0.000000
  0
LINE
  8
LVL0000
 10
      -52.170435
 20
       37.925285
 30
        0.000000
 11
      -52.190939
 21
       39.100000
 31
        0.000000
  0
LINE
  8
LVL0000
 10
      -51.980992
 20
       37.519026
 30
        0.000000
 11
      -52.170434
 21
       37.925285
 31
        0.000000
  0
LINE
  8
LVL0000
 10
      -52.500000
 20
       39.100000
 30
        0.000000
 11
      -52.190939
 21
       39.100000
 31
        0.000000
  0
LINE
  8
LVL0000
 10
      -51.980989
 20
       36.480976
 30
        0.000000
 11
      -51.574730
 21
       36.670418
 31
        0.000000
  0
LINE
  8
LVL0000
 10
      -51.574730
 20
       36.670418
 30
        0.000000
 11
      -50.400015
 21
       36.690920
 31
        0.000000
  0
LINE
  8
LVL0000
 10
      -50.400015
 20
       36.999981
 30
        0.000000
 11
      -50.400015
 21
       36.690920
 31
        0.000000
  0
LINE
  8
LVL0000
 10
      -50.400015
 20
       37.000019
 30
        0.000000
 11
      -50.400015
 21
       37.309080
 31
        0.000000
  0
LINE
  8
LVL0000
 10
      -51.574730
 20
       37.329582
 30
        0.000000
 11
      -50.400015
 21
       37.309080
 31
        0.000000
  0
LINE
  8
LVL0000
 10
      -51.980989
 20
       37.519024
 30
        0.000000
 11
      -51.574730
 21
       37.329582
 31
        0.000000
  0
CIRCLE
  8
LVL0000
 10
      -52.500000
 20
       37.000000
 30
        0.000000
 40
        3.500000
  0
CIRCLE
  8
LVL0000
 10
       28.737995
 20
       41.570367
 30
        0.000000
 40
        2.750000
  0
LINE
  8
LVL0000
 10
       29.677315
 20
       41.921215
 30
        0.000000
 11
       30.954384
 21
       43.198285
 31
        0.000000
  0
LINE
  8
LVL0000
 10
       29.211215
 20
       42.387315
 30
        0.000000
 11
       30.503065
 21
       43.679164
 31
        0.000000
  0
LINE
  8
LVL0000
 10
       28.368785
 20
       40.612685
 30
        0.000000
 11
       27.110077
 21
       39.353977
 31
        0.000000
  0
LINE
  8
LVL0000
 10
       27.902685
 20
       41.078785
 30
        0.000000
 11
       26.629197
 21
       39.805297
 31
        0.000000
  0
LINE
  8
LVL0000
 10
       29.524000
 20
       41.499989
 30
        0.000000
 11
       29.677315
 21
       41.921215
 31
        0.000000
  0
LINE
  8
LVL0000
 10
       29.523999
 20
       41.499988
 30
        0.000000
 11
       29.677313
 21
       41.078762
 31
        0.000000
  0
LINE
  8
LVL0000
 10
       29.677313
 20
       41.078762
 30
        0.000000
 11
       30.285033
 21
       40.449449
 31
        0.000000
  0
LINE
  8
LVL0000
 10
       30.285033
 20
       40.449449
 30
        0.000000
 11
       30.062792
 21
       40.227208
 31
        0.000000
  0
LINE
  8
LVL0000
 10
       29.840551
 20
       40.004967
 30
        0.000000
 11
       30.062792
 21
       40.227208
 31
        0.000000
  0
LINE
  8
LVL0000
 10
       29.211238
 20
       40.612687
 30
        0.000000
 11
       29.840551
 21
       40.004967
 31
        0.000000
  0
LINE
  8
LVL0000
 10
       28.790012
 20
       40.766001
 30
        0.000000
 11
       29.211238
 21
       40.612687
 31
        0.000000
  0
LINE
  8
LVL0000
 10
       28.790011
 20
       40.766000
 30
        0.000000
 11
       28.368785
 21
       40.612685
 31
        0.000000
  0
LINE
  8
LVL0000
 10
       27.739449
 20
       42.995033
 30
        0.000000
 11
       27.517208
 21
       42.772792
 31
        0.000000
  0
LINE
  8
LVL0000
 10
       28.368762
 20
       42.387313
 30
        0.000000
 11
       27.739449
 21
       42.995033
 31
        0.000000
  0
LINE
  8
LVL0000
 10
       28.789988
 20
       42.233999
 30
        0.000000
 11
       28.368762
 21
       42.387313
 31
        0.000000
  0
LINE
  8
LVL0000
 10
       28.789989
 20
       42.234000
 30
        0.000000
 11
       29.211215
 21
       42.387315
 31
        0.000000
  0
LINE
  8
LVL0000
 10
       28.056000
 20
       41.500011
 30
        0.000000
 11
       27.902685
 21
       41.078785
 31
        0.000000
  0
LINE
  8
LVL0000
 10
       27.294967
 20
       42.550551
 30
        0.000000
 11
       27.517208
 21
       42.772792
 31
        0.000000
  0
LINE
  8
LVL0000
 10
       27.902687
 20
       41.921238
 30
        0.000000
 11
       27.294967
 21
       42.550551
 31
        0.000000
  0
LINE
  8
LVL0000
 10
       28.056001
 20
       41.500012
 30
        0.000000
 11
       27.902687
 21
       41.921238
 31
        0.000000
  0
CIRCLE
  8
LVL0000
 10
       24.927995
 20
       32.570367
 30
        0.000000
 40
        2.750000
  0
LINE
  8
LVL0000
 10
       25.867315
 20
       32.921215
 30
        0.000000
 11
       27.144384
 21
       34.198285
 31
        0.000000
  0
LINE
  8
LVL0000
 10
       25.401215
 20
       33.387315
 30
        0.000000
 11
       26.693065
 21
       34.679164
 31
        0.000000
  0
LINE
  8
LVL0000
 10
       24.558785
 20
       31.612685
 30
        0.000000
 11
       23.300077
 21
       30.353977
 31
        0.000000
  0
LINE
  8
LVL0000
 10
       24.092685
 20
       32.078785
 30
        0.000000
 11
       22.819197
 21
       30.805297
 31
        0.000000
  0
LINE
  8
LVL0000
 10
       25.714000
 20
       32.499989
 30
        0.000000
 11
       25.867315
 21
       32.921215
 31
        0.000000
  0
LINE
  8
LVL0000
 10
       25.713999
 20
       32.499988
 30
        0.000000
 11
       25.867313
 21
       32.078762
 31
        0.000000
  0
LINE
  8
LVL0000
 10
       25.867313
 20
       32.078762
 30
        0.000000
 11
       26.475033
 21
       31.449449
 31
        0.000000
  0
LINE
  8
LVL0000
 10
       26.475033
 20
       31.449449
 30
        0.000000
 11
       26.252792
 21
       31.227208
 31
        0.000000
  0
LINE
  8
LVL0000
 10
       26.030551
 20
       31.004967
 30
        0.000000
 11
       26.252792
 21
       31.227208
 31
        0.000000
  0
LINE
  8
LVL0000
 10
       25.401238
 20
       31.612687
 30
        0.000000
 11
       26.030551
 21
       31.004967
 31
        0.000000
  0
LINE
  8
LVL0000
 10
       24.980012
 20
       31.766001
 30
        0.000000
 11
       25.401238
 21
       31.612687
 31
        0.000000
  0
LINE
  8
LVL0000
 10
       24.980011
 20
       31.766000
 30
        0.000000
 11
       24.558785
 21
       31.612685
 31
        0.000000
  0
LINE
  8
LVL0000
 10
       23.929449
 20
       33.995033
 30
        0.000000
 11
       23.707208
 21
       33.772792
 31
        0.000000
  0
LINE
  8
LVL0000
 10
       24.558762
 20
       33.387313
 30
        0.000000
 11
       23.929449
 21
       33.995033
 31
        0.000000
  0
LINE
  8
LVL0000
 10
       24.979988
 20
       33.233999
 30
        0.000000
 11
       24.558762
 21
       33.387313
 31
        0.000000
  0
LINE
  8
LVL0000
 10
       24.979989
 20
       33.234000
 30
        0.000000
 11
       25.401215
 21
       33.387315
 31
        0.000000
  0
LINE
  8
LVL0000
 10
       24.246000
 20
       32.500011
 30
        0.000000
 11
       24.092685
 21
       32.078785
 31
        0.000000
  0
LINE
  8
LVL0000
 10
       23.484967
 20
       33.550551
 30
        0.000000
 11
       23.707208
 21
       33.772792
 31
        0.000000
  0
LINE
  8
LVL0000
 10
       24.092687
 20
       32.921238
 30
        0.000000
 11
       23.484967
 21
       33.550551
 31
        0.000000
  0
LINE
  8
LVL0000
 10
       24.246001
 20
       32.500012
 30
        0.000000
 11
       24.092687
 21
       32.921238
 31
        0.000000
  0
CIRCLE
  8
LVL0000
 10
       21.117995
 20
       41.570367
 30
        0.000000
 40
        2.750000
  0
LINE
  8
LVL0000
 10
       22.057315
 20
       41.921215
 30
        0.000000
 11
       23.334384
 21
       43.198285
 31
        0.000000
  0
LINE
  8
LVL0000
 10
       21.591215
 20
       42.387315
 30
        0.000000
 11
       22.883065
 21
       43.679164
 31
        0.000000
  0
LINE
  8
LVL0000
 10
       20.748785
 20
       40.612685
 30
        0.000000
 11
       19.490077
 21
       39.353977
 31
        0.000000
  0
LINE
  8
LVL0000
 10
       20.282685
 20
       41.078785
 30
        0.000000
 11
       19.009197
 21
       39.805297
 31
        0.000000
  0
LINE
  8
LVL0000
 10
       21.904000
 20
       41.499989
 30
        0.000000
 11
       22.057315
 21
       41.921215
 31
        0.000000
  0
LINE
  8
LVL0000
 10
       21.903999
 20
       41.499988
 30
        0.000000
 11
       22.057313
 21
       41.078762
 31
        0.000000
  0
LINE
  8
LVL0000
 10
       22.057313
 20
       41.078762
 30
        0.000000
 11
       22.665033
 21
       40.449449
 31
        0.000000
  0
LINE
  8
LVL0000
 10
       22.665033
 20
       40.449449
 30
        0.000000
 11
       22.442792
 21
       40.227208
 31
        0.000000
  0
LINE
  8
LVL0000
 10
       22.220551
 20
       40.004967
 30
        0.000000
 11
       22.442792
 21
       40.227208
 31
        0.000000
  0
LINE
  8
LVL0000
 10
       21.591238
 20
       40.612687
 30
        0.000000
 11
       22.220551
 21
       40.004967
 31
        0.000000
  0
LINE
  8
LVL0000
 10
       21.170012
 20
       40.766001
 30
        0.000000
 11
       21.591238
 21
       40.612687
 31
        0.000000
  0
LINE
  8
LVL0000
 10
       21.170011
 20
       40.766000
 30
        0.000000
 11
       20.748785
 21
       40.612685
 31
        0.000000
  0
LINE
  8
LVL0000
 10
       20.119449
 20
       42.995033
 30
        0.000000
 11
       19.897208
 21
       42.772792
 31
        0.000000
  0
LINE
  8
LVL0000
 10
       20.748762
 20
       42.387313
 30
        0.000000
 11
       20.119449
 21
       42.995033
 31
        0.000000
  0
LINE
  8
LVL0000
 10
       21.169988
 20
       42.233999
 30
        0.000000
 11
       20.748762
 21
       42.387313
 31
        0.000000
  0
LINE
  8
LVL0000
 10
       21.169989
 20
       42.234000
 30
        0.000000
 11
       21.591215
 21
       42.387315
 31
        0.000000
  0
LINE
  8
LVL0000
 10
       20.436000
 20
       41.500011
 30
        0.000000
 11
       20.282685
 21
       41.078785
 31
        0.000000
  0
LINE
  8
LVL0000
 10
       19.674967
 20
       42.550551
 30
        0.000000
 11
       19.897208
 21
       42.772792
 31
        0.000000
  0
LINE
  8
LVL0000
 10
       20.282687
 20
       41.921238
 30
        0.000000
 11
       19.674967
 21
       42.550551
 31
        0.000000
  0
LINE
  8
LVL0000
 10
       20.436001
 20
       41.500012
 30
        0.000000
 11
       20.282687
 21
       41.921238
 31
        0.000000
  0
CIRCLE
  8
LVL0000
 10
       13.497995
 20
       41.570367
 30
        0.000000
 40
        2.750000
  0
LINE
  8
LVL0000
 10
       14.437315
 20
       41.921215
 30
        0.000000
 11
       15.714384
 21
       43.198285
 31
        0.000000
  0
LINE
  8
LVL0000
 10
       13.971215
 20
       42.387315
 30
        0.000000
 11
       15.263065
 21
       43.679164
 31
        0.000000
  0
LINE
  8
LVL0000
 10
       13.128785
 20
       40.612685
 30
        0.000000
 11
       11.870077
 21
       39.353977
 31
        0.000000
  0
LINE
  8
LVL0000
 10
       12.662685
 20
       41.078785
 30
        0.000000
 11
       11.389197
 21
       39.805297
 31
        0.000000
  0
LINE
  8
LVL0000
 10
       14.284000
 20
       41.499989
 30
        0.000000
 11
       14.437315
 21
       41.921215
 31
        0.000000
  0
LINE
  8
LVL0000
 10
       14.283999
 20
       41.499988
 30
        0.000000
 11
       14.437313
 21
       41.078762
 31
        0.000000
  0
LINE
  8
LVL0000
 10
       14.437313
 20
       41.078762
 30
        0.000000
 11
       15.045033
 21
       40.449449
 31
        0.000000
  0
LINE
  8
LVL0000
 10
       15.045033
 20
       40.449449
 30
        0.000000
 11
       14.822792
 21
       40.227208
 31
        0.000000
  0
LINE
  8
LVL0000
 10
       14.600551
 20
       40.004967
 30
        0.000000
 11
       14.822792
 21
       40.227208
 31
        0.000000
  0
LINE
  8
LVL0000
 10
       13.971238
 20
       40.612687
 30
        0.000000
 11
       14.600551
 21
       40.004967
 31
        0.000000
  0
LINE
  8
LVL0000
 10
       13.550012
 20
       40.766001
 30
        0.000000
 11
       13.971238
 21
       40.612687
 31
        0.000000
  0
LINE
  8
LVL0000
 10
       13.550011
 20
       40.766000
 30
        0.000000
 11
       13.128785
 21
       40.612685
 31
        0.000000
  0
LINE
  8
LVL0000
 10
       12.499449
 20
       42.995033
 30
        0.000000
 11
       12.277208
 21
       42.772792
 31
        0.000000
  0
LINE
  8
LVL0000
 10
       13.128762
 20
       42.387313
 30
        0.000000
 11
       12.499449
 21
       42.995033
 31
        0.000000
  0
LINE
  8
LVL0000
 10
       13.549988
 20
       42.233999
 30
        0.000000
 11
       13.128762
 21
       42.387313
 31
        0.000000
  0
LINE
  8
LVL0000
 10
       13.549989
 20
       42.234000
 30
        0.000000
 11
       13.971215
 21
       42.387315
 31
        0.000000
  0
LINE
  8
LVL0000
 10
       12.816000
 20
       41.500011
 30
        0.000000
 11
       12.662685
 21
       41.078785
 31
        0.000000
  0
LINE
  8
LVL0000
 10
       12.054967
 20
       42.550551
 30
        0.000000
 11
       12.277208
 21
       42.772792
 31
        0.000000
  0
LINE
  8
LVL0000
 10
       12.662687
 20
       41.921238
 30
        0.000000
 11
       12.054967
 21
       42.550551
 31
        0.000000
  0
LINE
  8
LVL0000
 10
       12.816001
 20
       41.500012
 30
        0.000000
 11
       12.662687
 21
       41.921238
 31
        0.000000
  0
CIRCLE
  8
LVL0000
 10
       17.307995
 20
       32.570367
 30
        0.000000
 40
        2.750000
  0
LINE
  8
LVL0000
 10
       18.247315
 20
       32.921215
 30
        0.000000
 11
       19.524384
 21
       34.198285
 31
        0.000000
  0
LINE
  8
LVL0000
 10
       17.781215
 20
       33.387315
 30
        0.000000
 11
       19.073065
 21
       34.679164
 31
        0.000000
  0
LINE
  8
LVL0000
 10
       16.938785
 20
       31.612685
 30
        0.000000
 11
       15.680077
 21
       30.353977
 31
        0.000000
  0
LINE
  8
LVL0000
 10
       16.472685
 20
       32.078785
 30
        0.000000
 11
       15.199197
 21
       30.805297
 31
        0.000000
  0
LINE
  8
LVL0000
 10
       18.094000
 20
       32.499989
 30
        0.000000
 11
       18.247315
 21
       32.921215
 31
        0.000000
  0
LINE
  8
LVL0000
 10
       18.093999
 20
       32.499988
 30
        0.000000
 11
       18.247313
 21
       32.078762
 31
        0.000000
  0
LINE
  8
LVL0000
 10
       18.247313
 20
       32.078762
 30
        0.000000
 11
       18.855033
 21
       31.449449
 31
        0.000000
  0
LINE
  8
LVL0000
 10
       18.855033
 20
       31.449449
 30
        0.000000
 11
       18.632792
 21
       31.227208
 31
        0.000000
  0
LINE
  8
LVL0000
 10
       18.410551
 20
       31.004967
 30
        0.000000
 11
       18.632792
 21
       31.227208
 31
        0.000000
  0
LINE
  8
LVL0000
 10
       17.781238
 20
       31.612687
 30
        0.000000
 11
       18.410551
 21
       31.004967
 31
        0.000000
  0
LINE
  8
LVL0000
 10
       17.360012
 20
       31.766001
 30
        0.000000
 11
       17.781238
 21
       31.612687
 31
        0.000000
  0
LINE
  8
LVL0000
 10
       17.360011
 20
       31.766000
 30
        0.000000
 11
       16.938785
 21
       31.612685
 31
        0.000000
  0
LINE
  8
LVL0000
 10
       16.309449
 20
       33.995033
 30
        0.000000
 11
       16.087208
 21
       33.772792
 31
        0.000000
  0
LINE
  8
LVL0000
 10
       16.938762
 20
       33.387313
 30
        0.000000
 11
       16.309449
 21
       33.995033
 31
        0.000000
  0
LINE
  8
LVL0000
 10
       17.359988
 20
       33.233999
 30
        0.000000
 11
       16.938762
 21
       33.387313
 31
        0.000000
  0
LINE
  8
LVL0000
 10
       17.359989
 20
       33.234000
 30
        0.000000
 11
       17.781215
 21
       33.387315
 31
        0.000000
  0
LINE
  8
LVL0000
 10
       16.626000
 20
       32.500011
 30
        0.000000
 11
       16.472685
 21
       32.078785
 31
        0.000000
  0
LINE
  8
LVL0000
 10
       15.864967
 20
       33.550551
 30
        0.000000
 11
       16.087208
 21
       33.772792
 31
        0.000000
  0
LINE
  8
LVL0000
 10
       16.472687
 20
       32.921238
 30
        0.000000
 11
       15.864967
 21
       33.550551
 31
        0.000000
  0
LINE
  8
LVL0000
 10
       16.626001
 20
       32.500012
 30
        0.000000
 11
       16.472687
 21
       32.921238
 31
        0.000000
  0
CIRCLE
  8
LVL0000
 10
        9.687995
 20
       32.570367
 30
        0.000000
 40
        2.750000
  0
LINE
  8
LVL0000
 10
       10.627315
 20
       32.921215
 30
        0.000000
 11
       11.904384
 21
       34.198285
 31
        0.000000
  0
LINE
  8
LVL0000
 10
       10.161215
 20
       33.387315
 30
        0.000000
 11
       11.453065
 21
       34.679164
 31
        0.000000
  0
LINE
  8
LVL0000
 10
        9.318785
 20
       31.612685
 30
        0.000000
 11
        8.060077
 21
       30.353977
 31
        0.000000
  0
LINE
  8
LVL0000
 10
        8.852685
 20
       32.078785
 30
        0.000000
 11
        7.579197
 21
       30.805297
 31
        0.000000
  0
LINE
  8
LVL0000
 10
       10.474000
 20
       32.499989
 30
        0.000000
 11
       10.627315
 21
       32.921215
 31
        0.000000
  0
LINE
  8
LVL0000
 10
       10.473999
 20
       32.499988
 30
        0.000000
 11
       10.627313
 21
       32.078762
 31
        0.000000
  0
LINE
  8
LVL0000
 10
       10.627313
 20
       32.078762
 30
        0.000000
 11
       11.235033
 21
       31.449449
 31
        0.000000
  0
LINE
  8
LVL0000
 10
       11.235033
 20
       31.449449
 30
        0.000000
 11
       11.012792
 21
       31.227208
 31
        0.000000
  0
LINE
  8
LVL0000
 10
       10.790551
 20
       31.004967
 30
        0.000000
 11
       11.012792
 21
       31.227208
 31
        0.000000
  0
LINE
  8
LVL0000
 10
       10.161238
 20
       31.612687
 30
        0.000000
 11
       10.790551
 21
       31.004967
 31
        0.000000
  0
LINE
  8
LVL0000
 10
        9.740012
 20
       31.766001
 30
        0.000000
 11
       10.161238
 21
       31.612687
 31
        0.000000
  0
LINE
  8
LVL0000
 10
        9.740011
 20
       31.766000
 30
        0.000000
 11
        9.318785
 21
       31.612685
 31
        0.000000
  0
LINE
  8
LVL0000
 10
        8.689449
 20
       33.995033
 30
        0.000000
 11
        8.467208
 21
       33.772792
 31
        0.000000
  0
LINE
  8
LVL0000
 10
        9.318762
 20
       33.387313
 30
        0.000000
 11
        8.689449
 21
       33.995033
 31
        0.000000
  0
LINE
  8
LVL0000
 10
        9.739988
 20
       33.233999
 30
        0.000000
 11
        9.318762
 21
       33.387313
 31
        0.000000
  0
LINE
  8
LVL0000
 10
        9.739989
 20
       33.234000
 30
        0.000000
 11
       10.161215
 21
       33.387315
 31
        0.000000
  0
LINE
  8
LVL0000
 10
        9.006000
 20
       32.500011
 30
        0.000000
 11
        8.852685
 21
       32.078785
 31
        0.000000
  0
LINE
  8
LVL0000
 10
        8.244967
 20
       33.550551
 30
        0.000000
 11
        8.467208
 21
       33.772792
 31
        0.000000
  0
LINE
  8
LVL0000
 10
        8.852687
 20
       32.921238
 30
        0.000000
 11
        8.244967
 21
       33.550551
 31
        0.000000
  0
LINE
  8
LVL0000
 10
        9.006001
 20
       32.500012
 30
        0.000000
 11
        8.852687
 21
       32.921238
 31
        0.000000
  0
CIRCLE
  8
LVL0000
 10
        5.877995
 20
       41.570367
 30
        0.000000
 40
        2.750000
  0
LINE
  8
LVL0000
 10
        6.817315
 20
       41.921215
 30
        0.000000
 11
        8.094384
 21
       43.198285
 31
        0.000000
  0
LINE
  8
LVL0000
 10
        6.351215
 20
       42.387315
 30
        0.000000
 11
        7.643065
 21
       43.679164
 31
        0.000000
  0
LINE
  8
LVL0000
 10
        5.508785
 20
       40.612685
 30
        0.000000
 11
        4.250077
 21
       39.353977
 31
        0.000000
  0
LINE
  8
LVL0000
 10
        5.042685
 20
       41.078785
 30
        0.000000
 11
        3.769197
 21
       39.805297
 31
        0.000000
  0
LINE
  8
LVL0000
 10
        6.664000
 20
       41.499989
 30
        0.000000
 11
        6.817315
 21
       41.921215
 31
        0.000000
  0
LINE
  8
LVL0000
 10
        6.663999
 20
       41.499988
 30
        0.000000
 11
        6.817313
 21
       41.078762
 31
        0.000000
  0
LINE
  8
LVL0000
 10
        6.817313
 20
       41.078762
 30
        0.000000
 11
        7.425033
 21
       40.449449
 31
        0.000000
  0
LINE
  8
LVL0000
 10
        7.425033
 20
       40.449449
 30
        0.000000
 11
        7.202792
 21
       40.227208
 31
        0.000000
  0
LINE
  8
LVL0000
 10
        6.980551
 20
       40.004967
 30
        0.000000
 11
        7.202792
 21
       40.227208
 31
        0.000000
  0
LINE
  8
LVL0000
 10
        6.351238
 20
       40.612687
 30
        0.000000
 11
        6.980551
 21
       40.004967
 31
        0.000000
  0
LINE
  8
LVL0000
 10
        5.930012
 20
       40.766001
 30
        0.000000
 11
        6.351238
 21
       40.612687
 31
        0.000000
  0
LINE
  8
LVL0000
 10
        5.930011
 20
       40.766000
 30
        0.000000
 11
        5.508785
 21
       40.612685
 31
        0.000000
  0
LINE
  8
LVL0000
 10
        4.879449
 20
       42.995033
 30
        0.000000
 11
        4.657208
 21
       42.772792
 31
        0.000000
  0
LINE
  8
LVL0000
 10
        5.508762
 20
       42.387313
 30
        0.000000
 11
        4.879449
 21
       42.995033
 31
        0.000000
  0
LINE
  8
LVL0000
 10
        5.929988
 20
       42.233999
 30
        0.000000
 11
        5.508762
 21
       42.387313
 31
        0.000000
  0
LINE
  8
LVL0000
 10
        5.929989
 20
       42.234000
 30
        0.000000
 11
        6.351215
 21
       42.387315
 31
        0.000000
  0
LINE
  8
LVL0000
 10
        5.196000
 20
       41.500011
 30
        0.000000
 11
        5.042685
 21
       41.078785
 31
        0.000000
  0
LINE
  8
LVL0000
 10
        4.434967
 20
       42.550551
 30
        0.000000
 11
        4.657208
 21
       42.772792
 31
        0.000000
  0
LINE
  8
LVL0000
 10
        5.042687
 20
       41.921238
 30
        0.000000
 11
        4.434967
 21
       42.550551
 31
        0.000000
  0
LINE
  8
LVL0000
 10
        5.196001
 20
       41.500012
 30
        0.000000
 11
        5.042687
 21
       41.921238
 31
        0.000000
  0
CIRCLE
  8
LVL0000
 10
       -1.742005
 20
       41.570367
 30
        0.000000
 40
        2.750000
  0
LINE
  8
LVL0000
 10
       -0.802685
 20
       41.921215
 30
        0.000000
 11
        0.474384
 21
       43.198285
 31
        0.000000
  0
LINE
  8
LVL0000
 10
       -1.268785
 20
       42.387315
 30
        0.000000
 11
        0.023065
 21
       43.679164
 31
        0.000000
  0
LINE
  8
LVL0000
 10
       -2.111215
 20
       40.612685
 30
        0.000000
 11
       -3.369923
 21
       39.353977
 31
        0.000000
  0
LINE
  8
LVL0000
 10
       -2.577315
 20
       41.078785
 30
        0.000000
 11
       -3.850803
 21
       39.805297
 31
        0.000000
  0
LINE
  8
LVL0000
 10
       -0.956000
 20
       41.499989
 30
        0.000000
 11
       -0.802685
 21
       41.921215
 31
        0.000000
  0
LINE
  8
LVL0000
 10
       -0.956001
 20
       41.499988
 30
        0.000000
 11
       -0.802687
 21
       41.078762
 31
        0.000000
  0
LINE
  8
LVL0000
 10
       -0.802687
 20
       41.078762
 30
        0.000000
 11
       -0.194967
 21
       40.449449
 31
        0.000000
  0
LINE
  8
LVL0000
 10
       -0.194967
 20
       40.449449
 30
        0.000000
 11
       -0.417208
 21
       40.227208
 31
        0.000000
  0
LINE
  8
LVL0000
 10
       -0.639449
 20
       40.004967
 30
        0.000000
 11
       -0.417208
 21
       40.227208
 31
        0.000000
  0
LINE
  8
LVL0000
 10
       -1.268762
 20
       40.612687
 30
        0.000000
 11
       -0.639449
 21
       40.004967
 31
        0.000000
  0
LINE
  8
LVL0000
 10
       -1.689988
 20
       40.766001
 30
        0.000000
 11
       -1.268762
 21
       40.612687
 31
        0.000000
  0
LINE
  8
LVL0000
 10
       -1.689989
 20
       40.766000
 30
        0.000000
 11
       -2.111215
 21
       40.612685
 31
        0.000000
  0
LINE
  8
LVL0000
 10
       -2.740551
 20
       42.995033
 30
        0.000000
 11
       -2.962792
 21
       42.772792
 31
        0.000000
  0
LINE
  8
LVL0000
 10
       -2.111238
 20
       42.387313
 30
        0.000000
 11
       -2.740551
 21
       42.995033
 31
        0.000000
  0
LINE
  8
LVL0000
 10
       -1.690012
 20
       42.233999
 30
        0.000000
 11
       -2.111238
 21
       42.387313
 31
        0.000000
  0
LINE
  8
LVL0000
 10
       -1.690011
 20
       42.234000
 30
        0.000000
 11
       -1.268785
 21
       42.387315
 31
        0.000000
  0
LINE
  8
LVL0000
 10
       -2.424000
 20
       41.500011
 30
        0.000000
 11
       -2.577315
 21
       41.078785
 31
        0.000000
  0
LINE
  8
LVL0000
 10
       -3.185033
 20
       42.550551
 30
        0.000000
 11
       -2.962792
 21
       42.772792
 31
        0.000000
  0
LINE
  8
LVL0000
 10
       -2.577313
 20
       41.921238
 30
        0.000000
 11
       -3.185033
 21
       42.550551
 31
        0.000000
  0
LINE
  8
LVL0000
 10
       -2.423999
 20
       41.500012
 30
        0.000000
 11
       -2.577313
 21
       41.921238
 31
        0.000000
  0
CIRCLE
  8
LVL0000
 10
        2.067995
 20
       32.570367
 30
        0.000000
 40
        2.750000
  0
LINE
  8
LVL0000
 10
        3.007315
 20
       32.921215
 30
        0.000000
 11
        4.284384
 21
       34.198285
 31
        0.000000
  0
LINE
  8
LVL0000
 10
        2.541215
 20
       33.387315
 30
        0.000000
 11
        3.833065
 21
       34.679164
 31
        0.000000
  0
LINE
  8
LVL0000
 10
        1.698785
 20
       31.612685
 30
        0.000000
 11
        0.440077
 21
       30.353977
 31
        0.000000
  0
LINE
  8
LVL0000
 10
        1.232685
 20
       32.078785
 30
        0.000000
 11
       -0.040803
 21
       30.805297
 31
        0.000000
  0
LINE
  8
LVL0000
 10
        2.854000
 20
       32.499989
 30
        0.000000
 11
        3.007315
 21
       32.921215
 31
        0.000000
  0
LINE
  8
LVL0000
 10
        2.853999
 20
       32.499988
 30
        0.000000
 11
        3.007313
 21
       32.078762
 31
        0.000000
  0
LINE
  8
LVL0000
 10
        3.007313
 20
       32.078762
 30
        0.000000
 11
        3.615033
 21
       31.449449
 31
        0.000000
  0
LINE
  8
LVL0000
 10
        3.615033
 20
       31.449449
 30
        0.000000
 11
        3.392792
 21
       31.227208
 31
        0.000000
  0
LINE
  8
LVL0000
 10
        3.170551
 20
       31.004967
 30
        0.000000
 11
        3.392792
 21
       31.227208
 31
        0.000000
  0
LINE
  8
LVL0000
 10
        2.541238
 20
       31.612687
 30
        0.000000
 11
        3.170551
 21
       31.004967
 31
        0.000000
  0
LINE
  8
LVL0000
 10
        2.120012
 20
       31.766001
 30
        0.000000
 11
        2.541238
 21
       31.612687
 31
        0.000000
  0
LINE
  8
LVL0000
 10
        2.120011
 20
       31.766000
 30
        0.000000
 11
        1.698785
 21
       31.612685
 31
        0.000000
  0
LINE
  8
LVL0000
 10
        1.069449
 20
       33.995033
 30
        0.000000
 11
        0.847208
 21
       33.772792
 31
        0.000000
  0
LINE
  8
LVL0000
 10
        1.698762
 20
       33.387313
 30
        0.000000
 11
        1.069449
 21
       33.995033
 31
        0.000000
  0
LINE
  8
LVL0000
 10
        2.119988
 20
       33.233999
 30
        0.000000
 11
        1.698762
 21
       33.387313
 31
        0.000000
  0
LINE
  8
LVL0000
 10
        2.119989
 20
       33.234000
 30
        0.000000
 11
        2.541215
 21
       33.387315
 31
        0.000000
  0
LINE
  8
LVL0000
 10
        1.386000
 20
       32.500011
 30
        0.000000
 11
        1.232685
 21
       32.078785
 31
        0.000000
  0
LINE
  8
LVL0000
 10
        0.624967
 20
       33.550551
 30
        0.000000
 11
        0.847208
 21
       33.772792
 31
        0.000000
  0
LINE
  8
LVL0000
 10
        1.232687
 20
       32.921238
 30
        0.000000
 11
        0.624967
 21
       33.550551
 31
        0.000000
  0
LINE
  8
LVL0000
 10
        1.386001
 20
       32.500012
 30
        0.000000
 11
        1.232687
 21
       32.921238
 31
        0.000000
  0
CIRCLE
  8
LVL0000
 10
       -5.552005
 20
       32.570367
 30
        0.000000
 40
        2.750000
  0
LINE
  8
LVL0000
 10
       -4.612685
 20
       32.921215
 30
        0.000000
 11
       -3.335616
 21
       34.198285
 31
        0.000000
  0
LINE
  8
LVL0000
 10
       -5.078785
 20
       33.387315
 30
        0.000000
 11
       -3.786935
 21
       34.679164
 31
        0.000000
  0
LINE
  8
LVL0000
 10
       -5.921215
 20
       31.612685
 30
        0.000000
 11
       -7.179923
 21
       30.353977
 31
        0.000000
  0
LINE
  8
LVL0000
 10
       -6.387315
 20
       32.078785
 30
        0.000000
 11
       -7.660803
 21
       30.805297
 31
        0.000000
  0
LINE
  8
LVL0000
 10
       -4.766000
 20
       32.499989
 30
        0.000000
 11
       -4.612685
 21
       32.921215
 31
        0.000000
  0
LINE
  8
LVL0000
 10
       -4.766001
 20
       32.499988
 30
        0.000000
 11
       -4.612687
 21
       32.078762
 31
        0.000000
  0
LINE
  8
LVL0000
 10
       -4.612687
 20
       32.078762
 30
        0.000000
 11
       -4.004967
 21
       31.449449
 31
        0.000000
  0
LINE
  8
LVL0000
 10
       -4.004967
 20
       31.449449
 30
        0.000000
 11
       -4.227208
 21
       31.227208
 31
        0.000000
  0
LINE
  8
LVL0000
 10
       -4.449449
 20
       31.004967
 30
        0.000000
 11
       -4.227208
 21
       31.227208
 31
        0.000000
  0
LINE
  8
LVL0000
 10
       -5.078762
 20
       31.612687
 30
        0.000000
 11
       -4.449449
 21
       31.004967
 31
        0.000000
  0
LINE
  8
LVL0000
 10
       -5.499988
 20
       31.766001
 30
        0.000000
 11
       -5.078762
 21
       31.612687
 31
        0.000000
  0
LINE
  8
LVL0000
 10
       -5.499989
 20
       31.766000
 30
        0.000000
 11
       -5.921215
 21
       31.612685
 31
        0.000000
  0
LINE
  8
LVL0000
 10
       -6.550551
 20
       33.995033
 30
        0.000000
 11
       -6.772792
 21
       33.772792
 31
        0.000000
  0
LINE
  8
LVL0000
 10
       -5.921238
 20
       33.387313
 30
        0.000000
 11
       -6.550551
 21
       33.995033
 31
        0.000000
  0
LINE
  8
LVL0000
 10
       -5.500012
 20
       33.233999
 30
        0.000000
 11
       -5.921238
 21
       33.387313
 31
        0.000000
  0
LINE
  8
LVL0000
 10
       -5.500011
 20
       33.234000
 30
        0.000000
 11
       -5.078785
 21
       33.387315
 31
        0.000000
  0
LINE
  8
LVL0000
 10
       -6.234000
 20
       32.500011
 30
        0.000000
 11
       -6.387315
 21
       32.078785
 31
        0.000000
  0
LINE
  8
LVL0000
 10
       -6.995033
 20
       33.550551
 30
        0.000000
 11
       -6.772792
 21
       33.772792
 31
        0.000000
  0
LINE
  8
LVL0000
 10
       -6.387313
 20
       32.921238
 30
        0.000000
 11
       -6.995033
 21
       33.550551
 31
        0.000000
  0
LINE
  8
LVL0000
 10
       -6.233999
 20
       32.500012
 30
        0.000000
 11
       -6.387313
 21
       32.921238
 31
        0.000000
  0
CIRCLE
  8
LVL0000
 10
       -9.362005
 20
       41.570367
 30
        0.000000
 40
        2.750000
  0
LINE
  8
LVL0000
 10
       -8.422685
 20
       41.921215
 30
        0.000000
 11
       -7.145616
 21
       43.198285
 31
        0.000000
  0
LINE
  8
LVL0000
 10
       -8.888785
 20
       42.387315
 30
        0.000000
 11
       -7.596935
 21
       43.679164
 31
        0.000000
  0
LINE
  8
LVL0000
 10
       -9.731215
 20
       40.612685
 30
        0.000000
 11
      -10.989923
 21
       39.353977
 31
        0.000000
  0
LINE
  8
LVL0000
 10
      -10.197315
 20
       41.078785
 30
        0.000000
 11
      -11.470803
 21
       39.805297
 31
        0.000000
  0
LINE
  8
LVL0000
 10
       -8.576000
 20
       41.499989
 30
        0.000000
 11
       -8.422685
 21
       41.921215
 31
        0.000000
  0
LINE
  8
LVL0000
 10
       -8.576001
 20
       41.499988
 30
        0.000000
 11
       -8.422687
 21
       41.078762
 31
        0.000000
  0
LINE
  8
LVL0000
 10
       -8.422687
 20
       41.078762
 30
        0.000000
 11
       -7.814967
 21
       40.449449
 31
        0.000000
  0
LINE
  8
LVL0000
 10
       -7.814967
 20
       40.449449
 30
        0.000000
 11
       -8.037208
 21
       40.227208
 31
        0.000000
  0
LINE
  8
LVL0000
 10
       -8.259449
 20
       40.004967
 30
        0.000000
 11
       -8.037208
 21
       40.227208
 31
        0.000000
  0
LINE
  8
LVL0000
 10
       -8.888762
 20
       40.612687
 30
        0.000000
 11
       -8.259449
 21
       40.004967
 31
        0.000000
  0
LINE
  8
LVL0000
 10
       -9.309988
 20
       40.766001
 30
        0.000000
 11
       -8.888762
 21
       40.612687
 31
        0.000000
  0
LINE
  8
LVL0000
 10
       -9.309989
 20
       40.766000
 30
        0.000000
 11
       -9.731215
 21
       40.612685
 31
        0.000000
  0
LINE
  8
LVL0000
 10
      -10.360551
 20
       42.995033
 30
        0.000000
 11
      -10.582792
 21
       42.772792
 31
        0.000000
  0
LINE
  8
LVL0000
 10
       -9.731238
 20
       42.387313
 30
        0.000000
 11
      -10.360551
 21
       42.995033
 31
        0.000000
  0
LINE
  8
LVL0000
 10
       -9.310012
 20
       42.233999
 30
        0.000000
 11
       -9.731238
 21
       42.387313
 31
        0.000000
  0
LINE
  8
LVL0000
 10
       -9.310011
 20
       42.234000
 30
        0.000000
 11
       -8.888785
 21
       42.387315
 31
        0.000000
  0
LINE
  8
LVL0000
 10
      -10.044000
 20
       41.500011
 30
        0.000000
 11
      -10.197315
 21
       41.078785
 31
        0.000000
  0
LINE
  8
LVL0000
 10
      -10.805033
 20
       42.550551
 30
        0.000000
 11
      -10.582792
 21
       42.772792
 31
        0.000000
  0
LINE
  8
LVL0000
 10
      -10.197313
 20
       41.921238
 30
        0.000000
 11
      -10.805033
 21
       42.550551
 31
        0.000000
  0
LINE
  8
LVL0000
 10
      -10.043999
 20
       41.500012
 30
        0.000000
 11
      -10.197313
 21
       41.921238
 31
        0.000000
  0
CIRCLE
  8
LVL0000
 10
      -16.982005
 20
       41.570367
 30
        0.000000
 40
        2.750000
  0
LINE
  8
LVL0000
 10
      -16.042685
 20
       41.921215
 30
        0.000000
 11
      -14.765616
 21
       43.198285
 31
        0.000000
  0
LINE
  8
LVL0000
 10
      -16.508785
 20
       42.387315
 30
        0.000000
 11
      -15.216935
 21
       43.679164
 31
        0.000000
  0
LINE
  8
LVL0000
 10
      -17.351215
 20
       40.612685
 30
        0.000000
 11
      -18.609923
 21
       39.353977
 31
        0.000000
  0
LINE
  8
LVL0000
 10
      -17.817315
 20
       41.078785
 30
        0.000000
 11
      -19.090803
 21
       39.805297
 31
        0.000000
  0
LINE
  8
LVL0000
 10
      -16.196000
 20
       41.499989
 30
        0.000000
 11
      -16.042685
 21
       41.921215
 31
        0.000000
  0
LINE
  8
LVL0000
 10
      -16.196001
 20
       41.499988
 30
        0.000000
 11
      -16.042687
 21
       41.078762
 31
        0.000000
  0
LINE
  8
LVL0000
 10
      -16.042687
 20
       41.078762
 30
        0.000000
 11
      -15.434967
 21
       40.449449
 31
        0.000000
  0
LINE
  8
LVL0000
 10
      -15.434967
 20
       40.449449
 30
        0.000000
 11
      -15.657208
 21
       40.227208
 31
        0.000000
  0
LINE
  8
LVL0000
 10
      -15.879449
 20
       40.004967
 30
        0.000000
 11
      -15.657208
 21
       40.227208
 31
        0.000000
  0
LINE
  8
LVL0000
 10
      -16.508762
 20
       40.612687
 30
        0.000000
 11
      -15.879449
 21
       40.004967
 31
        0.000000
  0
LINE
  8
LVL0000
 10
      -16.929988
 20
       40.766001
 30
        0.000000
 11
      -16.508762
 21
       40.612687
 31
        0.000000
  0
LINE
  8
LVL0000
 10
      -16.929989
 20
       40.766000
 30
        0.000000
 11
      -17.351215
 21
       40.612685
 31
        0.000000
  0
LINE
  8
LVL0000
 10
      -17.980551
 20
       42.995033
 30
        0.000000
 11
      -18.202792
 21
       42.772792
 31
        0.000000
  0
LINE
  8
LVL0000
 10
      -17.351238
 20
       42.387313
 30
        0.000000
 11
      -17.980551
 21
       42.995033
 31
        0.000000
  0
LINE
  8
LVL0000
 10
      -16.930012
 20
       42.233999
 30
        0.000000
 11
      -17.351238
 21
       42.387313
 31
        0.000000
  0
LINE
  8
LVL0000
 10
      -16.930011
 20
       42.234000
 30
        0.000000
 11
      -16.508785
 21
       42.387315
 31
        0.000000
  0
LINE
  8
LVL0000
 10
      -17.664000
 20
       41.500011
 30
        0.000000
 11
      -17.817315
 21
       41.078785
 31
        0.000000
  0
LINE
  8
LVL0000
 10
      -18.425033
 20
       42.550551
 30
        0.000000
 11
      -18.202792
 21
       42.772792
 31
        0.000000
  0
LINE
  8
LVL0000
 10
      -17.817313
 20
       41.921238
 30
        0.000000
 11
      -18.425033
 21
       42.550551
 31
        0.000000
  0
LINE
  8
LVL0000
 10
      -17.663999
 20
       41.500012
 30
        0.000000
 11
      -17.817313
 21
       41.921238
 31
        0.000000
  0
CIRCLE
  8
LVL0000
 10
      -13.172005
 20
       32.570367
 30
        0.000000
 40
        2.750000
  0
LINE
  8
LVL0000
 10
      -12.232685
 20
       32.921215
 30
        0.000000
 11
      -10.955616
 21
       34.198285
 31
        0.000000
  0
LINE
  8
LVL0000
 10
      -12.698785
 20
       33.387315
 30
        0.000000
 11
      -11.406935
 21
       34.679164
 31
        0.000000
  0
LINE
  8
LVL0000
 10
      -13.541215
 20
       31.612685
 30
        0.000000
 11
      -14.799923
 21
       30.353977
 31
        0.000000
  0
LINE
  8
LVL0000
 10
      -14.007315
 20
       32.078785
 30
        0.000000
 11
      -15.280803
 21
       30.805297
 31
        0.000000
  0
LINE
  8
LVL0000
 10
      -12.386000
 20
       32.499989
 30
        0.000000
 11
      -12.232685
 21
       32.921215
 31
        0.000000
  0
LINE
  8
LVL0000
 10
      -12.386001
 20
       32.499988
 30
        0.000000
 11
      -12.232687
 21
       32.078762
 31
        0.000000
  0
LINE
  8
LVL0000
 10
      -12.232687
 20
       32.078762
 30
        0.000000
 11
      -11.624967
 21
       31.449449
 31
        0.000000
  0
LINE
  8
LVL0000
 10
      -11.624967
 20
       31.449449
 30
        0.000000
 11
      -11.847208
 21
       31.227208
 31
        0.000000
  0
LINE
  8
LVL0000
 10
      -12.069449
 20
       31.004967
 30
        0.000000
 11
      -11.847208
 21
       31.227208
 31
        0.000000
  0
LINE
  8
LVL0000
 10
      -12.698762
 20
       31.612687
 30
        0.000000
 11
      -12.069449
 21
       31.004967
 31
        0.000000
  0
LINE
  8
LVL0000
 10
      -13.119988
 20
       31.766001
 30
        0.000000
 11
      -12.698762
 21
       31.612687
 31
        0.000000
  0
LINE
  8
LVL0000
 10
      -13.119989
 20
       31.766000
 30
        0.000000
 11
      -13.541215
 21
       31.612685
 31
        0.000000
  0
LINE
  8
LVL0000
 10
      -14.170551
 20
       33.995033
 30
        0.000000
 11
      -14.392792
 21
       33.772792
 31
        0.000000
  0
LINE
  8
LVL0000
 10
      -13.541238
 20
       33.387313
 30
        0.000000
 11
      -14.170551
 21
       33.995033
 31
        0.000000
  0
LINE
  8
LVL0000
 10
      -13.120012
 20
       33.233999
 30
        0.000000
 11
      -13.541238
 21
       33.387313
 31
        0.000000
  0
LINE
  8
LVL0000
 10
      -13.120011
 20
       33.234000
 30
        0.000000
 11
      -12.698785
 21
       33.387315
 31
        0.000000
  0
LINE
  8
LVL0000
 10
      -13.854000
 20
       32.500011
 30
        0.000000
 11
      -14.007315
 21
       32.078785
 31
        0.000000
  0
LINE
  8
LVL0000
 10
      -14.615033
 20
       33.550551
 30
        0.000000
 11
      -14.392792
 21
       33.772792
 31
        0.000000
  0
LINE
  8
LVL0000
 10
      -14.007313
 20
       32.921238
 30
        0.000000
 11
      -14.615033
 21
       33.550551
 31
        0.000000
  0
LINE
  8
LVL0000
 10
      -13.853999
 20
       32.500012
 30
        0.000000
 11
      -14.007313
 21
       32.921238
 31
        0.000000
  0
CIRCLE
  8
LVL0000
 10
      -20.792005
 20
       32.570367
 30
        0.000000
 40
        2.750000
  0
LINE
  8
LVL0000
 10
      -19.852685
 20
       32.921215
 30
        0.000000
 11
      -18.575616
 21
       34.198285
 31
        0.000000
  0
LINE
  8
LVL0000
 10
      -20.318785
 20
       33.387315
 30
        0.000000
 11
      -19.026935
 21
       34.679164
 31
        0.000000
  0
LINE
  8
LVL0000
 10
      -21.161215
 20
       31.612685
 30
        0.000000
 11
      -22.419923
 21
       30.353977
 31
        0.000000
  0
LINE
  8
LVL0000
 10
      -21.627315
 20
       32.078785
 30
        0.000000
 11
      -22.900803
 21
       30.805297
 31
        0.000000
  0
LINE
  8
LVL0000
 10
      -20.006000
 20
       32.499989
 30
        0.000000
 11
      -19.852685
 21
       32.921215
 31
        0.000000
  0
LINE
  8
LVL0000
 10
      -20.006001
 20
       32.499988
 30
        0.000000
 11
      -19.852687
 21
       32.078762
 31
        0.000000
  0
LINE
  8
LVL0000
 10
      -19.852687
 20
       32.078762
 30
        0.000000
 11
      -19.244967
 21
       31.449449
 31
        0.000000
  0
LINE
  8
LVL0000
 10
      -19.244967
 20
       31.449449
 30
        0.000000
 11
      -19.467208
 21
       31.227208
 31
        0.000000
  0
LINE
  8
LVL0000
 10
      -19.689449
 20
       31.004967
 30
        0.000000
 11
      -19.467208
 21
       31.227208
 31
        0.000000
  0
LINE
  8
LVL0000
 10
      -20.318762
 20
       31.612687
 30
        0.000000
 11
      -19.689449
 21
       31.004967
 31
        0.000000
  0
LINE
  8
LVL0000
 10
      -20.739988
 20
       31.766001
 30
        0.000000
 11
      -20.318762
 21
       31.612687
 31
        0.000000
  0
LINE
  8
LVL0000
 10
      -20.739989
 20
       31.766000
 30
        0.000000
 11
      -21.161215
 21
       31.612685
 31
        0.000000
  0
LINE
  8
LVL0000
 10
      -21.790551
 20
       33.995033
 30
        0.000000
 11
      -22.012792
 21
       33.772792
 31
        0.000000
  0
LINE
  8
LVL0000
 10
      -21.161238
 20
       33.387313
 30
        0.000000
 11
      -21.790551
 21
       33.995033
 31
        0.000000
  0
LINE
  8
LVL0000
 10
      -20.740012
 20
       33.233999
 30
        0.000000
 11
      -21.161238
 21
       33.387313
 31
        0.000000
  0
LINE
  8
LVL0000
 10
      -20.740011
 20
       33.234000
 30
        0.000000
 11
      -20.318785
 21
       33.387315
 31
        0.000000
  0
LINE
  8
LVL0000
 10
      -21.474000
 20
       32.500011
 30
        0.000000
 11
      -21.627315
 21
       32.078785
 31
        0.000000
  0
LINE
  8
LVL0000
 10
      -22.235033
 20
       33.550551
 30
        0.000000
 11
      -22.012792
 21
       33.772792
 31
        0.000000
  0
LINE
  8
LVL0000
 10
      -21.627313
 20
       32.921238
 30
        0.000000
 11
      -22.235033
 21
       33.550551
 31
        0.000000
  0
LINE
  8
LVL0000
 10
      -21.473999
 20
       32.500012
 30
        0.000000
 11
      -21.627313
 21
       32.921238
 31
        0.000000
  0
CIRCLE
  8
LVL0000
 10
      -24.602005
 20
       41.570367
 30
        0.000000
 40
        2.750000
  0
LINE
  8
LVL0000
 10
      -23.662685
 20
       41.921215
 30
        0.000000
 11
      -22.385616
 21
       43.198285
 31
        0.000000
  0
LINE
  8
LVL0000
 10
      -24.128785
 20
       42.387315
 30
        0.000000
 11
      -22.836935
 21
       43.679164
 31
        0.000000
  0
LINE
  8
LVL0000
 10
      -24.971215
 20
       40.612685
 30
        0.000000
 11
      -26.229923
 21
       39.353977
 31
        0.000000
  0
LINE
  8
LVL0000
 10
      -25.437315
 20
       41.078785
 30
        0.000000
 11
      -26.710803
 21
       39.805297
 31
        0.000000
  0
LINE
  8
LVL0000
 10
      -23.816000
 20
       41.499989
 30
        0.000000
 11
      -23.662685
 21
       41.921215
 31
        0.000000
  0
LINE
  8
LVL0000
 10
      -23.816001
 20
       41.499988
 30
        0.000000
 11
      -23.662687
 21
       41.078762
 31
        0.000000
  0
LINE
  8
LVL0000
 10
      -23.662687
 20
       41.078762
 30
        0.000000
 11
      -23.054967
 21
       40.449449
 31
        0.000000
  0
LINE
  8
LVL0000
 10
      -23.054967
 20
       40.449449
 30
        0.000000
 11
      -23.277208
 21
       40.227208
 31
        0.000000
  0
LINE
  8
LVL0000
 10
      -23.499449
 20
       40.004967
 30
        0.000000
 11
      -23.277208
 21
       40.227208
 31
        0.000000
  0
LINE
  8
LVL0000
 10
      -24.128762
 20
       40.612687
 30
        0.000000
 11
      -23.499449
 21
       40.004967
 31
        0.000000
  0
LINE
  8
LVL0000
 10
      -24.549988
 20
       40.766001
 30
        0.000000
 11
      -24.128762
 21
       40.612687
 31
        0.000000
  0
LINE
  8
LVL0000
 10
      -24.549989
 20
       40.766000
 30
        0.000000
 11
      -24.971215
 21
       40.612685
 31
        0.000000
  0
LINE
  8
LVL0000
 10
      -25.600551
 20
       42.995033
 30
        0.000000
 11
      -25.822792
 21
       42.772792
 31
        0.000000
  0
LINE
  8
LVL0000
 10
      -24.971238
 20
       42.387313
 30
        0.000000
 11
      -25.600551
 21
       42.995033
 31
        0.000000
  0
LINE
  8
LVL0000
 10
      -24.550012
 20
       42.233999
 30
        0.000000
 11
      -24.971238
 21
       42.387313
 31
        0.000000
  0
LINE
  8
LVL0000
 10
      -24.550011
 20
       42.234000
 30
        0.000000
 11
      -24.128785
 21
       42.387315
 31
        0.000000
  0
LINE
  8
LVL0000
 10
      -25.284000
 20
       41.500011
 30
        0.000000
 11
      -25.437315
 21
       41.078785
 31
        0.000000
  0
LINE
  8
LVL0000
 10
      -26.045033
 20
       42.550551
 30
        0.000000
 11
      -25.822792
 21
       42.772792
 31
        0.000000
  0
LINE
  8
LVL0000
 10
      -25.437313
 20
       41.921238
 30
        0.000000
 11
      -26.045033
 21
       42.550551
 31
        0.000000
  0
LINE
  8
LVL0000
 10
      -25.283999
 20
       41.500012
 30
        0.000000
 11
      -25.437313
 21
       41.921238
 31
        0.000000
  0
CIRCLE
  8
LVL0000
 10
      -32.222005
 20
       41.570367
 30
        0.000000
 40
        2.750000
  0
LINE
  8
LVL0000
 10
      -31.282685
 20
       41.921215
 30
        0.000000
 11
      -30.005616
 21
       43.198285
 31
        0.000000
  0
LINE
  8
LVL0000
 10
      -31.748785
 20
       42.387315
 30
        0.000000
 11
      -30.456935
 21
       43.679164
 31
        0.000000
  0
LINE
  8
LVL0000
 10
      -32.591215
 20
       40.612685
 30
        0.000000
 11
      -33.849923
 21
       39.353977
 31
        0.000000
  0
LINE
  8
LVL0000
 10
      -33.057315
 20
       41.078785
 30
        0.000000
 11
      -34.330803
 21
       39.805297
 31
        0.000000
  0
LINE
  8
LVL0000
 10
      -31.436000
 20
       41.499989
 30
        0.000000
 11
      -31.282685
 21
       41.921215
 31
        0.000000
  0
LINE
  8
LVL0000
 10
      -31.436001
 20
       41.499988
 30
        0.000000
 11
      -31.282687
 21
       41.078762
 31
        0.000000
  0
LINE
  8
LVL0000
 10
      -31.282687
 20
       41.078762
 30
        0.000000
 11
      -30.674967
 21
       40.449449
 31
        0.000000
  0
LINE
  8
LVL0000
 10
      -30.674967
 20
       40.449449
 30
        0.000000
 11
      -30.897208
 21
       40.227208
 31
        0.000000
  0
LINE
  8
LVL0000
 10
      -31.119449
 20
       40.004967
 30
        0.000000
 11
      -30.897208
 21
       40.227208
 31
        0.000000
  0
LINE
  8
LVL0000
 10
      -31.748762
 20
       40.612687
 30
        0.000000
 11
      -31.119449
 21
       40.004967
 31
        0.000000
  0
LINE
  8
LVL0000
 10
      -32.169988
 20
       40.766001
 30
        0.000000
 11
      -31.748762
 21
       40.612687
 31
        0.000000
  0
LINE
  8
LVL0000
 10
      -32.169989
 20
       40.766000
 30
        0.000000
 11
      -32.591215
 21
       40.612685
 31
        0.000000
  0
LINE
  8
LVL0000
 10
      -33.220551
 20
       42.995033
 30
        0.000000
 11
      -33.442792
 21
       42.772792
 31
        0.000000
  0
LINE
  8
LVL0000
 10
      -32.591238
 20
       42.387313
 30
        0.000000
 11
      -33.220551
 21
       42.995033
 31
        0.000000
  0
LINE
  8
LVL0000
 10
      -32.170012
 20
       42.233999
 30
        0.000000
 11
      -32.591238
 21
       42.387313
 31
        0.000000
  0
LINE
  8
LVL0000
 10
      -32.170011
 20
       42.234000
 30
        0.000000
 11
      -31.748785
 21
       42.387315
 31
        0.000000
  0
LINE
  8
LVL0000
 10
      -32.904000
 20
       41.500011
 30
        0.000000
 11
      -33.057315
 21
       41.078785
 31
        0.000000
  0
LINE
  8
LVL0000
 10
      -33.665033
 20
       42.550551
 30
        0.000000
 11
      -33.442792
 21
       42.772792
 31
        0.000000
  0
LINE
  8
LVL0000
 10
      -33.057313
 20
       41.921238
 30
        0.000000
 11
      -33.665033
 21
       42.550551
 31
        0.000000
  0
LINE
  8
LVL0000
 10
      -32.903999
 20
       41.500012
 30
        0.000000
 11
      -33.057313
 21
       41.921238
 31
        0.000000
  0
CIRCLE
  8
LVL0000
 10
      -28.412005
 20
       32.570367
 30
        0.000000
 40
        2.750000
  0
LINE
  8
LVL0000
 10
      -27.472685
 20
       32.921215
 30
        0.000000
 11
      -26.195616
 21
       34.198285
 31
        0.000000
  0
LINE
  8
LVL0000
 10
      -27.938785
 20
       33.387315
 30
        0.000000
 11
      -26.646935
 21
       34.679164
 31
        0.000000
  0
LINE
  8
LVL0000
 10
      -28.781215
 20
       31.612685
 30
        0.000000
 11
      -30.039923
 21
       30.353977
 31
        0.000000
  0
LINE
  8
LVL0000
 10
      -29.247315
 20
       32.078785
 30
        0.000000
 11
      -30.520803
 21
       30.805297
 31
        0.000000
  0
LINE
  8
LVL0000
 10
      -27.626000
 20
       32.499989
 30
        0.000000
 11
      -27.472685
 21
       32.921215
 31
        0.000000
  0
LINE
  8
LVL0000
 10
      -27.626001
 20
       32.499988
 30
        0.000000
 11
      -27.472687
 21
       32.078762
 31
        0.000000
  0
LINE
  8
LVL0000
 10
      -27.472687
 20
       32.078762
 30
        0.000000
 11
      -26.864967
 21
       31.449449
 31
        0.000000
  0
LINE
  8
LVL0000
 10
      -26.864967
 20
       31.449449
 30
        0.000000
 11
      -27.087208
 21
       31.227208
 31
        0.000000
  0
LINE
  8
LVL0000
 10
      -27.309449
 20
       31.004967
 30
        0.000000
 11
      -27.087208
 21
       31.227208
 31
        0.000000
  0
LINE
  8
LVL0000
 10
      -27.938762
 20
       31.612687
 30
        0.000000
 11
      -27.309449
 21
       31.004967
 31
        0.000000
  0
LINE
  8
LVL0000
 10
      -28.359988
 20
       31.766001
 30
        0.000000
 11
      -27.938762
 21
       31.612687
 31
        0.000000
  0
LINE
  8
LVL0000
 10
      -28.359989
 20
       31.766000
 30
        0.000000
 11
      -28.781215
 21
       31.612685
 31
        0.000000
  0
LINE
  8
LVL0000
 10
      -29.410551
 20
       33.995033
 30
        0.000000
 11
      -29.632792
 21
       33.772792
 31
        0.000000
  0
LINE
  8
LVL0000
 10
      -28.781238
 20
       33.387313
 30
        0.000000
 11
      -29.410551
 21
       33.995033
 31
        0.000000
  0
LINE
  8
LVL0000
 10
      -28.360012
 20
       33.233999
 30
        0.000000
 11
      -28.781238
 21
       33.387313
 31
        0.000000
  0
LINE
  8
LVL0000
 10
      -28.360011
 20
       33.234000
 30
        0.000000
 11
      -27.938785
 21
       33.387315
 31
        0.000000
  0
LINE
  8
LVL0000
 10
      -29.094000
 20
       32.500011
 30
        0.000000
 11
      -29.247315
 21
       32.078785
 31
        0.000000
  0
LINE
  8
LVL0000
 10
      -29.855033
 20
       33.550551
 30
        0.000000
 11
      -29.632792
 21
       33.772792
 31
        0.000000
  0
LINE
  8
LVL0000
 10
      -29.247313
 20
       32.921238
 30
        0.000000
 11
      -29.855033
 21
       33.550551
 31
        0.000000
  0
LINE
  8
LVL0000
 10
      -29.093999
 20
       32.500012
 30
        0.000000
 11
      -29.247313
 21
       32.921238
 31
        0.000000
  0
CIRCLE
  8
LVL0000
 10
      -36.032005
 20
       32.570367
 30
        0.000000
 40
        2.750000
  0
LINE
  8
LVL0000
 10
      -35.092685
 20
       32.921215
 30
        0.000000
 11
      -33.815616
 21
       34.198285
 31
        0.000000
  0
LINE
  8
LVL0000
 10
      -35.558785
 20
       33.387315
 30
        0.000000
 11
      -34.266935
 21
       34.679164
 31
        0.000000
  0
LINE
  8
LVL0000
 10
      -36.401215
 20
       31.612685
 30
        0.000000
 11
      -37.659923
 21
       30.353977
 31
        0.000000
  0
LINE
  8
LVL0000
 10
      -36.867315
 20
       32.078785
 30
        0.000000
 11
      -38.140803
 21
       30.805297
 31
        0.000000
  0
LINE
  8
LVL0000
 10
      -35.246000
 20
       32.499989
 30
        0.000000
 11
      -35.092685
 21
       32.921215
 31
        0.000000
  0
LINE
  8
LVL0000
 10
      -35.246001
 20
       32.499988
 30
        0.000000
 11
      -35.092687
 21
       32.078762
 31
        0.000000
  0
LINE
  8
LVL0000
 10
      -35.092687
 20
       32.078762
 30
        0.000000
 11
      -34.484967
 21
       31.449449
 31
        0.000000
  0
LINE
  8
LVL0000
 10
      -34.484967
 20
       31.449449
 30
        0.000000
 11
      -34.707208
 21
       31.227208
 31
        0.000000
  0
LINE
  8
LVL0000
 10
      -34.929449
 20
       31.004967
 30
        0.000000
 11
      -34.707208
 21
       31.227208
 31
        0.000000
  0
LINE
  8
LVL0000
 10
      -35.558762
 20
       31.612687
 30
        0.000000
 11
      -34.929449
 21
       31.004967
 31
        0.000000
  0
LINE
  8
LVL0000
 10
      -35.979988
 20
       31.766001
 30
        0.000000
 11
      -35.558762
 21
       31.612687
 31
        0.000000
  0
LINE
  8
LVL0000
 10
      -35.979989
 20
       31.766000
 30
        0.000000
 11
      -36.401215
 21
       31.612685
 31
        0.000000
  0
LINE
  8
LVL0000
 10
      -37.030551
 20
       33.995033
 30
        0.000000
 11
      -37.252792
 21
       33.772792
 31
        0.000000
  0
LINE
  8
LVL0000
 10
      -36.401238
 20
       33.387313
 30
        0.000000
 11
      -37.030551
 21
       33.995033
 31
        0.000000
  0
LINE
  8
LVL0000
 10
      -35.980012
 20
       33.233999
 30
        0.000000
 11
      -36.401238
 21
       33.387313
 31
        0.000000
  0
LINE
  8
LVL0000
 10
      -35.980011
 20
       33.234000
 30
        0.000000
 11
      -35.558785
 21
       33.387315
 31
        0.000000
  0
LINE
  8
LVL0000
 10
      -36.714000
 20
       32.500011
 30
        0.000000
 11
      -36.867315
 21
       32.078785
 31
        0.000000
  0
LINE
  8
LVL0000
 10
      -37.475033
 20
       33.550551
 30
        0.000000
 11
      -37.252792
 21
       33.772792
 31
        0.000000
  0
LINE
  8
LVL0000
 10
      -36.867313
 20
       32.921238
 30
        0.000000
 11
      -37.475033
 21
       33.550551
 31
        0.000000
  0
LINE
  8
LVL0000
 10
      -36.713999
 20
       32.500012
 30
        0.000000
 11
      -36.867313
 21
       32.921238
 31
        0.000000
  0
CIRCLE
  8
LVL0000
 10
      -39.842005
 20
       41.570367
 30
        0.000000
 40
        2.750000
  0
LINE
  8
LVL0000
 10
      -38.902685
 20
       41.921215
 30
        0.000000
 11
      -37.625616
 21
       43.198285
 31
        0.000000
  0
LINE
  8
LVL0000
 10
      -39.368785
 20
       42.387315
 30
        0.000000
 11
      -38.076935
 21
       43.679164
 31
        0.000000
  0
LINE
  8
LVL0000
 10
      -40.211215
 20
       40.612685
 30
        0.000000
 11
      -41.469923
 21
       39.353977
 31
        0.000000
  0
LINE
  8
LVL0000
 10
      -40.677315
 20
       41.078785
 30
        0.000000
 11
      -41.950803
 21
       39.805297
 31
        0.000000
  0
LINE
  8
LVL0000
 10
      -39.056000
 20
       41.499989
 30
        0.000000
 11
      -38.902685
 21
       41.921215
 31
        0.000000
  0
LINE
  8
LVL0000
 10
      -39.056001
 20
       41.499988
 30
        0.000000
 11
      -38.902687
 21
       41.078762
 31
        0.000000
  0
LINE
  8
LVL0000
 10
      -38.902687
 20
       41.078762
 30
        0.000000
 11
      -38.294967
 21
       40.449449
 31
        0.000000
  0
LINE
  8
LVL0000
 10
      -38.294967
 20
       40.449449
 30
        0.000000
 11
      -38.517208
 21
       40.227208
 31
        0.000000
  0
LINE
  8
LVL0000
 10
      -38.739449
 20
       40.004967
 30
        0.000000
 11
      -38.517208
 21
       40.227208
 31
        0.000000
  0
LINE
  8
LVL0000
 10
      -39.368762
 20
       40.612687
 30
        0.000000
 11
      -38.739449
 21
       40.004967
 31
        0.000000
  0
LINE
  8
LVL0000
 10
      -39.789988
 20
       40.766001
 30
        0.000000
 11
      -39.368762
 21
       40.612687
 31
        0.000000
  0
LINE
  8
LVL0000
 10
      -39.789989
 20
       40.766000
 30
        0.000000
 11
      -40.211215
 21
       40.612685
 31
        0.000000
  0
LINE
  8
LVL0000
 10
      -40.840551
 20
       42.995033
 30
        0.000000
 11
      -41.062792
 21
       42.772792
 31
        0.000000
  0
LINE
  8
LVL0000
 10
      -40.211238
 20
       42.387313
 30
        0.000000
 11
      -40.840551
 21
       42.995033
 31
        0.000000
  0
LINE
  8
LVL0000
 10
      -39.790012
 20
       42.233999
 30
        0.000000
 11
      -40.211238
 21
       42.387313
 31
        0.000000
  0
LINE
  8
LVL0000
 10
      -39.790011
 20
       42.234000
 30
        0.000000
 11
      -39.368785
 21
       42.387315
 31
        0.000000
  0
LINE
  8
LVL0000
 10
      -40.524000
 20
       41.500011
 30
        0.000000
 11
      -40.677315
 21
       41.078785
 31
        0.000000
  0
LINE
  8
LVL0000
 10
      -41.285033
 20
       42.550551
 30
        0.000000
 11
      -41.062792
 21
       42.772792
 31
        0.000000
  0
LINE
  8
LVL0000
 10
      -40.677313
 20
       41.921238
 30
        0.000000
 11
      -41.285033
 21
       42.550551
 31
        0.000000
  0
LINE
  8
LVL0000
 10
      -40.523999
 20
       41.500012
 30
        0.000000
 11
      -40.677313
 21
       41.921238
 31
        0.000000
  0
CIRCLE
  8
LVL0000
 10
      -43.652005
 20
       32.570367
 30
        0.000000
 40
        2.750000
  0
LINE
  8
LVL0000
 10
      -42.712685
 20
       32.921215
 30
        0.000000
 11
      -41.435616
 21
       34.198285
 31
        0.000000
  0
LINE
  8
LVL0000
 10
      -43.178785
 20
       33.387315
 30
        0.000000
 11
      -41.886935
 21
       34.679164
 31
        0.000000
  0
LINE
  8
LVL0000
 10
      -44.021215
 20
       31.612685
 30
        0.000000
 11
      -45.279923
 21
       30.353977
 31
        0.000000
  0
LINE
  8
LVL0000
 10
      -44.487315
 20
       32.078785
 30
        0.000000
 11
      -45.760803
 21
       30.805297
 31
        0.000000
  0
LINE
  8
LVL0000
 10
      -42.866000
 20
       32.499989
 30
        0.000000
 11
      -42.712685
 21
       32.921215
 31
        0.000000
  0
LINE
  8
LVL0000
 10
      -42.866001
 20
       32.499988
 30
        0.000000
 11
      -42.712687
 21
       32.078762
 31
        0.000000
  0
LINE
  8
LVL0000
 10
      -42.712687
 20
       32.078762
 30
        0.000000
 11
      -42.104967
 21
       31.449449
 31
        0.000000
  0
LINE
  8
LVL0000
 10
      -42.104967
 20
       31.449449
 30
        0.000000
 11
      -42.327208
 21
       31.227208
 31
        0.000000
  0
LINE
  8
LVL0000
 10
      -42.549449
 20
       31.004967
 30
        0.000000
 11
      -42.327208
 21
       31.227208
 31
        0.000000
  0
LINE
  8
LVL0000
 10
      -43.178762
 20
       31.612687
 30
        0.000000
 11
      -42.549449
 21
       31.004967
 31
        0.000000
  0
LINE
  8
LVL0000
 10
      -43.599988
 20
       31.766001
 30
        0.000000
 11
      -43.178762
 21
       31.612687
 31
        0.000000
  0
LINE
  8
LVL0000
 10
      -43.599989
 20
       31.766000
 30
        0.000000
 11
      -44.021215
 21
       31.612685
 31
        0.000000
  0
LINE
  8
LVL0000
 10
      -44.650551
 20
       33.995033
 30
        0.000000
 11
      -44.872792
 21
       33.772792
 31
        0.000000
  0
LINE
  8
LVL0000
 10
      -44.021238
 20
       33.387313
 30
        0.000000
 11
      -44.650551
 21
       33.995033
 31
        0.000000
  0
LINE
  8
LVL0000
 10
      -43.600012
 20
       33.233999
 30
        0.000000
 11
      -44.021238
 21
       33.387313
 31
        0.000000
  0
LINE
  8
LVL0000
 10
      -43.600011
 20
       33.234000
 30
        0.000000
 11
      -43.178785
 21
       33.387315
 31
        0.000000
  0
LINE
  8
LVL0000
 10
      -44.334000
 20
       32.500011
 30
        0.000000
 11
      -44.487315
 21
       32.078785
 31
        0.000000
  0
LINE
  8
LVL0000
 10
      -45.095033
 20
       33.550551
 30
        0.000000
 11
      -44.872792
 21
       33.772792
 31
        0.000000
  0
LINE
  8
LVL0000
 10
      -44.487313
 20
       32.921238
 30
        0.000000
 11
      -45.095033
 21
       33.550551
 31
        0.000000
  0
LINE
  8
LVL0000
 10
      -44.333999
 20
       32.500012
 30
        0.000000
 11
      -44.487313
 21
       32.921238
 31
        0.000000
  0
CIRCLE
  8
LVL0000
 10
       32.547995
 20
       32.570367
 30
        0.000000
 40
        2.750000
  0
LINE
  8
LVL0000
 10
       33.487315
 20
       32.921215
 30
        0.000000
 11
       34.764384
 21
       34.198285
 31
        0.000000
  0
LINE
  8
LVL0000
 10
       33.021215
 20
       33.387315
 30
        0.000000
 11
       34.313065
 21
       34.679164
 31
        0.000000
  0
LINE
  8
LVL0000
 10
       32.178785
 20
       31.612685
 30
        0.000000
 11
       30.920077
 21
       30.353977
 31
        0.000000
  0
LINE
  8
LVL0000
 10
       31.712685
 20
       32.078785
 30
        0.000000
 11
       30.439197
 21
       30.805297
 31
        0.000000
  0
LINE
  8
LVL0000
 10
       33.334000
 20
       32.499989
 30
        0.000000
 11
       33.487315
 21
       32.921215
 31
        0.000000
  0
LINE
  8
LVL0000
 10
       33.333999
 20
       32.499988
 30
        0.000000
 11
       33.487313
 21
       32.078762
 31
        0.000000
  0
LINE
  8
LVL0000
 10
       33.487313
 20
       32.078762
 30
        0.000000
 11
       34.095033
 21
       31.449449
 31
        0.000000
  0
LINE
  8
LVL0000
 10
       34.095033
 20
       31.449449
 30
        0.000000
 11
       33.872792
 21
       31.227208
 31
        0.000000
  0
LINE
  8
LVL0000
 10
       33.650551
 20
       31.004967
 30
        0.000000
 11
       33.872792
 21
       31.227208
 31
        0.000000
  0
LINE
  8
LVL0000
 10
       33.021238
 20
       31.612687
 30
        0.000000
 11
       33.650551
 21
       31.004967
 31
        0.000000
  0
LINE
  8
LVL0000
 10
       32.600012
 20
       31.766001
 30
        0.000000
 11
       33.021238
 21
       31.612687
 31
        0.000000
  0
LINE
  8
LVL0000
 10
       32.600011
 20
       31.766000
 30
        0.000000
 11
       32.178785
 21
       31.612685
 31
        0.000000
  0
LINE
  8
LVL0000
 10
       31.549449
 20
       33.995033
 30
        0.000000
 11
       31.327208
 21
       33.772792
 31
        0.000000
  0
LINE
  8
LVL0000
 10
       32.178762
 20
       33.387313
 30
        0.000000
 11
       31.549449
 21
       33.995033
 31
        0.000000
  0
LINE
  8
LVL0000
 10
       32.599988
 20
       33.233999
 30
        0.000000
 11
       32.178762
 21
       33.387313
 31
        0.000000
  0
LINE
  8
LVL0000
 10
       32.599989
 20
       33.234000
 30
        0.000000
 11
       33.021215
 21
       33.387315
 31
        0.000000
  0
LINE
  8
LVL0000
 10
       31.866000
 20
       32.500011
 30
        0.000000
 11
       31.712685
 21
       32.078785
 31
        0.000000
  0
LINE
  8
LVL0000
 10
       31.104967
 20
       33.550551
 30
        0.000000
 11
       31.327208
 21
       33.772792
 31
        0.000000
  0
LINE
  8
LVL0000
 10
       31.712687
 20
       32.921238
 30
        0.000000
 11
       31.104967
 21
       33.550551
 31
        0.000000
  0
LINE
  8
LVL0000
 10
       31.866001
 20
       32.500012
 30
        0.000000
 11
       31.712687
 21
       32.921238
 31
        0.000000
  0
LINE
  8
LVL0000
 10
      -57.000000
 20
       47.000000
 30
        0.000000
 11
       46.000000
 21
       47.000000
 31
        0.000000
  0
LINE
  8
LVL0000
 10
      -57.000000
 20
       27.000000
 30
        0.000000
 11
       46.000000
 21
       27.000000
 31
        0.000000
  0
LINE
  8
LVL0000
 10
      -46.810000
 20
       28.500000
 30
        0.000000
 11
      -40.390000
 21
       28.500000
 31
        0.000000
  0
LINE
  8
LVL0000
 10
      -39.190000
 20
       28.500000
 30
        0.000000
 11
      -32.770000
 21
       28.500000
 31
        0.000000
  0
LINE
  8
LVL0000
 10
      -31.570000
 20
       28.500000
 30
        0.000000
 11
      -25.150000
 21
       28.500000
 31
        0.000000
  0
LINE
  8
LVL0000
 10
      -23.950000
 20
       28.500000
 30
        0.000000
 11
      -17.530000
 21
       28.500000
 31
        0.000000
  0
LINE
  8
LVL0000
 10
      -16.330000
 20
       28.500000
 30
        0.000000
 11
       -9.910000
 21
       28.500000
 31
        0.000000
  0
LINE
  8
LVL0000
 10
       -8.710000
 20
       28.500000
 30
        0.000000
 11
       -2.290000
 21
       28.500000
 31
        0.000000
  0
LINE
  8
LVL0000
 10
       -1.090000
 20
       28.500000
 30
        0.000000
 11
        5.330000
 21
       28.500000
 31
        0.000000
  0
LINE
  8
LVL0000
 10
        6.530000
 20
       28.500000
 30
        0.000000
 11
       12.950000
 21
       28.500000
 31
        0.000000
  0
LINE
  8
LVL0000
 10
       14.150000
 20
       28.500000
 30
        0.000000
 11
       20.570000
 21
       28.500000
 31
        0.000000
  0
LINE
  8
LVL0000
 10
       21.770000
 20
       28.500000
 30
        0.000000
 11
       28.190000
 21
       28.500000
 31
        0.000000
  0
LINE
  8
LVL0000
 10
       29.390000
 20
       28.500000
 30
        0.000000
 11
       35.810000
 21
       28.500000
 31
        0.000000
  0
LINE
  8
LVL0000
 10
       29.390000
 20
       28.500000
 30
        0.000000
 11
       29.390000
 21
       37.500000
 31
        0.000000
  0
LINE
  8
LVL0000
 10
       21.770000
 20
       28.500000
 30
        0.000000
 11
       21.770000
 21
       37.500000
 31
        0.000000
  0
LINE
  8
LVL0000
 10
       28.190000
 20
       28.500000
 30
        0.000000
 11
       28.190000
 21
       37.500000
 31
        0.000000
  0
LINE
  8
LVL0000
 10
       20.570000
 20
       28.500000
 30
        0.000000
 11
       20.570000
 21
       37.500000
 31
        0.000000
  0
LINE
  8
LVL0000
 10
       14.150000
 20
       28.500000
 30
        0.000000
 11
       14.150000
 21
       37.500000
 31
        0.000000
  0
LINE
  8
LVL0000
 10
        6.530000
 20
       28.500000
 30
        0.000000
 11
        6.530000
 21
       37.500000
 31
        0.000000
  0
LINE
  8
LVL0000
 10
       12.950000
 20
       28.500000
 30
        0.000000
 11
       12.950000
 21
       37.500000
 31
        0.000000
  0
LINE
  8
LVL0000
 10
        5.330000
 20
       28.500000
 30
        0.000000
 11
        5.330000
 21
       37.500000
 31
        0.000000
  0
LINE
  8
LVL0000
 10
       -1.090000
 20
       28.500000
 30
        0.000000
 11
       -1.090000
 21
       37.500000
 31
        0.000000
  0
LINE
  8
LVL0000
 10
       -8.710000
 20
       28.500000
 30
        0.000000
 11
       -8.710000
 21
       37.500000
 31
        0.000000
  0
LINE
  8
LVL0000
 10
       -2.290000
 20
       28.500000
 30
        0.000000
 11
       -2.290000
 21
       37.500000
 31
        0.000000
  0
LINE
  8
LVL0000
 10
       -9.910000
 20
       28.500000
 30
        0.000000
 11
       -9.910000
 21
       37.500000
 31
        0.000000
  0
LINE
  8
LVL0000
 10
      -16.330000
 20
       28.500000
 30
        0.000000
 11
      -16.330000
 21
       37.500000
 31
        0.000000
  0
LINE
  8
LVL0000
 10
      -23.950000
 20
       28.500000
 30
        0.000000
 11
      -23.950000
 21
       37.500000
 31
        0.000000
  0
LINE
  8
LVL0000
 10
      -17.530000
 20
       28.500000
 30
        0.000000
 11
      -17.530000
 21
       37.500000
 31
        0.000000
  0
LINE
  8
LVL0000
 10
      -25.150000
 20
       28.500000
 30
        0.000000
 11
      -25.150000
 21
       37.500000
 31
        0.000000
  0
LINE
  8
LVL0000
 10
      -31.570000
 20
       28.500000
 30
        0.000000
 11
      -31.570000
 21
       37.500000
 31
        0.000000
  0
LINE
  8
LVL0000
 10
      -39.190000
 20
       28.500000
 30
        0.000000
 11
      -39.190000
 21
       37.500000
 31
        0.000000
  0
LINE
  8
LVL0000
 10
      -32.770000
 20
       28.500000
 30
        0.000000
 11
      -32.770000
 21
       37.500000
 31
        0.000000
  0
LINE
  8
LVL0000
 10
      -40.390000
 20
       28.500000
 30
        0.000000
 11
      -40.390000
 21
       37.500000
 31
        0.000000
  0
LINE
  8
LVL0000
 10
      -46.810000
 20
       28.500000
 30
        0.000000
 11
      -46.810000
 21
       47.000000
 31
        0.000000
  0
LINE
  8
LVL0000
 10
       35.810000
 20
       28.500000
 30
        0.000000
 11
       35.810000
 21
       47.000000
 31
        0.000000
  0
LINE
  8
LVL0000
 10
      -43.000000
 20
       37.500000
 30
        0.000000
 11
      -43.000000
 21
       47.000000
 31
        0.000000
  0
LINE
  8
LVL0000
 10
      -36.580000
 20
       37.500000
 30
        0.000000
 11
      -36.580000
 21
       47.000000
 31
        0.000000
  0
LINE
  8
LVL0000
 10
      -46.810000
 20
       36.500000
 30
        0.000000
 11
      -40.390000
 21
       36.500000
 31
        0.000000
  0
LINE
  8
LVL0000
 10
      -43.000000
 20
       45.500000
 30
        0.000000
 11
      -36.580000
 21
       45.500000
 31
        0.000000
  0
LINE
  8
LVL0000
 10
      -39.190000
 20
       36.500000
 30
        0.000000
 11
      -32.770000
 21
       36.500000
 31
        0.000000
  0
LINE
  8
LVL0000
 10
      -31.570000
 20
       36.500000
 30
        0.000000
 11
      -25.150000
 21
       36.500000
 31
        0.000000
  0
LINE
  8
LVL0000
 10
      -35.380000
 20
       45.500000
 30
        0.000000
 11
      -28.960000
 21
       45.500000
 31
        0.000000
  0
LINE
  8
LVL0000
 10
      -27.760000
 20
       45.500000
 30
        0.000000
 11
      -21.340000
 21
       45.500000
 31
        0.000000
  0
LINE
  8
LVL0000
 10
      -23.950000
 20
       36.500000
 30
        0.000000
 11
      -17.530000
 21
       36.500000
 31
        0.000000
  0
LINE
  8
LVL0000
 10
      -16.330000
 20
       36.500000
 30
        0.000000
 11
       -9.910000
 21
       36.500000
 31
        0.000000
  0
LINE
  8
LVL0000
 10
      -20.140000
 20
       45.500000
 30
        0.000000
 11
      -13.720000
 21
       45.500000
 31
        0.000000
  0
LINE
  8
LVL0000
 10
      -12.520000
 20
       45.500000
 30
        0.000000
 11
       -6.100000
 21
       45.500000
 31
        0.000000
  0
LINE
  8
LVL0000
 10
       -8.710000
 20
       36.500000
 30
        0.000000
 11
       -2.290000
 21
       36.500000
 31
        0.000000
  0
LINE
  8
LVL0000
 10
       -1.090000
 20
       36.500000
 30
        0.000000
 11
        5.330000
 21
       36.500000
 31
        0.000000
  0
LINE
  8
LVL0000
 10
       -4.900000
 20
       45.500000
 30
        0.000000
 11
        1.520000
 21
       45.500000
 31
        0.000000
  0
LINE
  8
LVL0000
 10
        2.720000
 20
       45.500000
 30
        0.000000
 11
        9.140000
 21
       45.500000
 31
        0.000000
  0
LINE
  8
LVL0000
 10
        6.530000
 20
       36.500000
 30
        0.000000
 11
       12.950000
 21
       36.500000
 31
        0.000000
  0
LINE
  8
LVL0000
 10
       14.150000
 20
       36.500000
 30
        0.000000
 11
       20.570000
 21
       36.500000
 31
        0.000000
  0
LINE
  8
LVL0000
 10
       10.340000
 20
       45.500000
 30
        0.000000
 11
       16.760000
 21
       45.500000
 31
        0.000000
  0
LINE
  8
LVL0000
 10
       17.960000
 20
       45.500000
 30
        0.000000
 11
       24.380000
 21
       45.500000
 31
        0.000000
  0
LINE
  8
LVL0000
 10
       21.770000
 20
       36.500000
 30
        0.000000
 11
       28.190000
 21
       36.500000
 31
        0.000000
  0
LINE
  8
LVL0000
 10
      -52.500000
 20
       40.800000
 30
        0.000000
 11
      -57.000000
 21
       40.800000
 31
        0.000000
  0
ARC
  8
LVL0000
 10
      -52.500000
 20
       37.000000
 30
        0.000000
 40
        3.800000
 50
      270.000000
 51
      450.000000
  0
LINE
  8
LVL0000
 10
      -52.500000
 20
       33.200000
 30
        0.000000
 11
      -57.000000
 21
       33.200000
 31
        0.000000
  0
ARC
  8
LVL0000
 10
       41.500000
 20
       37.000000
 30
        0.000000
 40
        3.800000
 50
       90.000000
 51
      270.000000
  0
LINE
  8
LVL0000
 10
       41.500000
 20
       40.800000
 30
        0.000000
 11
       46.000000
 21
       40.800000
 31
        0.000000
  0
LINE
  8
LVL0000
 10
       41.500000
 20
       33.200000
 30
        0.000000
 11
       46.000000
 21
       33.200000
 31
        0.000000
  0
LINE
  8
LVL0000
 10
       25.580000
 20
       45.500000
 30
        0.000000
 11
       32.000000
 21
       45.500000
 31
        0.000000
  0
LINE
  8
LVL0000
 10
       29.390000
 20
       36.500000
 30
        0.000000
 11
       35.810000
 21
       36.500000
 31
        0.000000
  0
LINE
  8
LVL0000
 10
      -28.960000
 20
       37.500000
 30
        0.000000
 11
      -28.960000
 21
       47.000000
 31
        0.000000
  0
LINE
  8
LVL0000
 10
      -35.380000
 20
       37.500000
 30
        0.000000
 11
      -35.380000
 21
       47.000000
 31
        0.000000
  0
LINE
  8
LVL0000
 10
      -27.760000
 20
       37.500000
 30
        0.000000
 11
      -27.760000
 21
       47.000000
 31
        0.000000
  0
LINE
  8
LVL0000
 10
      -21.340000
 20
       37.500000
 30
        0.000000
 11
      -21.340000
 21
       47.000000
 31
        0.000000
  0
LINE
  8
LVL0000
 10
      -13.720000
 20
       37.500000
 30
        0.000000
 11
      -13.720000
 21
       47.000000
 31
        0.000000
  0
LINE
  8
LVL0000
 10
      -20.140000
 20
       37.500000
 30
        0.000000
 11
      -20.140000
 21
       47.000000
 31
        0.000000
  0
LINE
  8
LVL0000
 10
      -12.520000
 20
       37.500000
 30
        0.000000
 11
      -12.520000
 21
       47.000000
 31
        0.000000
  0
LINE
  8
LVL0000
 10
       -6.100000
 20
       37.500000
 30
        0.000000
 11
       -6.100000
 21
       47.000000
 31
        0.000000
  0
LINE
  8
LVL0000
 10
        1.520000
 20
       37.500000
 30
        0.000000
 11
        1.520000
 21
       47.000000
 31
        0.000000
  0
LINE
  8
LVL0000
 10
       -4.900000
 20
       37.500000
 30
        0.000000
 11
       -4.900000
 21
       47.000000
 31
        0.000000
  0
LINE
  8
LVL0000
 10
        2.720000
 20
       37.500000
 30
        0.000000
 11
        2.720000
 21
       47.000000
 31
        0.000000
  0
LINE
  8
LVL0000
 10
        9.140000
 20
       37.500000
 30
        0.000000
 11
        9.140000
 21
       47.000000
 31
        0.000000
  0
LINE
  8
LVL0000
 10
       16.760000
 20
       37.500000
 30
        0.000000
 11
       16.760000
 21
       47.000000
 31
        0.000000
  0
LINE
  8
LVL0000
 10
       10.340000
 20
       37.500000
 30
        0.000000
 11
       10.340000
 21
       47.000000
 31
        0.000000
  0
LINE
  8
LVL0000
 10
       17.960000
 20
       37.500000
 30
        0.000000
 11
       17.960000
 21
       47.000000
 31
        0.000000
  0
LINE
  8
LVL0000
 10
       24.380000
 20
       37.500000
 30
        0.000000
 11
       24.380000
 21
       47.000000
 31
        0.000000
  0
LINE
  8
LVL0000
 10
       32.000000
 20
       37.500000
 30
        0.000000
 11
       32.000000
 21
       47.000000
 31
        0.000000
  0
LINE
  8
LVL0000
 10
       25.580000
 20
       37.500000
 30
        0.000000
 11
       25.580000
 21
       47.000000
 31
        0.000000
  0
LINE
  8
LVL0000
 10
      -43.000000
 20
       37.500000
 30
        0.000000
 11
       32.000000
 21
       37.500000
 31
        0.000000
  0
LINE
  8
LVL0000
 10
      -57.000000
 20
       27.000000
 30
        0.000000
 11
      -57.000000
 21
       47.000000
 31
        0.000000
  0
LINE
  8
LVL0000
 10
       46.000000
 20
       27.000000
 30
        0.000000
 11
       46.000000
 21
       47.000000
 31
        0.000000
  0
CIRCLE
  8
LVL0000
 10
       57.000000
 20
        8.500000
 30
        0.000000
 40
        1.500000
  0
LINE
  8
LVL0000
 10
       57.510014
 20
      -51.200006
 30
        0.000000
 11
       57.510014
 21
      -50.000000
 31
        0.000000
  0
LINE
  8
LVL0000
 10
       55.010014
 20
      -51.199999
 30
        0.000000
 11
       55.010014
 21
      -50.000000
 31
        0.000000
  0
LINE
  8
LVL0000
 10
       52.510014
 20
      -51.200000
 30
        0.000000
 11
       52.510014
 21
      -50.000000
 31
        0.000000
  0
LINE
  8
LVL0000
 10
       29.990007
 20
      -51.200010
 30
        0.000000
 11
       29.990006
 21
      -50.000000
 31
        0.000000
  0
LINE
  8
LVL0000
 10
       27.490007
 20
      -51.200011
 30
        0.000000
 11
       27.490006
 21
      -50.000000
 31
        0.000000
  0
LINE
  8
LVL0000
 10
       32.490007
 20
      -51.200009
 30
        0.000000
 11
       32.490006
 21
      -50.000000
 31
        0.000000
  0
LINE
  8
LVL0000
 10
      -11.549992
 20
      -52.300049
 30
        0.000000
 11
      -11.549992
 21
      -50.000000
 31
        0.000000
  0
LINE
  8
LVL0000
 10
      -23.450008
 20
      -52.300049
 30
        0.000000
 11
      -23.450011
 21
      -50.000000
 31
        0.000000
  0
LINE
  8
LVL0000
 10
      -30.549992
 20
      -52.300049
 30
        0.000000
 11
      -30.549992
 21
      -50.000000
 31
        0.000000
  0
LINE
  8
LVL0000
 10
      -42.450008
 20
      -52.300049
 30
        0.000000
 11
      -42.450011
 21
      -50.000000
 31
        0.000000
  0
LINE
  8
LVL0000
 10
      -47.850000
 20
      -53.000000
 30
        0.000000
 11
      -47.850000
 21
      -50.000000
 31
        0.000000
  0
LINE
  8
LVL0000
 10
      -56.150000
 20
      -53.000000
 30
        0.000000
 11
      -56.150000
 21
      -50.000000
 31
        0.000000
  0
LINE
  8
LVL0000
 10
       16.644996
 20
      -51.099994
 30
        0.000000
 11
       16.644995
 21
      -50.000000
 31
        0.000000
  0
LINE
  8
LVL0000
 10
       18.510016
 20
      -51.200000
 30
        0.000000
 11
       18.510016
 21
      -50.000000
 31
        0.000000
  0
LINE
  8
LVL0000
 10
       21.010016
 20
      -51.199999
 30
        0.000000
 11
       21.010016
 21
      -50.000000
 31
        0.000000
  0
LINE
  8
LVL0000
 10
       23.510016
 20
      -51.200006
 30
        0.000000
 11
       23.510016
 21
      -50.000000
 31
        0.000000
  0
LINE
  8
LVL0000
 10
       -1.509991
 20
      -51.200009
 30
        0.000000
 11
       -1.509991
 21
      -50.000000
 31
        0.000000
  0
LINE
  8
LVL0000
 10
       -6.509991
 20
      -51.200011
 30
        0.000000
 11
       -6.509991
 21
      -50.000000
 31
        0.000000
  0
LINE
  8
LVL0000
 10
       -4.009991
 20
      -51.200010
 30
        0.000000
 11
       -4.009991
 21
      -50.000000
 31
        0.000000
  0
LINE
  8
LVL0000
 10
        0.355030
 20
      -51.100002
 30
        0.000000
 11
        0.355030
 21
      -50.000000
 31
        0.000000
  0
LINE
  8
LVL0000
 10
       50.644993
 20
      -51.099994
 30
        0.000000
 11
       50.644993
 21
      -50.000000
 31
        0.000000
  0
LINE
  8
LVL0000
 10
       34.355027
 20
      -51.100002
 30
        0.000000
 11
       34.355027
 21
      -50.000000
 31
        0.000000
  0
LINE
  8
LVL0000
 10
      -65.000000
 20
      -48.000000
 30
        0.000000
 11
      -65.000000
 21
       48.000000
 31
        0.000000
  0
ARC
  8
LVL0000
 10
      -63.000000
 20
      -48.000000
 30
        0.000000
 40
        2.000000
 50
      179.999995
 51
      270.000000
  0
LINE
  8
LVL0000
 10
       65.000000
 20
      -48.000000
 30
        0.000000
 11
       65.000000
 21
       48.000000
 31
        0.000000
  0
LINE
  8
LVL0000
 10
      -63.000000
 20
      -50.000000
 30
        0.000000
 11
       63.000000
 21
      -50.000000
 31
        0.000000
  0
ARC
  8
LVL0000
 10
       63.000000
 20
      -48.000000
 30
        0.000000
 40
        2.000000
 50
      270.000000
 51
      360.000000
  0
LINE
  8
LVL0000
 10
       46.300000
 20
       26.700000
 30
        0.000000
 11
       46.300000
 21
       50.000000
 31
        0.000000
  0
LINE
  8
LVL0000
 10
      -57.300000
 20
       26.700000
 30
        0.000000
 11
      -57.300000
 21
       50.000000
 31
        0.000000
  0
ARC
  8
LVL0000
 10
      -63.000000
 20
       48.000000
 30
        0.000000
 40
        2.000000
 50
       90.000000
 51
      179.999995
  0
LINE
  8
LVL0000
 10
      -63.000000
 20
       50.000000
 30
        0.000000
 11
       63.000000
 21
       50.000000
 31
        0.000000
  0
ARC
  8
LVL0000
 10
       63.000000
 20
       48.000000
 30
        0.000000
 40
        2.000000
 50
        0.000000
 51
       90.000000
  0
LINE
  8
LVL0000
 10
       57.510014
 20
      -51.200006
 30
        0.000000
 11
       52.510014
 21
      -51.200000
 31
        0.000000
  0
LINE
  8
LVL0000
 10
       32.490007
 20
      -51.200009
 30
        0.000000
 11
       27.490007
 21
      -51.200011
 31
        0.000000
  0
LINE
  8
LVL0000
 10
       65.000000
 20
        1.000000
 30
        0.000000
 11
      -65.000000
 21
        1.000000
 31
        0.000000
  0
LINE
  8
LVL0000
 10
       65.000000
 20
       -1.000000
 30
        0.000000
 11
      -65.000000
 21
       -1.000000
 31
        0.000000
  0
LINE
  8
LVL0000
 10
       65.000000
 20
      -32.600000
 30
        0.000000
 11
      -65.000000
 21
      -32.600000
 31
        0.000000
  0
LINE
  8
LVL0000
 10
       65.000000
 20
      -34.600000
 30
        0.000000
 11
      -65.000000
 21
      -34.600000
 31
        0.000000
  0
LINE
  8
LVL0000
 10
       65.000000
 20
      -29.000000
 30
        0.000000
 11
      -65.000000
 21
      -29.000000
 31
        0.000000
  0
LINE
  8
LVL0000
 10
       65.000000
 20
      -27.000000
 30
        0.000000
 11
      -65.000000
 21
      -27.000000
 31
        0.000000
  0
LINE
  8
LVL0000
 10
       65.000000
 20
      -21.400000
 30
        0.000000
 11
      -65.000000
 21
      -21.400000
 31
        0.000000
  0
LINE
  8
LVL0000
 10
       65.000000
 20
      -23.400000
 30
        0.000000
 11
      -65.000000
 21
      -23.400000
 31
        0.000000
  0
LINE
  8
LVL0000
 10
       65.000000
 20
      -17.800000
 30
        0.000000
 11
      -65.000000
 21
      -17.800000
 31
        0.000000
  0
LINE
  8
LVL0000
 10
       65.000000
 20
      -15.800000
 30
        0.000000
 11
      -65.000000
 21
      -15.800000
 31
        0.000000
  0
LINE
  8
LVL0000
 10
       65.000000
 20
      -10.200000
 30
        0.000000
 11
      -65.000000
 21
      -10.200000
 31
        0.000000
  0
LINE
  8
LVL0000
 10
       65.000000
 20
      -12.200000
 30
        0.000000
 11
      -65.000000
 21
      -12.200000
 31
        0.000000
  0
LINE
  8
LVL0000
 10
       65.000000
 20
       -6.600000
 30
        0.000000
 11
      -65.000000
 21
       -6.600000
 31
        0.000000
  0
LINE
  8
LVL0000
 10
       65.000000
 20
       -4.600000
 30
        0.000000
 11
      -65.000000
 21
       -4.600000
 31
        0.000000
  0
LINE
  8
LVL0000
 10
      -57.300000
 20
       26.700000
 30
        0.000000
 11
       46.300000
 21
       26.700000
 31
        0.000000
  0
CIRCLE
  8
LVL0000
 10
       57.000000
 20
        8.500000
 30
        0.000000
 40
        4.000000
  0
CIRCLE
  8
LVL0000
 10
       57.000000
 20
        8.500000
 30
        0.000000
 40
        1.500000
  0
LINE
  8
LVL0000
 10
       50.644993
 20
      -51.099994
 30
        0.000000
 11
       34.355027
 21
      -51.100002
 31
        0.000000
  0
LINE
  8
LVL0000
 10
       16.644996
 20
      -51.099994
 30
        0.000000
 11
        0.355030
 21
      -51.100002
 31
        0.000000
  0
LINE
  8
LVL0000
 10
       -1.509991
 20
      -51.200009
 30
        0.000000
 11
       -6.509991
 21
      -51.200011
 31
        0.000000
  0
LINE
  8
LVL0000
 10
       23.510016
 20
      -51.200006
 30
        0.000000
 11
       18.510016
 21
      -51.200000
 31
        0.000000
  0
LINE
  8
LVL0000
 10
      -56.150000
 20
      -53.000000
 30
        0.000000
 11
      -47.850000
 21
      -53.000000
 31
        0.000000
  0
LINE
  8
LVL0000
 10
      -42.450008
 20
      -52.300049
 30
        0.000000
 11
      -30.549992
 21
      -52.300049
 31
        0.000000
  0
LINE
  8
LVL0000
 10
      -23.450008
 20
      -52.300049
 30
        0.000000
 11
      -11.549992
 21
      -52.300049
 31
        0.000000
  0
ENDSEC
  0
EOF
