  0
SECTION
  2
HEADER
  9
$ACADVER
  1
AC1006
  9
$INSBASE
 10
0.0
 20
0.0
 30
0.0
  9
$EXTMIN
 10
     -172.500031
 20
     -172.500031
  9
$EXTMAX
 10
      177.999939
 20
      170.000000
  9
$LIMMIN
 10
     -172.500031
 20
     -172.500031
  9
$LIMMAX
 10
      177.999939
 20
      170.000000
  9
$VIEWCTR
 10
        2.749954
 20
        2.749954
  9
$ORTHOMODE
 70
     0
  9
$ANGBASE
 50
0.0
  9
$ANGDIR
 70
     0
  9
$SPLINETYPE
 70
     6
  9
$SPLINESEGS
 70
     8
9
$DIMASZ
 40
        6.000000
9
$DIMEXE
 40
        1.000000
9
$DIMEXO
 40
        5.000000
9
$DIMTXT
 40
        5.000000
9
$DIMGAP
 40
        1.000000
9
$DIMTAD
 70
1
9
$DIMTIH
 70
0
9
$DIMTOH
 70
0
  0
ENDSEC
  0
SECTION
  2
TABLES
  0
TABLE
  2
LTYPE
 70
     5
  0
LTYPE
  2
CONTINUOUS
 70
    64
  3
SOLID LINE
 72
    65
 73
     0
 40
0.0
  0
LTYPE
  2
DASHED
 70
    64
  3
-- -- -- -- -- --
 72
    65
 73
     2
 40
  0.75  
 49
  0.50  
 49
 -0.25  
  0
LTYPE
  2
DOT
 70
    64
  3
....................
 72
    65
 73
     2
 40
  0.25  
 49
  0.02  
 49
 -0.23  
  0
LTYPE
  2
CENTER
 70
    64
  3
-- . -- . -- . -- .
 72
    65
 73
    4
 40
  2.00  
 49
  1.25  
 49
 -0.25  
 49
  0.25  
 49
 -0.25  
  0
LTYPE
  2
PHANTOM
 70
    64
  3
-- .. -- .. -- ..
 72
    65
 73
    6
 40
  2.50  
 49
  1.25  
 49
 -0.25  
 49
  0.25  
 49
 -0.25  
 49
  0.25  
 49
 -0.25  
  0
ENDTAB
  0
TABLE
  2
LAYER
 70
     3
  0
LAYER
  2
0
 70
    64
 62
     2
  6
CONTINUOUS
  0
LAYER
  2
10
 70
    64
 62
     2
  6
CONTINUOUS
  0
LAYER
  2
70
 70
    64
 62
     3
  6
CONTINUOUS
  0
ENDTAB
  0
TABLE
  2
STYLE
 70
     2
  0
STYLE
  2
STANDARD
 70
    64
 40
0.0
 41
1.0
 50
0.0
 71
     0
 42
5.0
  3
ROMANS
  4
BIGFONT
  0
STYLE
  2
BIGFONT
 70
    64
 40
0.0
 41
1.0
 50
0.0
 71
     0
 42
5.0
  3
ROMANS
  4
BIGFONT
  0
ENDTAB
  0
TABLE
  2
VIEW
 70
     0
  0
ENDTAB
  0
TABLE
  2
UCS
 70
     0
  0
ENDTAB
  0
TABLE
  2
DWGMGR
 70
     0
  0
ENDTAB
  0
ENDSEC
  0
SECTION
  2
BLOCKS
  0
BLOCK
  8
0
  2
BLK0001
 70
    64
 10
        0.000000
 20
        0.000000
  0
TEXT
  8
10
 10
       98.530510
 20
     -140.178604
 30
        0.000000
 40
        5.000000
  1
３０００
 50
       90.000000
 41
        1.000000
 51
        0.000000
  7
BIGFONT
  0
LINE
  8
10
 10
       11.999939
 20
     -172.500031
 30
        0.000000
 11
      100.530510
 21
     -172.500031
 31
        0.000000
  0
LINE
  8
10
 10
      100.472984
 20
      -76.000023
 30
        0.000000
 11
       99.530510
 21
      -70.000023
 31
        0.000000
  0
LINE
  8
10
 10
       99.530510
 20
      -70.000023
 30
        0.000000
 11
       98.588036
 21
      -76.000023
 31
        0.000000
  0
LINE
  8
10
 10
       98.588036
 20
     -166.500031
 30
        0.000000
 11
       99.530510
 21
     -172.500031
 31
        0.000000
  0
LINE
  8
10
 10
       99.530510
 20
     -172.500031
 30
        0.000000
 11
      100.472984
 21
     -166.500031
 31
        0.000000
  0
LINE
  8
10
 10
       99.530510
 20
      -70.000023
 30
        0.000000
 11
       99.530510
 21
     -172.500031
 31
        0.000000
  0
ENDBLK
  0
BLOCK
  8
0
  2
BLK0002
 70
    64
 10
        0.000000
 20
        0.000000
  0
TEXT
  8
10
 10
       85.672340
 20
       -6.428594
 30
        0.000000
 40
        5.000000
  1
１３０
 50
       90.000000
 41
        1.000000
 51
        0.000000
  7
BIGFONT
  0
LINE
  8
10
 10
       69.999939
 20
      -65.000023
 30
        0.000000
 11
       87.672340
 21
      -65.000023
 31
        0.000000
  0
LINE
  8
10
 10
       69.999939
 20
       64.999977
 30
        0.000000
 11
       87.672340
 21
       64.999977
 31
        0.000000
  0
LINE
  8
10
 10
       85.729866
 20
      -59.000023
 30
        0.000000
 11
       86.672340
 21
      -65.000023
 31
        0.000000
  0
LINE
  8
10
 10
       86.672340
 20
      -65.000023
 30
        0.000000
 11
       87.614815
 21
      -59.000023
 31
        0.000000
  0
LINE
  8
10
 10
       87.614815
 20
       58.999977
 30
        0.000000
 11
       86.672340
 21
       64.999977
 31
        0.000000
  0
LINE
  8
10
 10
       86.672340
 20
       64.999977
 30
        0.000000
 11
       85.729866
 21
       58.999977
 31
        0.000000
  0
LINE
  8
10
 10
       86.672340
 20
      -65.000023
 30
        0.000000
 11
       86.672340
 21
       64.999977
 31
        0.000000
  0
ENDBLK
  0
BLOCK
  8
0
  2
BLK0003
 70
    64
 10
        0.000000
 20
        0.000000
  0
TEXT
  8
10
 10
       98.530510
 20
       -6.428594
 30
        0.000000
 40
        5.000000
  1
１４０
 50
       90.000000
 41
        1.000000
 51
        0.000000
  7
BIGFONT
  0
LINE
  8
10
 10
       69.999939
 20
      -70.000023
 30
        0.000000
 11
      100.530510
 21
      -70.000023
 31
        0.000000
  0
LINE
  8
10
 10
       69.999939
 20
       69.999977
 30
        0.000000
 11
      100.530510
 21
       69.999977
 31
        0.000000
  0
LINE
  8
10
 10
       98.588036
 20
      -64.000023
 30
        0.000000
 11
       99.530510
 21
      -70.000023
 31
        0.000000
  0
LINE
  8
10
 10
       99.530510
 20
      -70.000023
 30
        0.000000
 11
      100.472984
 21
      -64.000023
 31
        0.000000
  0
LINE
  8
10
 10
      100.472984
 20
       63.999977
 30
        0.000000
 11
       99.530510
 21
       69.999977
 31
        0.000000
  0
LINE
  8
10
 10
       99.530510
 20
       69.999977
 30
        0.000000
 11
       98.588036
 21
       63.999977
 31
        0.000000
  0
LINE
  8
10
 10
       99.530510
 20
      -70.000023
 30
        0.000000
 11
       99.530510
 21
       69.999977
 31
        0.000000
  0
ENDBLK
  0
BLOCK
  8
0
  2
BLK0004
 70
    64
 10
        0.000000
 20
        0.000000
  0
TEXT
  8
10
 10
      154.071365
 20
      104.055992
 30
        0.000000
 40
        5.000000
  1
４０
 50
        0.000000
 41
        1.000000
 51
        0.000000
  7
BIGFONT
  0
LINE
  8
10
 10
      177.999939
 20
       73.999985
 30
        0.000000
 11
      177.999939
 21
      104.055992
 31
        0.000000
  0
LINE
  8
10
 10
      137.999939
 20
       61.232044
 30
        0.000000
 11
      137.999939
 21
      104.055992
 31
        0.000000
  0
LINE
  8
10
 10
      171.999939
 20
      102.113518
 30
        0.000000
 11
      177.999939
 21
      103.055992
 31
        0.000000
  0
LINE
  8
10
 10
      177.999939
 20
      103.055992
 30
        0.000000
 11
      171.999939
 21
      103.998466
 31
        0.000000
  0
LINE
  8
10
 10
      143.999939
 20
      103.998466
 30
        0.000000
 11
      137.999939
 21
      103.055992
 31
        0.000000
  0
LINE
  8
10
 10
      137.999939
 20
      103.055992
 30
        0.000000
 11
      143.999939
 21
      102.113518
 31
        0.000000
  0
LINE
  8
10
 10
      177.999939
 20
      103.055992
 30
        0.000000
 11
      137.999939
 21
      103.055992
 31
        0.000000
  0
ENDBLK
  0
BLOCK
  8
0
  2
BLK0005
 70
    64
 10
        0.000000
 20
        0.000000
  0
TEXT
  8
10
 10
       -6.428632
 20
      104.055992
 30
        0.000000
 40
        5.000000
  1
１４０
 50
        0.000000
 41
        1.000000
 51
        0.000000
  7
BIGFONT
  0
LINE
  8
10
 10
       69.999939
 20
       69.999977
 30
        0.000000
 11
       69.999939
 21
      104.055992
 31
        0.000000
  0
LINE
  8
10
 10
      -70.000061
 20
       69.999969
 30
        0.000000
 11
      -70.000061
 21
      104.055992
 31
        0.000000
  0
LINE
  8
10
 10
       63.999939
 20
      102.113518
 30
        0.000000
 11
       69.999939
 21
      103.055992
 31
        0.000000
  0
LINE
  8
10
 10
       69.999939
 20
      103.055992
 30
        0.000000
 11
       63.999939
 21
      103.998466
 31
        0.000000
  0
LINE
  8
10
 10
      -64.000061
 20
      103.998466
 30
        0.000000
 11
      -70.000061
 21
      103.055992
 31
        0.000000
  0
LINE
  8
10
 10
      -70.000061
 20
      103.055992
 30
        0.000000
 11
      -64.000061
 21
      102.113518
 31
        0.000000
  0
LINE
  8
10
 10
       69.999939
 20
      103.055992
 30
        0.000000
 11
      -70.000061
 21
      103.055992
 31
        0.000000
  0
ENDBLK
  0
BLOCK
  8
0
  2
BLK0006
 70
    64
 10
        0.000000
 20
        0.000000
  0
TEXT
  8
10
 10
       -6.428632
 20
       89.563042
 30
        0.000000
 40
        5.000000
  1
１３０
 50
        0.000000
 41
        1.000000
 51
        0.000000
  7
BIGFONT
  0
LINE
  8
10
 10
       64.999939
 20
       69.999977
 30
        0.000000
 11
       64.999939
 21
       89.563042
 31
        0.000000
  0
LINE
  8
10
 10
      -65.000061
 20
       69.999969
 30
        0.000000
 11
      -65.000061
 21
       89.563042
 31
        0.000000
  0
LINE
  8
10
 10
       58.999939
 20
       87.620567
 30
        0.000000
 11
       64.999939
 21
       88.563042
 31
        0.000000
  0
LINE
  8
10
 10
       64.999939
 20
       88.563042
 30
        0.000000
 11
       58.999939
 21
       89.505516
 31
        0.000000
  0
LINE
  8
10
 10
      -59.000061
 20
       89.505516
 30
        0.000000
 11
      -65.000061
 21
       88.563042
 31
        0.000000
  0
LINE
  8
10
 10
      -65.000061
 20
       88.563042
 30
        0.000000
 11
      -59.000061
 21
       87.620567
 31
        0.000000
  0
LINE
  8
10
 10
       64.999939
 20
       88.563042
 30
        0.000000
 11
      -65.000061
 21
       88.563042
 31
        0.000000
  0
ENDBLK
  0
ENDSEC
  0
SECTION
  2
ENTITIES
  0
LINE
  8
70
 10
       60.000000
 20
      -42.000000
 30
        0.000000
 11
       60.000000
 21
       42.000000
 31
        0.000000
  0
ARC
  8
70
 10
       57.000000
 20
       42.000000
 30
        0.000000
 40
        3.000000
 50
        0.000000
 51
       90.000000
  0
LINE
  8
70
 10
       57.000000
 20
       45.000000
 30
        0.000000
 11
      -57.000000
 21
       45.000000
 31
        0.000000
  0
ARC
  8
70
 10
      -57.000000
 20
       42.000000
 30
        0.000000
 40
        3.000000
 50
       90.000000
 51
      180.000010
  0
LINE
  8
70
 10
      -60.000000
 20
      -42.000000
 30
        0.000000
 11
      -60.000000
 21
       42.000000
 31
        0.000000
  0
ARC
  8
70
 10
      -57.000000
 20
      -42.000000
 30
        0.000000
 40
        3.000000
 50
      180.000010
 51
      270.000000
  0
LINE
  8
70
 10
       57.000000
 20
      -45.000000
 30
        0.000000
 11
      -57.000000
 21
      -45.000000
 31
        0.000000
  0
LINE
  8
70
 10
       -6.300049
 20
       63.480942
 30
        0.000000
 11
       -6.300049
 21
       61.999981
 31
        0.000000
  0
LINE
  8
70
 10
       -3.700073
 20
       63.480942
 30
        0.000000
 11
       -3.700073
 21
       61.999981
 31
        0.000000
  0
LINE
  8
70
 10
        3.699951
 20
       63.480942
 30
        0.000000
 11
        3.699951
 21
       61.999981
 31
        0.000000
  0
LINE
  8
70
 10
        6.299927
 20
       63.480942
 30
        0.000000
 11
        6.299927
 21
       61.999981
 31
        0.000000
  0
LINE
  8
70
 10
       59.707031
 20
       69.707085
 30
        0.000000
 11
       58.846985
 21
       68.846985
 31
        0.000000
  0
LINE
  8
70
 10
       69.707031
 20
       59.707081
 30
        0.000000
 11
       68.847015
 21
       58.846981
 31
        0.000000
  0
LINE
  8
70
 10
       69.707062
 20
      -59.707108
 30
        0.000000
 11
       68.846924
 21
      -58.847038
 31
        0.000000
  0
LINE
  8
70
 10
       59.707062
 20
      -69.707123
 30
        0.000000
 11
       58.846924
 21
      -68.847061
 31
        0.000000
  0
LINE
  8
70
 10
      -59.707184
 20
      -69.707100
 30
        0.000000
 11
      -58.847107
 21
      -68.846977
 31
        0.000000
  0
LINE
  8
70
 10
      -69.707214
 20
      -59.707115
 30
        0.000000
 11
      -68.847137
 21
      -58.846977
 31
        0.000000
  0
LINE
  8
70
 10
      -69.707153
 20
       59.707069
 30
        0.000000
 11
      -68.847046
 21
       58.847031
 31
        0.000000
  0
LINE
  8
70
 10
      -59.707153
 20
       69.707092
 30
        0.000000
 11
      -58.847046
 21
       68.847054
 31
        0.000000
  0
LINE
  8
70
 10
       59.999939
 20
       68.999969
 30
        0.000000
 11
       59.999939
 21
       64.999977
 31
        0.000000
  0
LINE
  8
70
 10
      -60.000061
 20
       68.999969
 30
        0.000000
 11
      -60.000061
 21
       64.999954
 31
        0.000000
  0
LINE
  8
70
 10
       59.999939
 20
      -69.000031
 30
        0.000000
 11
       59.999939
 21
      -65.000023
 31
        0.000000
  0
LINE
  8
70
 10
      -60.000061
 20
      -69.000031
 30
        0.000000
 11
      -60.000061
 21
      -65.000031
 31
        0.000000
  0
LINE
  8
70
 10
      -69.000061
 20
      -60.000034
 30
        0.000000
 11
      -65.000061
 21
      -60.000034
 31
        0.000000
  0
LINE
  8
70
 10
      -69.000061
 20
       59.999954
 30
        0.000000
 11
      -65.000061
 21
       59.999954
 31
        0.000000
  0
LINE
  8
70
 10
       68.999939
 20
       59.999977
 30
        0.000000
 11
       64.999939
 21
       59.999977
 31
        0.000000
  0
LINE
  8
70
 10
       68.999939
 20
      -60.000023
 30
        0.000000
 11
       64.999939
 21
      -60.000023
 31
        0.000000
  0
ARC
  8
70
 10
      -69.000061
 20
       58.999954
 30
        0.000000
 40
        1.000000
 50
       90.000000
 51
      180.000010
  0
ARC
  8
70
 10
      -59.000061
 20
       68.999969
 30
        0.000000
 40
        1.000000
 50
       90.000000
 51
      180.000010
  0
ARC
  8
70
 10
       58.999939
 20
       68.999977
 30
        0.000000
 40
        1.000000
 50
        0.000000
 51
       90.000000
  0
ARC
  8
70
 10
       68.999939
 20
       58.999977
 30
        0.000000
 40
        1.000000
 50
        0.000000
 51
       90.000000
  0
ARC
  8
70
 10
       68.999939
 20
      -59.000023
 30
        0.000000
 40
        1.000000
 50
      270.000000
 51
      360.000000
  0
ARC
  8
70
 10
       58.999939
 20
      -69.000023
 30
        0.000000
 40
        1.000000
 50
      270.000000
 51
      360.000000
  0
ARC
  8
70
 10
      -59.000061
 20
      -69.000031
 30
        0.000000
 40
        1.000000
 50
      180.000010
 51
      270.000000
  0
ARC
  8
70
 10
      -69.000061
 20
      -59.000034
 30
        0.000000
 40
        1.000000
 50
      180.000010
 51
      270.000000
  0
CIRCLE
  8
70
 10
       -5.000061
 20
       61.999981
 30
        0.000000
 40
        1.299988
  0
CIRCLE
  8
70
 10
        4.999939
 20
       61.999981
 30
        0.000000
 40
        1.299988
  0
LINE
  8
70
 10
        9.999939
 20
      -70.000023
 30
        0.000000
 11
       64.999939
 21
      -70.000023
 31
        0.000000
  0
LINE
  8
70
 10
      -65.000092
 20
      -70.000031
 30
        0.000000
 11
      -10.000061
 21
      -70.000031
 31
        0.000000
  0
ARC
  8
70
 10
       -0.000031
 20
     -110.878578
 30
        0.000000
 40
       42.083920
 50
       76.253855
 51
      103.746138
  0
LINE
  8
70
 10
      -10.000061
 20
      -76.999519
 30
        0.000000
 11
      -10.000061
 21
      -70.000031
 31
        0.000000
  0
LINE
  8
70
 10
        9.999939
 20
      -76.999519
 30
        0.000000
 11
        9.999939
 21
      -70.000023
 31
        0.000000
  0
ARC
  8
70
 10
      -63.722992
 20
      -82.078453
 30
        0.000000
 40
       23.789793
 50
       93.077048
 51
      102.438334
  0
ARC
  8
70
 10
      -82.078552
 20
      -63.722950
 30
        0.000000
 40
       23.789824
 50
      347.561744
 51
      356.923037
  0
ARC
  8
70
 10
      -65.000061
 20
      -64.999931
 30
        0.000000
 40
        6.677002
 50
        0.000000
 51
       90.000000
  0
ARC
  8
70
 10
       82.078400
 20
      -63.722908
 30
        0.000000
 40
       23.789793
 50
      183.077078
 51
      192.438331
  0
ARC
  8
70
 10
       63.722900
 20
      -82.078476
 30
        0.000000
 40
       23.789816
 50
       77.561748
 51
       86.923027
  0
ARC
  8
70
 10
       64.999878
 20
      -64.999977
 30
        0.000000
 40
        6.677021
 50
       90.000000
 51
      180.000010
  0
ARC
  8
70
 10
       63.722870
 20
       82.078461
 30
        0.000000
 40
       23.789797
 50
      273.077058
 51
      282.438351
  0
ARC
  8
70
 10
       82.078430
 20
       63.722958
 30
        0.000000
 40
       23.789793
 50
      167.561720
 51
      176.923014
  0
ARC
  8
70
 10
       64.999939
 20
       64.999939
 30
        0.000000
 40
        6.677002
 50
      180.000010
 51
      270.000000
  0
ARC
  8
70
 10
      -82.078522
 20
       63.722900
 30
        0.000000
 40
       23.789793
 50
        3.077049
 51
       12.438314
  0
ARC
  8
70
 10
      -63.723022
 20
       82.078468
 30
        0.000000
 40
       23.789816
 50
      257.561765
 51
      266.923030
  0
ARC
  8
70
 10
      -65.000000
 20
       64.999969
 30
        0.000000
 40
        6.677017
 50
      270.000000
 51
      360.000000
  0
LINE
  8
70
 10
      -70.000061
 20
       64.999969
 30
        0.000000
 11
      -70.000061
 21
      -65.000031
 31
        0.000000
  0
ARC
  8
70
 10
      -65.000061
 20
       64.999969
 30
        0.000000
 40
        5.000000
 50
       90.000000
 51
      180.000010
  0
ARC
  8
70
 10
      -65.000061
 20
       64.999954
 30
        0.000000
 40
        5.000000
 50
      270.000000
 51
      360.000000
  0
ARC
  8
70
 10
      -65.000061
 20
       64.999969
 30
        0.000000
 40
        5.000000
 50
      270.000000
 51
      360.000000
  0
CIRCLE
  8
70
 10
      -65.000061
 20
       64.999969
 30
        0.000000
 40
        2.299988
  0
LINE
  8
70
 10
      -65.000092
 20
       69.999969
 30
        0.000000
 11
       64.999939
 21
       69.999977
 31
        0.000000
  0
ARC
  8
70
 10
       64.999939
 20
       64.999977
 30
        0.000000
 40
        5.000000
 50
        0.000000
 51
       90.000000
  0
LINE
  8
70
 10
       69.999939
 20
       64.999977
 30
        0.000000
 11
       69.999939
 21
      -65.000023
 31
        0.000000
  0
ARC
  8
70
 10
       64.999939
 20
       64.999977
 30
        0.000000
 40
        5.000000
 50
      180.000010
 51
      270.000000
  0
ARC
  8
70
 10
       64.999939
 20
       64.999977
 30
        0.000000
 40
        5.000000
 50
      180.000010
 51
      270.000000
  0
CIRCLE
  8
70
 10
       64.999939
 20
       64.999977
 30
        0.000000
 40
        2.299988
  0
ARC
  8
70
 10
      -65.000061
 20
      -65.000031
 30
        0.000000
 40
        5.000000
 50
      180.000010
 51
      270.000000
  0
ARC
  8
70
 10
      -65.000061
 20
      -65.000031
 30
        0.000000
 40
        5.000000
 50
        0.000000
 51
       90.000000
  0
CIRCLE
  8
70
 10
      -65.000061
 20
      -65.000031
 30
        0.000000
 40
        2.300018
  0
ARC
  8
70
 10
       64.999939
 20
      -65.000023
 30
        0.000000
 40
        5.000000
 50
      270.000000
 51
      360.000000
  0
ARC
  8
70
 10
       64.999939
 20
      -65.000023
 30
        0.000000
 40
        5.000000
 50
       90.000000
 51
      180.000010
  0
ARC
  8
70
 10
       64.999939
 20
      -65.000023
 30
        0.000000
 40
        5.000000
 50
       90.000000
 51
      180.000010
  0
CIRCLE
  8
70
 10
       64.999939
 20
      -65.000023
 30
        0.000000
 40
        2.299988
  0
LINE
  8
70
 10
      -10.000061
 20
      -76.999519
 30
        0.000000
 11
        9.999939
 21
      -76.999519
 31
        0.000000
  0
LINE
  8
70
 10
        9.999939
 20
      -76.999504
 30
        0.000000
 11
      -10.000061
 21
      -76.999504
 31
        0.000000
  0
LINE
  8
70
 10
        8.499939
 20
      -79.499504
 30
        0.000000
 11
       -8.500061
 21
      -79.499504
 31
        0.000000
  0
LINE
  8
70
 10
        8.499939
 20
      -76.999504
 30
        0.000000
 11
        8.499939
 21
      -79.499504
 31
        0.000000
  0
LINE
  8
70
 10
        9.999939
 20
      -70.000031
 30
        0.000000
 11
        9.999939
 21
      -76.999504
 31
        0.000000
  0
ARC
  8
70
 10
        1.749939
 20
     -100.999992
 30
        0.000000
 40
        2.015564
 50
      209.744896
 51
      330.255138
  0
LINE
  8
70
 10
        3.499939
 20
      -79.499504
 30
        0.000000
 11
        3.499939
 21
     -101.999992
 31
        0.000000
  0
ARC
  8
70
 10
        1.749939
 20
     -105.299980
 30
        0.000000
 40
        2.015564
 50
      209.744896
 51
      330.255138
  0
ARC
  8
70
 10
        1.749939
 20
     -107.299980
 30
        0.000000
 40
        2.015557
 50
       29.744503
 51
      150.255306
  0
LINE
  8
70
 10
        3.499939
 20
     -106.299980
 30
        0.000000
 11
        3.499939
 21
     -130.000031
 31
        0.000000
  0
LINE
  8
70
 10
       -8.023560
 20
      -76.999504
 30
        0.000000
 11
      -10.000061
 21
      -76.999504
 31
        0.000000
  0
LINE
  8
70
 10
       -8.500061
 20
      -76.999504
 30
        0.000000
 11
       -8.500061
 21
      -79.499504
 31
        0.000000
  0
LINE
  8
70
 10
       -6.188049
 20
      -76.999504
 30
        0.000000
 11
       -8.500061
 21
      -76.999504
 31
        0.000000
  0
LINE
  8
70
 10
      -10.000061
 20
      -70.000031
 30
        0.000000
 11
      -10.000061
 21
      -76.999504
 31
        0.000000
  0
ARC
  8
70
 10
       -1.750061
 20
     -102.999992
 30
        0.000000
 40
        2.015564
 50
       29.744879
 51
      150.255114
  0
ARC
  8
70
 10
       -1.750061
 20
     -100.999992
 30
        0.000000
 40
        2.015564
 50
      209.744896
 51
      330.255138
  0
LINE
  8
70
 10
       -3.500061
 20
      -79.499504
 30
        0.000000
 11
       -3.500061
 21
     -101.999992
 31
        0.000000
  0
ARC
  8
70
 10
       -1.750061
 20
     -107.299980
 30
        0.000000
 40
        2.015564
 50
       29.744879
 51
      150.255114
  0
LINE
  8
70
 10
       -3.500061
 20
     -106.299980
 30
        0.000000
 11
       -3.500061
 21
     -130.000031
 31
        0.000000
  0
LINE
  8
70
 10
       -7.000122
 20
     -172.500031
 30
        0.000000
 11
        6.999939
 21
     -172.500031
 31
        0.000000
  0
LINE
  8
70
 10
       -7.000122
 20
     -172.500031
 30
        0.000000
 11
       -7.000061
 21
     -167.500031
 31
        0.000000
  0
LINE
  8
70
 10
        6.999939
 20
     -172.500031
 30
        0.000000
 11
        6.999939
 21
     -167.500031
 31
        0.000000
  0
LINE
  8
70
 10
        7.349915
 20
     -167.500031
 30
        0.000000
 11
        7.349915
 21
     -160.100006
 31
        0.000000
  0
LINE
  8
70
 10
       -7.350037
 20
     -167.500031
 30
        0.000000
 11
       -7.350037
 21
     -160.100006
 31
        0.000000
  0
LINE
  8
70
 10
       -7.350037
 20
     -160.100006
 30
        0.000000
 11
        7.349915
 21
     -160.100006
 31
        0.000000
  0
LINE
  8
70
 10
       -7.350037
 20
     -167.500031
 30
        0.000000
 11
        7.349915
 21
     -167.500031
 31
        0.000000
  0
LINE
  8
70
 10
        6.999939
 20
     -160.100006
 30
        0.000000
 11
        6.999939
 21
     -159.300079
 31
        0.000000
  0
LINE
  8
70
 10
       -7.000061
 20
     -160.100006
 30
        0.000000
 11
       -7.000061
 21
     -159.300079
 31
        0.000000
  0
LINE
  8
70
 10
       -7.000061
 20
     -159.300079
 30
        0.000000
 11
        6.999939
 21
     -159.300079
 31
        0.000000
  0
LINE
  8
70
 10
        6.099915
 20
     -158.500031
 30
        0.000000
 11
        6.099915
 21
     -156.100006
 31
        0.000000
  0
LINE
  8
70
 10
       -6.100037
 20
     -158.500031
 30
        0.000000
 11
       -6.100037
 21
     -156.100006
 31
        0.000000
  0
LINE
  8
70
 10
       -6.100037
 20
     -158.500031
 30
        0.000000
 11
        6.099915
 21
     -158.500031
 31
        0.000000
  0
LINE
  8
70
 10
       -6.100037
 20
     -158.500031
 30
        0.000000
 11
       -7.000061
 21
     -159.300079
 31
        0.000000
  0
LINE
  8
70
 10
        6.099915
 20
     -158.500031
 30
        0.000000
 11
        6.999939
 21
     -159.300079
 31
        0.000000
  0
LINE
  8
70
 10
       -4.500061
 20
     -130.000031
 30
        0.000000
 11
       -6.150085
 21
     -142.500031
 31
        0.000000
  0
LINE
  8
70
 10
        4.499939
 20
     -130.000031
 30
        0.000000
 11
        6.149963
 21
     -142.500031
 31
        0.000000
  0
LINE
  8
70
 10
       -6.750061
 20
     -152.600006
 30
        0.000000
 11
       -6.100037
 21
     -156.100006
 31
        0.000000
  0
LINE
  8
70
 10
        6.099915
 20
     -156.100006
 30
        0.000000
 11
        6.749939
 21
     -152.600006
 31
        0.000000
  0
LINE
  8
70
 10
       -6.100037
 20
     -156.100006
 30
        0.000000
 11
        6.099915
 21
     -156.100006
 31
        0.000000
  0
LINE
  8
70
 10
       -6.750061
 20
     -142.500031
 30
        0.000000
 11
        6.749939
 21
     -142.500031
 31
        0.000000
  0
LINE
  8
70
 10
       -4.500061
 20
     -130.000031
 30
        0.000000
 11
        4.499939
 21
     -130.000031
 31
        0.000000
  0
LINE
  8
70
 10
       -6.750061
 20
     -152.600006
 30
        0.000000
 11
        6.749939
 21
     -152.600006
 31
        0.000000
  0
LINE
  8
70
 10
        6.749939
 20
     -152.600006
 30
        0.000000
 11
        6.749939
 21
     -142.500031
 31
        0.000000
  0
LINE
  8
70
 10
       -6.750061
 20
     -152.600006
 30
        0.000000
 11
       -6.750061
 21
     -142.500031
 31
        0.000000
  0
ARC
  8
70
 10
      -15.069946
 20
       26.907684
 30
        0.000000
 40
        1.498025
 50
      311.987743
 51
      410.855296
  0
ARC
  8
70
 10
      -16.118591
 20
       25.619415
 30
        0.000000
 40
        3.159105
 50
       50.855774
 51
       71.024553
  0
ARC
  8
70
 10
      -17.624207
 20
       21.240509
 30
        0.000000
 40
        7.789617
 50
       71.024997
 51
       76.826416
  0
ARC
  8
70
 10
      -23.868164
 20
      -12.345215
 30
        0.000000
 40
       41.944065
 50
       78.977926
 51
       81.374482
  0
ARC
  8
70
 10
      -10.388306
 20
       76.518372
 30
        0.000000
 40
       47.936111
 50
      259.498232
 51
      261.374540
  0
ARC
  8
70
 10
      -18.784973
 20
       31.221954
 30
        0.000000
 40
        1.867949
 50
      241.927763
 51
      259.498588
  0
ARC
  8
70
 10
      -19.504028
 20
       29.873749
 30
        0.000000
 40
        0.340010
 50
      128.659805
 51
      241.932953
  0
ARC
  8
70
 10
      -19.264343
 20
       29.574127
 30
        0.000000
 40
        0.723668
 50
       91.193685
 51
      128.662073
  0
ARC
  8
70
 10
      -19.061279
 20
       19.813934
 30
        0.000000
 40
       10.486039
 50
       80.321656
 51
       91.192332
  0
ARC
  8
70
 10
      -20.068604
 20
       13.907196
 30
        0.000000
 40
       16.478018
 50
       70.029620
 51
       80.321533
  0
LINE
  8
70
 10
      -14.440796
 20
       29.394379
 30
        0.000000
 11
      -13.841614
 21
       30.802490
 31
        0.000000
  0
ARC
  8
70
 10
      -18.271545
 20
       16.492462
 30
        0.000000
 40
       14.980026
 50
       72.799125
 51
       88.304686
  0
ARC
  8
70
 10
      -18.138550
 20
       20.984528
 30
        0.000000
 40
       10.486005
 50
       88.304583
 51
      101.482299
  0
ARC
  8
70
 10
      -19.033203
 20
       25.388580
 30
        0.000000
 40
        5.991995
 50
      101.482415
 51
      109.058024
  0
ARC
  8
70
 10
      -20.013367
 20
       28.225952
 30
        0.000000
 40
        2.990115
 50
      109.057395
 51
      126.253776
  0
ARC
  8
70
 10
      -21.002014
 20
       29.574127
 30
        0.000000
 40
        1.318277
 50
      126.254978
 51
      220.236612
  0
ARC
  8
70
 10
      -20.612549
 20
       29.903717
 30
        0.000000
 40
        1.828442
 50
      220.236093
 51
      244.472117
  0
ARC
  8
70
 10
      -18.559998
 20
       34.201477
 30
        0.000000
 40
        6.591228
 50
      244.471325
 51
      259.396818
  0
ARC
  8
70
 10
      -10.400818
 20
       77.785217
 30
        0.000000
 40
       50.932110
 50
      259.396572
 51
      261.633951
  0
ARC
  8
70
 10
      -25.221802
 20
      -22.994995
 30
        0.000000
 40
       50.932053
 50
       80.653283
 51
       81.633865
  0
ARC
  8
70
 10
      -17.466797
 20
       24.121429
 30
        0.000000
 40
        3.181705
 50
       68.081637
 51
       80.653501
  0
ARC
  8
70
 10
      -16.448120
 20
       26.653046
 30
        0.000000
 40
        0.452842
 50
      291.523213
 51
      428.078133
  0
ARC
  8
70
 10
      -16.867554
 20
       27.716644
 30
        0.000000
 40
        1.596128
 50
      266.250803
 51
      291.522721
  0
ARC
  8
70
 10
      -16.090393
 20
       39.577057
 30
        0.000000
 40
       13.482044
 50
      245.314170
 51
      266.251022
  0
LINE
  8
70
 10
      -21.721069
 20
       27.327118
 30
        0.000000
 11
      -22.500061
 21
       25.859100
 31
        0.000000
  0
ARC
  8
70
 10
      -12.697632
 20
       54.170166
 30
        0.000000
 40
       29.960041
 50
      250.902112
 51
      254.077685
  0
ARC
  8
70
 10
      -17.629089
 20
       36.883820
 30
        0.000000
 40
       11.984015
 50
      254.077521
 51
      277.791992
  0
ARC
  8
70
 10
      -16.747742
 20
       30.442993
 30
        0.000000
 40
        5.483155
 50
      277.792183
 51
      288.239613
  0
ARC
  8
70
 10
      -15.878845
 20
       27.806488
 30
        0.000000
 40
        2.707195
 50
      288.240105
 51
      311.987552
  0
LINE
  8
70
 10
      -13.092590
 20
       25.199982
 30
        0.000000
 11
      -10.995422
 21
       25.199982
 31
        0.000000
  0
LINE
  8
70
 10
      -10.995422
 20
       25.199982
 30
        0.000000
 11
      -10.995422
 21
       27.656708
 31
        0.000000
  0
LINE
  8
70
 10
      -10.995422
 20
       27.656708
 30
        0.000000
 11
       -6.980774
 21
       27.656708
 31
        0.000000
  0
LINE
  8
70
 10
       -6.980774
 20
       27.656708
 30
        0.000000
 11
       -6.980774
 21
       25.199982
 31
        0.000000
  0
LINE
  8
70
 10
       -6.980774
 20
       25.199982
 30
        0.000000
 11
       -4.883545
 21
       25.199982
 31
        0.000000
  0
LINE
  8
70
 10
       -4.883545
 20
       25.199982
 30
        0.000000
 11
       -4.883545
 21
       31.191986
 31
        0.000000
  0
LINE
  8
70
 10
       -4.883545
 20
       31.191986
 30
        0.000000
 11
       -6.980774
 21
       31.191986
 31
        0.000000
  0
LINE
  8
70
 10
       -6.980774
 20
       31.191986
 30
        0.000000
 11
       -6.980774
 21
       28.915009
 31
        0.000000
  0
LINE
  8
70
 10
       -6.980774
 20
       28.915009
 30
        0.000000
 11
      -10.995422
 21
       28.915009
 31
        0.000000
  0
LINE
  8
70
 10
      -10.995422
 20
       28.915009
 30
        0.000000
 11
      -10.995422
 21
       31.191986
 31
        0.000000
  0
LINE
  8
70
 10
      -10.995422
 20
       31.191986
 30
        0.000000
 11
      -13.092590
 21
       31.191986
 31
        0.000000
  0
LINE
  8
70
 10
      -13.092590
 20
       31.191986
 30
        0.000000
 11
      -13.092590
 21
       25.199982
 31
        0.000000
  0
LINE
  8
70
 10
       -4.673828
 20
       25.199982
 30
        0.000000
 11
       -3.085938
 21
       25.199982
 31
        0.000000
  0
LINE
  8
70
 10
       -3.085938
 20
       25.199982
 30
        0.000000
 11
       -2.247070
 21
       26.578156
 31
        0.000000
  0
LINE
  8
70
 10
       -2.247070
 20
       26.578156
 30
        0.000000
 11
        1.767578
 21
       26.578156
 31
        0.000000
  0
LINE
  8
70
 10
        1.767578
 20
       26.578156
 30
        0.000000
 11
        2.606506
 21
       25.199982
 31
        0.000000
  0
LINE
  8
70
 10
        2.606506
 20
       25.199982
 30
        0.000000
 11
        5.212952
 21
       25.199982
 31
        0.000000
  0
LINE
  8
70
 10
        5.212952
 20
       25.199982
 30
        0.000000
 11
        1.557861
 21
       31.191986
 31
        0.000000
  0
LINE
  8
70
 10
        1.557861
 20
       31.191986
 30
        0.000000
 11
       -1.018738
 21
       31.191986
 31
        0.000000
  0
LINE
  8
70
 10
       -1.018738
 20
       31.191986
 30
        0.000000
 11
       -4.673828
 21
       25.199982
 31
        0.000000
  0
LINE
  8
70
 10
       -0.239685
 20
       29.873749
 30
        0.000000
 11
       -1.468079
 21
       27.836456
 31
        0.000000
  0
LINE
  8
70
 10
       -1.468079
 20
       27.836456
 30
        0.000000
 11
        1.018616
 21
       27.836456
 31
        0.000000
  0
LINE
  8
70
 10
        1.018616
 20
       27.836456
 30
        0.000000
 11
       -0.239685
 21
       29.873749
 31
        0.000000
  0
ARC
  8
70
 10
       12.343506
 20
       29.439331
 30
        0.000000
 40
        1.348217
 50
      312.274392
 51
      410.282437
  0
ARC
  8
70
 10
       11.534607
 20
       28.465607
 30
        0.000000
 40
        2.614069
 50
       50.282127
 51
       73.997639
  0
ARC
  8
70
 10
        9.364380
 20
       20.898773
 30
        0.000000
 40
       10.486014
 50
       73.996977
 51
       86.725942
  0
ARC
  8
70
 10
        8.594299
 20
        7.438751
 30
        0.000000
 40
       23.968052
 50
       86.725717
 51
       97.676381
  0
LINE
  8
70
 10
        5.392761
 20
       31.191986
 30
        0.000000
 11
        5.392761
 21
       25.199982
 31
        0.000000
  0
LINE
  8
70
 10
        5.392761
 20
       25.199982
 30
        0.000000
 11
        7.489929
 21
       25.199982
 31
        0.000000
  0
LINE
  8
70
 10
        7.489929
 20
       25.199982
 30
        0.000000
 11
        7.489929
 21
       30.263214
 31
        0.000000
  0
ARC
  8
70
 10
        8.981018
 20
       21.399750
 30
        0.000000
 40
        8.988027
 50
       83.594478
 51
       99.549342
  0
ARC
  8
70
 10
        9.706970
 20
       27.866425
 30
        0.000000
 40
        2.480727
 50
       59.886182
 51
       83.595120
  0
ARC
  8
70
 10
       10.575867
 20
       29.364410
 30
        0.000000
 40
        0.749002
 50
      310.427619
 51
      419.886223
  0
ARC
  8
70
 10
        9.886780
 20
       30.173340
 30
        0.000000
 40
        1.811652
 50
      286.189873
 51
      310.426690
  0
ARC
  8
70
 10
        9.617126
 20
       31.102112
 30
        0.000000
 40
        2.778738
 50
      269.256223
 51
      286.188808
  0
ARC
  8
70
 10
        9.690002
 20
       36.711700
 30
        0.000000
 40
        8.388826
 50
      259.415587
 51
      269.255895
  0
LINE
  8
70
 10
        8.149109
 20
       28.465607
 30
        0.000000
 11
        7.699707
 21
       27.866425
 31
        0.000000
  0
LINE
  8
70
 10
        7.699707
 20
       27.866425
 30
        0.000000
 11
       10.845520
 21
       25.199982
 31
        0.000000
  0
LINE
  8
70
 10
       10.845520
 20
       25.199982
 30
        0.000000
 11
       13.991272
 21
       25.199982
 31
        0.000000
  0
LINE
  8
70
 10
       13.991272
 20
       25.199982
 30
        0.000000
 11
       11.175049
 21
       27.551849
 31
        0.000000
  0
ARC
  8
70
 10
       10.580261
 20
       31.976074
 30
        0.000000
 40
        4.464027
 50
      277.656864
 51
      297.321114
  0
ARC
  8
70
 10
       11.294861
 20
       30.592773
 30
        0.000000
 40
        2.907060
 50
      297.321469
 51
      312.274010
  0
ARC
  8
70
 10
       21.031921
 20
       29.409363
 30
        0.000000
 40
        1.468082
 50
      319.591465
 51
      421.231941
  0
ARC
  8
70
 10
       19.773560
 20
       27.117401
 30
        0.000000
 40
        4.082695
 50
       61.232173
 51
       77.455955
  0
ARC
  8
70
 10
       18.057495
 20
       19.404694
 30
        0.000000
 40
       11.984028
 50
       77.456092
 51
       86.863516
  0
ARC
  8
70
 10
       17.401794
 20
        7.438629
 30
        0.000000
 40
       23.968037
 50
       86.863372
 51
       97.674469
  0
LINE
  8
70
 10
       14.200989
 20
       31.191986
 30
        0.000000
 11
       14.200989
 21
       25.199982
 31
        0.000000
  0
LINE
  8
70
 10
       14.200989
 20
       25.199982
 30
        0.000000
 11
       16.298218
 21
       25.199982
 31
        0.000000
  0
LINE
  8
70
 10
       16.298218
 20
       25.199982
 30
        0.000000
 11
       16.298218
 21
       27.327118
 31
        0.000000
  0
ARC
  8
70
 10
       18.314514
 20
       39.140320
 30
        0.000000
 40
       11.984039
 50
      260.314030
 51
      274.223983
  0
ARC
  8
70
 10
       18.755859
 20
       33.164581
 30
        0.000000
 40
        5.991989
 50
      274.224584
 51
      285.168077
  0
ARC
  8
70
 10
       19.144409
 20
       31.731262
 30
        0.000000
 40
        4.506959
 50
      285.168186
 51
      299.476285
  0
ARC
  8
70
 10
       19.923401
 20
       30.353119
 30
        0.000000
 40
        2.923872
 50
      299.476094
 51
      319.592148
  0
ARC
  8
70
 10
       19.354126
 20
       29.319489
 30
        0.000000
 40
        0.778984
 50
      309.342001
 51
      418.782177
  0
ARC
  8
70
 10
       18.455322
 20
       27.836456
 30
        0.000000
 40
        2.513106
 50
       58.781487
 51
       85.450486
  0
ARC
  8
70
 10
       17.822937
 20
       19.888641
 30
        0.000000
 40
       10.486010
 50
       85.450650
 51
       98.361080
  0
LINE
  8
70
 10
       16.298218
 20
       30.263214
 30
        0.000000
 11
       16.298218
 21
       28.465607
 31
        0.000000
  0
ARC
  8
70
 10
       18.238770
 20
       36.626892
 30
        0.000000
 40
        8.388822
 50
      256.624854
 51
      271.564718
  0
ARC
  8
70
 10
       18.395447
 20
       30.892395
 30
        0.000000
 40
        2.652172
 50
      271.564007
 51
      287.649976
  0
ARC
  8
70
 10
       18.605164
 20
       30.233276
 30
        0.000000
 40
        1.960482
 50
      287.650031
 51
      309.340116
  0
ARC
  8
70
 10
      -45.550049
 20
       12.167999
 30
        0.000000
 40
        2.362483
 50
      182.290569
 51
      250.016646
  0
ARC
  8
70
 10
      -45.172058
 20
       13.207489
 30
        0.000000
 40
        3.468596
 50
      250.017001
 51
      289.573713
  0
ARC
  8
70
 10
      -44.668030
 20
       11.789948
 30
        0.000000
 40
        1.964150
 50
      289.573467
 51
      323.131879
  0
ARC
  8
70
 10
      -44.542053
 20
       11.695465
 30
        0.000000
 40
        1.806641
 50
      323.130103
 51
      371.309932
  0
ARC
  8
70
 10
      -44.384583
 20
       11.726959
 30
        0.000000
 40
        1.646040
 50
       11.309932
 51
       66.619942
  0
ARC
  8
70
 10
      -45.656372
 20
        8.785187
 30
        0.000000
 40
        4.850989
 50
       66.620229
 51
       78.310459
  0
LINE
  8
70
 10
      -44.673523
 20
       13.535553
 30
        0.000000
 11
      -45.570862
 21
       13.721222
 31
        0.000000
  0
ARC
  8
70
 10
      -44.887634
 20
       17.021759
 30
        0.000000
 40
        3.370465
 50
      245.328923
 51
      258.304479
  0
ARC
  8
70
 10
      -45.959534
 20
       14.687958
 30
        0.000000
 40
        0.802338
 50
      128.154044
 51
      245.324115
  0
ARC
  8
70
 10
      -45.613037
 20
       14.246979
 30
        0.000000
 40
        1.363205
 50
      110.281611
 51
      128.157800
  0
ARC
  8
70
 10
      -45.345276
 20
       13.522491
 30
        0.000000
 40
        2.135559
 50
       78.930285
 51
      110.282635
  0
ARC
  8
70
 10
      -45.203552
 20
       14.246979
 30
        0.000000
 40
        1.397355
 50
        2.583585
 51
       78.929821
  0
LINE
  8
70
 10
      -43.807617
 20
       14.309967
 30
        0.000000
 11
      -42.998535
 21
       14.309967
 31
        0.000000
  0
ARC
  8
70
 10
      -45.014526
 20
       14.309967
 30
        0.000000
 40
        2.015991
 50
        0.000000
 51
       78.689555
  0
ARC
  8
70
 10
      -45.329529
 20
       12.734955
 30
        0.000000
 40
        3.622223
 50
       78.689876
 51
      108.590647
  0
ARC
  8
70
 10
      -45.912292
 20
       14.467499
 30
        0.000000
 40
        1.794306
 50
      108.590258
 51
      142.431761
  0
ARC
  8
70
 10
      -46.117065
 20
       14.624969
 30
        0.000000
 40
        1.536003
 50
      142.431133
 51
      248.879720
  0
ARC
  8
70
 10
      -45.297180
 20
       16.747650
 30
        0.000000
 40
        3.811501
 50
      248.880294
 51
      257.660802
  0
LINE
  8
70
 10
      -46.111633
 20
       13.024200
 30
        0.000000
 11
      -44.948853
 21
       12.769806
 31
        0.000000
  0
ARC
  8
70
 10
      -45.707581
 20
        9.301483
 30
        0.000000
 40
        3.550359
 50
       63.434950
 51
       77.661469
  0
ARC
  8
70
 10
      -44.542053
 20
       11.632477
 30
        0.000000
 40
        0.944260
 50
      327.528253
 51
      423.438262
  0
ARC
  8
70
 10
      -44.888550
 20
       11.852997
 30
        0.000000
 40
        1.354923
 50
      286.858713
 51
      327.530904
  0
ARC
  8
70
 10
      -45.203552
 20
       12.892487
 30
        0.000000
 40
        2.441118
 50
      254.357668
 51
      286.858494
  0
ARC
  8
70
 10
      -45.424011
 20
       12.104950
 30
        0.000000
 40
        1.623352
 50
      180.021552
 51
      254.358515
  0
LINE
  8
70
 10
      -47.047363
 20
       12.104401
 30
        0.000000
 11
      -47.910645
 21
       12.073517
 31
        0.000000
  0
LINE
  8
70
 10
      -42.231384
 20
        9.899994
 30
        0.000000
 11
      -41.286377
 21
        9.899994
 31
        0.000000
  0
LINE
  8
70
 10
      -41.286377
 20
        9.899994
 30
        0.000000
 11
      -40.656372
 21
       11.789948
 31
        0.000000
  0
LINE
  8
70
 10
      -40.656372
 20
       11.789948
 30
        0.000000
 11
      -38.293884
 21
       11.789948
 31
        0.000000
  0
LINE
  8
70
 10
      -38.293884
 20
       11.789948
 30
        0.000000
 11
      -37.632385
 21
        9.899994
 31
        0.000000
  0
LINE
  8
70
 10
      -37.632385
 20
        9.899994
 30
        0.000000
 11
      -36.624390
 21
        9.899994
 31
        0.000000
  0
LINE
  8
70
 10
      -36.624390
 20
        9.899994
 30
        0.000000
 11
      -39.018372
 21
       16.199982
 31
        0.000000
  0
LINE
  8
70
 10
      -39.018372
 20
       16.199982
 30
        0.000000
 11
      -39.994873
 21
       16.199982
 31
        0.000000
  0
LINE
  8
70
 10
      -39.994873
 20
       16.199982
 30
        0.000000
 11
      -42.231384
 21
        9.899994
 31
        0.000000
  0
LINE
  8
70
 10
      -39.524658
 20
       15.281952
 30
        0.000000
 11
      -40.435852
 21
       12.514496
 31
        0.000000
  0
LINE
  8
70
 10
      -40.435852
 20
       12.514496
 30
        0.000000
 11
      -38.545898
 21
       12.514496
 31
        0.000000
  0
LINE
  8
70
 10
      -38.545898
 20
       12.514496
 30
        0.000000
 11
      -39.524658
 21
       15.281952
 31
        0.000000
  0
LINE
  8
70
 10
      -37.191406
 20
       15.444000
 30
        0.000000
 11
      -35.175415
 21
       15.444000
 31
        0.000000
  0
LINE
  8
70
 10
      -35.175415
 20
       15.444000
 30
        0.000000
 11
      -35.175415
 21
        9.899994
 31
        0.000000
  0
LINE
  8
70
 10
      -35.175415
 20
        9.899994
 30
        0.000000
 11
      -34.261902
 21
        9.899994
 31
        0.000000
  0
LINE
  8
70
 10
      -34.261902
 20
        9.899994
 30
        0.000000
 11
      -34.261902
 21
       15.444000
 31
        0.000000
  0
LINE
  8
70
 10
      -34.261902
 20
       15.444000
 30
        0.000000
 11
      -32.245850
 21
       15.444000
 31
        0.000000
  0
LINE
  8
70
 10
      -32.245850
 20
       15.444000
 30
        0.000000
 11
      -32.245850
 21
       16.199982
 31
        0.000000
  0
LINE
  8
70
 10
      -32.245850
 20
       16.199982
 30
        0.000000
 11
      -37.191406
 21
       16.199982
 31
        0.000000
  0
LINE
  8
70
 10
      -37.191406
 20
       16.199982
 30
        0.000000
 11
      -37.191406
 21
       15.444000
 31
        0.000000
  0
LINE
  8
70
 10
      -31.426880
 20
        9.899994
 30
        0.000000
 11
      -26.670349
 21
        9.899994
 31
        0.000000
  0
LINE
  8
70
 10
      -26.670349
 20
        9.899994
 30
        0.000000
 11
      -26.670349
 21
       10.718964
 31
        0.000000
  0
LINE
  8
70
 10
      -26.670349
 20
       10.718964
 30
        0.000000
 11
      -30.513367
 21
       10.718964
 31
        0.000000
  0
LINE
  8
70
 10
      -30.513367
 20
       10.718964
 30
        0.000000
 11
      -30.513367
 21
       12.798004
 31
        0.000000
  0
LINE
  8
70
 10
      -30.513367
 20
       12.798004
 30
        0.000000
 11
      -27.079895
 21
       12.798004
 31
        0.000000
  0
LINE
  8
70
 10
      -27.079895
 20
       12.798004
 30
        0.000000
 11
      -27.079895
 21
       13.553986
 31
        0.000000
  0
LINE
  8
70
 10
      -27.079895
 20
       13.553986
 30
        0.000000
 11
      -30.513367
 21
       13.553986
 31
        0.000000
  0
LINE
  8
70
 10
      -30.513367
 20
       13.553986
 30
        0.000000
 11
      -30.513367
 21
       15.412506
 31
        0.000000
  0
LINE
  8
70
 10
      -30.513367
 20
       15.412506
 30
        0.000000
 11
      -26.764893
 21
       15.412506
 31
        0.000000
  0
LINE
  8
70
 10
      -26.764893
 20
       15.412506
 30
        0.000000
 11
      -26.764893
 21
       16.199982
 31
        0.000000
  0
LINE
  8
70
 10
      -26.764893
 20
       16.199982
 30
        0.000000
 11
      -31.426880
 21
       16.199982
 31
        0.000000
  0
LINE
  8
70
 10
      -31.426880
 20
       16.199982
 30
        0.000000
 11
      -31.426880
 21
        9.899994
 31
        0.000000
  0
LINE
  8
70
 10
      -25.441895
 20
        9.899994
 30
        0.000000
 11
      -21.189392
 21
        9.899994
 31
        0.000000
  0
LINE
  8
70
 10
      -21.189392
 20
        9.899994
 30
        0.000000
 11
      -21.189392
 21
       10.718964
 31
        0.000000
  0
LINE
  8
70
 10
      -21.189392
 20
       10.718964
 30
        0.000000
 11
      -24.528381
 21
       10.718964
 31
        0.000000
  0
LINE
  8
70
 10
      -24.528381
 20
       10.718964
 30
        0.000000
 11
      -24.528381
 21
       16.199982
 31
        0.000000
  0
LINE
  8
70
 10
      -24.528381
 20
       16.199982
 30
        0.000000
 11
      -25.441895
 21
       16.199982
 31
        0.000000
  0
LINE
  8
70
 10
      -25.441895
 20
       16.199982
 30
        0.000000
 11
      -25.441895
 21
        9.899994
 31
        0.000000
  0
LINE
  8
70
 10
      -20.433411
 20
        9.899994
 30
        0.000000
 11
      -16.180908
 21
        9.899994
 31
        0.000000
  0
LINE
  8
70
 10
      -16.180908
 20
        9.899994
 30
        0.000000
 11
      -16.180908
 21
       10.718964
 31
        0.000000
  0
LINE
  8
70
 10
      -16.180908
 20
       10.718964
 30
        0.000000
 11
      -19.519897
 21
       10.718964
 31
        0.000000
  0
LINE
  8
70
 10
      -19.519897
 20
       10.718964
 30
        0.000000
 11
      -19.519897
 21
       16.199982
 31
        0.000000
  0
LINE
  8
70
 10
      -19.519897
 20
       16.199982
 30
        0.000000
 11
      -20.433411
 21
       16.199982
 31
        0.000000
  0
LINE
  8
70
 10
      -20.433411
 20
       16.199982
 30
        0.000000
 11
      -20.433411
 21
        9.899994
 31
        0.000000
  0
LINE
  8
70
 10
      -15.424866
 20
        9.899994
 30
        0.000000
 11
      -14.511414
 21
        9.899994
 31
        0.000000
  0
LINE
  8
70
 10
      -14.511414
 20
        9.899994
 30
        0.000000
 11
      -14.511414
 21
       16.199982
 31
        0.000000
  0
LINE
  8
70
 10
      -14.511414
 20
       16.199982
 30
        0.000000
 11
      -15.424866
 21
       16.199982
 31
        0.000000
  0
LINE
  8
70
 10
      -15.424866
 20
       16.199982
 30
        0.000000
 11
      -15.424866
 21
        9.899994
 31
        0.000000
  0
LINE
  8
70
 10
      -13.692383
 20
       15.444000
 30
        0.000000
 11
      -11.676392
 21
       15.444000
 31
        0.000000
  0
LINE
  8
70
 10
      -11.676392
 20
       15.444000
 30
        0.000000
 11
      -11.676392
 21
        9.899994
 31
        0.000000
  0
LINE
  8
70
 10
      -11.676392
 20
        9.899994
 30
        0.000000
 11
      -10.762878
 21
        9.899994
 31
        0.000000
  0
LINE
  8
70
 10
      -10.762878
 20
        9.899994
 30
        0.000000
 11
      -10.762878
 21
       15.444000
 31
        0.000000
  0
LINE
  8
70
 10
      -10.762878
 20
       15.444000
 30
        0.000000
 11
       -8.746887
 21
       15.444000
 31
        0.000000
  0
LINE
  8
70
 10
       -8.746887
 20
       15.444000
 30
        0.000000
 11
       -8.746887
 21
       16.199982
 31
        0.000000
  0
LINE
  8
70
 10
       -8.746887
 20
       16.199982
 30
        0.000000
 11
      -13.692383
 21
       16.199982
 31
        0.000000
  0
LINE
  8
70
 10
      -13.692383
 20
       16.199982
 30
        0.000000
 11
      -13.692383
 21
       15.444000
 31
        0.000000
  0
LINE
  8
70
 10
       -7.927917
 20
        9.899994
 30
        0.000000
 11
       -3.171387
 21
        9.899994
 31
        0.000000
  0
LINE
  8
70
 10
       -3.171387
 20
        9.899994
 30
        0.000000
 11
       -3.171387
 21
       10.718964
 31
        0.000000
  0
LINE
  8
70
 10
       -3.171387
 20
       10.718964
 30
        0.000000
 11
       -7.014404
 21
       10.718964
 31
        0.000000
  0
LINE
  8
70
 10
       -7.014404
 20
       10.718964
 30
        0.000000
 11
       -7.014404
 21
       12.798004
 31
        0.000000
  0
LINE
  8
70
 10
       -7.014404
 20
       12.798004
 30
        0.000000
 11
       -3.580872
 21
       12.798004
 31
        0.000000
  0
LINE
  8
70
 10
       -3.580872
 20
       12.798004
 30
        0.000000
 11
       -3.580872
 21
       13.553986
 31
        0.000000
  0
LINE
  8
70
 10
       -3.580872
 20
       13.553986
 30
        0.000000
 11
       -7.014404
 21
       13.553986
 31
        0.000000
  0
LINE
  8
70
 10
       -7.014404
 20
       13.553986
 30
        0.000000
 11
       -7.014404
 21
       15.412506
 31
        0.000000
  0
LINE
  8
70
 10
       -7.014404
 20
       15.412506
 30
        0.000000
 11
       -3.265869
 21
       15.412506
 31
        0.000000
  0
LINE
  8
70
 10
       -3.265869
 20
       15.412506
 30
        0.000000
 11
       -3.265869
 21
       16.199982
 31
        0.000000
  0
LINE
  8
70
 10
       -3.265869
 20
       16.199982
 30
        0.000000
 11
       -7.927917
 21
       16.199982
 31
        0.000000
  0
LINE
  8
70
 10
       -7.927917
 20
       16.199982
 30
        0.000000
 11
       -7.927917
 21
        9.899994
 31
        0.000000
  0
LINE
  8
70
 10
        1.648132
 20
        9.899994
 30
        0.000000
 11
        2.561584
 21
        9.899994
 31
        0.000000
  0
LINE
  8
70
 10
        2.561584
 20
        9.899994
 30
        0.000000
 11
        2.561584
 21
       16.199982
 31
        0.000000
  0
LINE
  8
70
 10
        2.561584
 20
       16.199982
 30
        0.000000
 11
        1.648132
 21
       16.199982
 31
        0.000000
  0
LINE
  8
70
 10
        1.648132
 20
       16.199982
 30
        0.000000
 11
        1.648132
 21
        9.899994
 31
        0.000000
  0
LINE
  8
70
 10
        4.010620
 20
        9.899994
 30
        0.000000
 11
        6.404602
 21
        9.899994
 31
        0.000000
  0
ARC
  8
70
 10
        6.404602
 20
       12.766449
 30
        0.000000
 40
        2.866516
 50
      270.000000
 51
      299.129612
  0
ARC
  8
70
 10
        6.573303
 20
       12.463776
 30
        0.000000
 40
        2.519986
 50
      299.130896
 51
      344.635527
  0
ARC
  8
70
 10
        4.325623
 20
       13.081451
 30
        0.000000
 40
        4.851011
 50
      344.634489
 51
      374.776806
  0
ARC
  8
70
 10
        6.670898
 20
       13.700104
 30
        0.000000
 40
        2.425500
 50
       14.777245
 51
       49.809529
  0
ARC
  8
70
 10
        6.467590
 20
       13.459503
 30
        0.000000
 40
        2.740492
 50
       49.808675
 51
       90.000000
  0
LINE
  8
70
 10
        6.467590
 20
       16.199982
 30
        0.000000
 11
        4.010620
 21
       16.199982
 31
        0.000000
  0
LINE
  8
70
 10
        4.010620
 20
       16.199982
 30
        0.000000
 11
        4.010620
 21
        9.899994
 31
        0.000000
  0
LINE
  8
70
 10
        4.924133
 20
       10.655975
 30
        0.000000
 11
        6.436096
 21
       10.655975
 31
        0.000000
  0
ARC
  8
70
 10
        6.436096
 20
       12.419952
 30
        0.000000
 40
        1.763977
 50
      270.000000
 51
      321.115881
  0
ARC
  8
70
 10
        6.681274
 20
       12.222260
 30
        0.000000
 40
        1.449041
 50
      321.114050
 51
      341.768815
  0
ARC
  8
70
 10
        4.168091
 20
       13.049957
 30
        0.000000
 40
        4.094987
 50
      341.770563
 51
      379.226772
  0
ARC
  8
70
 10
        6.636780
 20
       13.910919
 30
        0.000000
 40
        1.480471
 50
       19.227508
 51
       60.655049
  0
ARC
  8
70
 10
        6.436096
 20
       13.553986
 30
        0.000000
 40
        1.890024
 50
       60.656053
 51
       90.000000
  0
LINE
  8
70
 10
        6.436096
 20
       15.444000
 30
        0.000000
 11
        4.924133
 21
       15.444000
 31
        0.000000
  0
LINE
  8
70
 10
        4.924133
 20
       15.444000
 30
        0.000000
 11
        4.924133
 21
       10.655975
 31
        0.000000
  0
ARC
  8
70
 10
       15.949097
 20
       12.167999
 30
        0.000000
 40
        2.362483
 50
      182.290569
 51
      250.016646
  0
ARC
  8
70
 10
       16.327087
 20
       13.207489
 30
        0.000000
 40
        3.468596
 50
      250.017001
 51
      289.573713
  0
ARC
  8
70
 10
       16.831116
 20
       11.789948
 30
        0.000000
 40
        1.964150
 50
      289.573467
 51
      323.131879
  0
ARC
  8
70
 10
       16.957092
 20
       11.695465
 30
        0.000000
 40
        1.806641
 50
      323.130103
 51
      371.309932
  0
ARC
  8
70
 10
       17.114563
 20
       11.726959
 30
        0.000000
 40
        1.646040
 50
       11.309932
 51
       66.619942
  0
ARC
  8
70
 10
       15.842773
 20
        8.785187
 30
        0.000000
 40
        4.850989
 50
       66.620229
 51
       78.310459
  0
LINE
  8
70
 10
       16.825623
 20
       13.535553
 30
        0.000000
 11
       15.928345
 21
       13.721222
 31
        0.000000
  0
ARC
  8
70
 10
       16.611511
 20
       17.021759
 30
        0.000000
 40
        3.370490
 50
      245.327995
 51
      258.305709
  0
ARC
  8
70
 10
       15.539612
 20
       14.687958
 30
        0.000000
 40
        0.802375
 50
      128.157472
 51
      245.325918
  0
ARC
  8
70
 10
       15.886108
 20
       14.246979
 30
        0.000000
 40
        1.363205
 50
      110.281611
 51
      128.157800
  0
ARC
  8
70
 10
       16.153870
 20
       13.522491
 30
        0.000000
 40
        2.135559
 50
       78.930285
 51
      110.282635
  0
ARC
  8
70
 10
       16.295593
 20
       14.246979
 30
        0.000000
 40
        1.397355
 50
        2.583585
 51
       78.929821
  0
LINE
  8
70
 10
       17.691528
 20
       14.309967
 30
        0.000000
 11
       18.500610
 21
       14.309967
 31
        0.000000
  0
ARC
  8
70
 10
       16.484619
 20
       14.309967
 30
        0.000000
 40
        2.015991
 50
        0.000000
 51
       78.689555
  0
ARC
  8
70
 10
       16.169617
 20
       12.734955
 30
        0.000000
 40
        3.622211
 50
       78.690826
 51
      108.590798
  0
ARC
  8
70
 10
       15.586853
 20
       14.467499
 30
        0.000000
 40
        1.794325
 50
      108.592102
 51
      142.432349
  0
ARC
  8
70
 10
       15.382141
 20
       14.624969
 30
        0.000000
 40
        1.536003
 50
      142.431133
 51
      248.879720
  0
ARC
  8
70
 10
       16.202026
 20
       16.747650
 30
        0.000000
 40
        3.811501
 50
      248.880294
 51
      257.660802
  0
LINE
  8
70
 10
       15.387512
 20
       13.024200
 30
        0.000000
 11
       16.550293
 21
       12.769806
 31
        0.000000
  0
ARC
  8
70
 10
       15.791565
 20
        9.301483
 30
        0.000000
 40
        3.550359
 50
       63.434950
 51
       77.660505
  0
ARC
  8
70
 10
       16.957092
 20
       11.632477
 30
        0.000000
 40
        0.944260
 50
      327.528253
 51
      423.438262
  0
ARC
  8
70
 10
       16.610596
 20
       11.852997
 30
        0.000000
 40
        1.354923
 50
      286.858713
 51
      327.530904
  0
ARC
  8
70
 10
       16.295593
 20
       12.892487
 30
        0.000000
 40
        2.441118
 50
      254.357668
 51
      286.858494
  0
ARC
  8
70
 10
       16.075134
 20
       12.104950
 30
        0.000000
 40
        1.623352
 50
      180.021552
 51
      254.356439
  0
LINE
  8
70
 10
       14.451782
 20
       12.104401
 30
        0.000000
 11
       13.588501
 21
       12.073517
 31
        0.000000
  0
LINE
  8
70
 10
       18.889771
 20
       16.199982
 30
        0.000000
 11
       21.283752
 21
       12.545990
 31
        0.000000
  0
LINE
  8
70
 10
       21.283752
 20
       12.545990
 30
        0.000000
 11
       21.283752
 21
        9.899994
 31
        0.000000
  0
LINE
  8
70
 10
       21.283752
 20
        9.899994
 30
        0.000000
 11
       22.197266
 21
        9.899994
 31
        0.000000
  0
LINE
  8
70
 10
       22.197266
 20
        9.899994
 30
        0.000000
 11
       22.197266
 21
       12.545990
 31
        0.000000
  0
LINE
  8
70
 10
       22.197266
 20
       12.545990
 30
        0.000000
 11
       24.591248
 21
       16.199982
 31
        0.000000
  0
LINE
  8
70
 10
       24.591248
 20
       16.199982
 30
        0.000000
 11
       23.551758
 21
       16.199982
 31
        0.000000
  0
LINE
  8
70
 10
       23.551758
 20
       16.199982
 30
        0.000000
 11
       21.739502
 21
       13.246613
 31
        0.000000
  0
LINE
  8
70
 10
       21.739502
 20
       13.246613
 30
        0.000000
 11
       19.960754
 21
       16.199982
 31
        0.000000
  0
LINE
  8
70
 10
       19.960754
 20
       16.199982
 30
        0.000000
 11
       18.889771
 21
       16.199982
 31
        0.000000
  0
ARC
  8
70
 10
       27.079773
 20
       12.167999
 30
        0.000000
 40
        2.362483
 50
      182.290569
 51
      250.016646
  0
ARC
  8
70
 10
       27.457764
 20
       13.207489
 30
        0.000000
 40
        3.468596
 50
      250.017001
 51
      289.573713
  0
ARC
  8
70
 10
       27.961731
 20
       11.789948
 30
        0.000000
 40
        1.964150
 50
      289.573467
 51
      323.131879
  0
ARC
  8
70
 10
       28.087769
 20
       11.695465
 30
        0.000000
 40
        1.806690
 50
      323.131278
 51
      371.309552
  0
ARC
  8
70
 10
       28.245239
 20
       11.726959
 30
        0.000000
 40
        1.646040
 50
       11.309932
 51
       66.619942
  0
ARC
  8
70
 10
       26.973450
 20
        8.785187
 30
        0.000000
 40
        4.850989
 50
       66.620229
 51
       78.310459
  0
LINE
  8
70
 10
       27.956299
 20
       13.535553
 30
        0.000000
 11
       27.058960
 21
       13.721222
 31
        0.000000
  0
ARC
  8
70
 10
       27.742188
 20
       17.021759
 30
        0.000000
 40
        3.370490
 50
      245.327995
 51
      258.304589
  0
ARC
  8
70
 10
       26.670227
 20
       14.687958
 30
        0.000000
 40
        0.802375
 50
      128.157472
 51
      245.325918
  0
ARC
  8
70
 10
       27.016785
 20
       14.246979
 30
        0.000000
 40
        1.363205
 50
      110.281611
 51
      128.157800
  0
ARC
  8
70
 10
       27.284485
 20
       13.522491
 30
        0.000000
 40
        2.135559
 50
       78.930285
 51
      110.282635
  0
ARC
  8
70
 10
       27.426270
 20
       14.246979
 30
        0.000000
 40
        1.397355
 50
        2.583585
 51
       78.929821
  0
LINE
  8
70
 10
       28.822205
 20
       14.309967
 30
        0.000000
 11
       29.631287
 21
       14.309967
 31
        0.000000
  0
ARC
  8
70
 10
       27.615295
 20
       14.309967
 30
        0.000000
 40
        2.015991
 50
        0.000000
 51
       78.691256
  0
ARC
  8
70
 10
       27.300293
 20
       12.734955
 30
        0.000000
 40
        3.622211
 50
       78.690826
 51
      108.590798
  0
ARC
  8
70
 10
       26.717468
 20
       14.467499
 30
        0.000000
 40
        1.794306
 50
      108.590258
 51
      142.433127
  0
ARC
  8
70
 10
       26.512756
 20
       14.624969
 30
        0.000000
 40
        1.536003
 50
      142.431133
 51
      248.879720
  0
ARC
  8
70
 10
       27.332703
 20
       16.747650
 30
        0.000000
 40
        3.811501
 50
      248.880294
 51
      257.660802
  0
LINE
  8
70
 10
       26.518127
 20
       13.024200
 30
        0.000000
 11
       27.680969
 21
       12.769806
 31
        0.000000
  0
ARC
  8
70
 10
       26.922241
 20
        9.301483
 30
        0.000000
 40
        3.550359
 50
       63.434950
 51
       77.660505
  0
ARC
  8
70
 10
       28.087769
 20
       11.632477
 30
        0.000000
 40
        0.944260
 50
      327.528253
 51
      423.434117
  0
ARC
  8
70
 10
       27.741272
 20
       11.852997
 30
        0.000000
 40
        1.354923
 50
      286.858713
 51
      327.526259
  0
ARC
  8
70
 10
       27.426270
 20
       12.892487
 30
        0.000000
 40
        2.441118
 50
      254.357668
 51
      286.858494
  0
ARC
  8
70
 10
       27.205750
 20
       12.104950
 30
        0.000000
 40
        1.623352
 50
      180.021552
 51
      254.356439
  0
LINE
  8
70
 10
       25.582458
 20
       12.104401
 30
        0.000000
 11
       24.719177
 21
       12.073517
 31
        0.000000
  0
LINE
  8
70
 10
       30.020447
 20
       15.444000
 30
        0.000000
 11
       32.036438
 21
       15.444000
 31
        0.000000
  0
LINE
  8
70
 10
       32.036438
 20
       15.444000
 30
        0.000000
 11
       32.036438
 21
        9.899994
 31
        0.000000
  0
LINE
  8
70
 10
       32.036438
 20
        9.899994
 30
        0.000000
 11
       32.949951
 21
        9.899994
 31
        0.000000
  0
LINE
  8
70
 10
       32.949951
 20
        9.899994
 30
        0.000000
 11
       32.949951
 21
       15.444000
 31
        0.000000
  0
LINE
  8
70
 10
       32.949951
 20
       15.444000
 30
        0.000000
 11
       34.965942
 21
       15.444000
 31
        0.000000
  0
LINE
  8
70
 10
       34.965942
 20
       15.444000
 30
        0.000000
 11
       34.965942
 21
       16.199982
 31
        0.000000
  0
LINE
  8
70
 10
       34.965942
 20
       16.199982
 30
        0.000000
 11
       30.020447
 21
       16.199982
 31
        0.000000
  0
LINE
  8
70
 10
       30.020447
 20
       16.199982
 30
        0.000000
 11
       30.020447
 21
       15.444000
 31
        0.000000
  0
LINE
  8
70
 10
       35.784912
 20
        9.899994
 30
        0.000000
 11
       40.541443
 21
        9.899994
 31
        0.000000
  0
LINE
  8
70
 10
       40.541443
 20
        9.899994
 30
        0.000000
 11
       40.541443
 21
       10.718964
 31
        0.000000
  0
LINE
  8
70
 10
       40.541443
 20
       10.718964
 30
        0.000000
 11
       36.698425
 21
       10.718964
 31
        0.000000
  0
LINE
  8
70
 10
       36.698425
 20
       10.718964
 30
        0.000000
 11
       36.698425
 21
       12.798004
 31
        0.000000
  0
LINE
  8
70
 10
       36.698425
 20
       12.798004
 30
        0.000000
 11
       40.131897
 21
       12.798004
 31
        0.000000
  0
LINE
  8
70
 10
       40.131897
 20
       12.798004
 30
        0.000000
 11
       40.131897
 21
       13.553986
 31
        0.000000
  0
LINE
  8
70
 10
       40.131897
 20
       13.553986
 30
        0.000000
 11
       36.698425
 21
       13.553986
 31
        0.000000
  0
LINE
  8
70
 10
       36.698425
 20
       13.553986
 30
        0.000000
 11
       36.698425
 21
       15.412506
 31
        0.000000
  0
LINE
  8
70
 10
       36.698425
 20
       15.412506
 30
        0.000000
 11
       40.446899
 21
       15.412506
 31
        0.000000
  0
LINE
  8
70
 10
       40.446899
 20
       15.412506
 30
        0.000000
 11
       40.446899
 21
       16.199982
 31
        0.000000
  0
LINE
  8
70
 10
       40.446899
 20
       16.199982
 30
        0.000000
 11
       35.784912
 21
       16.199982
 31
        0.000000
  0
LINE
  8
70
 10
       35.784912
 20
       16.199982
 30
        0.000000
 11
       35.784912
 21
        9.899994
 31
        0.000000
  0
LINE
  8
70
 10
       41.769958
 20
        9.899994
 30
        0.000000
 11
       42.588928
 21
        9.899994
 31
        0.000000
  0
LINE
  8
70
 10
       42.588928
 20
        9.899994
 30
        0.000000
 11
       42.588928
 21
       14.741058
 31
        0.000000
  0
LINE
  8
70
 10
       42.588928
 20
       14.741058
 30
        0.000000
 11
       44.478943
 21
        9.899994
 31
        0.000000
  0
LINE
  8
70
 10
       44.478943
 20
        9.899994
 30
        0.000000
 11
       45.171936
 21
        9.899994
 31
        0.000000
  0
LINE
  8
70
 10
       45.171936
 20
        9.899994
 30
        0.000000
 11
       47.093445
 21
       14.736847
 31
        0.000000
  0
LINE
  8
70
 10
       47.093445
 20
       14.736847
 30
        0.000000
 11
       47.093445
 21
        9.899994
 31
        0.000000
  0
LINE
  8
70
 10
       47.093445
 20
        9.899994
 30
        0.000000
 11
       47.912415
 21
        9.899994
 31
        0.000000
  0
LINE
  8
70
 10
       47.912415
 20
        9.899994
 30
        0.000000
 11
       47.912415
 21
       16.199982
 31
        0.000000
  0
LINE
  8
70
 10
       47.912415
 20
       16.199982
 30
        0.000000
 11
       46.809937
 21
       16.199982
 31
        0.000000
  0
LINE
  8
70
 10
       46.809937
 20
       16.199982
 30
        0.000000
 11
       44.824341
 21
       11.017303
 31
        0.000000
  0
LINE
  8
70
 10
       44.824341
 20
       11.017303
 30
        0.000000
 11
       42.872437
 21
       16.199982
 31
        0.000000
  0
LINE
  8
70
 10
       42.872437
 20
       16.199982
 30
        0.000000
 11
       41.769958
 21
       16.199982
 31
        0.000000
  0
LINE
  8
70
 10
       41.769958
 20
       16.199982
 30
        0.000000
 11
       41.769958
 21
        9.899994
 31
        0.000000
  0
ARC
  8
70
 10
       34.999939
 20
      162.200012
 30
        0.000000
 40
        6.999984
 50
       73.742948
 51
      106.257318
  0
LINE
  8
70
 10
       37.749939
 20
      167.200012
 30
        0.000000
 11
       37.675812
 21
      168.047241
 31
        0.000000
  0
LINE
  8
70
 10
       32.249939
 20
      167.200012
 30
        0.000000
 11
       32.324066
 21
      168.047241
 31
        0.000000
  0
ARC
  8
70
 10
       36.679596
 20
      167.960083
 30
        0.000000
 40
        0.999991
 50
        5.000187
 51
       73.741404
  0
ARC
  8
70
 10
       33.320251
 20
      167.960083
 30
        0.000000
 40
        0.999995
 50
      106.254743
 51
      174.999810
  0
LINE
  8
70
 10
       37.999908
 20
      166.500000
 30
        0.000000
 11
       31.999908
 21
      166.500000
 31
        0.000000
  0
LINE
  8
70
 10
       37.999908
 20
      167.200012
 30
        0.000000
 11
       31.999908
 21
      167.200012
 31
        0.000000
  0
LINE
  8
70
 10
       31.999908
 20
      166.500000
 30
        0.000000
 11
       31.999908
 21
      167.200012
 31
        0.000000
  0
LINE
  8
70
 10
       37.999908
 20
      166.500000
 30
        0.000000
 11
       37.999908
 21
      167.200012
 31
        0.000000
  0
LINE
  8
70
 10
      -10.115051
 20
       58.639984
 30
        0.000000
 11
       -9.155060
 21
       58.639984
 31
        0.000000
  0
LINE
  8
70
 10
       -9.155060
 20
       58.639984
 30
        0.000000
 11
       -9.155060
 21
       55.999985
 31
        0.000000
  0
LINE
  8
70
 10
       -9.155060
 20
       55.999985
 30
        0.000000
 11
       -8.720062
 21
       55.999985
 31
        0.000000
  0
LINE
  8
70
 10
       -8.720062
 20
       55.999985
 30
        0.000000
 11
       -8.720062
 21
       58.639984
 31
        0.000000
  0
LINE
  8
70
 10
       -8.720062
 20
       58.639984
 30
        0.000000
 11
       -7.760071
 21
       58.639984
 31
        0.000000
  0
LINE
  8
70
 10
       -7.760071
 20
       58.639984
 30
        0.000000
 11
       -7.760071
 21
       58.999985
 31
        0.000000
  0
LINE
  8
70
 10
       -7.760071
 20
       58.999985
 30
        0.000000
 11
      -10.115051
 21
       58.999985
 31
        0.000000
  0
LINE
  8
70
 10
      -10.115051
 20
       58.999985
 30
        0.000000
 11
      -10.115051
 21
       58.639984
 31
        0.000000
  0
LINE
  8
70
 10
       -7.535065
 20
       58.999985
 30
        0.000000
 11
       -7.040070
 21
       58.999985
 31
        0.000000
  0
LINE
  8
70
 10
       -7.040070
 20
       58.999985
 30
        0.000000
 11
       -6.290070
 21
       57.842377
 31
        0.000000
  0
LINE
  8
70
 10
       -6.290070
 20
       57.842377
 30
        0.000000
 11
       -5.540070
 21
       58.999985
 31
        0.000000
  0
LINE
  8
70
 10
       -5.540070
 20
       58.999985
 30
        0.000000
 11
       -5.045044
 21
       58.999985
 31
        0.000000
  0
LINE
  8
70
 10
       -5.045044
 20
       58.999985
 30
        0.000000
 11
       -6.050049
 21
       57.529984
 31
        0.000000
  0
LINE
  8
70
 10
       -6.050049
 20
       57.529984
 30
        0.000000
 11
       -5.000061
 21
       55.999985
 31
        0.000000
  0
LINE
  8
70
 10
       -5.000061
 20
       55.999985
 30
        0.000000
 11
       -5.510040
 21
       55.999985
 31
        0.000000
  0
LINE
  8
70
 10
       -5.510040
 20
       55.999985
 30
        0.000000
 11
       -6.290070
 21
       57.202484
 31
        0.000000
  0
LINE
  8
70
 10
       -6.290070
 20
       57.202484
 30
        0.000000
 11
       -7.070068
 21
       55.999985
 31
        0.000000
  0
LINE
  8
70
 10
       -7.070068
 20
       55.999985
 30
        0.000000
 11
       -7.580048
 21
       55.999985
 31
        0.000000
  0
LINE
  8
70
 10
       -7.580048
 20
       55.999985
 30
        0.000000
 11
       -6.530060
 21
       57.529984
 31
        0.000000
  0
LINE
  8
70
 10
       -6.530060
 20
       57.529984
 30
        0.000000
 11
       -7.535065
 21
       58.999985
 31
        0.000000
  0
ARC
  8
70
 10
        6.469940
 20
       57.694977
 30
        0.000000
 40
        1.005003
 50
       45.904262
 51
      134.095734
  0
ARC
  8
70
 10
        6.438629
 20
       57.727295
 30
        0.000000
 40
        0.960005
 50
      134.095843
 51
      165.615431
  0
ARC
  8
70
 10
        7.324951
 20
       57.499985
 30
        0.000000
 40
        1.875008
 50
      165.614994
 51
      194.385016
  0
ARC
  8
70
 10
        6.438629
 20
       57.272675
 30
        0.000000
 40
        0.959998
 50
      194.384798
 51
      225.904167
  0
ARC
  8
70
 10
        6.469940
 20
       57.304993
 30
        0.000000
 40
        1.005003
 50
      225.904276
 51
      314.095758
  0
ARC
  8
70
 10
        5.614929
 20
       57.499985
 30
        0.000000
 40
        1.875008
 50
      345.615004
 51
      374.385008
  0
ARC
  8
70
 10
        6.501251
 20
       57.272675
 30
        0.000000
 40
        0.960005
 50
      314.095867
 51
      345.615441
  0
ARC
  8
70
 10
        6.501251
 20
       57.727295
 30
        0.000000
 40
        0.959998
 50
       14.384788
 51
       45.904146
  0
ARC
  8
70
 10
        6.516205
 20
       57.658173
 30
        0.000000
 40
        1.394998
 50
       20.580398
 51
       39.525361
  0
ARC
  8
70
 10
        6.469940
 20
       57.619980
 30
        0.000000
 40
        1.455001
 50
       39.524763
 51
      140.475226
  0
ARC
  8
70
 10
        6.423645
 20
       57.658173
 30
        0.000000
 40
        1.394995
 50
      140.474639
 51
      159.419602
  0
ARC
  8
70
 10
        6.844940
 20
       57.499985
 30
        0.000000
 40
        1.845013
 50
      159.419657
 51
      200.580353
  0
ARC
  8
70
 10
        6.423645
 20
       57.341797
 30
        0.000000
 40
        1.394998
 50
      200.580408
 51
      219.525371
  0
ARC
  8
70
 10
        6.469940
 20
       57.379990
 30
        0.000000
 40
        1.455001
 50
      219.524784
 51
      320.475236
  0
ARC
  8
70
 10
        6.516205
 20
       57.341797
 30
        0.000000
 40
        1.394995
 50
      320.474663
 51
      339.419612
  0
ARC
  8
70
 10
        6.094940
 20
       57.499985
 30
        0.000000
 40
        1.845013
 50
      339.419667
 51
      380.580336
  0
LINE
  8
70
 10
        8.419952
 20
       55.999985
 30
        0.000000
 11
        8.854950
 21
       55.999985
 31
        0.000000
  0
LINE
  8
70
 10
        8.854950
 20
       55.999985
 30
        0.000000
 11
        8.854950
 21
       57.049988
 31
        0.000000
  0
LINE
  8
70
 10
        8.854950
 20
       57.049988
 30
        0.000000
 11
        9.334961
 21
       57.499985
 31
        0.000000
  0
LINE
  8
70
 10
        9.334961
 20
       57.499985
 30
        0.000000
 11
       10.444946
 21
       55.999985
 31
        0.000000
  0
LINE
  8
70
 10
       10.444946
 20
       55.999985
 30
        0.000000
 11
       10.984955
 21
       55.999985
 31
        0.000000
  0
LINE
  8
70
 10
       10.984955
 20
       55.999985
 30
        0.000000
 11
        9.619965
 21
       57.769989
 31
        0.000000
  0
LINE
  8
70
 10
        9.619965
 20
       57.769989
 30
        0.000000
 11
       10.894958
 21
       58.999985
 31
        0.000000
  0
LINE
  8
70
 10
       10.894958
 20
       58.999985
 30
        0.000000
 11
       10.324951
 21
       58.999985
 31
        0.000000
  0
LINE
  8
70
 10
        8.854950
 20
       57.565842
 30
        0.000000
 11
        8.854950
 21
       58.999985
 31
        0.000000
  0
LINE
  8
70
 10
        8.854950
 20
       58.999985
 30
        0.000000
 11
        8.419952
 21
       58.999985
 31
        0.000000
  0
LINE
  8
70
 10
        8.419952
 20
       58.999985
 30
        0.000000
 11
        8.419952
 21
       55.999985
 31
        0.000000
  0
LINE
  8
70
 10
       10.324951
 20
       58.999985
 30
        0.000000
 11
        8.854950
 21
       57.565842
 31
        0.000000
  0
ARC
  8
70
 10
      170.199951
 20
      -42.500042
 30
        0.000000
 40
        6.999983
 50
      343.742985
 51
      376.257197
  0
LINE
  8
70
 10
      175.199951
 20
      -39.750042
 30
        0.000000
 11
      176.047180
 21
      -39.824169
 31
        0.000000
  0
LINE
  8
70
 10
      175.199951
 20
      -45.250042
 30
        0.000000
 11
      176.047180
 21
      -45.175915
 31
        0.000000
  0
ARC
  8
70
 10
      175.960022
 20
      -40.820370
 30
        0.000000
 40
        1.000012
 50
       16.258105
 51
       84.999926
  0
ARC
  8
70
 10
      175.960022
 20
      -44.179714
 30
        0.000000
 40
        0.999991
 50
      275.000193
 51
      343.745062
  0
LINE
  8
70
 10
      174.499939
 20
      -39.500057
 30
        0.000000
 11
      174.499939
 21
      -45.500057
 31
        0.000000
  0
LINE
  8
70
 10
      175.199951
 20
      -39.500057
 30
        0.000000
 11
      175.199951
 21
      -45.500057
 31
        0.000000
  0
LINE
  8
70
 10
      174.499939
 20
      -45.500057
 30
        0.000000
 11
      175.199951
 21
      -45.500057
 31
        0.000000
  0
LINE
  8
70
 10
      174.499939
 20
      -39.500057
 30
        0.000000
 11
      175.199951
 21
      -39.500057
 31
        0.000000
  0
ARC
  8
70
 10
      170.199951
 20
       42.500038
 30
        0.000000
 40
        6.999988
 50
      343.742876
 51
      376.257107
  0
LINE
  8
70
 10
      175.199951
 20
       39.750038
 30
        0.000000
 11
      176.047180
 21
       39.824165
 31
        0.000000
  0
LINE
  8
70
 10
      175.199951
 20
       45.250038
 30
        0.000000
 11
      176.047180
 21
       45.175911
 31
        0.000000
  0
ARC
  8
70
 10
      175.960022
 20
       40.820366
 30
        0.000000
 40
        0.999987
 50
      275.000221
 51
      343.741401
  0
ARC
  8
70
 10
      175.960022
 20
       44.179710
 30
        0.000000
 40
        0.999999
 50
       16.255589
 51
       84.999851
  0
LINE
  8
70
 10
      174.499939
 20
       39.500053
 30
        0.000000
 11
      174.499939
 21
       45.500053
 31
        0.000000
  0
LINE
  8
70
 10
      175.199951
 20
       39.500053
 30
        0.000000
 11
      175.199951
 21
       45.500053
 31
        0.000000
  0
LINE
  8
70
 10
      174.499939
 20
       45.500053
 30
        0.000000
 11
      175.199951
 21
       45.500053
 31
        0.000000
  0
LINE
  8
70
 10
      174.499939
 20
       39.500053
 30
        0.000000
 11
      175.199951
 21
       39.500053
 31
        0.000000
  0
LINE
  8
70
 10
      150.999878
 20
     -172.500000
 30
        0.000000
 11
      164.999939
 21
     -172.500000
 31
        0.000000
  0
LINE
  8
70
 10
      150.999878
 20
     -172.500000
 30
        0.000000
 11
      150.999939
 21
     -167.500000
 31
        0.000000
  0
LINE
  8
70
 10
      164.999939
 20
     -172.500000
 30
        0.000000
 11
      164.999939
 21
     -167.500000
 31
        0.000000
  0
LINE
  8
70
 10
      165.349915
 20
     -167.500000
 30
        0.000000
 11
      165.349915
 21
     -160.099976
 31
        0.000000
  0
LINE
  8
70
 10
      150.649963
 20
     -167.500000
 30
        0.000000
 11
      150.649963
 21
     -160.099976
 31
        0.000000
  0
LINE
  8
70
 10
      150.649963
 20
     -160.099976
 30
        0.000000
 11
      165.349915
 21
     -160.099976
 31
        0.000000
  0
LINE
  8
70
 10
      150.649963
 20
     -167.500000
 30
        0.000000
 11
      165.349915
 21
     -167.500000
 31
        0.000000
  0
LINE
  8
70
 10
      164.999939
 20
     -160.099976
 30
        0.000000
 11
      164.999939
 21
     -159.300049
 31
        0.000000
  0
LINE
  8
70
 10
      150.999939
 20
     -160.099976
 30
        0.000000
 11
      150.999939
 21
     -159.300049
 31
        0.000000
  0
LINE
  8
70
 10
      150.999939
 20
     -159.300049
 30
        0.000000
 11
      164.999939
 21
     -159.300049
 31
        0.000000
  0
LINE
  8
70
 10
      164.099915
 20
     -158.500000
 30
        0.000000
 11
      164.099915
 21
     -156.099976
 31
        0.000000
  0
LINE
  8
70
 10
      151.899963
 20
     -158.500000
 30
        0.000000
 11
      151.899963
 21
     -156.099976
 31
        0.000000
  0
LINE
  8
70
 10
      151.899963
 20
     -158.500000
 30
        0.000000
 11
      164.099915
 21
     -158.500000
 31
        0.000000
  0
LINE
  8
70
 10
      151.899963
 20
     -158.500000
 30
        0.000000
 11
      150.999939
 21
     -159.300049
 31
        0.000000
  0
LINE
  8
70
 10
      164.099915
 20
     -158.500000
 30
        0.000000
 11
      164.999939
 21
     -159.300049
 31
        0.000000
  0
LINE
  8
70
 10
      153.499939
 20
     -130.000000
 30
        0.000000
 11
      151.849915
 21
     -142.500000
 31
        0.000000
  0
LINE
  8
70
 10
      162.499939
 20
     -130.000000
 30
        0.000000
 11
      164.149963
 21
     -142.500000
 31
        0.000000
  0
LINE
  8
70
 10
      151.249939
 20
     -152.599976
 30
        0.000000
 11
      151.899963
 21
     -156.099976
 31
        0.000000
  0
LINE
  8
70
 10
      164.099915
 20
     -156.099976
 30
        0.000000
 11
      164.749939
 21
     -152.599976
 31
        0.000000
  0
LINE
  8
70
 10
      151.899963
 20
     -156.099976
 30
        0.000000
 11
      164.099915
 21
     -156.099976
 31
        0.000000
  0
LINE
  8
70
 10
      151.249939
 20
     -142.500000
 30
        0.000000
 11
      164.749939
 21
     -142.500000
 31
        0.000000
  0
LINE
  8
70
 10
      153.499939
 20
     -130.000000
 30
        0.000000
 11
      162.499939
 21
     -130.000000
 31
        0.000000
  0
LINE
  8
70
 10
      151.249939
 20
     -152.599976
 30
        0.000000
 11
      164.749939
 21
     -152.599976
 31
        0.000000
  0
LINE
  8
70
 10
      164.749939
 20
     -152.599976
 30
        0.000000
 11
      164.749939
 21
     -142.500000
 31
        0.000000
  0
LINE
  8
70
 10
      151.249939
 20
     -152.599976
 30
        0.000000
 11
      151.249939
 21
     -142.500000
 31
        0.000000
  0
LINE
  8
70
 10
      -33.500061
 20
      166.500000
 30
        0.000000
 11
      -36.500061
 21
      166.500000
 31
        0.000000
  0
ARC
  8
70
 10
      -37.500061
 20
      166.500000
 30
        0.000000
 40
        2.000000
 50
       90.000000
 51
      180.000010
  0
LINE
  8
70
 10
      -37.500061
 20
      168.500000
 30
        0.000000
 11
      -32.500061
 21
      168.500000
 31
        0.000000
  0
ARC
  8
70
 10
      -32.500061
 20
      166.500000
 30
        0.000000
 40
        2.000000
 50
        0.000000
 51
       90.000000
  0
LINE
  8
70
 10
      -39.500061
 20
      166.500000
 30
        0.000000
 11
      -30.500061
 21
      166.500000
 31
        0.000000
  0
ARC
  8
70
 10
      -35.000061
 20
      162.171432
 30
        0.000000
 40
        6.778566
 50
       69.005440
 51
      110.994553
  0
LINE
  8
70
 10
      -33.347763
 20
       -0.000037
 30
        0.000000
 11
      -32.672775
 21
       -0.000037
 31
        0.000000
  0
LINE
  8
70
 10
      -32.672775
 20
       -0.000037
 30
        0.000000
 11
      -32.222763
 21
        1.349938
 31
        0.000000
  0
LINE
  8
70
 10
      -32.222763
 20
        1.349938
 30
        0.000000
 11
      -30.535263
 21
        1.349938
 31
        0.000000
  0
LINE
  8
70
 10
      -30.535263
 20
        1.349938
 30
        0.000000
 11
      -30.062790
 21
       -0.000037
 31
        0.000000
  0
LINE
  8
70
 10
      -30.062790
 20
       -0.000037
 30
        0.000000
 11
      -29.342819
 21
       -0.000037
 31
        0.000000
  0
LINE
  8
70
 10
      -29.342819
 20
       -0.000037
 30
        0.000000
 11
      -31.052780
 21
        4.499963
 31
        0.000000
  0
LINE
  8
70
 10
      -31.052780
 20
        4.499963
 30
        0.000000
 11
      -31.750290
 21
        4.499963
 31
        0.000000
  0
LINE
  8
70
 10
      -31.750290
 20
        4.499963
 30
        0.000000
 11
      -33.347763
 21
       -0.000037
 31
        0.000000
  0
LINE
  8
70
 10
      -31.414413
 20
        3.844262
 30
        0.000000
 11
      -32.065292
 21
        1.867455
 31
        0.000000
  0
LINE
  8
70
 10
      -32.065292
 20
        1.867455
 30
        0.000000
 11
      -30.715317
 21
        1.867455
 31
        0.000000
  0
LINE
  8
70
 10
      -30.715317
 20
        1.867455
 30
        0.000000
 11
      -31.414413
 21
        3.844262
 31
        0.000000
  0
LINE
  8
70
 10
      -28.802780
 20
       -0.000037
 30
        0.000000
 11
      -28.172775
 21
       -0.000037
 31
        0.000000
  0
LINE
  8
70
 10
      -28.172775
 20
       -0.000037
 30
        0.000000
 11
      -28.172775
 21
        3.505395
 31
        0.000000
  0
LINE
  8
70
 10
      -28.172775
 20
        3.505395
 30
        0.000000
 11
      -25.900314
 21
       -0.000037
 31
        0.000000
  0
LINE
  8
70
 10
      -25.900314
 20
       -0.000037
 30
        0.000000
 11
      -25.202805
 21
       -0.000037
 31
        0.000000
  0
LINE
  8
70
 10
      -25.202805
 20
       -0.000037
 30
        0.000000
 11
      -25.202805
 21
        4.499963
 31
        0.000000
  0
LINE
  8
70
 10
      -25.202805
 20
        4.499963
 30
        0.000000
 11
      -25.832809
 21
        4.499963
 31
        0.000000
  0
LINE
  8
70
 10
      -25.832809
 20
        4.499963
 30
        0.000000
 11
      -25.832809
 21
        0.994531
 31
        0.000000
  0
LINE
  8
70
 10
      -25.832809
 20
        0.994531
 30
        0.000000
 11
      -28.105270
 21
        4.499963
 31
        0.000000
  0
LINE
  8
70
 10
      -28.105270
 20
        4.499963
 30
        0.000000
 11
      -28.802780
 21
        4.499963
 31
        0.000000
  0
LINE
  8
70
 10
      -28.802780
 20
        4.499963
 30
        0.000000
 11
      -28.802780
 21
       -0.000037
 31
        0.000000
  0
LINE
  8
70
 10
      -24.617783
 20
        3.959985
 30
        0.000000
 11
      -23.177780
 21
        3.959985
 31
        0.000000
  0
LINE
  8
70
 10
      -23.177780
 20
        3.959985
 30
        0.000000
 11
      -23.177780
 21
       -0.000037
 31
        0.000000
  0
LINE
  8
70
 10
      -23.177780
 20
       -0.000037
 30
        0.000000
 11
      -22.525314
 21
       -0.000037
 31
        0.000000
  0
LINE
  8
70
 10
      -22.525314
 20
       -0.000037
 30
        0.000000
 11
      -22.525314
 21
        3.959985
 31
        0.000000
  0
LINE
  8
70
 10
      -22.525314
 20
        3.959985
 30
        0.000000
 11
      -21.085312
 21
        3.959985
 31
        0.000000
  0
LINE
  8
70
 10
      -21.085312
 20
        3.959985
 30
        0.000000
 11
      -21.085312
 21
        4.499963
 31
        0.000000
  0
LINE
  8
70
 10
      -21.085312
 20
        4.499963
 30
        0.000000
 11
      -24.617783
 21
        4.499963
 31
        0.000000
  0
LINE
  8
70
 10
      -24.617783
 20
        4.499963
 30
        0.000000
 11
      -24.617783
 21
        3.959985
 31
        0.000000
  0
LINE
  8
70
 10
      -20.500290
 20
       -0.000037
 30
        0.000000
 11
      -17.102768
 21
       -0.000037
 31
        0.000000
  0
LINE
  8
70
 10
      -17.102768
 20
       -0.000037
 30
        0.000000
 11
      -17.102768
 21
        0.584985
 31
        0.000000
  0
LINE
  8
70
 10
      -17.102768
 20
        0.584985
 30
        0.000000
 11
      -19.847763
 21
        0.584985
 31
        0.000000
  0
LINE
  8
70
 10
      -19.847763
 20
        0.584985
 30
        0.000000
 11
      -19.847763
 21
        2.069970
 31
        0.000000
  0
LINE
  8
70
 10
      -19.847763
 20
        2.069970
 30
        0.000000
 11
      -17.395309
 21
        2.069970
 31
        0.000000
  0
LINE
  8
70
 10
      -17.395309
 20
        2.069970
 30
        0.000000
 11
      -17.395309
 21
        2.609948
 31
        0.000000
  0
LINE
  8
70
 10
      -17.395309
 20
        2.609948
 30
        0.000000
 11
      -19.847763
 21
        2.609948
 31
        0.000000
  0
LINE
  8
70
 10
      -19.847763
 20
        2.609948
 30
        0.000000
 11
      -19.847763
 21
        3.937463
 31
        0.000000
  0
LINE
  8
70
 10
      -19.847763
 20
        3.937463
 30
        0.000000
 11
      -17.170273
 21
        3.937463
 31
        0.000000
  0
LINE
  8
70
 10
      -17.170273
 20
        3.937463
 30
        0.000000
 11
      -17.170273
 21
        4.499963
 31
        0.000000
  0
LINE
  8
70
 10
      -17.170273
 20
        4.499963
 30
        0.000000
 11
      -20.500290
 21
        4.499963
 31
        0.000000
  0
LINE
  8
70
 10
      -20.500290
 20
        4.499963
 30
        0.000000
 11
      -20.500290
 21
       -0.000037
 31
        0.000000
  0
LINE
  8
70
 10
      -16.225327
 20
       -0.000037
 30
        0.000000
 11
      -15.595322
 21
       -0.000037
 31
        0.000000
  0
LINE
  8
70
 10
      -15.595322
 20
       -0.000037
 30
        0.000000
 11
      -15.595322
 21
        3.505395
 31
        0.000000
  0
LINE
  8
70
 10
      -15.595322
 20
        3.505395
 30
        0.000000
 11
      -13.322800
 21
       -0.000037
 31
        0.000000
  0
LINE
  8
70
 10
      -13.322800
 20
       -0.000037
 30
        0.000000
 11
      -12.625290
 21
       -0.000037
 31
        0.000000
  0
LINE
  8
70
 10
      -12.625290
 20
       -0.000037
 30
        0.000000
 11
      -12.625290
 21
        4.499963
 31
        0.000000
  0
LINE
  8
70
 10
      -12.625290
 20
        4.499963
 30
        0.000000
 11
      -13.255295
 21
        4.499963
 31
        0.000000
  0
LINE
  8
70
 10
      -13.255295
 20
        4.499963
 30
        0.000000
 11
      -13.255295
 21
        0.994531
 31
        0.000000
  0
LINE
  8
70
 10
      -13.255295
 20
        0.994531
 30
        0.000000
 11
      -15.527817
 21
        4.499963
 31
        0.000000
  0
LINE
  8
70
 10
      -15.527817
 20
        4.499963
 30
        0.000000
 11
      -16.225327
 21
        4.499963
 31
        0.000000
  0
LINE
  8
70
 10
      -16.225327
 20
        4.499963
 30
        0.000000
 11
      -16.225327
 21
       -0.000037
 31
        0.000000
  0
LINE
  8
70
 10
      -11.590317
 20
       -0.000037
 30
        0.000000
 11
      -10.960312
 21
       -0.000037
 31
        0.000000
  0
LINE
  8
70
 10
      -10.960312
 20
       -0.000037
 30
        0.000000
 11
      -10.960312
 21
        3.505395
 31
        0.000000
  0
LINE
  8
70
 10
      -10.960312
 20
        3.505395
 30
        0.000000
 11
       -8.687790
 21
       -0.000037
 31
        0.000000
  0
LINE
  8
70
 10
       -8.687790
 20
       -0.000037
 30
        0.000000
 11
       -7.990280
 21
       -0.000037
 31
        0.000000
  0
LINE
  8
70
 10
       -7.990280
 20
       -0.000037
 30
        0.000000
 11
       -7.990280
 21
        4.499963
 31
        0.000000
  0
LINE
  8
70
 10
       -7.990280
 20
        4.499963
 30
        0.000000
 11
       -8.620285
 21
        4.499963
 31
        0.000000
  0
LINE
  8
70
 10
       -8.620285
 20
        4.499963
 30
        0.000000
 11
       -8.620285
 21
        0.994531
 31
        0.000000
  0
LINE
  8
70
 10
       -8.620285
 20
        0.994531
 30
        0.000000
 11
      -10.892807
 21
        4.499963
 31
        0.000000
  0
LINE
  8
70
 10
      -10.892807
 20
        4.499963
 30
        0.000000
 11
      -11.590317
 21
        4.499963
 31
        0.000000
  0
LINE
  8
70
 10
      -11.590317
 20
        4.499963
 30
        0.000000
 11
      -11.590317
 21
       -0.000037
 31
        0.000000
  0
LINE
  8
70
 10
       -7.450302
 20
       -0.000037
 30
        0.000000
 11
       -6.775314
 21
       -0.000037
 31
        0.000000
  0
LINE
  8
70
 10
       -6.775314
 20
       -0.000037
 30
        0.000000
 11
       -6.325302
 21
        1.349938
 31
        0.000000
  0
LINE
  8
70
 10
       -6.325302
 20
        1.349938
 30
        0.000000
 11
       -4.637802
 21
        1.349938
 31
        0.000000
  0
LINE
  8
70
 10
       -4.637802
 20
        1.349938
 30
        0.000000
 11
       -4.165268
 21
       -0.000037
 31
        0.000000
  0
LINE
  8
70
 10
       -4.165268
 20
       -0.000037
 30
        0.000000
 11
       -3.445297
 21
       -0.000037
 31
        0.000000
  0
LINE
  8
70
 10
       -3.445297
 20
       -0.000037
 30
        0.000000
 11
       -5.155258
 21
        4.499963
 31
        0.000000
  0
LINE
  8
70
 10
       -5.155258
 20
        4.499963
 30
        0.000000
 11
       -5.852768
 21
        4.499963
 31
        0.000000
  0
LINE
  8
70
 10
       -5.852768
 20
        4.499963
 30
        0.000000
 11
       -7.450302
 21
       -0.000037
 31
        0.000000
  0
LINE
  8
70
 10
       -5.516891
 20
        3.844262
 30
        0.000000
 11
       -6.167770
 21
        1.867455
 31
        0.000000
  0
LINE
  8
70
 10
       -6.167770
 20
        1.867455
 30
        0.000000
 11
       -4.817795
 21
        1.867455
 31
        0.000000
  0
LINE
  8
70
 10
       -4.817795
 20
        1.867455
 30
        0.000000
 11
       -5.516891
 21
        3.844262
 31
        0.000000
  0
LINE
  8
70
 10
       22.570236
 20
        4.499976
 30
        0.000000
 11
       20.972763
 21
       -0.000024
 31
        0.000000
  0
LINE
  8
70
 10
       20.972763
 20
       -0.000024
 30
        0.000000
 11
       21.647751
 21
       -0.000024
 31
        0.000000
  0
LINE
  8
70
 10
       21.647751
 20
       -0.000024
 30
        0.000000
 11
       22.097763
 21
        1.349952
 31
        0.000000
  0
LINE
  8
70
 10
       22.097763
 20
        1.349952
 30
        0.000000
 11
       23.785263
 21
        1.349952
 31
        0.000000
  0
LINE
  8
70
 10
       23.785263
 20
        1.349952
 30
        0.000000
 11
       24.257736
 21
       -0.000024
 31
        0.000000
  0
LINE
  8
70
 10
       24.257736
 20
       -0.000024
 30
        0.000000
 11
       24.977768
 21
       -0.000024
 31
        0.000000
  0
LINE
  8
70
 10
       24.977768
 20
       -0.000024
 30
        0.000000
 11
       23.267746
 21
        4.499976
 31
        0.000000
  0
LINE
  8
70
 10
       23.267746
 20
        4.499976
 30
        0.000000
 11
       22.570236
 21
        4.499976
 31
        0.000000
  0
LINE
  8
70
 10
       22.906113
 20
        3.844275
 30
        0.000000
 11
       22.255234
 21
        1.867469
 31
        0.000000
  0
LINE
  8
70
 10
       22.255234
 20
        1.867469
 30
        0.000000
 11
       23.605270
 21
        1.867469
 31
        0.000000
  0
LINE
  8
70
 10
       23.605270
 20
        1.867469
 30
        0.000000
 11
       22.906113
 21
        3.844275
 31
        0.000000
  0
LINE
  8
70
 10
       26.170273
 20
        1.574988
 30
        0.000000
 11
       26.890244
 21
        2.249976
 31
        0.000000
  0
LINE
  8
70
 10
       26.170273
 20
       -0.000024
 30
        0.000000
 11
       26.170273
 21
        1.574988
 31
        0.000000
  0
LINE
  8
70
 10
       25.517746
 20
       -0.000024
 30
        0.000000
 11
       26.170273
 21
       -0.000024
 31
        0.000000
  0
LINE
  8
70
 10
       25.517746
 20
        4.499976
 30
        0.000000
 11
       25.517746
 21
       -0.000024
 31
        0.000000
  0
LINE
  8
70
 10
       26.170273
 20
        4.499976
 30
        0.000000
 11
       25.517746
 21
        4.499976
 31
        0.000000
  0
LINE
  8
70
 10
       26.170273
 20
        2.348731
 30
        0.000000
 11
       26.170273
 21
        4.499976
 31
        0.000000
  0
LINE
  8
70
 10
       28.375229
 20
        4.499976
 30
        0.000000
 11
       26.170273
 21
        2.348731
 31
        0.000000
  0
LINE
  8
70
 10
       29.230270
 20
        4.499976
 30
        0.000000
 11
       28.375229
 21
        4.499976
 31
        0.000000
  0
LINE
  8
70
 10
       27.317734
 20
        2.655005
 30
        0.000000
 11
       29.230270
 21
        4.499976
 31
        0.000000
  0
LINE
  8
70
 10
       29.365219
 20
       -0.000024
 30
        0.000000
 11
       27.317734
 21
        2.655005
 31
        0.000000
  0
LINE
  8
70
 10
       28.555283
 20
       -0.000024
 30
        0.000000
 11
       29.365219
 21
       -0.000024
 31
        0.000000
  0
LINE
  8
70
 10
       26.890244
 20
        2.249976
 30
        0.000000
 11
       28.555283
 21
       -0.000024
 31
        0.000000
  0
LINE
  8
70
 10
       20.972763
 20
       -0.000024
 30
        0.000000
 11
       21.625214
 21
       -0.000024
 31
        0.000000
  0
ARC
  8
70
 10
       18.581520
 20
        1.423667
 30
        0.000000
 40
        1.442152
 50
      318.367549
 51
      347.019154
  0
ARC
  8
70
 10
       18.372025
 20
        1.609885
 30
        0.000000
 40
        1.722416
 50
      270.000000
 51
      318.367795
  0
ARC
  8
70
 10
       18.372025
 20
        1.609885
 30
        0.000000
 40
        1.722397
 50
      221.634165
 51
      270.000000
  0
ARC
  8
70
 10
       18.162529
 20
        1.423667
 30
        0.000000
 40
        1.442075
 50
      192.981495
 51
      221.633782
  0
ARC
  8
70
 10
       21.747025
 20
        2.249959
 30
        0.000000
 40
        5.120590
 50
      180.000010
 51
      192.981030
  0
ARC
  8
70
 10
       21.747025
 20
        2.249959
 30
        0.000000
 40
        5.120643
 50
      167.019062
 51
      180.000010
  0
ARC
  8
70
 10
       18.162529
 20
        3.076251
 30
        0.000000
 40
        1.442101
 50
      138.365722
 51
      167.018188
  0
ARC
  8
70
 10
       18.372025
 20
        2.890050
 30
        0.000000
 40
        1.722416
 50
       90.000000
 51
      138.365627
  0
ARC
  8
70
 10
       13.775139
 20
        5.316020
 30
        0.000000
 40
        1.702074
 50
      270.000000
 51
      295.770142
  0
ARC
  8
70
 10
       14.101570
 20
        4.639863
 30
        0.000000
 40
        0.951248
 50
      295.770170
 51
      351.543690
  0
LINE
  8
70
 10
       15.523888
 20
        4.499959
 30
        0.000000
 11
       15.042480
 21
        4.499959
 31
        0.000000
  0
LINE
  8
70
 10
       15.523888
 20
       -0.000041
 30
        0.000000
 11
       15.523888
 21
        4.499959
 31
        0.000000
  0
LINE
  8
70
 10
       14.894302
 20
       -0.000041
 30
        0.000000
 11
       15.523888
 21
       -0.000041
 31
        0.000000
  0
LINE
  8
70
 10
       14.894302
 20
        3.240891
 30
        0.000000
 11
       14.894302
 21
       -0.000041
 31
        0.000000
  0
LINE
  8
70
 10
       13.775139
 20
        3.240891
 30
        0.000000
 11
       14.894302
 21
        3.240891
 31
        0.000000
  0
LINE
  8
70
 10
       13.775139
 20
        3.613963
 30
        0.000000
 11
       13.775139
 21
        3.240891
 31
        0.000000
  0
ARC
  8
70
 10
       18.372025
 20
        3.076251
 30
        0.000000
 40
        1.000884
 50
       39.805068
 51
       90.000000
  0
ARC
  8
70
 10
       18.232430
 20
        2.959882
 30
        0.000000
 40
        1.182624
 50
       10.925985
 51
       39.806635
  0
ARC
  8
70
 10
       14.554825
 20
        2.249959
 30
        0.000000
 40
        4.928123
 50
        0.000000
 51
       10.925960
  0
ARC
  8
70
 10
       14.554825
 20
        2.249959
 30
        0.000000
 40
        4.928123
 50
      349.074057
 51
      360.000000
  0
ARC
  8
70
 10
       18.232430
 20
        1.540053
 30
        0.000000
 40
        1.182621
 50
      320.193368
 51
      349.074030
  0
ARC
  8
70
 10
       18.372025
 20
        1.423667
 30
        0.000000
 40
        1.000854
 50
      270.000000
 51
      320.195690
  0
ARC
  8
70
 10
       18.372025
 20
        1.423667
 30
        0.000000
 40
        1.000831
 50
      219.807594
 51
      270.000000
  0
ARC
  8
70
 10
       18.511688
 20
        1.540053
 30
        0.000000
 40
        1.182624
 50
      190.926004
 51
      219.806966
  0
ARC
  8
70
 10
       22.189293
 20
        2.249959
 30
        0.000000
 40
        4.928123
 50
      180.000010
 51
      190.925976
  0
ARC
  8
70
 10
       22.189293
 20
        2.249959
 30
        0.000000
 40
        4.928123
 50
      169.074034
 51
      180.000010
  0
ARC
  8
70
 10
       18.511688
 20
        2.959882
 30
        0.000000
 40
        1.182621
 50
      140.193358
 51
      169.074006
  0
ARC
  8
70
 10
       18.372025
 20
        3.076251
 30
        0.000000
 40
        1.000854
 50
       90.000000
 51
      140.192033
  0
ARC
  8
70
 10
       18.372025
 20
        2.890050
 30
        0.000000
 40
        1.722448
 50
       41.632638
 51
       90.000000
  0
ARC
  8
70
 10
       18.581520
 20
        3.076251
 30
        0.000000
 40
        1.442143
 50
       12.980866
 51
       41.632461
  0
ARC
  8
70
 10
       14.997025
 20
        2.249959
 30
        0.000000
 40
        5.120659
 50
        0.000000
 51
       12.980940
  0
ARC
  8
70
 10
       14.997025
 20
        2.249959
 30
        0.000000
 40
        5.120643
 50
      347.019072
 51
      360.000000
  0
LINE
  8
70
 10
        2.224747
 20
       -0.000037
 30
        0.000000
 11
        3.934708
 21
       -0.000037
 31
        0.000000
  0
ARC
  8
70
 10
        3.934708
 20
        2.047448
 30
        0.000000
 40
        2.047485
 50
      270.000000
 51
      299.130103
  0
ARC
  8
70
 10
        4.055191
 20
        1.831262
 30
        0.000000
 40
        1.799992
 50
      299.129912
 51
      344.633915
  0
ARC
  8
70
 10
        2.449722
 20
        2.272485
 30
        0.000000
 40
        3.464985
 50
      344.634243
 51
      374.776123
  0
ARC
  8
70
 10
        4.124893
 20
        2.714318
 30
        0.000000
 40
        1.732475
 50
       14.777467
 51
       49.808535
  0
ARC
  8
70
 10
        3.979691
 20
        2.542443
 30
        0.000000
 40
        1.957475
 50
       49.808542
 51
       90.000000
  0
LINE
  8
70
 10
        3.979691
 20
        4.499963
 30
        0.000000
 11
        2.224747
 21
        4.499963
 31
        0.000000
  0
LINE
  8
70
 10
        2.224747
 20
        4.499963
 30
        0.000000
 11
        2.224747
 21
       -0.000037
 31
        0.000000
  0
LINE
  8
70
 10
        2.877213
 20
        0.539941
 30
        0.000000
 11
        3.957230
 21
        0.539941
 31
        0.000000
  0
ARC
  8
70
 10
        3.957230
 20
        1.799951
 30
        0.000000
 40
        1.260010
 50
      270.000000
 51
      321.113067
  0
ARC
  8
70
 10
        4.132339
 20
        1.658715
 30
        0.000000
 40
        1.035002
 50
      321.115935
 51
      341.768214
  0
ARC
  8
70
 10
        2.337234
 20
        2.249963
 30
        0.000000
 40
        2.925009
 50
      341.769990
 51
      379.225495
  0
ARC
  8
70
 10
        4.100540
 20
        2.864953
 30
        0.000000
 40
        1.057506
 50
       19.224499
 51
       60.654974
  0
ARC
  8
70
 10
        3.957230
 20
        2.609948
 30
        0.000000
 40
        1.349971
 50
       60.655794
 51
       90.000000
  0
LINE
  8
70
 10
        3.957230
 20
        3.959985
 30
        0.000000
 11
        2.877213
 21
        3.959985
 31
        0.000000
  0
LINE
  8
70
 10
        2.877213
 20
        3.959985
 30
        0.000000
 11
        2.877213
 21
        0.539941
 31
        0.000000
  0
ARC
  8
70
 10
        8.187210
 20
        1.619958
 30
        0.000000
 40
        1.687506
 50
      182.290596
 51
      250.018094
  0
ARC
  8
70
 10
        8.457230
 20
        2.362451
 30
        0.000000
 40
        2.477590
 50
      250.017384
 51
      289.573139
  0
ARC
  8
70
 10
        8.817215
 20
        1.349938
 30
        0.000000
 40
        1.402978
 50
      289.574013
 51
      323.129639
  0
ARC
  8
70
 10
        8.907242
 20
        1.282495
 30
        0.000000
 40
        1.290503
 50
      323.130650
 51
      371.310850
  0
ARC
  8
70
 10
        9.019730
 20
        1.304955
 30
        0.000000
 40
        1.175727
 50
       11.310515
 51
       66.620434
  0
ARC
  8
70
 10
        8.111282
 20
       -0.796302
 30
        0.000000
 40
        3.464980
 50
       66.619983
 51
       78.310596
  0
LINE
  8
70
 10
        8.813309
 20
        2.596826
 30
        0.000000
 11
        8.172379
 21
        2.729394
 31
        0.000000
  0
ARC
  8
70
 10
        8.660355
 20
        5.086938
 30
        0.000000
 40
        2.407492
 50
      245.329579
 51
      258.305681
  0
ARC
  8
70
 10
        7.894730
 20
        3.419946
 30
        0.000000
 40
        0.573082
 50
      128.157568
 51
      245.323569
  0
ARC
  8
70
 10
        8.142227
 20
        3.104943
 30
        0.000000
 40
        0.973701
 50
      110.281966
 51
      128.156379
  0
ARC
  8
70
 10
        8.333450
 20
        2.587487
 30
        0.000000
 40
        1.525396
 50
       78.929254
 51
      110.283749
  0
ARC
  8
70
 10
        8.434708
 20
        3.104943
 30
        0.000000
 40
        0.998084
 50
        2.583152
 51
       78.929404
  0
LINE
  8
70
 10
        9.431778
 20
        3.149987
 30
        0.000000
 11
       10.009720
 21
        3.149987
 31
        0.000000
  0
ARC
  8
70
 10
        8.569717
 20
        3.149987
 30
        0.000000
 40
        1.440002
 50
        0.000000
 51
       78.689986
  0
ARC
  8
70
 10
        8.344742
 20
        2.024987
 30
        0.000000
 40
        2.587287
 50
       78.690594
 51
      108.591836
  0
ARC
  8
70
 10
        7.928482
 20
        3.262475
 30
        0.000000
 40
        1.281669
 50
      108.591979
 51
      142.430573
  0
ARC
  8
70
 10
        7.782242
 20
        3.374963
 30
        0.000000
 40
        1.097152
 50
      142.431406
 51
      248.880239
  0
ARC
  8
70
 10
        8.367874
 20
        4.891137
 30
        0.000000
 40
        2.722482
 50
      248.880349
 51
      257.660912
  0
LINE
  8
70
 10
        7.786087
 20
        2.231530
 30
        0.000000
 11
        8.616653
 21
        2.049829
 31
        0.000000
  0
ARC
  8
70
 10
        8.074722
 20
       -0.427527
 30
        0.000000
 40
        2.535994
 50
       63.434328
 51
       77.660977
  0
ARC
  8
70
 10
        8.907242
 20
        1.237451
 30
        0.000000
 40
        0.674451
 50
      327.532406
 51
      423.433782
  0
ARC
  8
70
 10
        8.659683
 20
        1.394982
 30
        0.000000
 40
        0.967809
 50
      286.860188
 51
      327.531286
  0
ARC
  8
70
 10
        8.434708
 20
        2.137475
 30
        0.000000
 40
        1.743659
 50
      254.357395
 51
      286.858494
  0
ARC
  8
70
 10
        8.277237
 20
        1.574975
 30
        0.000000
 40
        1.159546
 50
      180.021184
 51
      254.359116
  0
LINE
  8
70
 10
        7.117691
 20
        1.574548
 30
        0.000000
 11
        6.501053
 21
        1.552514
 31
        0.000000
  0
LINE
  8
70
 10
       11.142715
 20
        2.519982
 30
        0.000000
 11
       11.142715
 21
        1.934960
 31
        0.000000
  0
LINE
  8
70
 10
       11.142715
 20
        1.934960
 30
        0.000000
 11
       13.055191
 21
        1.934960
 31
        0.000000
  0
LINE
  8
70
 10
       13.055191
 20
        1.934960
 30
        0.000000
 11
       13.055191
 21
        2.519982
 31
        0.000000
  0
LINE
  8
70
 10
       13.055191
 20
        2.519982
 30
        0.000000
 11
       11.142715
 21
        2.519982
 31
        0.000000
  0
LINE
  8
70
 10
       29.815292
 20
        3.959998
 30
        0.000000
 11
       31.255295
 21
        3.959998
 31
        0.000000
  0
LINE
  8
70
 10
       31.255295
 20
        3.959998
 30
        0.000000
 11
       31.255295
 21
       -0.000024
 31
        0.000000
  0
LINE
  8
70
 10
       31.255295
 20
       -0.000024
 30
        0.000000
 11
       31.907761
 21
       -0.000024
 31
        0.000000
  0
LINE
  8
70
 10
       31.907761
 20
       -0.000024
 30
        0.000000
 11
       31.907761
 21
        3.959998
 31
        0.000000
  0
LINE
  8
70
 10
       31.907761
 20
        3.959998
 30
        0.000000
 11
       33.347763
 21
        3.959998
 31
        0.000000
  0
LINE
  8
70
 10
       33.347763
 20
        3.959998
 30
        0.000000
 11
       33.347763
 21
        4.499976
 31
        0.000000
  0
LINE
  8
70
 10
       33.347763
 20
        4.499976
 30
        0.000000
 11
       29.815292
 21
        4.499976
 31
        0.000000
  0
LINE
  8
70
 10
       29.815292
 20
        4.499976
 30
        0.000000
 11
       29.815292
 21
        3.959998
 31
        0.000000
  0
ARC
  8
70
 10
        5.008887
 20
      -20.228278
 30
        0.000000
 40
        3.784387
 50
      140.193358
 51
      169.074006
  0
ARC
  8
70
 10
        4.561963
 20
      -19.855896
 30
        0.000000
 40
        3.202734
 50
       90.000000
 51
      140.192033
  0
ARC
  8
70
 10
        4.561963
 20
      -20.451740
 30
        0.000000
 40
        5.511834
 50
       41.632638
 51
       90.000000
  0
ARC
  8
70
 10
        5.232349
 20
      -19.855896
 30
        0.000000
 40
        4.614856
 50
       12.980866
 51
       41.632461
  0
ARC
  8
70
 10
       -6.238037
 20
      -22.500031
 30
        0.000000
 40
       16.386108
 50
        0.000000
 51
       12.980940
  0
ARC
  8
70
 10
       -6.238037
 20
      -22.500031
 30
        0.000000
 40
       16.386057
 50
      347.019072
 51
      360.000000
  0
ARC
  8
70
 10
        5.232349
 20
      -25.144165
 30
        0.000000
 40
        4.614887
 50
      318.367549
 51
      347.019154
  0
ARC
  8
70
 10
        4.561963
 20
      -24.548267
 30
        0.000000
 40
        5.511731
 50
      270.000000
 51
      318.367795
  0
ARC
  8
70
 10
        4.561963
 20
      -24.548267
 30
        0.000000
 40
        5.511669
 50
      221.634165
 51
      270.000000
  0
ARC
  8
70
 10
        3.891577
 20
      -25.144165
 30
        0.000000
 40
        4.614641
 50
      192.981495
 51
      221.633782
  0
ARC
  8
70
 10
       15.361963
 20
      -22.500031
 30
        0.000000
 40
       16.385889
 50
      180.000010
 51
      192.981030
  0
ARC
  8
70
 10
       15.361963
 20
      -22.500031
 30
        0.000000
 40
       16.386057
 50
      167.019062
 51
      180.000010
  0
ARC
  8
70
 10
        3.891577
 20
      -19.855896
 30
        0.000000
 40
        4.614723
 50
      138.365722
 51
      167.018188
  0
ARC
  8
70
 10
        4.561963
 20
      -20.451740
 30
        0.000000
 40
        5.511731
 50
       90.000000
 51
      138.365627
  0
ARC
  8
70
 10
      -10.148071
 20
      -12.688635
 30
        0.000000
 40
        5.446637
 50
      270.000000
 51
      295.770142
  0
ARC
  8
70
 10
       -9.103491
 20
      -14.852338
 30
        0.000000
 40
        3.043993
 50
      295.770170
 51
      351.543690
  0
LINE
  8
70
 10
       -4.552075
 20
      -15.300031
 30
        0.000000
 11
       -6.092578
 21
      -15.300031
 31
        0.000000
  0
LINE
  8
70
 10
       -4.552075
 20
      -29.700031
 30
        0.000000
 11
       -4.552075
 21
      -15.300031
 31
        0.000000
  0
LINE
  8
70
 10
       -6.566748
 20
      -29.700031
 30
        0.000000
 11
       -4.552075
 21
      -29.700031
 31
        0.000000
  0
LINE
  8
70
 10
       -6.566748
 20
      -19.329047
 30
        0.000000
 11
       -6.566748
 21
      -29.700031
 31
        0.000000
  0
LINE
  8
70
 10
      -10.148071
 20
      -19.329047
 30
        0.000000
 11
       -6.566748
 21
      -19.329047
 31
        0.000000
  0
LINE
  8
70
 10
      -10.148071
 20
      -18.135217
 30
        0.000000
 11
      -10.148071
 21
      -19.329047
 31
        0.000000
  0
ARC
  8
70
 10
        4.561963
 20
      -19.855896
 30
        0.000000
 40
        3.202827
 50
       39.805068
 51
       90.000000
  0
ARC
  8
70
 10
        4.115259
 20
      -20.228278
 30
        0.000000
 40
        3.784396
 50
       10.925985
 51
       39.806635
  0
ARC
  8
70
 10
       -7.653076
 20
      -22.500031
 30
        0.000000
 40
       15.769995
 50
        0.000000
 51
       10.925960
  0
ARC
  8
70
 10
       -7.653076
 20
      -22.500031
 30
        0.000000
 40
       15.769995
 50
      349.074057
 51
      360.000000
  0
ARC
  8
70
 10
        4.115259
 20
      -24.771729
 30
        0.000000
 40
        3.784387
 50
      320.193368
 51
      349.074030
  0
ARC
  8
70
 10
        4.561963
 20
      -25.144165
 30
        0.000000
 40
        3.202734
 50
      270.000000
 51
      320.195690
  0
ARC
  8
70
 10
        4.561963
 20
      -25.144165
 30
        0.000000
 40
        3.202658
 50
      219.807594
 51
      270.000000
  0
ARC
  8
70
 10
        5.008887
 20
      -24.771729
 30
        0.000000
 40
        3.784396
 50
      190.926004
 51
      219.806966
  0
ARC
  8
70
 10
       16.777222
 20
      -22.500031
 30
        0.000000
 40
       15.769995
 50
      180.000010
 51
      190.925976
  0
ARC
  8
70
 10
       16.777222
 20
      -22.500031
 30
        0.000000
 40
       15.769995
 50
      169.074034
 51
      180.000010
  0
DIMENSION
  8
10
 62
  5
  2
BLK0001
 10
       99.530510
 20
      -70.000023
 11
       98.530510
 21
     -140.178604
 13
       44.999939
 23
      -70.000023
 14
        6.999939
 24
     -172.500031
 50
       90.0
 70
  0
  0
TEXT
  8
0
 10
     -132.107773
 20
      164.062008
 30
        0.000000
 40
        5.845000
  1
ＤＳ１０ＡＫＴ
 50
        0.000000
 41
        1.000000
 51
        0.000000
  7
BIGFONT
  0
DIMENSION
  8
10
 62
  5
  2
BLK0002
 10
       86.672340
 20
      -65.000023
 11
       85.672340
 21
       -6.428594
 13
       64.999939
 23
      -65.000023
 14
       64.999939
 24
       64.999977
 50
       90.0
 70
  0
  0
DIMENSION
  8
10
 62
  5
  2
BLK0003
 10
       99.530510
 20
      -70.000023
 11
       98.530510
 21
       -6.428594
 13
       64.999939
 23
      -70.000023
 14
       64.999939
 24
       69.999977
 50
       90.0
 70
  0
  0
DIMENSION
  8
10
 62
  5
  2
BLK0004
 10
      177.999939
 20
      103.055992
 11
      154.071365
 21
      104.055992
 13
      177.999939
 23
       68.999985
 14
      137.999939
 24
       56.232044
 50
        0.0
 70
  0
  0
DIMENSION
  8
10
 62
  5
  2
BLK0005
 10
       69.999939
 20
      103.055992
 11
       -6.428632
 21
      104.055992
 13
       69.999939
 23
       64.999977
 14
      -70.000061
 24
       64.999969
 50
        0.0
 70
  0
  0
DIMENSION
  8
10
 62
  5
  2
BLK0006
 10
       64.999939
 20
       88.563042
 11
       -6.428632
 21
       89.563042
 13
       64.999939
 23
       64.999977
 14
      -65.000061
 24
       64.999969
 50
        0.0
 70
  0
  0
LINE
  8
70
 10
      177.999939
 20
       68.999985
 30
        0.000000
 11
      177.999939
 21
       60.999985
 31
        0.000000
  0
LINE
  8
70
 10
      177.999939
 20
      -68.999992
 30
        0.000000
 11
      177.999939
 21
      -60.999992
 31
        0.000000
  0
LINE
  8
70
 10
      137.999939
 20
      -58.780941
 30
        0.000000
 11
      137.999939
 21
       58.780933
 31
        0.000000
  0
LINE
  8
70
 10
      149.499939
 20
      -76.999466
 30
        0.000000
 11
      149.499939
 21
      -79.499466
 31
        0.000000
  0
LINE
  8
70
 10
      166.499939
 20
      -79.499466
 30
        0.000000
 11
      149.499939
 21
      -79.499466
 31
        0.000000
  0
LINE
  8
70
 10
      166.499939
 20
      -76.999466
 30
        0.000000
 11
      166.499939
 21
      -79.499466
 31
        0.000000
  0
ARC
  8
70
 10
      156.249939
 20
     -102.999954
 30
        0.000000
 40
        2.015564
 50
       29.744879
 51
      150.255114
  0
ARC
  8
70
 10
      156.249939
 20
     -100.999954
 30
        0.000000
 40
        2.015564
 50
      209.744896
 51
      330.255138
  0
ARC
  8
70
 10
      159.749939
 20
     -100.999954
 30
        0.000000
 40
        2.015564
 50
      209.744896
 51
      330.255138
  0
LINE
  8
70
 10
      154.499939
 20
      -79.499466
 30
        0.000000
 11
      154.499939
 21
     -101.999954
 31
        0.000000
  0
LINE
  8
70
 10
      161.499939
 20
      -79.499466
 30
        0.000000
 11
      161.499939
 21
     -101.999954
 31
        0.000000
  0
ARC
  8
70
 10
      159.749939
 20
     -105.299942
 30
        0.000000
 40
        2.015564
 50
      209.744896
 51
      330.255138
  0
ARC
  8
70
 10
      156.249939
 20
     -107.299942
 30
        0.000000
 40
        2.015564
 50
       29.744879
 51
      150.255114
  0
ARC
  8
70
 10
      159.749939
 20
     -107.299942
 30
        0.000000
 40
        2.015557
 50
       29.744503
 51
      150.255306
  0
LINE
  8
70
 10
      154.499939
 20
     -106.299942
 30
        0.000000
 11
      154.499939
 21
     -130.000000
 31
        0.000000
  0
LINE
  8
70
 10
      161.499939
 20
     -106.299942
 30
        0.000000
 11
      161.499939
 21
     -129.999985
 31
        0.000000
  0
LINE
  8
70
 10
      157.811951
 20
      -76.999466
 30
        0.000000
 11
      155.499939
 21
      -76.999466
 31
        0.000000
  0
LINE
  8
70
 10
      155.976440
 20
      -76.999466
 30
        0.000000
 11
      153.999939
 21
      -76.999466
 31
        0.000000
  0
LINE
  8
70
 10
      172.999939
 20
       60.999985
 30
        0.000000
 11
      177.999939
 21
       60.999985
 31
        0.000000
  0
LINE
  8
70
 10
      172.999939
 20
       68.999985
 30
        0.000000
 11
      177.999939
 21
       68.999985
 31
        0.000000
  0
LINE
  8
70
 10
      172.999939
 20
      -60.999992
 30
        0.000000
 11
      177.999939
 21
      -60.999992
 31
        0.000000
  0
LINE
  8
70
 10
      172.999939
 20
      -68.999992
 30
        0.000000
 11
      177.999939
 21
      -68.999992
 31
        0.000000
  0
LINE
  8
70
 10
      167.999939
 20
      -76.999535
 30
        0.000000
 11
      147.999939
 21
      -76.999535
 31
        0.000000
  0
ARC
  8
70
 10
      171.000000
 20
      -68.789040
 30
        0.000000
 40
        1.000000
 50
      180.000010
 51
      267.001687
  0
LINE
  8
70
 10
      170.000000
 20
      -68.789040
 30
        0.000000
 11
      170.000000
 21
      -60.000038
 31
        0.000000
  0
LINE
  8
70
 10
      172.999939
 20
       70.000000
 30
        0.000000
 11
      169.999939
 21
       69.947632
 31
        0.000000
  0
ARC
  8
70
 10
      170.999939
 20
       68.964935
 30
        0.000000
 40
        1.000000
 50
       91.000206
 51
      180.000010
  0
LINE
  8
70
 10
      169.999939
 20
       68.999985
 30
        0.000000
 11
      169.999939
 21
       60.000000
 31
        0.000000
  0
LINE
  8
70
 10
      172.999939
 20
      -70.000008
 30
        0.000000
 11
      169.999939
 21
      -69.947639
 31
        0.000000
  0
LINE
  8
70
 10
      172.999939
 20
      -70.000008
 30
        0.000000
 11
      172.999939
 21
       70.000000
 31
        0.000000
  0
LINE
  8
70
 10
      169.999939
 20
      -69.947639
 30
        0.000000
 11
      147.476593
 21
      -68.767235
 31
        0.000000
  0
ARC
  8
70
 10
      147.999939
 20
      -58.780941
 30
        0.000000
 40
       10.000000
 50
      180.000010
 51
      267.000075
  0
LINE
  8
70
 10
      169.999939
 20
       69.947632
 30
        0.000000
 11
      147.476593
 21
       68.767227
 31
        0.000000
  0
ARC
  8
70
 10
      147.999939
 20
       58.780933
 30
        0.000000
 40
        9.999998
 50
       92.999921
 51
      180.000010
  0
LINE
  8
70
 10
      169.999939
 20
       60.000000
 30
        0.000000
 11
      137.999939
 21
       58.322948
 31
        0.000000
  0
LINE
  8
70
 10
      169.999939
 20
      -60.000008
 30
        0.000000
 11
      137.999939
 21
      -58.322956
 31
        0.000000
  0
LINE
  8
70
 10
      147.999939
 20
      -76.999535
 30
        0.000000
 11
      147.999939
 21
      -68.794662
 31
        0.000000
  0
LINE
  8
70
 10
      167.999939
 20
      -76.999535
 30
        0.000000
 11
      167.999939
 21
      -69.842827
 31
        0.000000
  0
LINE
  8
70
 10
      174.499939
 20
      -60.999992
 30
        0.000000
 11
      174.499939
 21
       60.999985
 31
        0.000000
  0
LINE
  8
70
 10
       -3.700073
 20
       64.095337
 30
        0.000000
 11
       -3.700073
 21
       61.999985
 31
        0.000000
  0
LINE
  8
70
 10
       -6.300049
 20
       64.095337
 30
        0.000000
 11
       -6.300049
 21
       61.999985
 31
        0.000000
  0
ARC
  8
70
 10
       -5.000061
 20
       64.095337
 30
        0.000000
 40
        1.299988
 50
        0.000000
 51
      180.000010
  0
LINE
  8
70
 10
        6.299927
 20
       64.095337
 30
        0.000000
 11
        6.299927
 21
       61.999985
 31
        0.000000
  0
LINE
  8
70
 10
        3.699951
 20
       64.095337
 30
        0.000000
 11
        3.699951
 21
       61.999985
 31
        0.000000
  0
ARC
  8
70
 10
        4.999939
 20
       64.095337
 30
        0.000000
 40
        1.299988
 50
        0.000000
 51
      180.000010
  0
CIRCLE
  8
70
 10
       -5.000061
 20
       61.999985
 30
        0.000000
 40
        1.299988
  0
CIRCLE
  8
70
 10
        4.999939
 20
       61.999985
 30
        0.000000
 40
        1.299988
  0
LINE
  8
70
 10
      -61.000031
 20
      166.500000
 30
        0.000000
 11
       60.999939
 21
      166.500000
 31
        0.000000
  0
ARC
  8
70
 10
      -63.525818
 20
      135.000000
 30
        0.000000
 40
        5.000016
 50
      182.999925
 51
      270.000000
  0
LINE
  8
70
 10
      -69.947662
 20
      162.000000
 30
        0.000000
 11
      -68.518951
 21
      134.738358
 31
        0.000000
  0
LINE
  8
70
 10
      -63.525818
 20
      130.000000
 30
        0.000000
 11
       63.525726
 21
      130.000000
 31
        0.000000
  0
ARC
  8
70
 10
       63.525726
 20
      135.000000
 30
        0.000000
 40
        5.000000
 50
      270.000000
 51
      356.999918
  0
LINE
  8
70
 10
       69.947601
 20
      162.000000
 30
        0.000000
 11
       68.518860
 21
      134.738419
 31
        0.000000
  0
LINE
  8
70
 10
       -3.700073
 20
      130.000000
 30
        0.000000
 11
       -3.700073
 21
      130.699997
 31
        0.000000
  0
LINE
  8
70
 10
       -6.300049
 20
      130.000000
 30
        0.000000
 11
       -6.300049
 21
      130.699997
 31
        0.000000
  0
ARC
  8
70
 10
       -5.000061
 20
      130.699997
 30
        0.000000
 40
        1.299988
 50
        0.000000
 51
      180.000010
  0
LINE
  8
70
 10
        3.699951
 20
      130.000000
 30
        0.000000
 11
        3.699951
 21
      130.699997
 31
        0.000000
  0
LINE
  8
70
 10
        6.299927
 20
      130.000000
 30
        0.000000
 11
        6.299927
 21
      130.699997
 31
        0.000000
  0
ARC
  8
70
 10
        4.999939
 20
      130.699997
 30
        0.000000
 40
        1.299988
 50
        0.000000
 51
      180.000010
  0
ARC
  8
70
 10
      -68.789063
 20
      163.000061
 30
        0.000000
 40
        0.999996
 50
      182.998367
 51
      270.000000
  0
LINE
  8
70
 10
      -68.789063
 20
      162.000061
 30
        0.000000
 11
      -60.000061
 21
      162.000061
 31
        0.000000
  0
LINE
  8
70
 10
      -69.000031
 20
      170.000000
 30
        0.000000
 11
      -61.000031
 21
      170.000000
 31
        0.000000
  0
LINE
  8
70
 10
      -70.000031
 20
      165.000000
 30
        0.000000
 11
      -69.947662
 21
      162.000000
 31
        0.000000
  0
LINE
  8
70
 10
      -60.000031
 20
      162.000000
 30
        0.000000
 11
      -58.322998
 21
      130.000000
 31
        0.000000
  0
LINE
  8
70
 10
       68.999939
 20
      170.000000
 30
        0.000000
 11
       60.999939
 21
      170.000000
 31
        0.000000
  0
LINE
  8
70
 10
       69.999969
 20
      165.000000
 30
        0.000000
 11
       69.947601
 21
      162.000000
 31
        0.000000
  0
ARC
  8
70
 10
       68.964905
 20
      163.000000
 30
        0.000000
 40
        1.000000
 50
      270.000000
 51
      358.999797
  0
LINE
  8
70
 10
       68.999939
 20
      162.000000
 30
        0.000000
 11
       59.999969
 21
      162.000000
 31
        0.000000
  0
LINE
  8
70
 10
      -70.000031
 20
      165.000000
 30
        0.000000
 11
       69.999969
 21
      165.000000
 31
        0.000000
  0
LINE
  8
70
 10
       59.999969
 20
      162.000000
 30
        0.000000
 11
       58.322937
 21
      130.000000
 31
        0.000000
  0
LINE
  8
70
 10
      -61.000031
 20
      165.000000
 30
        0.000000
 11
      -61.000031
 21
      170.000000
 31
        0.000000
  0
LINE
  8
70
 10
      -69.000031
 20
      165.000000
 30
        0.000000
 11
      -69.000031
 21
      170.000000
 31
        0.000000
  0
LINE
  8
70
 10
       60.999939
 20
      165.000000
 30
        0.000000
 11
       60.999939
 21
      170.000000
 31
        0.000000
  0
LINE
  8
70
 10
       68.999939
 20
      165.000000
 30
        0.000000
 11
       68.999939
 21
      170.000000
 31
        0.000000
  0
ARC
  8
70
 10
       57.000000
 20
      -42.000000
 30
        0.000000
 40
        3.000000
 50
      270.000000
 51
      360.000000
  0
ENDSEC
  0
EOF
