  0
SECTION
  2
HEADER
  9
$ACADVER
  1
AC1006
  9
$INSBASE
 10
0.0
 20
0.0
 30
0.0
  9
$EXTMIN
 10
     -236.844193
 20
     -236.844193
  9
$EXTMAX
 10
      247.715256
 20
      181.822067
  9
$LIMMIN
 10
     -236.844193
 20
     -236.844193
  9
$LIMMAX
 10
      247.715256
 20
      181.822067
  9
$VIEWCTR
 10
        5.435532
 20
        5.435532
  9
$ORTHOMODE
 70
     0
  9
$ANGBASE
 50
0.0
  9
$ANGDIR
 70
     0
  9
$SPLINETYPE
 70
     6
  9
$SPLINESEGS
 70
     8
9
$DIMASZ
 40
        4.000000
9
$DIMEXE
 40
        1.875000
9
$DIMEXO
 40
        0.625000
9
$DIMTXT
 40
        5.000000
9
$DIMGAP
 40
        1.875000
9
$DIMTAD
 70
1
9
$DIMTIH
 70
0
9
$DIMTOH
 70
0
  0
ENDSEC
  0
SECTION
  2
TABLES
  0
TABLE
  2
LTYPE
 70
     5
  0
LTYPE
  2
CONTINUOUS
 70
    64
  3
SOLID LINE
 72
    65
 73
     0
 40
0.0
  0
LTYPE
  2
DASHED
 70
    64
  3
-- -- -- -- -- --
 72
    65
 73
     2
 40
  0.75  
 49
  0.50  
 49
 -0.25  
  0
LTYPE
  2
DOT
 70
    64
  3
....................
 72
    65
 73
     2
 40
  0.25  
 49
  0.02  
 49
 -0.23  
  0
LTYPE
  2
CENTER
 70
    64
  3
-- . -- . -- . -- .
 72
    65
 73
    4
 40
  2.00  
 49
  1.25  
 49
 -0.25  
 49
  0.25  
 49
 -0.25  
  0
LTYPE
  2
PHANTOM
 70
    64
  3
-- .. -- .. -- ..
 72
    65
 73
    6
 40
  2.50  
 49
  1.25  
 49
 -0.25  
 49
  0.25  
 49
 -0.25  
 49
  0.25  
 49
 -0.25  
  0
ENDTAB
  0
TABLE
  2
LAYER
 70
     6
  0
LAYER
  2
0
 70
    64
 62
     3
  6
CONTINUOUS
  0
LAYER
  2
10
 70
    64
 62
     2
  6
CONTINUOUS
  0
LAYER
  2
70
 70
    64
 62
     3
  6
CONTINUOUS
  0
LAYER
  2
100
 70
    64
 62
     3
  6
CONTINUOUS
  0
LAYER
  2
160
 70
    64
 62
     4
  6
CONTINUOUS
  0
LAYER
  2
262
 70
    64
 62
     5
  6
CONTINUOUS
  0
ENDTAB
  0
TABLE
  2
STYLE
 70
     2
  0
STYLE
  2
STANDARD
 70
    64
 40
0.0
 41
1.0
 50
0.0
 71
     0
 42
5.0
  3
ROMANS
  4
BIGFONT
  0
STYLE
  2
BIGFONT
 70
    64
 40
0.0
 41
1.0
 50
0.0
 71
     0
 42
5.0
  3
ROMANS
  4
BIGFONT
  0
ENDTAB
  0
TABLE
  2
VIEW
 70
     0
  0
ENDTAB
  0
TABLE
  2
UCS
 70
     0
  0
ENDTAB
  0
TABLE
  2
DWGMGR
 70
     0
  0
ENDTAB
  0
ENDSEC
  0
SECTION
  2
BLOCKS
  0
BLOCK
  8
0
  2
BLK0001
 70
    64
 10
        0.000000
 20
        0.000000
  0
TEXT
  8
10
 62
  5
 10
      221.715256
 20
      153.036545
 30
        0.000000
 40
        5.000000
  1
４２
 50
        0.000000
 41
        1.000000
 51
        0.000000
  7
BIGFONT
  0
LINE
  8
10
 62
  5
 10
      205.715256
 20
      117.433647
 30
        0.000000
 11
      205.715256
 21
      153.036545
 31
        0.000000
  0
LINE
  8
10
 62
  5
 10
      247.715256
 20
      135.624619
 30
        0.000000
 11
      247.715256
 21
      153.036545
 31
        0.000000
  0
LINE
  8
10
 62
  5
 10
      209.715256
 20
      152.208740
 30
        0.000000
 11
      205.715256
 21
      151.161545
 31
        0.000000
  0
LINE
  8
10
 62
  5
 10
      205.715256
 20
      151.161545
 30
        0.000000
 11
      209.715256
 21
      150.114349
 31
        0.000000
  0
LINE
  8
10
 62
  5
 10
      243.715256
 20
      150.114349
 30
        0.000000
 11
      247.715256
 21
      151.161545
 31
        0.000000
  0
LINE
  8
10
 62
  5
 10
      247.715256
 20
      151.161545
 30
        0.000000
 11
      243.715256
 21
      152.208740
 31
        0.000000
  0
LINE
  8
10
 62
  5
 10
      205.715256
 20
      151.161545
 30
        0.000000
 11
      247.715256
 21
      151.161545
 31
        0.000000
  0
ENDBLK
  0
BLOCK
  8
0
  2
BLK0002
 70
    64
 10
        0.000000
 20
        0.000000
  0
TEXT
  8
10
 62
  5
 10
       -7.500000
 20
      172.264328
 30
        0.000000
 40
        5.000000
  1
２７２
 50
        0.000000
 41
        1.000000
 51
        0.000000
  7
BIGFONT
  0
LINE
  8
10
 62
  5
 10
      136.000000
 20
      131.625000
 30
        0.000000
 11
      136.000000
 21
      172.264328
 31
        0.000000
  0
LINE
  8
10
 62
  5
 10
     -136.000000
 20
      131.625000
 30
        0.000000
 11
     -136.000000
 21
      172.264328
 31
        0.000000
  0
LINE
  8
10
 62
  5
 10
      132.000000
 20
      169.342133
 30
        0.000000
 11
      136.000000
 21
      170.389328
 31
        0.000000
  0
LINE
  8
10
 62
  5
 10
      136.000000
 20
      170.389328
 30
        0.000000
 11
      132.000000
 21
      171.436523
 31
        0.000000
  0
LINE
  8
10
 62
  5
 10
     -132.000000
 20
      171.436523
 30
        0.000000
 11
     -136.000000
 21
      170.389328
 31
        0.000000
  0
LINE
  8
10
 62
  5
 10
     -136.000000
 20
      170.389328
 30
        0.000000
 11
     -132.000000
 21
      169.342133
 31
        0.000000
  0
LINE
  8
10
 62
  5
 10
      136.000000
 20
      170.389328
 30
        0.000000
 11
     -136.000000
 21
      170.389328
 31
        0.000000
  0
ENDBLK
  0
BLOCK
  8
0
  2
BLK0003
 70
    64
 10
        0.000000
 20
        0.000000
  0
TEXT
  8
10
 62
  5
 10
      172.840897
 20
       -7.500000
 30
        0.000000
 40
        5.000000
  1
２７２
 50
       90.000000
 41
        1.000000
 51
        0.000000
  7
BIGFONT
  0
LINE
  8
10
 62
  5
 10
      131.625000
 20
      136.000000
 30
        0.000000
 11
      176.590897
 21
      136.000000
 31
        0.000000
  0
LINE
  8
10
 62
  5
 10
      131.625000
 20
     -136.000000
 30
        0.000000
 11
      176.590897
 21
     -136.000000
 31
        0.000000
  0
LINE
  8
10
 62
  5
 10
      175.763092
 20
      132.000000
 30
        0.000000
 11
      174.715897
 21
      136.000000
 31
        0.000000
  0
LINE
  8
10
 62
  5
 10
      174.715897
 20
      136.000000
 30
        0.000000
 11
      173.668701
 21
      132.000000
 31
        0.000000
  0
LINE
  8
10
 62
  5
 10
      173.668701
 20
     -132.000000
 30
        0.000000
 11
      174.715897
 21
     -136.000000
 31
        0.000000
  0
LINE
  8
10
 62
  5
 10
      174.715897
 20
     -136.000000
 30
        0.000000
 11
      175.763092
 21
     -132.000000
 31
        0.000000
  0
LINE
  8
10
 62
  5
 10
      174.715897
 20
      136.000000
 30
        0.000000
 11
      174.715897
 21
     -136.000000
 31
        0.000000
  0
ENDBLK
  0
BLOCK
  8
0
  2
BLK0004
 70
    64
 10
        0.000000
 20
        0.000000
  0
TEXT
  8
10
 62
  5
 10
      172.840897
 20
     -196.422089
 30
        0.000000
 40
        5.000000
  1
２７００
 50
       90.000000
 41
        1.000000
 51
        0.000000
  7
BIGFONT
  0
LINE
  8
10
 62
  5
 10
        7.625003
 20
     -236.844193
 30
        0.000000
 11
      176.590897
 21
     -236.844193
 31
        0.000000
  0
LINE
  8
10
 62
  5
 10
      131.625000
 20
     -136.000000
 30
        0.000000
 11
      176.590897
 21
     -136.000000
 31
        0.000000
  0
LINE
  8
10
 62
  5
 10
      173.668701
 20
     -232.844193
 30
        0.000000
 11
      174.715897
 21
     -236.844193
 31
        0.000000
  0
LINE
  8
10
 62
  5
 10
      174.715897
 20
     -236.844193
 30
        0.000000
 11
      175.763092
 21
     -232.844193
 31
        0.000000
  0
LINE
  8
10
 62
  5
 10
      175.763092
 20
     -140.000000
 30
        0.000000
 11
      174.715897
 21
     -136.000000
 31
        0.000000
  0
LINE
  8
10
 62
  5
 10
      174.715897
 20
     -136.000000
 30
        0.000000
 11
      173.668701
 21
     -140.000000
 31
        0.000000
  0
LINE
  8
10
 62
  5
 10
      174.715897
 20
     -236.844193
 30
        0.000000
 11
      174.715897
 21
     -136.000000
 31
        0.000000
  0
ENDBLK
  0
BLOCK
  8
0
  2
BLK0005
 70
    64
 10
        0.000000
 20
        0.000000
  0
TEXT
  8
10
 62
  5
 10
      160.499207
 20
       -7.500000
 30
        0.000000
 40
        5.000000
  1
２６０
 50
       90.000000
 41
        1.000000
 51
        0.000000
  7
BIGFONT
  0
LINE
  8
10
 62
  5
 10
      130.625000
 20
     -130.000000
 30
        0.000000
 11
      164.249207
 21
     -130.000000
 31
        0.000000
  0
LINE
  8
10
 62
  5
 10
      130.625000
 20
      130.000000
 30
        0.000000
 11
      164.249207
 21
      130.000000
 31
        0.000000
  0
LINE
  8
10
 62
  5
 10
      161.327011
 20
     -126.000000
 30
        0.000000
 11
      162.374207
 21
     -130.000000
 31
        0.000000
  0
LINE
  8
10
 62
  5
 10
      162.374207
 20
     -130.000000
 30
        0.000000
 11
      163.421402
 21
     -126.000000
 31
        0.000000
  0
LINE
  8
10
 62
  5
 10
      163.421402
 20
      126.000000
 30
        0.000000
 11
      162.374207
 21
      130.000000
 31
        0.000000
  0
LINE
  8
10
 62
  5
 10
      162.374207
 20
      130.000000
 30
        0.000000
 11
      161.327011
 21
      126.000000
 31
        0.000000
  0
LINE
  8
10
 62
  5
 10
      162.374207
 20
     -130.000000
 30
        0.000000
 11
      162.374207
 21
      130.000000
 31
        0.000000
  0
ENDBLK
  0
BLOCK
  8
0
  2
BLK0006
 70
    64
 10
        0.000000
 20
        0.000000
  0
TEXT
  8
10
 62
  5
 10
       -7.500000
 20
      160.022491
 30
        0.000000
 40
        5.000000
  1
２６０
 50
        0.000000
 41
        1.000000
 51
        0.000000
  7
BIGFONT
  0
LINE
  8
10
 62
  5
 10
      130.000000
 20
      130.625000
 30
        0.000000
 11
      130.000000
 21
      160.022491
 31
        0.000000
  0
LINE
  8
10
 62
  5
 10
     -130.000000
 20
      130.625000
 30
        0.000000
 11
     -130.000000
 21
      160.022491
 31
        0.000000
  0
LINE
  8
10
 62
  5
 10
      126.000000
 20
      157.100296
 30
        0.000000
 11
      130.000000
 21
      158.147491
 31
        0.000000
  0
LINE
  8
10
 62
  5
 10
      130.000000
 20
      158.147491
 30
        0.000000
 11
      126.000000
 21
      159.194687
 31
        0.000000
  0
LINE
  8
10
 62
  5
 10
     -126.000000
 20
      159.194687
 30
        0.000000
 11
     -130.000000
 21
      158.147491
 31
        0.000000
  0
LINE
  8
10
 62
  5
 10
     -130.000000
 20
      158.147491
 30
        0.000000
 11
     -126.000000
 21
      157.100296
 31
        0.000000
  0
LINE
  8
10
 62
  5
 10
      130.000000
 20
      158.147491
 30
        0.000000
 11
     -130.000000
 21
      158.147491
 31
        0.000000
  0
ENDBLK
  0
BLOCK
  8
0
  2
BLK0007
 70
    64
 10
        0.000000
 20
        0.000000
  0
LINE
  8
70
 10
      -10.114990
 20
      109.139996
 30
        0.000000
 11
       -9.154999
 21
      109.139996
 31
        0.000000
  0
LINE
  8
70
 10
       -9.154999
 20
      109.139996
 30
        0.000000
 11
       -9.154999
 21
      106.499996
 31
        0.000000
  0
LINE
  8
70
 10
       -9.154999
 20
      106.499996
 30
        0.000000
 11
       -8.720001
 21
      106.499996
 31
        0.000000
  0
LINE
  8
70
 10
       -8.720001
 20
      106.499996
 30
        0.000000
 11
       -8.720001
 21
      109.139996
 31
        0.000000
  0
LINE
  8
70
 10
       -8.720001
 20
      109.139996
 30
        0.000000
 11
       -7.760010
 21
      109.139996
 31
        0.000000
  0
LINE
  8
70
 10
       -7.760010
 20
      109.139996
 30
        0.000000
 11
       -7.760010
 21
      109.499996
 31
        0.000000
  0
LINE
  8
70
 10
       -7.760010
 20
      109.499996
 30
        0.000000
 11
      -10.114990
 21
      109.499996
 31
        0.000000
  0
LINE
  8
70
 10
      -10.114990
 20
      109.499996
 30
        0.000000
 11
      -10.114990
 21
      109.139996
 31
        0.000000
  0
LINE
  8
70
 10
       -7.535004
 20
      109.499996
 30
        0.000000
 11
       -7.040009
 21
      109.499996
 31
        0.000000
  0
LINE
  8
70
 10
       -7.040009
 20
      109.499996
 30
        0.000000
 11
       -6.290009
 21
      108.342388
 31
        0.000000
  0
LINE
  8
70
 10
       -6.290009
 20
      108.342388
 30
        0.000000
 11
       -5.540009
 21
      109.499996
 31
        0.000000
  0
LINE
  8
70
 10
       -5.540009
 20
      109.499996
 30
        0.000000
 11
       -5.044983
 21
      109.499996
 31
        0.000000
  0
LINE
  8
70
 10
       -5.044983
 20
      109.499996
 30
        0.000000
 11
       -6.049988
 21
      108.029995
 31
        0.000000
  0
LINE
  8
70
 10
       -6.049988
 20
      108.029995
 30
        0.000000
 11
       -5.000000
 21
      106.499996
 31
        0.000000
  0
LINE
  8
70
 10
       -5.000000
 20
      106.499996
 30
        0.000000
 11
       -5.509979
 21
      106.499996
 31
        0.000000
  0
LINE
  8
70
 10
       -5.509979
 20
      106.499996
 30
        0.000000
 11
       -6.290009
 21
      107.702496
 31
        0.000000
  0
LINE
  8
70
 10
       -6.290009
 20
      107.702496
 30
        0.000000
 11
       -7.070007
 21
      106.499996
 31
        0.000000
  0
LINE
  8
70
 10
       -7.070007
 20
      106.499996
 30
        0.000000
 11
       -7.579987
 21
      106.499996
 31
        0.000000
  0
LINE
  8
70
 10
       -7.579987
 20
      106.499996
 30
        0.000000
 11
       -6.529999
 21
      108.029995
 31
        0.000000
  0
LINE
  8
70
 10
       -6.529999
 20
      108.029995
 30
        0.000000
 11
       -7.535004
 21
      109.499996
 31
        0.000000
  0
LINE
  8
70
 10
       10.325012
 20
      109.499996
 30
        0.000000
 11
        8.855011
 21
      108.065849
 31
        0.000000
  0
LINE
  8
70
 10
        8.420013
 20
      109.499996
 30
        0.000000
 11
        8.420013
 21
      106.499996
 31
        0.000000
  0
LINE
  8
70
 10
        8.855011
 20
      109.499996
 30
        0.000000
 11
        8.420013
 21
      109.499996
 31
        0.000000
  0
LINE
  8
70
 10
        8.855011
 20
      108.065849
 30
        0.000000
 11
        8.855011
 21
      109.499996
 31
        0.000000
  0
LINE
  8
70
 10
       10.895020
 20
      109.499996
 30
        0.000000
 11
       10.325012
 21
      109.499996
 31
        0.000000
  0
LINE
  8
70
 10
        9.620026
 20
      108.269997
 30
        0.000000
 11
       10.895020
 21
      109.499996
 31
        0.000000
  0
LINE
  8
70
 10
       10.985016
 20
      106.499996
 30
        0.000000
 11
        9.620026
 21
      108.269997
 31
        0.000000
  0
LINE
  8
70
 10
       10.445007
 20
      106.499996
 30
        0.000000
 11
       10.985016
 21
      106.499996
 31
        0.000000
  0
LINE
  8
70
 10
        9.335022
 20
      107.999996
 30
        0.000000
 11
       10.445007
 21
      106.499996
 31
        0.000000
  0
LINE
  8
70
 10
        8.855011
 20
      107.549995
 30
        0.000000
 11
        9.335022
 21
      107.999996
 31
        0.000000
  0
LINE
  8
70
 10
        8.855011
 20
      106.499996
 30
        0.000000
 11
        8.855011
 21
      107.549995
 31
        0.000000
  0
LINE
  8
70
 10
        8.420013
 20
      106.499996
 30
        0.000000
 11
        8.855011
 21
      106.499996
 31
        0.000000
  0
ARC
  8
70
 10
        6.095001
 20
      107.999996
 30
        0.000000
 40
        1.845013
 50
      339.419667
 51
      380.580336
  0
ARC
  8
70
 10
        6.516266
 20
      107.841812
 30
        0.000000
 40
        1.394992
 50
      320.474772
 51
      339.419476
  0
ARC
  8
70
 10
        6.470001
 20
      107.879997
 30
        0.000000
 40
        1.455003
 50
      219.524893
 51
      320.475127
  0
ARC
  8
70
 10
        6.423706
 20
      107.841812
 30
        0.000000
 40
        1.395000
 50
      200.580558
 51
      219.525262
  0
ARC
  8
70
 10
        6.845001
 20
      107.999996
 30
        0.000000
 40
        1.845013
 50
      159.419657
 51
      200.580353
  0
ARC
  8
70
 10
        6.423706
 20
      108.158180
 30
        0.000000
 40
        1.394992
 50
      140.474748
 51
      159.419452
  0
ARC
  8
70
 10
        6.470001
 20
      108.119995
 30
        0.000000
 40
        1.455003
 50
       39.524880
 51
      140.475117
  0
ARC
  8
70
 10
        6.516266
 20
      108.158180
 30
        0.000000
 40
        1.395000
 50
       20.580544
 51
       39.525242
  0
ARC
  8
70
 10
        6.501312
 20
      108.227314
 30
        0.000000
 40
        0.959999
 50
       14.385008
 51
       45.904464
  0
ARC
  8
70
 10
        6.501312
 20
      107.772678
 30
        0.000000
 40
        0.960010
 50
      314.095539
 51
      345.615222
  0
ARC
  8
70
 10
        5.614990
 20
      107.999996
 30
        0.000000
 40
        1.875007
 50
      345.615113
 51
      374.384895
  0
ARC
  8
70
 10
        6.470001
 20
      107.804996
 30
        0.000000
 40
        1.005009
 50
      225.904576
 51
      314.095430
  0
ARC
  8
70
 10
        6.438690
 20
      107.772678
 30
        0.000000
 40
        0.959999
 50
      194.385016
 51
      225.904481
  0
ARC
  8
70
 10
        7.325012
 20
      107.999996
 30
        0.000000
 40
        1.875006
 50
      165.615212
 51
      194.384907
  0
ARC
  8
70
 10
        6.438690
 20
      108.227314
 30
        0.000000
 40
        0.960010
 50
      134.095529
 51
      165.614994
  0
ARC
  8
70
 10
        6.470001
 20
      108.194996
 30
        0.000000
 40
        1.005009
 50
       45.904566
 51
      134.095434
  0
LINE
  8
10
 62
  3
 10
      -47.989582
 20
       -1.000000
 30
        0.000000
 11
      -24.979992
 21
       -1.000000
 31
        0.000000
  0
LINE
  8
10
 62
  3
 10
      -47.989582
 20
        1.000000
 30
        0.000000
 11
      -24.979992
 21
        1.000000
 31
        0.000000
  0
LINE
  8
10
 62
  3
 10
       24.979992
 20
        1.000000
 30
        0.000000
 11
       47.989582
 21
        1.000000
 31
        0.000000
  0
LINE
  8
10
 62
  3
 10
       24.979992
 20
       -1.000000
 30
        0.000000
 11
       47.989582
 21
       -1.000000
 31
        0.000000
  0
LINE
  8
10
 62
  3
 10
        1.000000
 20
      -47.989582
 30
        0.000000
 11
        1.000000
 21
      -24.979992
 31
        0.000000
  0
LINE
  8
10
 62
  3
 10
       -1.000000
 20
      -47.989582
 30
        0.000000
 11
       -1.000000
 21
      -24.979992
 31
        0.000000
  0
LINE
  8
10
 62
  3
 10
       -1.000000
 20
       24.979992
 30
        0.000000
 11
       -1.000000
 21
       47.989582
 31
        0.000000
  0
LINE
  8
10
 62
  3
 10
        1.000000
 20
       24.979992
 30
        0.000000
 11
        1.000000
 21
       47.989582
 31
        0.000000
  0
ARC
  8
10
 62
  3
 10
        0.000000
 20
        0.000000
 30
        0.000000
 40
       25.000000
 50
      182.292448
 51
      267.707560
  0
ARC
  8
10
 62
  3
 10
        0.000000
 20
        0.000000
 30
        0.000000
 40
       25.000000
 50
       92.292440
 51
      177.707552
  0
ARC
  8
10
 62
  3
 10
        0.000000
 20
        0.000000
 30
        0.000000
 40
       25.000000
 50
        2.292443
 51
       87.707555
  0
ARC
  8
10
 62
  3
 10
        0.000000
 20
        0.000000
 30
        0.000000
 40
       25.000000
 50
      272.292445
 51
      357.707557
  0
ARC
  8
10
 62
  3
 10
        0.000000
 20
        0.000000
 30
        0.000000
 40
       48.000000
 50
      271.193751
 51
      358.806252
  0
ARC
  8
10
 62
  3
 10
        0.000000
 20
        0.000000
 30
        0.000000
 40
       48.000000
 50
      181.193753
 51
      268.806254
  0
ARC
  8
10
 62
  3
 10
        0.000000
 20
        0.000000
 30
        0.000000
 40
       48.000000
 50
       91.193746
 51
      178.806247
  0
ARC
  8
10
 62
  3
 10
        0.000000
 20
        0.000000
 30
        0.000000
 40
       48.000000
 50
        1.193748
 51
       88.806249
  0
CIRCLE
  8
10
 62
  3
 10
        0.000000
 20
        0.000000
 30
        0.000000
 40
       50.000000
  0
ARC
  8
10
 62
  3
 10
        0.000000
 20
        0.000000
 30
        0.000000
 40
       23.000000
 50
      272.491909
 51
      357.508094
  0
ARC
  8
10
 62
  3
 10
        0.000000
 20
        0.000000
 30
        0.000000
 40
       23.000000
 50
      182.491911
 51
      267.508096
  0
ARC
  8
10
 62
  3
 10
        0.000000
 20
        0.000000
 30
        0.000000
 40
       23.000000
 50
       92.491904
 51
      177.508089
  0
ARC
  8
10
 62
  3
 10
        0.000000
 20
        0.000000
 30
        0.000000
 40
       23.000000
 50
        2.491906
 51
       87.508091
  0
CIRCLE
  8
10
 10
        0.000000
 20
        0.000000
 30
        0.000000
 40
        3.000000
  0
ARC
  8
10
 62
  3
 10
        6.000000
 20
        0.000000
 30
        0.000000
 40
        1.000000
 50
       90.000000
 51
      270.000000
  0
ARC
  8
10
 62
  3
 10
        0.000000
 20
        6.000000
 30
        0.000000
 40
        1.000000
 50
      179.999995
 51
      360.000000
  0
ARC
  8
10
 62
  3
 10
       -6.000000
 20
        0.000000
 30
        0.000000
 40
        1.000000
 50
      270.000000
 51
      450.000000
  0
ARC
  8
10
 62
  3
 10
        0.000000
 20
       -6.000000
 30
        0.000000
 40
        1.000000
 50
        0.000000
 51
      179.999995
  0
LINE
  8
10
 62
  3
 10
        6.000000
 20
        1.000000
 30
        0.000000
 11
       22.978251
 21
        1.000000
 31
        0.000000
  0
LINE
  8
10
 62
  3
 10
        6.000000
 20
       -1.000000
 30
        0.000000
 11
       22.978251
 21
       -1.000000
 31
        0.000000
  0
LINE
  8
10
 62
  3
 10
        1.000000
 20
      -22.978251
 30
        0.000000
 11
        1.000000
 21
       -6.000000
 31
        0.000000
  0
LINE
  8
10
 62
  3
 10
       -1.000000
 20
      -22.978251
 30
        0.000000
 11
       -1.000000
 21
       -6.000000
 31
        0.000000
  0
LINE
  8
10
 62
  3
 10
      -22.978251
 20
       -1.000000
 30
        0.000000
 11
       -6.000000
 21
       -1.000000
 31
        0.000000
  0
LINE
  8
10
 62
  3
 10
      -22.978251
 20
        1.000000
 30
        0.000000
 11
       -6.000000
 21
        1.000000
 31
        0.000000
  0
LINE
  8
10
 62
  3
 10
       -1.000000
 20
        6.000000
 30
        0.000000
 11
       -1.000000
 21
       22.978251
 31
        0.000000
  0
LINE
  8
10
 62
  3
 10
        1.000000
 20
        6.000000
 30
        0.000000
 11
        1.000000
 21
       22.978251
 31
        0.000000
  0
ENDBLK
  0
ENDSEC
  0
SECTION
  2
ENTITIES
  0
TEXT
  8
10
 10
     -136.975187
 20
      181.822070
 30
        0.000000
 40
        5.000000
  1
ＤＳ－１０ＲＷ
 50
        0.000000
 41
        1.000000
 51
        0.000000
  7
BIGFONT
  0
CIRCLE
  8
10
 62
  3
 10
     -130.000000
 20
      130.000000
 30
        0.000000
 40
        2.250000
  0
CIRCLE
  8
10
 62
  3
 10
      130.000000
 20
      130.000000
 30
        0.000000
 40
        2.250000
  0
CIRCLE
  8
10
 62
  3
 10
      130.000000
 20
     -130.000000
 30
        0.000000
 40
        2.250000
  0
LINE
  8
100
 10
      127.000000
 20
      -30.000000
 30
        0.000000
 11
      124.000000
 21
      -30.000000
 31
        0.000000
  0
LINE
  8
100
 10
      122.533328
 20
        0.000000
 30
        0.000000
 11
      122.533328
 21
     -116.533328
 31
        0.000000
  0
LINE
  8
100
 10
      124.000000
 20
        0.000000
 30
        0.000000
 11
      124.000000
 21
     -118.000000
 31
        0.000000
  0
ARC
  8
100
 10
      127.000000
 20
      -35.000000
 30
        0.000000
 40
        5.000000
 50
      270.000000
 51
      450.000000
  0
ARC
  8
100
 10
      105.000000
 20
     -127.000000
 30
        0.000000
 40
        5.000000
 50
      179.999995
 51
      360.000000
  0
LINE
  8
100
 10
      110.000000
 20
     -127.000000
 30
        0.000000
 11
      110.000000
 21
     -124.000000
 31
        0.000000
  0
LINE
  8
100
 10
      100.000000
 20
     -127.000000
 30
        0.000000
 11
      100.000000
 21
     -124.000000
 31
        0.000000
  0
ARC
  8
100
 10
      118.000000
 20
     -118.000000
 30
        0.000000
 40
        6.000000
 50
      270.000000
 51
      360.000000
  0
ARC
  8
100
 10
      116.533328
 20
     -116.533328
 30
        0.000000
 40
        6.000000
 50
      270.000000
 51
      360.000000
  0
ARC
  8
100
 10
      131.000000
 20
     -131.000000
 30
        0.000000
 40
        5.000000
 50
      270.000000
 51
      360.000000
  0
LINE
  8
100
 10
      136.000000
 20
        0.000000
 30
        0.000000
 11
      136.000000
 21
     -131.000000
 31
        0.000000
  0
ARC
  8
100
 10
      127.000000
 20
     -105.000000
 30
        0.000000
 40
        5.000000
 50
      270.000000
 51
      450.000000
  0
LINE
  8
100
 10
      127.000000
 20
     -110.000000
 30
        0.000000
 11
      124.000000
 21
     -110.000000
 31
        0.000000
  0
LINE
  8
100
 10
      127.000000
 20
     -100.000000
 30
        0.000000
 11
      124.000000
 21
     -100.000000
 31
        0.000000
  0
LINE
  8
100
 10
      127.000000
 20
      -40.000000
 30
        0.000000
 11
      124.000000
 21
      -40.000000
 31
        0.000000
  0
LINE
  8
100
 10
     -100.000000
 20
     -127.000000
 30
        0.000000
 11
     -100.000000
 21
     -124.000000
 31
        0.000000
  0
LINE
  8
100
 10
     -110.000000
 20
     -127.000000
 30
        0.000000
 11
     -110.000000
 21
     -124.000000
 31
        0.000000
  0
ARC
  8
100
 10
     -105.000000
 20
     -127.000000
 30
        0.000000
 40
        5.000000
 50
      179.999995
 51
      360.000000
  0
ARC
  8
100
 10
     -131.000000
 20
     -131.000000
 30
        0.000000
 40
        5.000000
 50
      179.999995
 51
      270.000000
  0
ARC
  8
100
 10
     -116.533328
 20
     -116.533328
 30
        0.000000
 40
        6.000000
 50
      179.999995
 51
      270.000000
  0
ARC
  8
100
 10
     -118.000000
 20
     -118.000000
 30
        0.000000
 40
        6.000000
 50
      179.999995
 51
      270.000000
  0
LINE
  8
100
 10
     -122.533328
 20
        0.000000
 30
        0.000000
 11
     -122.533328
 21
     -116.533328
 31
        0.000000
  0
LINE
  8
100
 10
     -124.000000
 20
        0.000000
 30
        0.000000
 11
     -124.000000
 21
     -118.000000
 31
        0.000000
  0
LINE
  8
100
 10
     -127.000000
 20
      -30.000000
 30
        0.000000
 11
     -124.000000
 21
      -30.000000
 31
        0.000000
  0
LINE
  8
100
 10
     -136.000000
 20
        0.000000
 30
        0.000000
 11
     -136.000000
 21
     -131.000000
 31
        0.000000
  0
ARC
  8
100
 10
     -127.000000
 20
      -35.000000
 30
        0.000000
 40
        5.000000
 50
       90.000000
 51
      270.000000
  0
LINE
  8
100
 10
     -127.000000
 20
      -40.000000
 30
        0.000000
 11
     -124.000000
 21
      -40.000000
 31
        0.000000
  0
LINE
  8
100
 10
     -127.000000
 20
     -100.000000
 30
        0.000000
 11
     -124.000000
 21
     -100.000000
 31
        0.000000
  0
LINE
  8
100
 10
     -127.000000
 20
     -110.000000
 30
        0.000000
 11
     -124.000000
 21
     -110.000000
 31
        0.000000
  0
ARC
  8
100
 10
     -127.000000
 20
     -105.000000
 30
        0.000000
 40
        5.000000
 50
       90.000000
 51
      270.000000
  0
LINE
  8
100
 10
     -127.000000
 20
       30.000000
 30
        0.000000
 11
     -124.000000
 21
       30.000000
 31
        0.000000
  0
LINE
  8
100
 10
     -122.533328
 20
        0.000000
 30
        0.000000
 11
     -122.533328
 21
      116.533328
 31
        0.000000
  0
LINE
  8
100
 10
     -124.000000
 20
        0.000000
 30
        0.000000
 11
     -124.000000
 21
      118.000000
 31
        0.000000
  0
ARC
  8
100
 10
     -127.000000
 20
       35.000000
 30
        0.000000
 40
        5.000000
 50
       90.000000
 51
      270.000000
  0
ARC
  8
100
 10
     -105.000000
 20
      127.000000
 30
        0.000000
 40
        5.000000
 50
        0.000000
 51
      179.999995
  0
LINE
  8
100
 10
     -110.000000
 20
      127.000000
 30
        0.000000
 11
     -110.000000
 21
      124.000000
 31
        0.000000
  0
LINE
  8
100
 10
     -100.000000
 20
      127.000000
 30
        0.000000
 11
     -100.000000
 21
      124.000000
 31
        0.000000
  0
LINE
  8
100
 10
      -40.000000
 20
      127.000000
 30
        0.000000
 11
      -40.000000
 21
      124.000000
 31
        0.000000
  0
ARC
  8
100
 10
      -35.000000
 20
      127.000000
 30
        0.000000
 40
        5.000000
 50
        0.000000
 51
      179.999995
  0
LINE
  8
100
 10
        0.000000
 20
      136.000000
 30
        0.000000
 11
     -131.000000
 21
      136.000000
 31
        0.000000
  0
LINE
  8
100
 10
      -30.000000
 20
      127.000000
 30
        0.000000
 11
      -30.000000
 21
      124.000000
 31
        0.000000
  0
LINE
  8
100
 10
        0.000000
 20
      124.000000
 30
        0.000000
 11
     -118.000000
 21
      124.000000
 31
        0.000000
  0
LINE
  8
100
 10
        0.000000
 20
      122.533328
 30
        0.000000
 11
     -116.533328
 21
      122.533328
 31
        0.000000
  0
ARC
  8
100
 10
     -118.000000
 20
      118.000000
 30
        0.000000
 40
        6.000000
 50
       90.000000
 51
      179.999995
  0
ARC
  8
100
 10
     -116.533328
 20
      116.533328
 30
        0.000000
 40
        6.000000
 50
       90.000000
 51
      179.999995
  0
ARC
  8
100
 10
     -131.000000
 20
      131.000000
 30
        0.000000
 40
        5.000000
 50
       90.000000
 51
      179.999995
  0
LINE
  8
100
 10
     -136.000000
 20
        0.000000
 30
        0.000000
 11
     -136.000000
 21
      131.000000
 31
        0.000000
  0
ARC
  8
100
 10
     -127.000000
 20
      105.000000
 30
        0.000000
 40
        5.000000
 50
       90.000000
 51
      270.000000
  0
LINE
  8
100
 10
     -127.000000
 20
      110.000000
 30
        0.000000
 11
     -124.000000
 21
      110.000000
 31
        0.000000
  0
LINE
  8
100
 10
     -127.000000
 20
      100.000000
 30
        0.000000
 11
     -124.000000
 21
      100.000000
 31
        0.000000
  0
LINE
  8
100
 10
     -127.000000
 20
       40.000000
 30
        0.000000
 11
     -124.000000
 21
       40.000000
 31
        0.000000
  0
LINE
  8
100
 10
      122.533328
 20
        0.000000
 30
        0.000000
 11
      122.533328
 21
      116.533328
 31
        0.000000
  0
LINE
  8
100
 10
      124.000000
 20
        0.000000
 30
        0.000000
 11
      124.000000
 21
      118.000000
 31
        0.000000
  0
LINE
  8
100
 10
      127.000000
 20
       30.000000
 30
        0.000000
 11
      124.000000
 21
       30.000000
 31
        0.000000
  0
LINE
  8
100
 10
      136.000000
 20
        0.000000
 30
        0.000000
 11
      136.000000
 21
      131.000000
 31
        0.000000
  0
ARC
  8
100
 10
      127.000000
 20
       35.000000
 30
        0.000000
 40
        5.000000
 50
      270.000000
 51
      450.000000
  0
LINE
  8
100
 10
      127.000000
 20
       40.000000
 30
        0.000000
 11
      124.000000
 21
       40.000000
 31
        0.000000
  0
LINE
  8
100
 10
      127.000000
 20
      100.000000
 30
        0.000000
 11
      124.000000
 21
      100.000000
 31
        0.000000
  0
ARC
  8
100
 10
      127.000000
 20
      105.000000
 30
        0.000000
 40
        5.000000
 50
      270.000000
 51
      450.000000
  0
ARC
  8
100
 10
       35.000000
 20
      127.000000
 30
        0.000000
 40
        5.000000
 50
        0.000000
 51
      179.999995
  0
LINE
  8
100
 10
        0.000000
 20
      124.000000
 30
        0.000000
 11
      118.000000
 21
      124.000000
 31
        0.000000
  0
LINE
  8
100
 10
        0.000000
 20
      122.533328
 30
        0.000000
 11
      116.533328
 21
      122.533328
 31
        0.000000
  0
LINE
  8
100
 10
       30.000000
 20
      127.000000
 30
        0.000000
 11
       30.000000
 21
      124.000000
 31
        0.000000
  0
LINE
  8
100
 10
       40.000000
 20
      127.000000
 30
        0.000000
 11
       40.000000
 21
      124.000000
 31
        0.000000
  0
LINE
  8
100
 10
      100.000000
 20
      127.000000
 30
        0.000000
 11
      100.000000
 21
      124.000000
 31
        0.000000
  0
LINE
  8
100
 10
      110.000000
 20
      127.000000
 30
        0.000000
 11
      110.000000
 21
      124.000000
 31
        0.000000
  0
ARC
  8
100
 10
      105.000000
 20
      127.000000
 30
        0.000000
 40
        5.000000
 50
        0.000000
 51
      179.999995
  0
LINE
  8
100
 10
        0.000000
 20
      136.000000
 30
        0.000000
 11
      131.000000
 21
      136.000000
 31
        0.000000
  0
ARC
  8
100
 10
      131.000000
 20
      131.000000
 30
        0.000000
 40
        5.000000
 50
      360.000000
 51
      450.000000
  0
ARC
  8
100
 10
      116.533328
 20
      116.533328
 30
        0.000000
 40
        6.000000
 50
        0.000000
 51
       90.000000
  0
ARC
  8
100
 10
      118.000000
 20
      118.000000
 30
        0.000000
 40
        6.000000
 50
        0.000000
 51
       90.000000
  0
CIRCLE
  8
100
 10
       -5.000000
 20
      112.500011
 30
        0.000000
 40
        1.500000
  0
CIRCLE
  8
100
 10
        5.000000
 20
      112.500011
 30
        0.000000
 40
        1.500000
  0
LINE
  8
100
 10
      127.000000
 20
      110.000000
 30
        0.000000
 11
      124.000000
 21
      110.000000
 31
        0.000000
  0
LINE
  8
160
 10
        3.500000
 20
     -166.344155
 30
        0.000000
 11
        3.500000
 21
     -149.200000
 31
        0.000000
  0
ARC
  8
0
 10
        1.750003
 20
     -165.344150
 30
        0.000000
 40
        2.015564
 50
      209.744896
 51
      330.255138
  0
ARC
  8
0
 10
        1.750003
 20
     -169.644137
 30
        0.000000
 40
        2.015564
 50
      209.744896
 51
      330.255138
  0
ARC
  8
0
 10
        1.750003
 20
     -171.644137
 30
        0.000000
 40
        2.015557
 50
       29.744503
 51
      150.255306
  0
LINE
  8
0
 10
        3.500003
 20
     -170.644137
 30
        0.000000
 11
        3.500003
 21
     -194.344188
 31
        0.000000
  0
ARC
  8
0
 10
       -1.749997
 20
     -167.344150
 30
        0.000000
 40
        2.015564
 50
       29.744879
 51
      150.255114
  0
ARC
  8
0
 10
       -1.749997
 20
     -165.344150
 30
        0.000000
 40
        2.015564
 50
      209.744896
 51
      330.255138
  0
ARC
  8
0
 10
       -1.749997
 20
     -171.644137
 30
        0.000000
 40
        2.015564
 50
       29.744879
 51
      150.255114
  0
LINE
  8
0
 10
       -3.499997
 20
     -170.644137
 30
        0.000000
 11
       -3.499997
 21
     -194.344188
 31
        0.000000
  0
LINE
  8
160
 10
       11.000000
 20
     -124.000000
 30
        0.000000
 11
       11.000000
 21
     -125.000000
 31
        0.000000
  0
LINE
  8
160
 10
      -11.000000
 20
     -124.000000
 30
        0.000000
 11
       11.000000
 21
     -124.000000
 31
        0.000000
  0
LINE
  8
160
 10
      -11.000000
 20
     -124.000000
 30
        0.000000
 11
      -11.000000
 21
     -125.000000
 31
        0.000000
  0
LINE
  8
160
 10
       11.000000
 20
     -125.000000
 30
        0.000000
 11
      -11.000000
 21
     -125.000000
 31
        0.000000
  0
LINE
  8
160
 10
       -7.600000
 20
     -134.000000
 30
        0.000000
 11
       -7.600000
 21
     -130.000000
 31
        0.000000
  0
ARC
  8
160
 10
       -6.500000
 20
     -146.200000
 30
        0.000000
 40
        3.000000
 50
      180.000005
 51
      270.000000
  0
LINE
  8
160
 10
      -10.969655
 20
     -143.000000
 30
        0.000000
 11
      -10.969655
 21
     -134.000000
 31
        0.000000
  0
LINE
  8
160
 10
       -5.484828
 20
     -143.000000
 30
        0.000000
 11
       -5.484828
 21
     -134.000000
 31
        0.000000
  0
LINE
  8
160
 10
       -9.500000
 20
     -146.200000
 30
        0.000000
 11
       -9.500000
 21
     -143.000000
 31
        0.000000
  0
LINE
  8
160
 10
      -10.969655
 20
     -130.000000
 30
        0.000000
 11
      -10.969655
 21
     -125.000000
 31
        0.000000
  0
LINE
  8
160
 10
       -5.484828
 20
     -130.000000
 30
        0.000000
 11
       -5.484828
 21
     -125.000000
 31
        0.000000
  0
LINE
  8
160
 10
        7.600000
 20
     -134.000000
 30
        0.000000
 11
        7.600000
 21
     -130.000000
 31
        0.000000
  0
LINE
  8
160
 10
      -10.969655
 20
     -143.000000
 30
        0.000000
 11
       10.969655
 21
     -143.000000
 31
        0.000000
  0
LINE
  8
160
 10
      -10.969655
 20
     -134.000000
 30
        0.000000
 11
       10.969655
 21
     -134.000000
 31
        0.000000
  0
LINE
  8
160
 10
       10.969655
 20
     -143.000000
 30
        0.000000
 11
       10.969655
 21
     -134.000000
 31
        0.000000
  0
LINE
  8
160
 10
       -6.500000
 20
     -149.200000
 30
        0.000000
 11
        6.500000
 21
     -149.200000
 31
        0.000000
  0
ARC
  8
160
 10
        6.500000
 20
     -146.200000
 30
        0.000000
 40
        3.000000
 50
      270.000000
 51
      360.000000
  0
LINE
  8
160
 10
        5.484828
 20
     -143.000000
 30
        0.000000
 11
        5.484828
 21
     -134.000000
 31
        0.000000
  0
LINE
  8
160
 10
        9.500000
 20
     -146.200000
 30
        0.000000
 11
        9.500000
 21
     -143.000000
 31
        0.000000
  0
LINE
  8
160
 10
      -10.969655
 20
     -130.000000
 30
        0.000000
 11
       10.969655
 21
     -130.000000
 31
        0.000000
  0
LINE
  8
160
 10
       10.969655
 20
     -130.000000
 30
        0.000000
 11
       10.969655
 21
     -125.000000
 31
        0.000000
  0
LINE
  8
160
 10
        5.484828
 20
     -130.000000
 30
        0.000000
 11
        5.484828
 21
     -125.000000
 31
        0.000000
  0
LINE
  8
160
 10
       -3.500000
 20
     -166.344150
 30
        0.000000
 11
       -3.500000
 21
     -149.200000
 31
        0.000000
  0
LINE
  8
100
 10
      -30.000000
 20
     -127.000000
 30
        0.000000
 11
      -30.000000
 21
     -124.000000
 31
        0.000000
  0
LINE
  8
100
 10
        0.000000
 20
     -122.533328
 30
        0.000000
 11
     -116.533328
 21
     -122.533328
 31
        0.000000
  0
LINE
  8
100
 10
        0.000000
 20
     -124.000000
 30
        0.000000
 11
     -118.000000
 21
     -124.000000
 31
        0.000000
  0
ARC
  8
100
 10
      -35.000000
 20
     -127.000000
 30
        0.000000
 40
        5.000000
 50
      179.999995
 51
      360.000000
  0
LINE
  8
100
 10
      -40.000000
 20
     -127.000000
 30
        0.000000
 11
      -40.000000
 21
     -124.000000
 31
        0.000000
  0
LINE
  8
100
 10
        0.000000
 20
     -122.533328
 30
        0.000000
 11
      116.533328
 21
     -122.533328
 31
        0.000000
  0
LINE
  8
100
 10
        0.000000
 20
     -124.000000
 30
        0.000000
 11
      118.000000
 21
     -124.000000
 31
        0.000000
  0
LINE
  8
100
 10
       30.000000
 20
     -127.000000
 30
        0.000000
 11
       30.000000
 21
     -124.000000
 31
        0.000000
  0
ARC
  8
100
 10
       35.000000
 20
     -127.000000
 30
        0.000000
 40
        5.000000
 50
      179.999995
 51
      360.000000
  0
LINE
  8
100
 10
       40.000000
 20
     -127.000000
 30
        0.000000
 11
       40.000000
 21
     -124.000000
 31
        0.000000
  0
LINE
  8
100
 10
       10.969655
 20
     -136.000000
 30
        0.000000
 11
      131.000000
 21
     -136.000000
 31
        0.000000
  0
LINE
  8
100
 10
      -10.969655
 20
     -136.000000
 30
        0.000000
 11
     -131.000000
 21
     -136.000000
 31
        0.000000
  0
LINE
  8
100
 10
      245.715256
 20
      136.034534
 30
        0.000000
 11
      239.680356
 21
      135.823790
 31
        0.000000
  0
LINE
  8
100
 10
      238.715256
 20
      131.999613
 30
        0.000000
 11
      232.180356
 21
      131.771409
 31
        0.000000
  0
ARC
  8
100
 10
      239.715256
 20
      134.824399
 30
        0.000000
 40
        1.000000
 50
       91.999997
 51
      180.000005
  0
LINE
  8
100
 10
      245.715256
 20
      136.034534
 30
        0.000000
 11
      245.715256
 21
        0.034534
 31
        0.000000
  0
ARC
  8
100
 10
      232.215256
 20
      108.806939
 30
        0.000000
 40
        1.000000
 50
       91.999997
 51
      179.999995
  0
LINE
  8
100
 10
      238.715256
 20
      110.034534
 30
        0.000000
 11
      232.180356
 21
      109.806330
 31
        0.000000
  0
ARC
  8
100
 10
      232.215256
 20
      101.262128
 30
        0.000000
 40
        1.000000
 50
      179.999995
 51
      268.000003
  0
LINE
  8
100
 10
      238.715256
 20
      100.034534
 30
        0.000000
 11
      232.180356
 21
      100.262737
 31
        0.000000
  0
LINE
  8
100
 10
      231.215256
 20
      101.262128
 30
        0.000000
 11
      231.215256
 21
      108.806939
 31
        0.000000
  0
LINE
  8
100
 10
      238.715256
 20
       40.034534
 30
        0.000000
 11
      232.180356
 21
       39.806330
 31
        0.000000
  0
ARC
  8
100
 10
      232.215256
 20
       38.806939
 30
        0.000000
 40
        1.000000
 50
       91.999997
 51
      179.999995
  0
LINE
  8
100
 10
      231.215256
 20
       31.262128
 30
        0.000000
 11
      231.215256
 21
       38.806939
 31
        0.000000
  0
LINE
  8
100
 10
      238.715256
 20
        0.034534
 30
        0.000000
 11
      238.715256
 21
      134.824399
 31
        0.000000
  0
LINE
  8
100
 10
      238.715256
 20
       30.034534
 30
        0.000000
 11
      232.180356
 21
       30.262737
 31
        0.000000
  0
ARC
  8
100
 10
      232.215256
 20
       31.262128
 30
        0.000000
 40
        1.000000
 50
      180.000005
 51
      268.000003
  0
ARC
  8
100
 10
      232.215256
 20
      -31.193061
 30
        0.000000
 40
        1.000000
 50
       91.999997
 51
      179.999995
  0
LINE
  8
100
 10
      238.715256
 20
      -29.965466
 30
        0.000000
 11
      232.180356
 21
      -30.193670
 31
        0.000000
  0
LINE
  8
100
 10
      231.215256
 20
      -31.193061
 30
        0.000000
 11
      231.215256
 21
      -38.737872
 31
        0.000000
  0
LINE
  8
100
 10
      238.715256
 20
      -39.965466
 30
        0.000000
 11
      232.180356
 21
      -39.737263
 31
        0.000000
  0
LINE
  8
100
 10
      245.715256
 20
     -135.965466
 30
        0.000000
 11
      245.715256
 21
        0.034534
 31
        0.000000
  0
LINE
  8
100
 10
      247.715256
 20
     -124.930556
 30
        0.000000
 11
      247.715256
 21
     -134.930556
 31
        0.000000
  0
LINE
  8
100
 10
      247.715256
 20
     -134.930556
 30
        0.000000
 11
      245.715256
 21
     -134.965466
 31
        0.000000
  0
LINE
  8
100
 10
      247.715256
 20
     -124.930556
 30
        0.000000
 11
      245.715256
 21
     -124.895646
 31
        0.000000
  0
LINE
  8
100
 10
      231.215256
 20
      130.772018
 30
        0.000000
 11
      231.215256
 21
      123.772628
 31
        0.000000
  0
LINE
  8
100
 10
      238.715256
 20
      124.034534
 30
        0.000000
 11
      211.505859
 21
      122.804994
 31
        0.000000
  0
LINE
  8
100
 10
      247.715256
 20
      124.999623
 30
        0.000000
 11
      245.715256
 21
      124.964713
 31
        0.000000
  0
ARC
  8
100
 10
      232.215256
 20
      130.772018
 30
        0.000000
 40
        1.000000
 50
       91.999997
 51
      179.999995
  0
LINE
  8
100
 10
      247.715256
 20
      134.999623
 30
        0.000000
 11
      245.715256
 21
      135.034534
 31
        0.000000
  0
LINE
  8
100
 10
      247.715256
 20
      124.999623
 30
        0.000000
 11
      247.715256
 21
      134.999623
 31
        0.000000
  0
ARC
  8
100
 10
      232.215256
 20
      -38.737872
 30
        0.000000
 40
        1.000000
 50
      179.999995
 51
      268.000003
  0
LINE
  8
100
 10
      205.715256
 20
        0.034534
 30
        0.000000
 11
      205.715256
 21
     -116.739582
 31
        0.000000
  0
ARC
  8
100
 10
      211.715256
 20
     -116.739582
 30
        0.000000
 40
        6.000000
 50
      180.000005
 51
      268.000003
  0
LINE
  8
160
 10
      231.315256
 20
     -134.000387
 30
        0.000000
 11
      231.315256
 21
     -131.138841
 31
        0.000000
  0
LINE
  8
100
 10
      212.215256
 20
     -124.000387
 30
        0.000000
 11
      231.215256
 21
     -124.000387
 31
        0.000000
  0
LINE
  8
160
 10
      231.215256
 20
     -125.000387
 30
        0.000000
 11
      223.715256
 21
     -125.000387
 31
        0.000000
  0
LINE
  8
160
 10
      231.215256
 20
     -130.000387
 30
        0.000000
 11
      212.745601
 21
     -130.000387
 31
        0.000000
  0
LINE
  8
100
 10
      238.715256
 20
     -123.965466
 30
        0.000000
 11
      211.505859
 21
     -122.735927
 31
        0.000000
  0
LINE
  8
100
 10
      231.215256
 20
     -130.702951
 30
        0.000000
 11
      231.215256
 21
     -123.703561
 31
        0.000000
  0
ARC
  8
100
 10
      232.215256
 20
     -130.702951
 30
        0.000000
 40
        1.000000
 50
      179.999995
 51
      268.000003
  0
LINE
  8
100
 10
      245.715256
 20
     -135.965466
 30
        0.000000
 11
      239.680356
 21
     -135.754723
 31
        0.000000
  0
LINE
  8
100
 10
      238.715256
 20
     -131.930546
 30
        0.000000
 11
      232.180356
 21
     -131.702342
 31
        0.000000
  0
ARC
  8
100
 10
      239.715256
 20
     -134.755332
 30
        0.000000
 40
        1.000000
 50
      180.000005
 51
      268.000003
  0
ARC
  8
100
 10
      232.215256
 20
     -108.737872
 30
        0.000000
 40
        1.000000
 50
      179.999995
 51
      268.000003
  0
LINE
  8
100
 10
      238.715256
 20
     -109.965466
 30
        0.000000
 11
      232.180356
 21
     -109.737263
 31
        0.000000
  0
ARC
  8
100
 10
      232.215256
 20
     -101.193061
 30
        0.000000
 40
        1.000000
 50
       91.999997
 51
      179.999995
  0
LINE
  8
100
 10
      238.715256
 20
      -99.965466
 30
        0.000000
 11
      232.180356
 21
     -100.193670
 31
        0.000000
  0
LINE
  8
100
 10
      231.215256
 20
     -101.193061
 30
        0.000000
 11
      231.215256
 21
     -108.737872
 31
        0.000000
  0
LINE
  8
100
 10
      238.715256
 20
        0.034534
 30
        0.000000
 11
      238.715256
 21
     -134.755332
 31
        0.000000
  0
ARC
  8
0
 10
      225.465259
 20
     -165.344150
 30
        0.000000
 40
        2.015564
 50
      209.744896
 51
      330.255138
  0
ARC
  8
0
 10
      225.465259
 20
     -169.644137
 30
        0.000000
 40
        2.015564
 50
      209.744896
 51
      330.255138
  0
ARC
  8
0
 10
      225.465259
 20
     -171.644137
 30
        0.000000
 40
        2.015557
 50
       29.744503
 51
      150.255306
  0
LINE
  8
0
 10
      227.215259
 20
     -170.644137
 30
        0.000000
 11
      227.215259
 21
     -194.344188
 31
        0.000000
  0
ARC
  8
0
 10
      221.965259
 20
     -167.344150
 30
        0.000000
 40
        2.015564
 50
       29.744879
 51
      150.255114
  0
ARC
  8
0
 10
      221.965259
 20
     -165.344150
 30
        0.000000
 40
        2.015564
 50
      209.744896
 51
      330.255138
  0
ARC
  8
0
 10
      221.965259
 20
     -171.644137
 30
        0.000000
 40
        2.015564
 50
       29.744879
 51
      150.255114
  0
LINE
  8
0
 10
      220.215259
 20
     -170.644137
 30
        0.000000
 11
      220.215259
 21
     -194.344188
 31
        0.000000
  0
LINE
  8
160
 10
      220.215256
 20
     -166.344155
 30
        0.000000
 11
      220.215256
 21
     -149.200387
 31
        0.000000
  0
LINE
  8
160
 10
      227.215256
 20
     -166.344155
 30
        0.000000
 11
      227.215256
 21
     -149.200387
 31
        0.000000
  0
LINE
  8
160
 10
      229.200083
 20
     -143.000387
 30
        0.000000
 11
      229.200083
 21
     -134.000387
 31
        0.000000
  0
LINE
  8
160
 10
      229.200083
 20
     -130.000387
 30
        0.000000
 11
      229.200083
 21
     -125.000387
 31
        0.000000
  0
LINE
  8
160
 10
      212.745601
 20
     -143.000387
 30
        0.000000
 11
      234.684911
 21
     -143.000387
 31
        0.000000
  0
LINE
  8
160
 10
      212.745601
 20
     -134.000387
 30
        0.000000
 11
      234.684911
 21
     -134.000387
 31
        0.000000
  0
LINE
  8
160
 10
      217.215256
 20
     -149.200387
 30
        0.000000
 11
      230.215256
 21
     -149.200387
 31
        0.000000
  0
ARC
  8
160
 10
      230.215256
 20
     -146.200387
 30
        0.000000
 40
        3.000000
 50
      270.000000
 51
      360.000000
  0
LINE
  8
160
 10
      214.215256
 20
     -146.200387
 30
        0.000000
 11
      214.215256
 21
     -143.000387
 31
        0.000000
  0
LINE
  8
160
 10
      218.230428
 20
     -130.000387
 30
        0.000000
 11
      218.230428
 21
     -125.000387
 31
        0.000000
  0
LINE
  8
160
 10
      216.115256
 20
     -134.000387
 30
        0.000000
 11
      216.115256
 21
     -130.000387
 31
        0.000000
  0
ARC
  8
160
 10
      217.215256
 20
     -146.200387
 30
        0.000000
 40
        3.000000
 50
      180.000005
 51
      270.000000
  0
LINE
  8
160
 10
      212.745601
 20
     -143.000387
 30
        0.000000
 11
      212.745601
 21
     -134.000387
 31
        0.000000
  0
LINE
  8
160
 10
      218.230428
 20
     -143.000387
 30
        0.000000
 11
      218.230428
 21
     -134.000387
 31
        0.000000
  0
LINE
  8
160
 10
      212.745601
 20
     -130.000387
 30
        0.000000
 11
      212.745601
 21
     -125.000387
 31
        0.000000
  0
LINE
  8
160
 10
      212.715256
 20
     -125.000387
 30
        0.000000
 11
      212.715256
 21
     -124.000387
 31
        0.000000
  0
LINE
  8
160
 10
      223.715256
 20
     -125.000387
 30
        0.000000
 11
      212.745601
 21
     -125.000387
 31
        0.000000
  0
LINE
  8
100
 10
      212.215256
 20
     -122.935304
 30
        0.000000
 11
      212.215256
 21
     -124.000387
 31
        0.000000
  0
LINE
  8
160
 10
      233.215256
 20
     -146.200387
 30
        0.000000
 11
      233.215256
 21
     -143.000387
 31
        0.000000
  0
LINE
  8
160
 10
      234.684911
 20
     -143.000387
 30
        0.000000
 11
      234.684911
 21
     -134.000387
 31
        0.000000
  0
ARC
  8
100
 10
      211.715256
 20
      116.808649
 30
        0.000000
 40
        6.000000
 50
       91.999997
 51
      180.000005
  0
LINE
  8
100
 10
      205.715256
 20
        0.034534
 30
        0.000000
 11
      205.715256
 21
      116.808649
 31
        0.000000
  0
CIRCLE
  8
10
 62
  3
 10
     -130.000000
 20
     -130.000000
 30
        0.000000
 40
        2.250000
  0
LINE
  8
262
 10
      216.715198
 20
     -236.844188
 30
        0.000000
 11
      230.715259
 21
     -236.844188
 31
        0.000000
  0
LINE
  8
262
 10
      216.715198
 20
     -236.844188
 30
        0.000000
 11
      216.715259
 21
     -231.844188
 31
        0.000000
  0
LINE
  8
262
 10
      230.715259
 20
     -236.844188
 30
        0.000000
 11
      230.715259
 21
     -231.844188
 31
        0.000000
  0
LINE
  8
262
 10
      231.065235
 20
     -231.844188
 30
        0.000000
 11
      231.065235
 21
     -224.444163
 31
        0.000000
  0
LINE
  8
262
 10
      216.365283
 20
     -231.844188
 30
        0.000000
 11
      216.365283
 21
     -224.444163
 31
        0.000000
  0
LINE
  8
262
 10
      216.365283
 20
     -224.444163
 30
        0.000000
 11
      231.065235
 21
     -224.444163
 31
        0.000000
  0
LINE
  8
262
 10
      216.365283
 20
     -231.844188
 30
        0.000000
 11
      231.065235
 21
     -231.844188
 31
        0.000000
  0
LINE
  8
262
 10
      230.715259
 20
     -224.444163
 30
        0.000000
 11
      230.715259
 21
     -223.644237
 31
        0.000000
  0
LINE
  8
262
 10
      216.715259
 20
     -224.444163
 30
        0.000000
 11
      216.715259
 21
     -223.644237
 31
        0.000000
  0
LINE
  8
262
 10
      216.715259
 20
     -223.644237
 30
        0.000000
 11
      230.715259
 21
     -223.644237
 31
        0.000000
  0
LINE
  8
262
 10
      229.815235
 20
     -222.844188
 30
        0.000000
 11
      229.815235
 21
     -220.444163
 31
        0.000000
  0
LINE
  8
262
 10
      217.615283
 20
     -222.844188
 30
        0.000000
 11
      217.615283
 21
     -220.444163
 31
        0.000000
  0
LINE
  8
262
 10
      217.615283
 20
     -222.844188
 30
        0.000000
 11
      229.815235
 21
     -222.844188
 31
        0.000000
  0
LINE
  8
262
 10
      217.615283
 20
     -222.844188
 30
        0.000000
 11
      216.715259
 21
     -223.644237
 31
        0.000000
  0
LINE
  8
262
 10
      229.815235
 20
     -222.844188
 30
        0.000000
 11
      230.715259
 21
     -223.644237
 31
        0.000000
  0
LINE
  8
262
 10
      219.215259
 20
     -194.344188
 30
        0.000000
 11
      217.565235
 21
     -206.844188
 31
        0.000000
  0
LINE
  8
262
 10
      228.215259
 20
     -194.344188
 30
        0.000000
 11
      229.865283
 21
     -206.844188
 31
        0.000000
  0
LINE
  8
262
 10
      216.965259
 20
     -216.944163
 30
        0.000000
 11
      217.615283
 21
     -220.444163
 31
        0.000000
  0
LINE
  8
262
 10
      229.815235
 20
     -220.444163
 30
        0.000000
 11
      230.465259
 21
     -216.944163
 31
        0.000000
  0
LINE
  8
262
 10
      217.615283
 20
     -220.444163
 30
        0.000000
 11
      229.815235
 21
     -220.444163
 31
        0.000000
  0
LINE
  8
262
 10
      216.965259
 20
     -206.844188
 30
        0.000000
 11
      230.465259
 21
     -206.844188
 31
        0.000000
  0
LINE
  8
262
 10
      219.215259
 20
     -194.344188
 30
        0.000000
 11
      228.215259
 21
     -194.344188
 31
        0.000000
  0
LINE
  8
262
 10
      216.965259
 20
     -216.944163
 30
        0.000000
 11
      230.465259
 21
     -216.944163
 31
        0.000000
  0
LINE
  8
262
 10
      230.465259
 20
     -216.944163
 30
        0.000000
 11
      230.465259
 21
     -206.844188
 31
        0.000000
  0
LINE
  8
262
 10
      216.965259
 20
     -216.944163
 30
        0.000000
 11
      216.965259
 21
     -206.844188
 31
        0.000000
  0
LINE
  8
262
 10
       -7.000058
 20
     -236.844188
 30
        0.000000
 11
        7.000003
 21
     -236.844188
 31
        0.000000
  0
LINE
  8
262
 10
       -7.000058
 20
     -236.844188
 30
        0.000000
 11
       -6.999997
 21
     -231.844188
 31
        0.000000
  0
LINE
  8
262
 10
        7.000003
 20
     -236.844188
 30
        0.000000
 11
        7.000003
 21
     -231.844188
 31
        0.000000
  0
LINE
  8
262
 10
        7.349979
 20
     -231.844188
 30
        0.000000
 11
        7.349979
 21
     -224.444163
 31
        0.000000
  0
LINE
  8
262
 10
       -7.349972
 20
     -231.844188
 30
        0.000000
 11
       -7.349972
 21
     -224.444163
 31
        0.000000
  0
LINE
  8
262
 10
       -7.349972
 20
     -224.444163
 30
        0.000000
 11
        7.349979
 21
     -224.444163
 31
        0.000000
  0
LINE
  8
262
 10
       -7.349972
 20
     -231.844188
 30
        0.000000
 11
        7.349979
 21
     -231.844188
 31
        0.000000
  0
LINE
  8
262
 10
        7.000003
 20
     -224.444163
 30
        0.000000
 11
        7.000003
 21
     -223.644237
 31
        0.000000
  0
LINE
  8
262
 10
       -6.999997
 20
     -224.444163
 30
        0.000000
 11
       -6.999997
 21
     -223.644237
 31
        0.000000
  0
LINE
  8
262
 10
       -6.999997
 20
     -223.644237
 30
        0.000000
 11
        7.000003
 21
     -223.644237
 31
        0.000000
  0
LINE
  8
262
 10
        6.099979
 20
     -222.844188
 30
        0.000000
 11
        6.099979
 21
     -220.444163
 31
        0.000000
  0
LINE
  8
262
 10
       -6.099972
 20
     -222.844188
 30
        0.000000
 11
       -6.099972
 21
     -220.444163
 31
        0.000000
  0
LINE
  8
262
 10
       -6.099972
 20
     -222.844188
 30
        0.000000
 11
        6.099979
 21
     -222.844188
 31
        0.000000
  0
LINE
  8
262
 10
       -6.099972
 20
     -222.844188
 30
        0.000000
 11
       -6.999997
 21
     -223.644237
 31
        0.000000
  0
LINE
  8
262
 10
        6.099979
 20
     -222.844188
 30
        0.000000
 11
        7.000003
 21
     -223.644237
 31
        0.000000
  0
LINE
  8
262
 10
       -4.499997
 20
     -194.344188
 30
        0.000000
 11
       -6.150021
 21
     -206.844188
 31
        0.000000
  0
LINE
  8
262
 10
        4.500003
 20
     -194.344188
 30
        0.000000
 11
        6.150028
 21
     -206.844188
 31
        0.000000
  0
LINE
  8
262
 10
       -6.749997
 20
     -216.944163
 30
        0.000000
 11
       -6.099972
 21
     -220.444163
 31
        0.000000
  0
LINE
  8
262
 10
        6.099979
 20
     -220.444163
 30
        0.000000
 11
        6.750003
 21
     -216.944163
 31
        0.000000
  0
LINE
  8
262
 10
       -6.099972
 20
     -220.444163
 30
        0.000000
 11
        6.099979
 21
     -220.444163
 31
        0.000000
  0
LINE
  8
262
 10
       -6.749997
 20
     -206.844188
 30
        0.000000
 11
        6.750003
 21
     -206.844188
 31
        0.000000
  0
LINE
  8
262
 10
       -4.499997
 20
     -194.344188
 30
        0.000000
 11
        4.500003
 21
     -194.344188
 31
        0.000000
  0
LINE
  8
262
 10
       -6.749997
 20
     -216.944163
 30
        0.000000
 11
        6.750003
 21
     -216.944163
 31
        0.000000
  0
LINE
  8
262
 10
        6.750003
 20
     -216.944163
 30
        0.000000
 11
        6.750003
 21
     -206.844188
 31
        0.000000
  0
LINE
  8
262
 10
       -6.749997
 20
     -216.944163
 30
        0.000000
 11
       -6.749997
 21
     -206.844188
 31
        0.000000
  0
DIMENSION
  8
10
 62
  3
  2
BLK0001
 10
      205.715256
 20
      151.161545
 11
      221.715256
 21
      153.036545
 13
      205.715256
 23
      116.808647
 14
      247.715256
 24
      134.999619
 50
        0.0
 70
  0
  0
DIMENSION
  8
10
 62
  3
  2
BLK0002
 10
      136.000000
 20
      170.389328
 11
       -7.500000
 21
      172.264328
 13
      136.000000
 23
      131.000000
 14
     -136.000000
 24
      131.000000
 50
        0.0
 70
  0
  0
DIMENSION
  8
10
 62
  3
  2
BLK0003
 10
      174.715897
 20
      136.000000
 11
      172.840897
 21
       -7.500000
 13
      131.000000
 23
      136.000000
 14
      131.000000
 24
     -136.000000
 50
       90.0
 70
  0
  0
DIMENSION
  8
10
 62
  3
  2
BLK0004
 10
      174.715897
 20
     -236.844193
 11
      172.840897
 21
     -196.422089
 13
        7.000003
 23
     -236.844193
 14
      131.000000
 24
     -136.000000
 50
       90.0
 70
  0
  0
DIMENSION
  8
10
 62
  3
  2
BLK0005
 10
      162.374207
 20
     -130.000000
 11
      160.499207
 21
       -7.500000
 13
      130.000000
 23
     -130.000000
 14
      130.000000
 24
      130.000000
 50
       90.0
 70
  0
  0
DIMENSION
  8
10
 62
  3
  2
BLK0006
 10
      130.000000
 20
      158.147491
 11
       -7.500000
 21
      160.022491
 13
      130.000000
 23
      130.000000
 14
     -130.000000
 24
      130.000000
 50
        0.0
 70
  0
  0
INSERT
  8
10
  2
BLK0007
 10
        0.000000
 20
        0.000000
  0
ENDSEC
  0
EOF
