  0
SECTION
  2
HEADER
  9
$ACADVER
  1
AC1015
  9
$ACADMAINTVER
 70
    20
  9
$DWGCODEPAGE
  3
ANSI_932
  9
$INSBASE
 10
0.0
 20
0.0
 30
0.0
  9
$EXTMIN
 10
-76.83324575877794
 20
-172.510549125134
 30
-0.0015258207003583
  9
$EXTMAX
 10
194.2138531192596
 20
195.8265959394009
 30
0.0000000349246037
  9
$LIMMIN
 10
0.0
 20
0.0
  9
$LIMMAX
 10
12.0
 20
9.0
  9
$ORTHOMODE
 70
     0
  9
$REGENMODE
 70
     1
  9
$FILLMODE
 70
     1
  9
$QTEXTMODE
 70
     0
  9
$MIRRTEXT
 70
     0
  9
$LTSCALE
 40
1.0
  9
$ATTMODE
 70
     1
  9
$TEXTSIZE
 40
0.2
  9
$TRACEWID
 40
0.05
  9
$TEXTSTYLE
  7
Standard
  9
$CLAYER
  8
0
  9
$CELTYPE
  6
ByLayer
  9
$CECOLOR
 62
   256
  9
$CELTSCALE
 40
1.0
  9
$DISPSILH
 70
     0
  9
$DIMSCALE
 40
1.0
  9
$DIMASZ
 40
7.0
  9
$DIMEXO
 40
1.0
  9
$DIMDLI
 40
0.38
  9
$DIMRND
 40
0.0
  9
$DIMDLE
 40
0.0
  9
$DIMEXE
 40
0.5
  9
$DIMTP
 40
0.0
  9
$DIMTM
 40
0.0
  9
$DIMTXT
 40
5.0
  9
$DIMCEN
 40
0.0
  9
$DIMTSZ
 40
0.0
  9
$DIMTOL
 70
     0
  9
$DIMLIM
 70
     0
  9
$DIMTIH
 70
     0
  9
$DIMTOH
 70
     0
  9
$DIMSE1
 70
     0
  9
$DIMSE2
 70
     0
  9
$DIMTAD
 70
     1
  9
$DIMZIN
 70
     8
  9
$DIMBLK
  1

  9
$DIMASO
 70
     1
  9
$DIMSHO
 70
     1
  9
$DIMPOST
  1

  9
$DIMAPOST
  1

  9
$DIMALT
 70
     0
  9
$DIMALTD
 70
     2
  9
$DIMALTF
 40
25.4
  9
$DIMLFAC
 40
1.0
  9
$DIMTOFL
 70
     1
  9
$DIMTVP
 40
0.0
  9
$DIMTIX
 70
     0
  9
$DIMSOXD
 70
     0
  9
$DIMSAH
 70
     1
  9
$DIMBLK1
  1
Open
  9
$DIMBLK2
  1
Open
  9
$DIMSTYLE
  2
Standard
  9
$DIMCLRD
 70
     3
  9
$DIMCLRE
 70
     3
  9
$DIMCLRT
 70
     3
  9
$DIMTFAC
 40
1.0
  9
$DIMGAP
 40
0.6999999999999888
  9
$DIMJUST
 70
     0
  9
$DIMSD1
 70
     0
  9
$DIMSD2
 70
     0
  9
$DIMTOLJ
 70
     1
  9
$DIMTZIN
 70
     0
  9
$DIMALTZ
 70
     0
  9
$DIMALTTZ
 70
     0
  9
$DIMUPT
 70
     1
  9
$DIMDEC
 70
     4
  9
$DIMTDEC
 70
     4
  9
$DIMALTU
 70
     2
  9
$DIMALTTD
 70
     2
  9
$DIMTXSTY
  7
GD2_STANDARD_DIM
  9
$DIMAUNIT
 70
     0
  9
$DIMADEC
 70
     0
  9
$DIMALTRND
 40
0.0
  9
$DIMAZIN
 70
     0
  9
$DIMDSEP
 70
    46
  9
$DIMATFIT
 70
     3
  9
$DIMFRAC
 70
     0
  9
$DIMLDRBLK
  1

  9
$DIMLUNIT
 70
     2
  9
$DIMLWD
 70
     5
  9
$DIMLWE
 70
     5
  9
$DIMTMOVE
 70
     0
  9
$LUNITS
 70
     2
  9
$LUPREC
 70
     2
  9
$SKETCHINC
 40
0.1
  9
$FILLETRAD
 40
0.0
  9
$AUNITS
 70
     0
  9
$AUPREC
 70
     0
  9
$MENU
  1
.
  9
$ELEVATION
 40
0.0
  9
$PELEVATION
 40
0.0
  9
$THICKNESS
 40
0.0
  9
$LIMCHECK
 70
     0
  9
$CHAMFERA
 40
0.0
  9
$CHAMFERB
 40
0.0
  9
$CHAMFERC
 40
0.0
  9
$CHAMFERD
 40
0.0
  9
$SKPOLY
 70
     0
  9
$TDCREATE
 40
2456863.485530266
  9
$TDUCREATE
 40
2456863.110530266
  9
$TDUPDATE
 40
2456863.485530266
  9
$TDUUPDATE
 40
2456863.110530266
  9
$TDINDWG
 40
0.0094157407
  9
$TDUSRTIMER
 40
0.0094155556
  9
$USRTIMER
 70
     1
  9
$ANGBASE
 50
0.0
  9
$ANGDIR
 70
     0
  9
$PDMODE
 70
     0
  9
$PDSIZE
 40
0.0
  9
$PLINEWID
 40
0.0
  9
$SPLFRAME
 70
     0
  9
$SPLINETYPE
 70
     6
  9
$SPLINESEGS
 70
     8
  9
$HANDSEED
  5
47E
  9
$SURFTAB1
 70
     6
  9
$SURFTAB2
 70
     6
  9
$SURFTYPE
 70
     6
  9
$SURFU
 70
     6
  9
$SURFV
 70
     6
  9
$UCSBASE
  2

  9
$UCSNAME
  2

  9
$UCSORG
 10
0.0
 20
0.0
 30
0.0
  9
$UCSXDIR
 10
1.0
 20
0.0
 30
0.0
  9
$UCSYDIR
 10
0.0
 20
1.0
 30
0.0
  9
$UCSORTHOREF
  2

  9
$UCSORTHOVIEW
 70
     0
  9
$UCSORGTOP
 10
0.0
 20
0.0
 30
0.0
  9
$UCSORGBOTTOM
 10
0.0
 20
0.0
 30
0.0
  9
$UCSORGLEFT
 10
0.0
 20
0.0
 30
0.0
  9
$UCSORGRIGHT
 10
0.0
 20
0.0
 30
0.0
  9
$UCSORGFRONT
 10
0.0
 20
0.0
 30
0.0
  9
$UCSORGBACK
 10
0.0
 20
0.0
 30
0.0
  9
$PUCSBASE
  2

  9
$PUCSNAME
  2

  9
$PUCSORG
 10
0.0
 20
0.0
 30
0.0
  9
$PUCSXDIR
 10
1.0
 20
0.0
 30
0.0
  9
$PUCSYDIR
 10
0.0
 20
1.0
 30
0.0
  9
$PUCSORTHOREF
  2

  9
$PUCSORTHOVIEW
 70
     0
  9
$PUCSORGTOP
 10
0.0
 20
0.0
 30
0.0
  9
$PUCSORGBOTTOM
 10
0.0
 20
0.0
 30
0.0
  9
$PUCSORGLEFT
 10
0.0
 20
0.0
 30
0.0
  9
$PUCSORGRIGHT
 10
0.0
 20
0.0
 30
0.0
  9
$PUCSORGFRONT
 10
0.0
 20
0.0
 30
0.0
  9
$PUCSORGBACK
 10
0.0
 20
0.0
 30
0.0
  9
$USERI1
 70
     0
  9
$USERI2
 70
     0
  9
$USERI3
 70
     0
  9
$USERI4
 70
     0
  9
$USERI5
 70
     0
  9
$USERR1
 40
0.0
  9
$USERR2
 40
0.0
  9
$USERR3
 40
0.0
  9
$USERR4
 40
0.0
  9
$USERR5
 40
0.0
  9
$WORLDVIEW
 70
     1
  9
$SHADEDGE
 70
     3
  9
$SHADEDIF
 70
    70
  9
$TILEMODE
 70
     1
  9
$MAXACTVP
 70
    64
  9
$PINSBASE
 10
0.0
 20
0.0
 30
0.0
  9
$PLIMCHECK
 70
     0
  9
$PEXTMIN
 10
1.000000000000000E+20
 20
1.000000000000000E+20
 30
1.000000000000000E+20
  9
$PEXTMAX
 10
-1.000000000000000E+20
 20
-1.000000000000000E+20
 30
-1.000000000000000E+20
  9
$PLIMMIN
 10
0.0
 20
0.0
  9
$PLIMMAX
 10
12.0
 20
9.0
  9
$UNITMODE
 70
     0
  9
$VISRETAIN
 70
     1
  9
$PLINEGEN
 70
     0
  9
$PSLTSCALE
 70
     1
  9
$TREEDEPTH
 70
  3020
  9
$CMLSTYLE
  2
Standard
  9
$CMLJUST
 70
     0
  9
$CMLSCALE
 40
1.0
  9
$PROXYGRAPHICS
 70
     1
  9
$MEASUREMENT
 70
     1
  9
$CELWEIGHT
370
    -1
  9
$ENDCAPS
280
     0
  9
$JOINSTYLE
280
     0
  9
$LWDISPLAY
290
     0
  9
$INSUNITS
 70
     0
  9
$HYPERLINKBASE
  1

  9
$STYLESHEET
  1

  9
$XEDIT
290
     1
  9
$CEPSNTYPE
380
     0
  9
$PSTYLEMODE
290
     1
  9
$FINGERPRINTGUID
  2
{291EE949-FC8B-48BD-9249-C1A105842E5A}
  9
$VERSIONGUID
  2
{3BB7F511-3A63-400B-A519-BDB965003584}
  9
$EXTNAMES
290
     1
  9
$PSVPSCALE
 40
0.0
  9
$OLESTARTUP
290
     0
  0
ENDSEC
  0
SECTION
  2
CLASSES
  0
CLASS
  1
ACDBDICTIONARYWDFLT
  2
AcDbDictionaryWithDefault
  3
ObjectDBX Classes
 90
        0
280
     0
281
     0
  0
CLASS
  1
MATERIAL
  2
AcDbMaterial
  3
ObjectDBX Classes
 90
     1153
280
     0
281
     0
  0
CLASS
  1
VISUALSTYLE
  2
AcDbVisualStyle
  3
ObjectDBX Classes
 90
     4095
280
     0
281
     0
  0
CLASS
  1
SCALE
  2
AcDbScale
  3
ObjectDBX Classes
 90
     1153
280
     0
281
     0
  0
CLASS
  1
TABLESTYLE
  2
AcDbTableStyle
  3
ObjectDBX Classes
 90
     4095
280
     0
281
     0
  0
CLASS
  1
MLEADERSTYLE
  2
AcDbMLeaderStyle
  3
ACDB_MLEADERSTYLE_CLASS
 90
    36863
280
     0
281
     0
  0
CLASS
  1
DICTIONARYVAR
  2
AcDbDictionaryVar
  3
ObjectDBX Classes
 90
        0
280
     0
281
     0
  0
CLASS
  1
CELLSTYLEMAP
  2
AcDbCellStyleMap
  3
ObjectDBX Classes
 90
     1152
280
     0
281
     0
  0
CLASS
  1
AMGSETTINGSOBJ
  2
AmgSettingsObj
  3
"AcadM|Product Description: AutoCAD Mechanical|Company: Autodesk, Inc."
 90
     1024
280
     0
281
     0
  0
CLASS
  1
ACME_DOCUMENT
  2
AcMeDbDoc
  3
AcMeServices
 90
    33792
280
     0
281
     0
  0
CLASS
  1
ACMESCOPE
  2
AcMeScope
  3
AcMeServices
 90
     1024
280
     0
281
     0
  0
CLASS
  1
ACMECOMMANDHISTORY
  2
AcMeCommandHistory
  3
AcMeServices
 90
    33792
280
     0
281
     0
  0
CLASS
  1
ACIMSYSVARMAN
  2
AcImSysVarManager
  3
AcMeServices
 90
     1024
280
     0
281
     0
  0
CLASS
  1
ACIMINTSYSVAR
  2
AcImIntSysVar
  3
AcMeServices
 90
    33792
280
     0
281
     0
  0
CLASS
  1
ACMESTATEMGR
  2
AcMeStateMgr
  3
AcMeServices
 90
     1024
280
     0
281
     0
  0
CLASS
  1
ACDBENTITYCACHE
  2
AcMeEntityCache
  3
AcMeServices
 90
    33792
280
     0
281
     0
  0
CLASS
  1
ACGREFMASTER
  2
AcGrefMaster
  3
AcAttribServices
 90
     1024
280
     0
281
     0
  0
CLASS
  1
ACME_DATABASE
  2
AcMeDbDatabase
  3
AcMeServices
 90
    33792
280
     0
281
     0
  0
CLASS
  1
ACRFINSADJUSTERMGR
  2
AcRfInsAdjusterMgr
  3
AcMeServices
 90
    33792
280
     0
281
     0
  0
CLASS
  1
ACGREFACADMASTER
  2
AcGrefacadMaster
  3
AcGrefServices
 90
    33792
280
     0
281
     0
  0
CLASS
  1
AMDTMENUSTATEMGR
  2
AmdtMenuStateMgr
  3
McadcomServices
 90
    33792
280
     0
281
     0
  0
CLASS
  1
AMDTMCOMMENUSTATE
  2
AmdtMcomMenuState
  3
McadcomServices
 90
    33792
280
     0
281
     0
  0
CLASS
  1
AMIMASTER
  2
AmiMaster
  3
AmiServices
 90
    33792
280
     0
281
     0
  0
CLASS
  1
MAPIAMMOUDLE
  2
MApiAmModule
  3
MApiAmServices
 90
    33792
280
     0
281
     0
  0
CLASS
  1
ACIMSTRSYSVAR
  2
AcImStrSysVar
  3
AcMeServices
 90
     1024
280
     0
281
     0
  0
CLASS
  1
AMDTAMMENUSTATE
  2
AmdtAmMenuState
  3
DesignerAssemblies
 90
    33792
280
     0
281
     0
  0
CLASS
  1
ACAMPROJECT
  2
AcAmProject
  3
DesignerAssemblies
 90
    33792
280
     0
281
     0
  0
CLASS
  1
ACAMGRCOMPDEF
  2
AcAmGrCompDef
  3
DesignerAssemblies
 90
    33792
280
     0
281
     0
  0
CLASS
  1
ACAMCOMPDEF
  2
AcAmCompDef
  3
DesignerAssemblies
 90
    33792
280
     0
281
     0
  0
CLASS
  1
ACAMCOMPDEFMGR
  2
AcAmCompDefMgr
  3
DesignerAssemblies
 90
    33792
280
     0
281
     0
  0
CLASS
  1
AMCONTEXTMGR
  2
AcAmContextMgr
  3
DesignerAssemblies
 90
    33792
280
     0
281
     0
  0
CLASS
  1
ACAMCONTEXTMODELER
  2
AcAmContextModeler
  3
DesignerAssemblies
 90
    33792
280
     0
281
     0
  0
CLASS
  1
ACMDATADICTIONARY
  2
AcmDataDictionary
  3
"AcmSymBB|Product Description: AutoCAD Mechanical|Company: Autodesk, Inc."
 90
    33792
280
     0
281
     0
  0
CLASS
  1
ACAMGRCOMPDEFSET
  2
AcAmGrCompDefSet
  3
DesignerAssemblies
 90
    33792
280
     0
281
     0
  0
CLASS
  1
AMDTBROWSERDBTAB
  2
AmdtBrowserDbTab
  3
McadcomServices
 90
    33792
280
     0
281
     0
  0
CLASS
  1
CBROWSERAPPOBJECT
  2
CBrowserAppObject
  3
McadcomServices
 90
    33792
280
     0
281
     0
  0
CLASS
  1
DM_PLACEHOLDER
  2
AcDmSelsetPlaceholder
  3
McadcomServices
 90
    33792
280
     0
281
     0
  0
CLASS
  1
ACMSTANDARDISO
  2
AcmStandardISO
  3
"Amdt_StdImp|Product Description: AutoCAD Mechanical|Company: Autodesk, Inc."
 90
     1024
280
     0
281
     0
  0
CLASS
  1
AMDTEDGESTANDARDISO13715
  2
AmdtEdgeStdISO13715
  3
"Amdt_StdImp|Product Description: AutoCAD Mechanical|Company: Autodesk, Inc."
 90
     1024
280
     0
281
     0
  0
CLASS
  1
ACMSURFSTANDARDISO2002
  2
AcmSurfTextStdISO2002
  3
"Amdt_StdImp|Product Description: AutoCAD Mechanical|Company: Autodesk, Inc."
 90
     1024
280
     0
281
     0
  0
CLASS
  1
ACMFCFSTANDARDISO2004
  2
AcmFCFStdISO2004
  3
"Amdt_StdImp|Product Description: AutoCAD Mechanical|Company: Autodesk, Inc."
 90
     1024
280
     0
281
     0
  0
CLASS
  1
ACMWELDSTANDARDISO
  2
AcmWeldingStdISO
  3
"Amdt_StdImp|Product Description: AutoCAD Mechanical|Company: Autodesk, Inc."
 90
     1024
280
     0
281
     0
  0
CLASS
  1
ACMIDSTANDARDISO2004
  2
AcmIdStdISO2004
  3
"Amdt_StdImp|Product Description: AutoCAD Mechanical|Company: Autodesk, Inc."
 90
     1024
280
     0
281
     0
  0
CLASS
  1
ACMDATUMSTANDARDISO
  2
AcmDatumStdISO
  3
"Amdt_StdImp|Product Description: AutoCAD Mechanical|Company: Autodesk, Inc."
 90
     1024
280
     0
281
     0
  0
CLASS
  1
ACMBOMSTANDARDISO
  2
AcmBOMStdISO
  3
"Amdt_StdImp|Product Description: AutoCAD Mechanical|Company: Autodesk, Inc."
 90
     1024
280
     0
281
     0
  0
CLASS
  1
ACMDETAILSTANDARDISO
  2
AmdtDetailSymStdISO
  3
"Amdt_StdImp|Product Description: AutoCAD Mechanical|Company: Autodesk, Inc."
 90
     1024
280
     0
281
     0
  0
CLASS
  1
ACMSECTIONSTANDARDISO2001
  2
AmdtSectionSymStdISO2001
  3
"Amdt_StdImp|Product Description: AutoCAD Mechanical|Company: Autodesk, Inc."
 90
     1024
280
     0
281
     0
  0
CLASS
  1
ACMCENTERLINESTANDARDISO
  2
AmdtCenterLineStdISO
  3
"Amdt_StdImp|Product Description: AutoCAD Mechanical|Company: Autodesk, Inc."
 90
     1024
280
     0
281
     0
  0
CLASS
  1
ACMTHREADLINESTANDARDISO
  2
AmdtThreadLineStdISO
  3
"Amdt_StdImp|Product Description: AutoCAD Mechanical|Company: Autodesk, Inc."
 90
     1024
280
     0
281
     0
  0
CLASS
  1
ACMNOTESTANDARDISO
  2
AmdtNoteStdISO
  3
"Amdt_StdImp|Product Description: AutoCAD Mechanical|Company: Autodesk, Inc."
 90
     1024
280
     0
281
     0
  0
CLASS
  1
ACMTAPERSTANDARDISO
  2
AcmTaperStdISO
  3
"Amdt_StdImp|Product Description: AutoCAD Mechanical|Company: Autodesk, Inc."
 90
     1024
280
     0
281
     0
  0
CLASS
  1
ACMANOOTATIONVIEWSTANDARDISO
  2
AmdtAnViewStdISO
  3
"Amdt_StdImp|Product Description: AutoCAD Mechanical|Company: Autodesk, Inc."
 90
     1024
280
     0
281
     0
  0
CLASS
  1
ACAMGLAYSTD
  2
AcAmgLayStd
  3
"AmgLay|Product Description: AutoCAD Mechanical|Company: Autodesk, Inc."
 90
     1024
280
     0
281
     0
  0
CLASS
  1
ACAMGDIMSTD
  2
AcAmgDimStd
  3
"AmgDim|Product Description: AutoCAD Mechanical|Company: Autodesk, Inc."
 90
     1024
280
     0
281
     0
  0
CLASS
  1
AMGOBJPROPCFG
  2
AmgObjPropCfg
  3
"AmgLay|Product Description: AutoCAD Mechanical|Company: Autodesk, Inc."
 90
     1025
280
     0
281
     0
  0
CLASS
  1
ACAMGHOLECHARTSTDISO
  2
AcAmgHoleChartStdISO
  3
AmgDim|Product Description: AutoCAD Mechanical|Company: Autodesk, Inc.
 90
     1024
280
     0
281
     0
  0
CLASS
  1
ACAMGTITLESTD
  2
AcAmgTitleStd
  3
"AmgTitle|Product Description: AutoCAD Mechanical|Company: Autodesk, Inc."
 90
     4095
280
     0
281
     0
  0
CLASS
  1
AMDTNOTETEMPLATEDB
  2
AmdtNoteTemplateDB
  3
AcmSymBB|Product Description: AutoCAD Mechanical|Company: Autodesk, Inc.
 90
     1024
280
     0
281
     0
  0
CLASS
  1
ACAMGFILTERDAT
  2
AcAmgFilterDat
  3
"AcadM|Product Description: AutoCAD Mechanical|Company: Autodesk, Inc."
 90
    33792
280
     0
281
     0
  0
CLASS
  1
DIMASSOC
  2
AcDbDimAssoc
  3
"AcDbDimAssoc|Product Desc:     AcDim ARX App For Dimension|Company:          Autodesk, Inc.|WEB Address:      www.autodesk.com"
 90
        0
280
     0
281
     0
  0
CLASS
  1
CAMSSTRUCTBTNSTATE
  2
StructBtnState
  3
DesignerAssemblies
 90
    33792
280
     0
281
     0
  0
CLASS
  1
ACDBPLACEHOLDER
  2
AcDbPlaceHolder
  3
ObjectDBX Classes
 90
        0
280
     0
281
     0
  0
CLASS
  1
LAYOUT
  2
AcDbLayout
  3
ObjectDBX Classes
 90
        0
280
     0
281
     0
  0
ENDSEC
  0
SECTION
  2
TABLES
  0
TABLE
  2
VPORT
  5
23
330
0
100
AcDbSymbolTable
 70
     1
  0
VPORT
  5
24
330
23
100
AcDbSymbolTableRecord
100
AcDbViewportTableRecord
  2
*Active
 70
     0
 10
0.0
 20
0.0
 11
1.0
 21
1.0
 12
446.7625621563146
 22
-73.85620739078513
 13
0.0
 23
0.0
 14
1.0
 24
1.0
 15
0.0
 25
0.0
 16
0.0
 26
0.0
 36
1.0
 17
0.0
 27
0.0
 37
0.0
 40
756.5723908225216
 41
1.994413407821229
 42
50.0
 43
0.0
 44
0.0
 50
0.0
 51
0.0
 71
     0
 72
   100
 73
     1
 74
     1
 75
     0
 76
     0
 77
     0
 78
     0
281
     0
 65
     0
110
0.0
120
0.0
130
0.0
111
1.0
121
0.0
131
0.0
112
0.0
122
1.0
132
0.0
 79
     0
146
0.0
1001
ACAD_NAV_VCDISPLAY
1070
     3
  0
ENDTAB
  0
TABLE
  2
LTYPE
  5
1E
330
0
100
AcDbSymbolTable
 70
    11
  0
LTYPE
  5
1F
330
1E
100
AcDbSymbolTableRecord
100
AcDbLinetypeTableRecord
  2
ByBlock
 70
     0
  3

 72
    65
 73
     0
 40
0.0
  0
LTYPE
  5
20
330
1E
100
AcDbSymbolTableRecord
100
AcDbLinetypeTableRecord
  2
ByLayer
 70
     0
  3

 72
    65
 73
     0
 40
0.0
  0
LTYPE
  5
11
330
1E
100
AcDbSymbolTableRecord
100
AcDbLinetypeTableRecord
  2
Continuous
 70
     0
  3
Solid line
 72
    65
 73
     0
 40
0.0
  0
LTYPE
  5
417
330
1E
100
AcDbSymbolTableRecord
100
AcDbLinetypeTableRecord
  2
AM_ISO02W050
 70
     0
  3
__ __ __ __ __ __ __ __ __ __ __ __ __ __ __
 72
    65
 73
     2
 40
7.5
 49
6.0
 74
     0
 49
-1.5
 74
     0
  0
LTYPE
  5
418
330
1E
100
AcDbSymbolTableRecord
100
AcDbLinetypeTableRecord
  2
AM_ISO08W050
 70
     0
  3
____ . ____ . ____ . ____ . ____ . ____ . ____
 72
    65
 73
     4
 40
18.0
 49
12.0
 74
     0
 49
-1.5
 74
     0
 49
3.0
 74
     0
 49
-1.5
 74
     0
  0
LTYPE
  5
419
330
1E
100
AcDbSymbolTableRecord
100
AcDbLinetypeTableRecord
  2
AM_ISO09W050
 70
     0
  3
_____ . . _____ . . _____ . . ____ .. ____
 72
    65
 73
     6
 40
22.5
 49
12.0
 74
     0
 49
-1.5
 74
     0
 49
3.0
 74
     0
 49
-1.5
 74
     0
 49
3.0
 74
     0
 49
-1.5
 74
     0
  0
LTYPE
  5
41A
330
1E
100
AcDbSymbolTableRecord
100
AcDbLinetypeTableRecord
  2
Amconstr
 70
     0
  3
_______________________
 72
    65
 73
     2
 40
9999.0
 49
9999.0
 74
     0
 49
0.0
 74
     0
  0
LTYPE
  5
41B
330
1E
100
AcDbSymbolTableRecord
100
AcDbLinetypeTableRecord
  2
AM_ISO08W050x2
 70
     0
  3
__ . __ . __ . __ . __ . __
 72
    65
 73
     4
 40
9.0
 49
6.0
 74
     0
 49
-0.75
 74
     0
 49
1.5
 74
     0
 49
-0.75
 74
     0
  0
LTYPE
  5
41C
330
1E
100
AcDbSymbolTableRecord
100
AcDbLinetypeTableRecord
  2
AM_ISO02W050x2
 70
     0
  3
 _ _ _ _ _ _ _ _ _ _ _ _
 72
    65
 73
     2
 40
3.75
 49
3.0
 74
     0
 49
-0.75
 74
     0
  0
LTYPE
  5
41D
330
1E
100
AcDbSymbolTableRecord
100
AcDbLinetypeTableRecord
  2
Amzigzag
 70
     0
  3
/\/-/\/-/\/-/\/-/\/-/\/
 72
    65
 73
     2
 40
11.0001
 49
0.0001
 74
     4
 75
   136
340
41E
 46
0.04
 50
0.0
 44
0.0
 45
0.0
 49
-11.0
 74
     0
  0
LTYPE
  5
42D
330
1E
100
AcDbSymbolTableRecord
100
AcDbLinetypeTableRecord
  2
ACISOWELD
 70
     0
  3
_ _ _ _ _
 72
    65
 73
     2
 40
2.0
 49
2.0
 74
     0
 49
-1.0
 74
     0
  0
LTYPE
  5
42F
330
1E
100
AcDbSymbolTableRecord
100
AcDbLinetypeTableRecord
  2
ACISOTGL
 70
     0
  3
_ _ _ _ _
 72
    65
 73
     2
 40
3.0
 49
2.0
 74
     0
 49
-1.0
 74
     0
  0
LTYPE
  5
431
330
1E
100
AcDbSymbolTableRecord
100
AcDbLinetypeTableRecord
  2
ACISOTGB
 70
     0
  3
__ . . __ . .
 72
    65
 73
     6
 40
9.0
 49
4.0
 74
     0
 49
-1.0
 74
     0
 49
1.0
 74
     0
 49
-1.0
 74
     0
 49
1.0
 74
     0
 49
-1.0
 74
     0
  0
ENDTAB
  0
TABLE
  2
LAYER
  5
1A
330
0
100
AcDbSymbolTable
 70
     4
  0
LAYER
  5
4
330
1A
100
AcDbSymbolTableRecord
100
AcDbLayerTableRecord
  2
0
 70
     0
 62
     7
  6
Continuous
370
    -3
390
5
  0
LAYER
  5
75
330
1A
100
AcDbSymbolTableRecord
100
AcDbLayerTableRecord
  2
Defpoints
 70
     0
 62
     7
  6
Continuous
290
     0
370
    -3
390
5
  0
LAYER
  5
8E
330
1A
100
AcDbSymbolTableRecord
100
AcDbLayerTableRecord
  2
0000
 70
     0
 62
     7
  6
Continuous
370
    -3
390
5
  0
LAYER
  5
68
330
1A
100
AcDbSymbolTableRecord
100
AcDbLayerTableRecord
  2
AM_5
 70
     0
 62
     3
  6
Continuous
370
    25
390
5
1001
AcAecLayerStandard
1000

1000

  0
ENDTAB
  0
TABLE
  2
STYLE
  5
1B
330
0
100
AcDbSymbolTable
 70
     5
  0
STYLE
  5
1C
330
1B
100
AcDbSymbolTableRecord
100
AcDbTextStyleTableRecord
  2
Standard
 70
     0
 40
0.0
 41
1.0
 50
0.0
 71
     0
 42
0.2
  3
txt
  4

  0
STYLE
  5
2D
330
1B
100
AcDbSymbolTableRecord
100
AcDbTextStyleTableRecord
  2
GD2_STANDARD_DIM
 70
     0
 40
0.0
 41
0.8349999999999997
 50
0.0
 71
     0
 42
0.2
  3
monotxt.shx
  4
ExtFont.shx
  0
STYLE
  5
2B7
330
1B
100
AcDbSymbolTableRecord
100
AcDbTextStyleTableRecord
  2
GD2_STANDARD
 70
     0
 40
0.0
 41
0.8349999999999997
 50
0.0
 71
     0
 42
0.2
  3
monotxt.shx
  4
ExtFont.shx
  0
STYLE
  5
41E
330
1B
100
AcDbSymbolTableRecord
100
AcDbTextStyleTableRecord
  2

 70
     1
 40
0.0
 41
1.0
 50
0.0
 71
     0
 42
0.2
  3
genltshp.shx
  4

  0
STYLE
  5
42B
330
1B
100
AcDbSymbolTableRecord
100
AcDbTextStyleTableRecord
  2
ACISOGDT
 70
     0
 40
0.0
 41
1.0
 50
0.0
 71
     0
 42
0.2
  3
amgdt.shx
  4

  0
ENDTAB
  0
TABLE
  2
VIEW
  5
21
330
0
100
AcDbSymbolTable
 70
     0
  0
ENDTAB
  0
TABLE
  2
UCS
  5
22
330
0
100
AcDbSymbolTable
 70
     0
  0
ENDTAB
  0
TABLE
  2
APPID
  5
28
330
0
100
AcDbSymbolTable
 70
    13
  0
APPID
  5
29
330
28
100
AcDbSymbolTableRecord
100
AcDbRegAppTableRecord
  2
ACAD
 70
     0
  0
APPID
  5
7B
330
28
100
AcDbSymbolTableRecord
100
AcDbRegAppTableRecord
  2
ACAD_DSTYLE_DIMJAG
 70
     0
  0
APPID
  5
7A
330
28
100
AcDbSymbolTableRecord
100
AcDbRegAppTableRecord
  2
ACAD_DSTYLE_DIMBREAK
 70
     0
  0
APPID
  5
69
330
28
100
AcDbSymbolTableRecord
100
AcDbRegAppTableRecord
  2
AcAecLayerStandard
 70
     0
  0
APPID
  5
7C
330
28
100
AcDbSymbolTableRecord
100
AcDbRegAppTableRecord
  2
ACAD_DSTYLE_DIMINSPECT
 70
     0
  0
APPID
  5
8C
330
28
100
AcDbSymbolTableRecord
100
AcDbRegAppTableRecord
  2
ACAD_DSTYLE_DIMRADIAL_EXTENSION
 70
     0
  0
APPID
  5
27
330
28
100
AcDbSymbolTableRecord
100
AcDbRegAppTableRecord
  2
ACAD_NAV_VCDISPLAY
 70
     0
  0
APPID
  5
15
330
28
100
AcDbSymbolTableRecord
100
AcDbRegAppTableRecord
  2
ACAD_PSEXT
 70
     0
  0
APPID
  5
44F
330
28
100
AcDbSymbolTableRecord
100
AcDbRegAppTableRecord
  2
ACATTRIBSERVICES
 70
     0
  0
APPID
  5
46F
330
28
100
AcDbSymbolTableRecord
100
AcDbRegAppTableRecord
  2
ACAD_DSTYLE_DIMARC_LENGTH_SYMBOL
 70
     0
  0
APPID
  5
479
330
28
100
AcDbSymbolTableRecord
100
AcDbRegAppTableRecord
  2
ACAD_DSTYLE_DIM_LINETYPE
 70
     0
  0
APPID
  5
47A
330
28
100
AcDbSymbolTableRecord
100
AcDbRegAppTableRecord
  2
ACAD_DSTYLE_DIM_EXT1_LINETYPE
 70
     0
  0
APPID
  5
47B
330
28
100
AcDbSymbolTableRecord
100
AcDbRegAppTableRecord
  2
ACAD_DSTYLE_DIM_EXT2_LINETYPE
 70
     0
  0
ENDTAB
  0
TABLE
  2
DIMSTYLE
  5
2A
330
0
100
AcDbSymbolTable
 70
    16
100
AcDbDimStyleTable
 71
     5
340
2B
340
2C
340
34
340
35
340
36
  0
DIMSTYLE
105
2B
330
2A
100
AcDbSymbolTableRecord
100
AcDbDimStyleTableRecord
  2
Standard
 70
     0
340
1C
  0
DIMSTYLE
105
413
102
{ACAD_REACTORS
330
406
102
}
330
2A
100
AcDbSymbolTableRecord
100
AcDbDimStyleTableRecord
  2
GD2_Style1
 70
     0
 41
6.000000238418579
 42
1.0
 44
0.5
 73
     0
 74
     0
 77
     1
 78
     8
140
5.0
141
0.0
147
1.500000059604644
172
     1
173
     1
176
     3
177
     3
178
     3
288
     1
340
2D
343
2E
344
2E
371
     5
372
     5
1001
ACAD_DSTYLE_DIMARC_LENGTH_SYMBOL
1070
   379
1070
     2
  0
DIMSTYLE
105
405
102
{ACAD_REACTORS
330
3F8
102
}
330
2A
100
AcDbSymbolTableRecord
100
AcDbDimStyleTableRecord
  2
GD2_Style2
 70
     0
 41
6.000000238418579
 42
1.0
 44
0.5
 73
     0
 74
     0
 77
     1
 78
     8
140
5.0
141
0.0
147
1.500000059604644
172
     1
173
     1
176
     3
177
     3
178
     3
288
     1
340
2D
343
2E
344
2E
371
     5
372
     5
1001
ACAD_DSTYLE_DIMARC_LENGTH_SYMBOL
1070
   379
1070
     2
  0
DIMSTYLE
105
36
102
{ACAD_REACTORS
330
3EB
102
}
330
2A
100
AcDbSymbolTableRecord
100
AcDbDimStyleTableRecord
  2
GD2_Style3
 70
     0
 41
6.000000238418579
 42
1.0
 44
0.5
 73
     0
 74
     0
 77
     1
 78
     8
140
5.0
141
0.0
147
1.500000059604644
172
     1
173
     1
176
     3
177
     3
178
     3
288
     1
340
2D
343
2E
344
2E
371
     5
372
     5
1001
ACAD_DSTYLE_DIMARC_LENGTH_SYMBOL
1070
   379
1070
     2
  0
DIMSTYLE
105
35
102
{ACAD_REACTORS
330
3DE
102
}
330
2A
100
AcDbSymbolTableRecord
100
AcDbDimStyleTableRecord
  2
GD2_Style4
 70
     0
 41
6.000000238418579
 42
1.0
 44
0.5
 73
     0
 74
     0
 77
     1
 78
     8
140
5.0
141
0.0
147
1.500000059604644
172
     1
173
     1
176
     3
177
     3
178
     3
288
     1
340
2D
343
2E
344
2E
371
     5
372
     5
1001
ACAD_DSTYLE_DIMARC_LENGTH_SYMBOL
1070
   379
1070
     2
  0
DIMSTYLE
105
34
102
{ACAD_REACTORS
330
337
102
}
330
2A
100
AcDbSymbolTableRecord
100
AcDbDimStyleTableRecord
  2
GD2_Style5
 70
     0
 41
6.000000238418579
 42
1.0
 44
0.5
 73
     0
 74
     0
 75
     1
 77
     1
 78
     8
140
5.0
141
0.0
147
1.500000059604644
172
     1
173
     1
176
     3
177
     3
178
     3
288
     1
340
2D
343
2E
344
2E
371
     5
372
     5
1001
ACAD_DSTYLE_DIMARC_LENGTH_SYMBOL
1070
   379
1070
     2
  0
DIMSTYLE
105
2C
102
{ACAD_REACTORS
330
2B8
102
}
330
2A
100
AcDbSymbolTableRecord
100
AcDbDimStyleTableRecord
  2
GD2_Style6
 70
     0
 41
7.0
 42
1.0
 44
0.5
 73
     0
 74
     0
 77
     1
 78
     8
140
5.0
141
0.0
147
0.6999999999999888
172
     1
173
     1
176
     3
177
     3
178
     3
288
     1
340
2D
343
2E
344
2E
371
     5
372
     5
1001
ACAD_DSTYLE_DIMARC_LENGTH_SYMBOL
1070
   379
1070
     2
  0
DIMSTYLE
105
442
102
{ACAD_REACTORS
330
427
102
}
330
2A
100
AcDbSymbolTableRecord
100
AcDbDimStyleTableRecord
  2
AM_ISO
 70
     0
  4
"
 41
3.5
 42
1.0
 43
10.0
 44
1.0
 47
0.1
 48
0.1
 73
     0
 74
     0
 77
     1
 78
     8
 79
     2
140
3.5
141
0.0
143
0.0393701
146
0.71
147
1.5
172
     1
176
   256
177
   256
178
     2
271
     2
272
     3
274
     4
283
     0
284
     8
340
1C
371
    -1
372
    -1
1001
ACAD_DSTYLE_DIMJAG
1070
   388
1040
1.5
1001
ACAD_DSTYLE_DIMBREAK
1070
   391
1040
3.75
1001
ACAD_DSTYLE_DIMARC_LENGTH_SYMBOL
1070
   379
1070
     1
1001
ACAD_DSTYLE_DIM_LINETYPE
1070
   380
1005
1F
1001
ACAD_DSTYLE_DIM_EXT1_LINETYPE
1070
   381
1005
1F
1001
ACAD_DSTYLE_DIM_EXT2_LINETYPE
1070
   382
1005
1F
  0
DIMSTYLE
105
443
330
2A
100
AcDbSymbolTableRecord
100
AcDbDimStyleTableRecord
  2
AM_ISO$3
 70
     0
  4
"
 41
3.5
 42
1.0
 43
10.0
 44
1.0
 47
0.1
 48
0.1
 73
     0
 77
     1
 78
     8
 79
     2
140
3.5
141
0.0
143
0.0393701
146
0.71
147
1.5
176
   256
177
   256
178
     2
271
     2
272
     3
274
     4
283
     0
284
     8
288
     1
289
     0
340
1C
371
    -1
372
    -1
1001
ACAD_DSTYLE_DIMBREAK
1070
   391
1040
3.75
1001
ACAD_DSTYLE_DIMJAG
1070
   388
1040
1.5
1001
ACAD_DSTYLE_DIMARC_LENGTH_SYMBOL
1070
   379
1070
     1
1001
ACAD_DSTYLE_DIM_LINETYPE
1070
   380
1005
1F
1001
ACAD_DSTYLE_DIM_EXT1_LINETYPE
1070
   381
1005
1F
1001
ACAD_DSTYLE_DIM_EXT2_LINETYPE
1070
   382
1005
1F
  0
DIMSTYLE
105
444
330
2A
100
AcDbSymbolTableRecord
100
AcDbDimStyleTableRecord
  2
AM_ISO$4
 70
     0
  4
"
 41
3.5
 42
1.0
 43
10.0
 44
1.0
 47
0.1
 48
0.1
 73
     0
 77
     1
 78
     8
 79
     2
140
3.5
141
0.0
143
0.0393701
146
0.71
147
1.5
176
   256
177
   256
178
     2
271
     2
272
     3
274
     4
283
     0
284
     8
288
     1
289
     0
340
1C
371
    -1
372
    -1
1001
ACAD_DSTYLE_DIMBREAK
1070
   391
1040
3.75
1001
ACAD_DSTYLE_DIMJAG
1070
   388
1040
1.5
1001
ACAD_DSTYLE_DIMARC_LENGTH_SYMBOL
1070
   379
1070
     1
1001
ACAD_DSTYLE_DIM_LINETYPE
1070
   380
1005
1F
1001
ACAD_DSTYLE_DIM_EXT1_LINETYPE
1070
   381
1005
1F
1001
ACAD_DSTYLE_DIM_EXT2_LINETYPE
1070
   382
1005
1F
  0
DIMSTYLE
105
445
330
2A
100
AcDbSymbolTableRecord
100
AcDbDimStyleTableRecord
  2
AM_ISO$6
 70
     0
  4
"
 41
3.5
 42
1.0
 43
10.0
 44
1.0
 47
0.1
 48
0.1
 73
     0
 74
     0
 78
     8
 79
     2
140
3.5
141
0.0
143
0.0393701
146
0.71
147
1.5
172
     1
176
   256
177
   256
178
     2
271
     2
272
     3
274
     4
283
     0
284
     8
340
1C
371
    -1
372
    -1
1001
ACAD_DSTYLE_DIMBREAK
1070
   391
1040
3.75
1001
ACAD_DSTYLE_DIMJAG
1070
   388
1040
1.5
1001
ACAD_DSTYLE_DIMARC_LENGTH_SYMBOL
1070
   379
1070
     1
1001
ACAD_DSTYLE_DIM_LINETYPE
1070
   380
1005
1F
1001
ACAD_DSTYLE_DIM_EXT1_LINETYPE
1070
   381
1005
1F
1001
ACAD_DSTYLE_DIM_EXT2_LINETYPE
1070
   382
1005
1F
  0
DIMSTYLE
105
446
330
2A
100
AcDbSymbolTableRecord
100
AcDbDimStyleTableRecord
  2
AM_ISO$7
 70
     0
  4
"
 41
3.5
 42
1.0
 43
10.0
 44
1.0
 47
0.1
 48
0.1
 73
     0
 74
     0
 77
     1
 78
     8
 79
     2
140
3.5
141
0.0
143
0.0393701
146
0.71
147
1.5
172
     1
176
   256
177
   256
178
     2
271
     2
272
     3
274
     4
283
     0
284
     8
340
1C
371
    -1
372
    -1
1001
ACAD_DSTYLE_DIMBREAK
1070
   391
1040
3.75
1001
ACAD_DSTYLE_DIMJAG
1070
   388
1040
1.5
1001
ACAD_DSTYLE_DIMARC_LENGTH_SYMBOL
1070
   379
1070
     1
1001
ACAD_DSTYLE_DIM_LINETYPE
1070
   380
1005
1F
1001
ACAD_DSTYLE_DIM_EXT1_LINETYPE
1070
   381
1005
1F
1001
ACAD_DSTYLE_DIM_EXT2_LINETYPE
1070
   382
1005
1F
  0
DIMSTYLE
105
447
330
2A
100
AcDbSymbolTableRecord
100
AcDbDimStyleTableRecord
  2
AM_ISO$SF
 70
     0
  4
"
 41
3.5
 42
1.0
 43
10.0
 44
1.0
 47
0.1
 48
0.1
 73
     0
 74
     0
 75
     1
 76
     1
 77
     1
 78
     8
 79
     2
140
3.5
141
0.0
143
0.0393701
146
0.71
147
1.5
172
     1
176
   256
177
   256
178
     2
271
     2
272
     3
274
     4
283
     0
284
     8
340
1C
371
    -1
372
    -1
1001
ACAD_DSTYLE_DIMBREAK
1070
   391
1040
3.75
1001
ACAD_DSTYLE_DIMJAG
1070
   388
1040
1.5
1001
ACAD_DSTYLE_DIMARC_LENGTH_SYMBOL
1070
   379
1070
     1
1001
ACAD_DSTYLE_DIM_LINETYPE
1070
   380
1005
1F
1001
ACAD_DSTYLE_DIM_EXT1_LINETYPE
1070
   381
1005
1F
1001
ACAD_DSTYLE_DIM_EXT2_LINETYPE
1070
   382
1005
1F
  0
DIMSTYLE
105
448
330
2A
100
AcDbSymbolTableRecord
100
AcDbDimStyleTableRecord
  2
AM_ISO$SH
 70
     0
  4
"
 41
3.5
 42
1.0
 43
10.0
 44
1.0
 47
0.1
 48
0.1
 73
     0
 74
     0
 75
     1
 76
     1
 77
     1
 78
     8
 79
     2
140
3.5
141
0.0
143
0.0393701
144
2.0
146
0.71
147
1.5
172
     1
173
     1
176
   256
177
   256
178
     2
271
     2
272
     3
274
     4
283
     0
284
     8
340
1C
343
449
371
    -1
372
    -1
1001
ACAD_DSTYLE_DIMBREAK
1070
   391
1040
3.75
1001
ACAD_DSTYLE_DIMJAG
1070
   388
1040
1.5
1001
ACAD_DSTYLE_DIMARC_LENGTH_SYMBOL
1070
   379
1070
     1
1001
ACAD_DSTYLE_DIM_LINETYPE
1070
   380
1005
1F
1001
ACAD_DSTYLE_DIM_EXT1_LINETYPE
1070
   381
1005
1F
1001
ACAD_DSTYLE_DIM_EXT2_LINETYPE
1070
   382
1005
1F
  0
DIMSTYLE
105
8B
102
{ACAD_REACTORS
330
7D
102
}
330
2A
100
AcDbSymbolTableRecord
100
AcDbDimStyleTableRecord
  2
Standard$3
 70
     0
340
1C
1001
ACAD_DSTYLE_DIMBREAK
1070
   391
1040
3.75
1001
ACAD_DSTYLE_DIMJAG
1070
   388
1040
1.5
  0
DIMSTYLE
105
79
102
{ACAD_REACTORS
330
65
102
}
330
2A
100
AcDbSymbolTableRecord
100
AcDbDimStyleTableRecord
  2
Standard$0
 70
     0
340
1C
1001
ACAD_DSTYLE_DIMBREAK
1070
   391
1040
3.75
1001
ACAD_DSTYLE_DIMJAG
1070
   388
1040
1.5
  0
ENDTAB
  0
TABLE
  2
BLOCK_RECORD
  5
1
330
0
100
AcDbSymbolTable
 70
    19
  0
BLOCK_RECORD
  5
2
330
1
100
AcDbSymbolTableRecord
100
AcDbBlockTableRecord
  2
*Model_Space
340
13
  0
BLOCK_RECORD
  5
16
330
1
100
AcDbSymbolTableRecord
100
AcDbBlockTableRecord
  2
*Paper_Space
340
19
  0
BLOCK_RECORD
  5
2E
330
1
100
AcDbSymbolTableRecord
100
AcDbBlockTableRecord
  2
_Open
340
0
102
{BLKREFS
331
86
331
87
331
71
331
72
331
2BE
331
2BF
331
33C
331
33D
331
3E4
331
3E5
331
3F1
331
3F2
331
3FE
331
3FF
331
40C
331
40D
102
}
  0
BLOCK_RECORD
  5
407
330
1
100
AcDbSymbolTableRecord
100
AcDbBlockTableRecord
  2
*D1
340
0
  0
BLOCK_RECORD
  5
3F9
330
1
100
AcDbSymbolTableRecord
100
AcDbBlockTableRecord
  2
*D2
340
0
  0
BLOCK_RECORD
  5
3EC
330
1
100
AcDbSymbolTableRecord
100
AcDbBlockTableRecord
  2
*D3
340
0
  0
BLOCK_RECORD
  5
3DF
330
1
100
AcDbSymbolTableRecord
100
AcDbBlockTableRecord
  2
*D4
340
0
  0
BLOCK_RECORD
  5
338
330
1
100
AcDbSymbolTableRecord
100
AcDbBlockTableRecord
  2
*D5
340
0
  0
BLOCK_RECORD
  5
2B9
330
1
100
AcDbSymbolTableRecord
100
AcDbBlockTableRecord
  2
*D6
340
0
  0
BLOCK_RECORD
  5
262
330
1
100
AcDbSymbolTableRecord
100
AcDbBlockTableRecord
  2
ＮＯＮＡＭＥ_ds20urw外観_0
340
0
102
{BLKREFS
331
261
102
}
  0
BLOCK_RECORD
  5
246
330
1
100
AcDbSymbolTableRecord
100
AcDbBlockTableRecord
  2
ＮＯＮＡＭＥ_ds20urw外観_1
340
0
102
{BLKREFS
331
245
102
}
  0
BLOCK_RECORD
  5
243
330
1
100
AcDbSymbolTableRecord
100
AcDbBlockTableRecord
  2
ＮＯＮＡＭＥ_ds20urw外観_2
340
0
102
{BLKREFS
331
242
102
}
  0
BLOCK_RECORD
  5
232
330
1
100
AcDbSymbolTableRecord
100
AcDbBlockTableRecord
  2
ＮＯＮＡＭＥ_ds20urw外観_3
340
0
102
{BLKREFS
331
231
102
}
  0
BLOCK_RECORD
  5
201
330
1
100
AcDbSymbolTableRecord
100
AcDbBlockTableRecord
  2
ＮＯＮＡＭＥ_ds20urw外観_4
340
0
102
{BLKREFS
331
200
102
}
  0
BLOCK_RECORD
  5
187
330
1
100
AcDbSymbolTableRecord
100
AcDbBlockTableRecord
  2
ＮＯＮＡＭＥ_ds20urw外観_5
340
0
102
{BLKREFS
331
186
102
}
  0
BLOCK_RECORD
  5
184
330
1
100
AcDbSymbolTableRecord
100
AcDbBlockTableRecord
  2
ＮＯＮＡＭＥ_ds20urw外観_6
340
0
102
{BLKREFS
331
183
102
}
  0
BLOCK_RECORD
  5
176
330
1
100
AcDbSymbolTableRecord
100
AcDbBlockTableRecord
  2
GD2Parts_ds20urw外観_7
340
0
102
{BLKREFS
331
175
102
}
  0
BLOCK_RECORD
  5
F4
330
1
100
AcDbSymbolTableRecord
100
AcDbBlockTableRecord
  2
ＮＯＮＡＭＥ_ds20urw外観_8
340
0
102
{BLKREFS
331
F3
102
}
  0
BLOCK_RECORD
  5
449
330
1
100
AcDbSymbolTableRecord
100
AcDbBlockTableRecord
  2
GENAXEH
340
0
  0
BLOCK_RECORD
  5
80
330
1
100
AcDbSymbolTableRecord
100
AcDbBlockTableRecord
  2
*D17
340
0
  0
BLOCK_RECORD
  5
6A
330
1
100
AcDbSymbolTableRecord
100
AcDbBlockTableRecord
  2
*D18
340
0
  0
ENDTAB
  0
ENDSEC
  0
SECTION
  2
BLOCKS
  0
BLOCK
  5
3
330
2
100
AcDbEntity
  8
0
100
AcDbBlockBegin
  2
*Model_Space
 70
     0
 10
0.0
 20
0.0
 30
0.0
  3
*Model_Space
  1

  0
ENDBLK
  5
12
330
2
100
AcDbEntity
  8
0
100
AcDbBlockEnd
  0
BLOCK
  5
17
330
16
100
AcDbEntity
 67
     1
  8
0
100
AcDbBlockBegin
  2
*Paper_Space
 70
     0
 10
0.0
 20
0.0
 30
0.0
  3
*Paper_Space
  1

  0
ENDBLK
  5
18
330
16
100
AcDbEntity
 67
     1
  8
0
100
AcDbBlockEnd
  0
BLOCK
  5
2F
330
2E
100
AcDbEntity
  8
0
100
AcDbBlockBegin
  2
_Open
 70
     0
 10
0.0
 20
0.0
 30
0.0
  3
_Open
  1

  0
LINE
  5
30
330
2E
100
AcDbEntity
  8
0
  6
ByBlock
 62
     0
370
    -2
100
AcDbLine
 10
-1.0
 20
0.1666666666666666
 30
0.0
 11
0.0
 21
0.0
 31
0.0
  0
LINE
  5
31
330
2E
100
AcDbEntity
  8
0
  6
ByBlock
 62
     0
370
    -2
100
AcDbLine
 10
-1.0
 20
-0.1666666666666666
 30
0.0
 11
0.0
 21
0.0
 31
0.0
  0
LINE
  5
32
330
2E
100
AcDbEntity
  8
0
  6
ByBlock
 62
     0
370
    -2
100
AcDbLine
 10
0.0
 20
0.0
 30
0.0
 11
-1.0
 21
0.0
 31
0.0
  0
ENDBLK
  5
33
330
2E
100
AcDbEntity
  8
0
100
AcDbBlockEnd
  0
BLOCK
  5
408
330
407
100
AcDbEntity
  8
0
100
AcDbBlockBegin
  2
*D1
 70
     1
 10
0.0
 20
0.0
 30
0.0
  3
*D1
  1

  0
LINE
  5
409
330
407
100
AcDbEntity
  8
0000
 62
     3
370
     5
100
AcDbLine
 10
66.0
 20
-65.00002288818359
 30
0.0
 11
87.67240142822265
 21
-65.00002288818359
 31
0.0
  0
LINE
  5
40A
330
407
100
AcDbEntity
  8
0000
 62
     3
370
     5
100
AcDbLine
 10
66.0
 20
64.99997711181641
 30
0.0
 11
87.67240142822267
 21
64.99997711181641
 31
0.0
  0
LINE
  5
40B
330
407
100
AcDbEntity
  8
0000
 62
     3
370
     5
100
AcDbLine
 10
87.17240142822264
 20
-59.00002264976502
 30
0.0
 11
87.17240142822269
 21
58.99997687339782
 31
0.0
  0
INSERT
  5
40C
330
407
100
AcDbEntity
  8
0000
 62
     3
370
     5
100
AcDbBlockReference
  2
_Open
 10
87.17240142822264
 20
-65.00002288818359
 30
0.0
 41
6.000000238418579
 42
6.000000238418579
 43
6.000000238418579
 50
270.0
  0
INSERT
  5
40D
330
407
100
AcDbEntity
  8
0000
 62
     3
370
     5
100
AcDbBlockReference
  2
_Open
 10
87.17240142822269
 20
64.99997711181641
 30
0.0
 41
6.000000238418579
 42
6.000000238418579
 43
6.000000238418579
 50
90.0
  0
MTEXT
  5
40E
330
407
100
AcDbEntity
  8
0000
 62
     3
100
AcDbMText
 10
83.17240136861801
 20
1.071405887603759
 30
0.0
 40
5.0
 41
0.0
 71
     5
 72
     1
  1
\A1;130
  7
GD2_STANDARD_DIM
 11
0.0000000000000001
 21
1.0
 31
0.0
 73
     1
 44
1.0
1001
ACAD
1000
MTEXTBEGIN
1070
    73
1070
     1
1070
    44
1040
1.0
1070
    74
1070
     0
1000
MTEXTEND
  0
POINT
  5
40F
330
407
100
AcDbEntity
  8
Defpoints
 62
     0
100
AcDbPoint
 10
65.0
 20
-65.00002288818359
 30
0.0
  0
POINT
  5
410
330
407
100
AcDbEntity
  8
Defpoints
 62
     0
100
AcDbPoint
 10
65.0
 20
64.99997711181641
 30
0.0
  0
POINT
  5
411
330
407
100
AcDbEntity
  8
Defpoints
 62
     0
100
AcDbPoint
 10
87.17240142822269
 20
64.99997711181641
 30
0.0
  0
ENDBLK
  5
412
330
407
100
AcDbEntity
  8
0
100
AcDbBlockEnd
  0
BLOCK
  5
3FA
330
3F9
100
AcDbEntity
  8
0
100
AcDbBlockBegin
  2
*D2
 70
     1
 10
0.0
 20
0.0
 30
0.0
  3
*D2
  1

  0
LINE
  5
3FB
330
3F9
100
AcDbEntity
  8
0000
 62
     3
370
     5
100
AcDbLine
 10
66.0
 20
-70.00002288818359
 30
0.0
 11
100.5305709838867
 21
-70.00002288818361
 31
0.0
  0
LINE
  5
3FC
330
3F9
100
AcDbEntity
  8
0000
 62
     3
370
     5
100
AcDbLine
 10
66.0
 20
69.99997711181641
 30
0.0
 11
100.5305709838867
 21
69.99997711181639
 31
0.0
  0
LINE
  5
3FD
330
3F9
100
AcDbEntity
  8
0000
 62
     3
370
     5
100
AcDbLine
 10
100.0305709838867
 20
-64.00002264976503
 30
0.0
 11
100.0305709838867
 21
63.99997687339782
 31
0.0
  0
INSERT
  5
3FE
330
3F9
100
AcDbEntity
  8
0000
 62
     3
370
     5
100
AcDbBlockReference
  2
_Open
 10
100.0305709838867
 20
-70.00002288818361
 30
0.0
 41
6.000000238418579
 42
6.000000238418579
 43
6.000000238418579
 50
270.0
  0
INSERT
  5
3FF
330
3F9
100
AcDbEntity
  8
0000
 62
     3
370
     5
100
AcDbBlockReference
  2
_Open
 10
100.0305709838867
 20
69.99997711181639
 30
0.0
 41
6.000000238418579
 42
6.000000238418579
 43
6.000000238418579
 50
90.0
  0
MTEXT
  5
400
330
3F9
100
AcDbEntity
  8
0000
 62
     3
100
AcDbMText
 10
96.03057092428208
 20
1.071405887603759
 30
0.0
 40
5.0
 41
0.0
 71
     5
 72
     1
  1
\A1;140
  7
GD2_STANDARD_DIM
 11
0.0000000000000001
 21
1.0
 31
0.0
 73
     1
 44
1.0
1001
ACAD
1000
MTEXTBEGIN
1070
    73
1070
     1
1070
    44
1040
1.0
1070
    74
1070
     0
1000
MTEXTEND
  0
POINT
  5
401
330
3F9
100
AcDbEntity
  8
Defpoints
 62
     0
100
AcDbPoint
 10
65.0
 20
-70.00002288818359
 30
0.0
  0
POINT
  5
402
330
3F9
100
AcDbEntity
  8
Defpoints
 62
     0
100
AcDbPoint
 10
65.0
 20
69.99997711181641
 30
0.0
  0
POINT
  5
403
330
3F9
100
AcDbEntity
  8
Defpoints
 62
     0
100
AcDbPoint
 10
100.0305709838867
 20
69.99997711181639
 30
0.0
  0
ENDBLK
  5
404
330
3F9
100
AcDbEntity
  8
0
100
AcDbBlockEnd
  0
BLOCK
  5
3ED
330
3EC
100
AcDbEntity
  8
0
100
AcDbBlockBegin
  2
*D3
 70
     1
 10
0.0
 20
0.0
 30
0.0
  3
*D3
  1

  0
LINE
  5
3EE
330
3EC
100
AcDbEntity
  8
0000
 62
     3
370
     5
100
AcDbLine
 10
70.0
 20
65.99997711181639
 30
0.0
 11
70.0
 21
103.0559921264648
 31
0.0
  0
LINE
  5
3EF
330
3EC
100
AcDbEntity
  8
0000
 62
     3
370
     5
100
AcDbLine
 10
-70.0
 20
65.99996948242186
 30
0.0
 11
-70.0
 21
103.0559921264648
 31
0.0
  0
LINE
  5
3F0
330
3EC
100
AcDbEntity
  8
0000
 62
     3
370
     5
100
AcDbLine
 10
63.99999976158142
 20
102.5559921264648
 30
0.0
 11
-63.99999976158142
 21
102.5559921264648
 31
0.0
  0
INSERT
  5
3F1
330
3EC
100
AcDbEntity
  8
0000
 62
     3
370
     5
100
AcDbBlockReference
  2
_Open
 10
70.0
 20
102.5559921264648
 30
0.0
 41
6.000000238418579
 42
6.000000238418579
 43
6.000000238418579
  0
INSERT
  5
3F2
330
3EC
100
AcDbEntity
  8
0000
 62
     3
370
     5
100
AcDbBlockReference
  2
_Open
 10
-70.0
 20
102.5559921264648
 30
0.0
 41
6.000000238418579
 42
6.000000238418579
 43
6.000000238418579
 50
180.0
  0
MTEXT
  5
3F3
330
3EC
100
AcDbEntity
  8
0000
 62
     3
100
AcDbMText
 10
1.071428775787353
 20
106.5559921860695
 30
0.0
 40
5.0
 41
0.0
 71
     5
 72
     1
  1
\A1;140
  7
GD2_STANDARD_DIM
 73
     1
 44
1.0
1001
ACAD
1000
MTEXTBEGIN
1070
    73
1070
     1
1070
    44
1040
1.0
1070
    74
1070
     0
1000
MTEXTEND
  0
POINT
  5
3F4
330
3EC
100
AcDbEntity
  8
Defpoints
 62
     0
100
AcDbPoint
 10
70.0
 20
64.99997711181641
 30
0.0
  0
POINT
  5
3F5
330
3EC
100
AcDbEntity
  8
Defpoints
 62
     0
100
AcDbPoint
 10
-70.0
 20
64.99996948242189
 30
0.0
  0
POINT
  5
3F6
330
3EC
100
AcDbEntity
  8
Defpoints
 62
     0
100
AcDbPoint
 10
-70.0
 20
102.5559921264648
 30
0.0
  0
ENDBLK
  5
3F7
330
3EC
100
AcDbEntity
  8
0
100
AcDbBlockEnd
  0
BLOCK
  5
3E0
330
3DF
100
AcDbEntity
  8
0
100
AcDbBlockBegin
  2
*D4
 70
     1
 10
0.0
 20
0.0
 30
0.0
  3
*D4
  1

  0
LINE
  5
3E1
330
3DF
100
AcDbEntity
  8
0000
 62
     3
370
     5
100
AcDbLine
 10
65.0
 20
65.99997711181639
 30
0.0
 11
65.0
 21
88.5630416870117
 31
0.0
  0
LINE
  5
3E2
330
3DF
100
AcDbEntity
  8
0000
 62
     3
370
     5
100
AcDbLine
 10
-65.0
 20
65.99996948242186
 30
0.0
 11
-65.0
 21
88.5630416870117
 31
0.0
  0
LINE
  5
3E3
330
3DF
100
AcDbEntity
  8
0000
 62
     3
370
     5
100
AcDbLine
 10
58.99999976158142
 20
88.06304168701172
 30
0.0
 11
-58.99999976158142
 21
88.06304168701172
 31
0.0
  0
INSERT
  5
3E4
330
3DF
100
AcDbEntity
  8
0000
 62
     3
370
     5
100
AcDbBlockReference
  2
_Open
 10
65.0
 20
88.06304168701172
 30
0.0
 41
6.000000238418579
 42
6.000000238418579
 43
6.000000238418579
  0
INSERT
  5
3E5
330
3DF
100
AcDbEntity
  8
0000
 62
     3
370
     5
100
AcDbBlockReference
  2
_Open
 10
-65.0
 20
88.06304168701172
 30
0.0
 41
6.000000238418579
 42
6.000000238418579
 43
6.000000238418579
 50
180.0
  0
MTEXT
  5
3E6
330
3DF
100
AcDbEntity
  8
0000
 62
     3
100
AcDbMText
 10
1.071428775787353
 20
92.06304174661637
 30
0.0
 40
5.0
 41
0.0
 71
     5
 72
     1
  1
\A1;130
  7
GD2_STANDARD_DIM
 73
     1
 44
1.0
1001
ACAD
1000
MTEXTBEGIN
1070
    73
1070
     1
1070
    44
1040
1.0
1070
    74
1070
     0
1000
MTEXTEND
  0
POINT
  5
3E7
330
3DF
100
AcDbEntity
  8
Defpoints
 62
     0
100
AcDbPoint
 10
65.0
 20
64.99997711181641
 30
0.0
  0
POINT
  5
3E8
330
3DF
100
AcDbEntity
  8
Defpoints
 62
     0
100
AcDbPoint
 10
-65.0
 20
64.99996948242189
 30
0.0
  0
POINT
  5
3E9
330
3DF
100
AcDbEntity
  8
Defpoints
 62
     0
100
AcDbPoint
 10
-65.0
 20
88.06304168701172
 30
0.0
  0
ENDBLK
  5
3EA
330
3DF
100
AcDbEntity
  8
0
100
AcDbBlockEnd
  0
BLOCK
  5
339
330
338
100
AcDbEntity
  8
0
100
AcDbBlockBegin
  2
*D5
 70
     1
 10
0.0
 20
0.0
 30
0.0
  3
*D5
  1

  0
LINE
  5
33A
330
338
100
AcDbEntity
  8
0000
 62
     3
370
     5
100
AcDbLine
 10
8.0
 20
-172.5000305175781
 30
0.0
 11
100.5305709838867
 21
-172.5000305175781
 31
0.0
  0
LINE
  5
33B
330
338
100
AcDbEntity
  8
0000
 62
     3
370
     5
100
AcDbLine
 10
100.0305709838867
 20
-76.00002312660219
 30
0.0
 11
100.0305709838867
 21
-166.5000302791596
 31
0.0
  0
INSERT
  5
33C
330
338
100
AcDbEntity
  8
0000
 62
     3
370
     5
100
AcDbBlockReference
  2
_Open
 10
100.0305709838867
 20
-70.00002288818361
 30
0.0
 41
6.000000238418579
 42
6.000000238418579
 43
6.000000238418579
 50
90.0
  0
INSERT
  5
33D
330
338
100
AcDbEntity
  8
0000
 62
     3
370
     5
100
AcDbBlockReference
  2
_Open
 10
100.0305709838867
 20
-172.5000305175781
 30
0.0
 41
6.000000238418579
 42
6.000000238418579
 43
6.000000238418579
 50
270.0
  0
MTEXT
  5
33E
330
338
100
AcDbEntity
  8
0000
 62
     3
100
AcDbMText
 10
96.03057092428208
 20
-130.1786041259765
 30
0.0
 40
5.0
 41
0.0
 71
     5
 72
     1
  1
\A1;3000
  7
GD2_STANDARD_DIM
 11
0.0000000000000001
 21
1.0
 31
0.0
 73
     1
 44
1.0
1001
ACAD
1000
MTEXTBEGIN
1070
    73
1070
     1
1070
    44
1040
1.0
1070
    74
1070
     0
1000
MTEXTEND
  0
POINT
  5
33F
330
338
100
AcDbEntity
  8
Defpoints
 62
     0
100
AcDbPoint
 10
45.0
 20
-70.00002288818359
 30
0.0
  0
POINT
  5
340
330
338
100
AcDbEntity
  8
Defpoints
 62
     0
100
AcDbPoint
 10
7.0
 20
-172.5000305175781
 30
0.0
  0
POINT
  5
341
330
338
100
AcDbEntity
  8
Defpoints
 62
     0
100
AcDbPoint
 10
100.0305709838867
 20
-172.5000305175781
 30
0.0
  0
ENDBLK
  5
342
330
338
100
AcDbEntity
  8
0
100
AcDbBlockEnd
  0
BLOCK
  5
2BA
330
2B9
100
AcDbEntity
  8
0
100
AcDbBlockBegin
  2
*D6
 70
     1
 10
0.0
 20
0.0
 30
0.0
  3
*D6
  1

  0
LINE
  5
2BB
330
2B9
100
AcDbEntity
  8
0000
 62
     3
370
     5
100
AcDbLine
 10
138.0000019073486
 20
59.78093338012695
 30
0.0
 11
138.0000019073486
 21
94.33688914444152
 31
0.0
  0
LINE
  5
2BC
330
2B9
100
AcDbEntity
  8
0000
 62
     3
370
     5
100
AcDbLine
 10
180.1999999999999
 20
70.80004277954083
 30
0.0
 11
180.1999999999999
 21
94.33688914444152
 31
0.0
  0
LINE
  5
2BD
330
2B9
100
AcDbEntity
  8
0000
 62
     3
370
     5
100
AcDbLine
 10
145.0000019073486
 20
93.83688914444148
 30
0.0
 11
173.1999999999999
 21
93.83688914444148
 31
0.0
  0
INSERT
  5
2BE
330
2B9
100
AcDbEntity
  8
0000
 62
     3
370
     5
100
AcDbBlockReference
  2
_Open
 10
138.0000019073486
 20
93.83688914444148
 30
0.0
 41
7.0
 42
7.0
 43
7.0
 50
180.0
  0
INSERT
  5
2BF
330
2B9
100
AcDbEntity
  8
0000
 62
     3
370
     5
100
AcDbBlockReference
  2
_Open
 10
180.1999999999999
 20
93.83688914444148
 30
0.0
 41
7.0
 42
7.0
 43
7.0
  0
MTEXT
  5
2C0
330
2B9
100
AcDbEntity
  8
0000
 62
     3
100
AcDbMText
 10
159.8660551228416
 20
97.0368891444415
 30
0.0
 40
5.0
 41
0.0
 71
     5
 72
     1
  1
\A1;42.2
  7
GD2_STANDARD_DIM
 73
     1
 44
1.0
1001
ACAD
1000
MTEXTBEGIN
1070
    73
1070
     1
1070
    44
1040
1.0
1070
    74
1070
     0
1000
MTEXTEND
  0
POINT
  5
2C1
330
2B9
100
AcDbEntity
  8
Defpoints
 62
     0
100
AcDbPoint
 10
138.0000019073486
 20
58.78093338012695
 30
0.0
  0
POINT
  5
2C2
330
2B9
100
AcDbEntity
  8
Defpoints
 62
     0
100
AcDbPoint
 10
180.1999999999999
 20
69.80004277954083
 30
0.0
  0
POINT
  5
2C3
330
2B9
100
AcDbEntity
  8
Defpoints
 62
     0
100
AcDbPoint
 10
180.1999999999999
 20
93.83688914444148
 30
0.0
  0
ENDBLK
  5
2C4
330
2B9
100
AcDbEntity
  8
0
100
AcDbBlockEnd
  0
BLOCK
  5
263
330
262
100
AcDbEntity
  8
0
100
AcDbBlockBegin
  2
ＮＯＮＡＭＥ_ds20urw外観_0
 70
     0
 10
20.3961721050423
 20
-7.964254106395866
 30
0.0
  3
ＮＯＮＡＭＥ_ds20urw外観_0
  1

  0
ARC
  5
264
330
262
100
AcDbEntity
  8
0000
  6
Continuous
 62
     3
370
     5
100
AcDbCircle
 10
22.355700940112
 20
-6.544185632965991
 30
0.0
 40
0.8561018593874001
100
AcDbArc
 50
288.7134895750412
 51
324.7547039382663
  0
ARC
  5
265
330
262
100
AcDbEntity
  8
0000
  6
Continuous
 62
     3
370
     5
100
AcDbCircle
 10
21.90496442464655
 20
-6.544185632965991
 30
0.0
 40
0.8561018593874996
100
AcDbArc
 50
215.2452974282328
 51
251.286511791466
  0
ARC
  5
266
330
262
100
AcDbEntity
  8
0000
  6
Continuous
 62
     3
370
     5
100
AcDbCircle
 10
22.13033268237928
 20
-5.878877787615464
 30
0.0
 40
1.558544542190245
100
AcDbArc
 50
251.2865117914534
 51
288.7134895750289
  0
ARC
  5
267
330
262
100
AcDbEntity
  8
0000
  6
Continuous
 62
     3
370
     5
100
AcDbCircle
 10
22.28398128708045
 20
-6.49351501731212
 30
0.0
 40
0.9439075218381731
100
AcDbArc
 50
324.754703938271
 51
0.0000079420921969
  0
ARC
  5
268
330
262
100
AcDbEntity
  8
0000
  6
Continuous
 62
     3
370
     5
100
AcDbCircle
 10
21.97667067964835
 20
-6.49351501731212
 30
0.0
 40
0.9439072078219441
100
AcDbArc
 50
180.0000186693235
 51
215.2453110885834
  0
ARC
  5
269
330
262
100
AcDbEntity
  8
0000
  6
Continuous
 62
     3
370
     5
100
AcDbCircle
 10
22.50349460583038
 20
-6.534975638934383
 30
0.0
 40
1.360982639053384
100
AcDbArc
 50
290.7423836076022
 51
0.0000110164337459
  0
ARC
  5
26A
330
262
100
AcDbEntity
  8
0000
  6
Continuous
 62
     3
370
     5
100
AcDbCircle
 10
21.75715736089842
 20
-6.534975638934383
 30
0.0
 40
1.360982639053422
100
AcDbArc
 50
180.0000050089614
 51
249.2576450796445
  0
ARC
  5
26B
330
262
100
AcDbEntity
  8
0000
  6
Continuous
 62
     3
370
     5
100
AcDbCircle
 10
22.13033268237928
 20
-5.549607809490453
 30
0.0
 40
2.414646296905415
100
AcDbArc
 50
249.2576450796423
 51
290.7424109283634
  0
LINE
  5
26C
330
262
100
AcDbEntity
  8
0000
  6
Continuous
 62
     3
370
     5
100
AcDbLine
 10
23.86447986168651
 20
-3.464231281365073
 30
0.0
 11
23.86447986168651
 21
-6.534975638934383
 31
0.0
  0
LINE
  5
26D
330
262
100
AcDbEntity
  8
0000
  6
Continuous
 62
     3
370
     5
100
AcDbLine
 10
23.22789927612939
 20
-3.464231281365073
 30
0.0
 11
23.86447986168651
 21
-3.464231281365073
 31
0.0
  0
LINE
  5
26E
330
262
100
AcDbEntity
  8
0000
  6
Continuous
 62
     3
370
     5
100
AcDbLine
 10
23.22789927612939
 20
-6.49351501731212
 30
0.0
 11
23.22789927612939
 21
-3.464231281365073
 31
0.0
  0
LINE
  5
26F
330
262
100
AcDbEntity
  8
0000
  6
Continuous
 62
     3
370
     5
100
AcDbLine
 10
21.03276608862916
 20
-3.464231281365073
 30
0.0
 11
21.03276608862916
 21
-6.49351501731212
 31
0.0
  0
LINE
  5
270
330
262
100
AcDbEntity
  8
0000
  6
Continuous
 62
     3
370
     5
100
AcDbLine
 10
20.3961721050423
 20
-3.464231281365073
 30
0.0
 11
21.03276608862916
 21
-3.464231281365073
 31
0.0
  0
LINE
  5
271
330
262
100
AcDbEntity
  8
0000
  6
Continuous
 62
     3
370
     5
100
AcDbLine
 10
20.3961721050423
 20
-6.534975638934383
 30
0.0
 11
20.3961721050423
 21
-3.464231281365073
 31
0.0
  0
ENDBLK
  5
272
330
262
100
AcDbEntity
  8
0
100
AcDbBlockEnd
  0
BLOCK
  5
247
330
246
100
AcDbEntity
  8
0
100
AcDbBlockBegin
  2
ＮＯＮＡＭＥ_ds20urw外観_1
 70
     0
 10
24.85590804231356
 20
-7.964231590346747
 30
0.0
  3
ＮＯＮＡＭＥ_ds20urw外観_1
  1

  0
LINE
  5
248
330
246
100
AcDbEntity
  8
0000
  6
Continuous
 62
     3
370
     5
100
AcDbLine
 10
27.09819014680579
 20
-4.004231195534656
 30
0.0
 11
25.50841353547776
 21
-4.004231195534656
 31
0.0
  0
ARC
  5
249
330
246
100
AcDbEntity
  8
0000
  6
Continuous
 62
     3
370
     5
100
AcDbCircle
 10
27.09819014680579
 20
-4.904231195534747
 30
0.0
 40
0.8999998927116219
100
AcDbArc
 50
71.51492196873519
 51
90.00000250447477
  0
ARC
  5
24A
330
246
100
AcDbEntity
  8
0000
  6
Continuous
 62
     3
370
     5
100
AcDbCircle
 10
27.17340529573153
 20
-4.679231410111468
 30
0.0
 40
0.6627598464489362
100
AcDbArc
 50
20.55607756191308
 51
71.51494928949526
  0
ARC
  5
24B
330
246
100
AcDbEntity
  8
0000
  6
Continuous
 62
     3
370
     5
100
AcDbCircle
 10
27.04372542512601
 20
-4.791731410111196
 30
0.0
 40
0.7875000536441804
100
AcDbArc
 50
270.0000006832393
 51
318.1897446740936
  0
ARC
  5
24C
330
246
100
AcDbEntity
  8
0000
  6
Continuous
 62
     3
370
     5
100
AcDbCircle
 10
26.9934080423136
 20
-4.746731453026541
 30
0.0
 40
0.8550002038478421
100
AcDbArc
 50
318.1897173533459
 51
20.55606390153674
  0
LINE
  5
24D
330
246
100
AcDbEntity
  8
0000
  6
Continuous
 62
     3
370
     5
100
AcDbLine
 10
25.50841353547776
 20
-5.579231410111106
 30
0.0
 11
27.04372542512601
 21
-5.579231410111106
 31
0.0
  0
LINE
  5
24E
330
246
100
AcDbEntity
  8
0000
  6
Continuous
 62
     3
370
     5
100
AcDbLine
 10
25.50841353547776
 20
-4.004231195534656
 30
0.0
 11
25.50841353547776
 21
-5.579231410111106
 31
0.0
  0
LINE
  5
24F
330
246
100
AcDbEntity
  8
0000
  6
Continuous
 62
     3
370
     5
100
AcDbLine
 10
24.85590804231356
 20
-3.464231281365073
 30
0.0
 11
24.85590804231356
 21
-7.964231281365072
 31
0.0
  0
ARC
  5
250
330
246
100
AcDbEntity
  8
0000
  6
Continuous
 62
     3
370
     5
100
AcDbCircle
 10
27.04876540315354
 20
-5.714231281365072
 30
0.0
 40
2.249999999999916
100
AcDbArc
 50
78.03125711619334
 51
90.00000933467523
  0
ARC
  5
251
330
246
100
AcDbEntity
  8
0000
  6
Continuous
 62
     3
370
     5
100
AcDbCircle
 10
27.26341078889573
 20
-4.701731495941884
 30
0.0
 40
1.21500023603449
100
AcDbArc
 50
333.4349454676127
 51
78.0312502860061
  0
ARC
  5
252
330
246
100
AcDbEntity
  8
0000
  6
Continuous
 62
     3
370
     5
100
AcDbCircle
 10
27.35340254914945
 20
-4.746731453026541
 30
0.0
 40
1.1143767356875
100
AcDbArc
 50
286.927777597662
 51
333.4349727883753
  0
ARC
  5
253
330
246
100
AcDbEntity
  8
0000
  6
Continuous
 62
     3
370
     5
100
AcDbCircle
 10
27.37591078889546
 20
-6.636731367196034
 30
0.0
 40
0.8774998605252593
100
AcDbArc
 50
15.84698656317998
 51
69.8716945676193
  0
LINE
  5
254
330
246
100
AcDbEntity
  8
0000
  6
Continuous
 62
     3
370
     5
100
AcDbLine
 10
27.04876540315354
 20
-3.464231281365073
 30
0.0
 11
24.85590804231356
 21
-3.464231281365073
 31
0.0
  0
ARC
  5
255
330
246
100
AcDbEntity
  8
0000
  6
Continuous
 62
     3
370
     5
100
AcDbCircle
 10
26.09886000764573
 20
-6.99923062809853
 30
0.0
 40
2.205000257491669
100
AcDbArc
 50
5.19446302418278
 51
15.84698485562755
  0
LINE
  5
256
330
246
100
AcDbEntity
  8
0000
  6
Continuous
 62
     3
370
     5
100
AcDbLine
 10
28.29480727327064
 20
-6.799597888077413
 30
0.0
 11
28.34539931428617
 21
-7.35610647686849
 31
0.0
  0
ARC
  5
257
330
246
100
AcDbEntity
  8
0000
  6
Continuous
 62
     3
370
     5
100
AcDbCircle
 10
29.98115370881738
 20
-7.2074019122972
 30
0.0
 40
1.642499935626804
100
AcDbArc
 50
185.1944185142549
 51
207.4373939992751
  0
LINE
  5
258
330
246
100
AcDbEntity
  8
0000
  6
Continuous
 62
     3
370
     5
100
AcDbLine
 10
27.78090804231351
 20
-7.964231281365072
 30
0.0
 11
28.52340529573167
 21
-7.964231281365072
 31
0.0
  0
ARC
  5
259
330
246
100
AcDbEntity
  8
0000
  6
Continuous
 62
     3
370
     5
100
AcDbCircle
 10
29.90854781282133
 20
-7.304771571243917
 30
0.0
 40
2.227500128745818
100
AcDbArc
 50
185.1944185142746
 51
197.2207423972577
  0
LINE
  5
25A
330
246
100
AcDbEntity
  8
0000
  6
Continuous
 62
     3
370
     5
100
AcDbLine
 10
27.62343276155184
 20
-6.772008578862141
 30
0.0
 11
27.69020217073148
 21
-7.506439893330253
 31
0.0
  0
ARC
  5
25B
330
246
100
AcDbEntity
  8
0000
  6
Continuous
 62
     3
370
     5
100
AcDbCircle
 10
26.88398421418856
 20
-6.839231281365072
 30
0.0
 40
0.7425001502037026
100
AcDbArc
 50
5.194423323671236
 51
90.00000250448275
  0
LINE
  5
25C
330
246
100
AcDbEntity
  8
0000
  6
Continuous
 62
     3
370
     5
100
AcDbLine
 10
25.50841353547776
 20
-6.09673123844982
 30
0.0
 11
26.88398421418856
 21
-6.09673123844982
 31
0.0
  0
LINE
  5
25D
330
246
100
AcDbEntity
  8
0000
  6
Continuous
 62
     3
370
     5
100
AcDbLine
 10
25.50841353547776
 20
-7.964231281365072
 30
0.0
 11
25.50841353547776
 21
-6.09673123844982
 31
0.0
  0
LINE
  5
25E
330
246
100
AcDbEntity
  8
0000
  6
Continuous
 62
     3
370
     5
100
AcDbLine
 10
24.85590804231356
 20
-7.964231281365072
 30
0.0
 11
25.50841353547776
 21
-7.964231281365072
 31
0.0
  0
ENDBLK
  5
25F
330
246
100
AcDbEntity
  8
0
100
AcDbBlockEnd
  0
BLOCK
  5
244
330
243
100
AcDbEntity
  8
0
100
AcDbBlockBegin
  2
ＮＯＮＡＭＥ_ds20urw外観_2
 70
     0
 10
24.85590804231356
 20
-7.964231590346747
 30
0.0
  3
ＮＯＮＡＭＥ_ds20urw外観_2
  1

  0
INSERT
  5
245
330
243
100
AcDbEntity
  8
0000
100
AcDbBlockReference
  2
ＮＯＮＡＭＥ_ds20urw外観_1
 10
24.85590804231356
 20
-7.964231590346747
 30
0.0
  0
ENDBLK
  5
260
330
243
100
AcDbEntity
  8
0
100
AcDbBlockEnd
  0
BLOCK
  5
233
330
232
100
AcDbEntity
  8
0
100
AcDbBlockBegin
  2
ＮＯＮＡＭＥ_ds20urw外観_3
 70
     0
 10
29.20313943214888
 20
-7.964231281365072
 30
0.0
  3
ＮＯＮＡＭＥ_ds20urw外観_3
  1

  0
LINE
  5
234
330
232
100
AcDbEntity
  8
0000
  6
Continuous
 62
     3
370
     5
100
AcDbLine
 10
32.0606284458206
 20
-4.113068800057361
 30
0.0
 11
33.09565041847691
 21
-7.964231281365072
 31
0.0
  0
LINE
  5
235
330
232
100
AcDbEntity
  8
0000
  6
Continuous
 62
     3
370
     5
100
AcDbLine
 10
31.02563393898481
 20
-7.964231281365072
 30
0.0
 11
32.0606284458206
 21
-4.113068800057361
 31
0.0
  0
LINE
  5
236
330
232
100
AcDbEntity
  8
0000
  6
Continuous
 62
     3
370
     5
100
AcDbLine
 10
33.3674247104691
 20
-6.984296732033499
 30
0.0
 11
34.26563943214887
 21
-3.464231281365073
 31
0.0
  0
LINE
  5
237
330
232
100
AcDbEntity
  8
0000
  6
Continuous
 62
     3
370
     5
100
AcDbLine
 10
32.42065041847695
 20
-3.464231281365073
 30
0.0
 11
33.3674247104691
 21
-6.984296732033499
 31
0.0
  0
LINE
  5
238
330
232
100
AcDbEntity
  8
0000
  6
Continuous
 62
     3
370
     5
100
AcDbLine
 10
30.75385964699262
 20
-6.984297053898671
 30
0.0
 11
31.70063393898477
 21
-3.464231281365073
 31
0.0
  0
LINE
  5
239
330
232
100
AcDbEntity
  8
0000
  6
Continuous
 62
     3
370
     5
100
AcDbLine
 10
29.85564492531285
 20
-3.464231281365073
 30
0.0
 11
30.75385964699262
 21
-6.984297053898671
 31
0.0
  0
LINE
  5
23A
330
232
100
AcDbEntity
  8
0000
  6
Continuous
 62
     3
370
     5
100
AcDbLine
 10
29.85564492531285
 20
-3.464231281365073
 30
0.0
 11
29.20313943214888
 21
-3.464231281365073
 31
0.0
  0
LINE
  5
23B
330
232
100
AcDbEntity
  8
0000
  6
Continuous
 62
     3
370
     5
100
AcDbLine
 10
32.42065041847695
 20
-3.464231281365073
 30
0.0
 11
31.70063393898477
 21
-3.464231281365073
 31
0.0
  0
LINE
  5
23C
330
232
100
AcDbEntity
  8
0000
  6
Continuous
 62
     3
370
     5
100
AcDbLine
 10
34.91814492531285
 20
-3.464231281365073
 30
0.0
 11
34.26563943214887
 21
-3.464231281365073
 31
0.0
  0
LINE
  5
23D
330
232
100
AcDbEntity
  8
0000
  6
Continuous
 62
     3
370
     5
100
AcDbLine
 10
33.65815041847691
 20
-7.964231281365072
 30
0.0
 11
34.91814492531285
 21
-3.464231281365073
 31
0.0
  0
LINE
  5
23E
330
232
100
AcDbEntity
  8
0000
  6
Continuous
 62
     3
370
     5
100
AcDbLine
 10
33.09565041847691
 20
-7.964231281365072
 30
0.0
 11
33.65815041847691
 21
-7.964231281365072
 31
0.0
  0
LINE
  5
23F
330
232
100
AcDbEntity
  8
0000
  6
Continuous
 62
     3
370
     5
100
AcDbLine
 10
30.46313393898481
 20
-7.964231281365072
 30
0.0
 11
31.02563393898481
 21
-7.964231281365072
 31
0.0
  0
LINE
  5
240
330
232
100
AcDbEntity
  8
0000
  6
Continuous
 62
     3
370
     5
100
AcDbLine
 10
29.20313943214888
 20
-3.464231281365073
 30
0.0
 11
30.46313393898481
 21
-7.964231281365072
 31
0.0
  0
ENDBLK
  5
241
330
232
100
AcDbEntity
  8
0
100
AcDbBlockEnd
  0
BLOCK
  5
202
330
201
100
AcDbEntity
  8
0
100
AcDbBlockBegin
  2
ＮＯＮＡＭＥ_ds20urw外観_4
 70
     0
 10
12.32388927345269
 20
-7.964235096062338
 30
0.0
  3
ＮＯＮＡＭＥ_ds20urw外観_4
  1

  0
ARC
  5
203
330
201
100
AcDbEntity
  8
0000
  6
Continuous
 62
     3
370
     5
100
AcDbCircle
 10
16.48388998545567
 20
-10.69693162926523
 30
0.0
 40
4.938738644122793
100
AcDbArc
 50
117.1469377003428
 51
127.7784140114137
  0
ARC
  5
204
330
201
100
AcDbEntity
  8
0000
  6
Continuous
 62
     3
370
     5
100
AcDbCircle
 10
11.88138144053334
 20
-1.721101551140235
 30
0.0
 40
5.148313045501565
100
AcDbArc
 50
297.1475437659441
 51
307.8246594010511
  0
ARC
  5
205
330
201
100
AcDbEntity
  8
0000
  6
Continuous
 62
     3
370
     5
100
AcDbCircle
 10
14.2385591749088
 20
-4.757295398796258
 30
0.0
 40
1.304533332586208
100
AcDbArc
 50
307.8256156274975
 51
9.051365834314992
  0
ARC
  5
206
330
201
100
AcDbEntity
  8
0000
  6
Continuous
 62
     3
370
     5
100
AcDbCircle
 10
14.14105551279942
 20
-4.772859363640463
 30
0.0
 40
1.403282135724797
100
AcDbArc
 50
9.052627711783994
 51
72.64671846514776
  0
ARC
  5
207
330
201
100
AcDbEntity
  8
0000
  6
Continuous
 62
     3
370
     5
100
AcDbCircle
 10
14.02463095225175
 20
-5.145478992546486
 30
0.0
 40
1.793673336506323
100
AcDbArc
 50
72.64713510665848
 51
110.5848607759855
  0
ARC
  5
208
330
201
100
AcDbEntity
  8
0000
  6
Continuous
 62
     3
370
     5
100
AcDbCircle
 10
13.90988485850221
 20
-4.840150623406088
 30
0.0
 40
1.467568576335979
100
AcDbArc
 50
110.5811519833089
 51
164.8352775042173
  0
ARC
  5
209
330
201
100
AcDbEntity
  8
0000
  6
Continuous
 62
     3
370
     5
100
AcDbCircle
 10
13.87005941904908
 20
-4.705262928093361
 30
0.0
 40
0.792052000760898
100
AcDbArc
 50
112.0535290324632
 51
163.502693936788
  0
ARC
  5
20A
330
201
100
AcDbEntity
  8
0000
  6
Continuous
 62
     3
370
     5
100
AcDbCircle
 10
14.00128500498613
 20
-5.029054431999838
 30
0.0
 40
1.141498014330869
100
AcDbArc
 50
66.80040438469227
 51
112.0545740513917
  0
ARC
  5
20B
330
201
100
AcDbEntity
  8
0000
  6
Continuous
 62
     3
370
     5
100
AcDbCircle
 10
14.203158784283
 20
-4.558015613640463
 30
0.0
 40
0.6290641427046728
100
AcDbArc
 50
34.0948016950862
 51
66.79958476193386
  0
ARC
  5
20C
330
201
100
AcDbEntity
  8
0000
  6
Continuous
 62
     3
370
     5
100
AcDbCircle
 10
13.95474569834562
 20
-4.726167469109213
 30
0.0
 40
0.9290386736394859
100
AcDbArc
 50
336.7952346147664
 51
34.09461727995815
  0
ARC
  5
20D
330
201
100
AcDbEntity
  8
0000
  6
Continuous
 62
     3
370
     5
100
AcDbCircle
 10
13.79162924326772
 20
-4.656282215202963
 30
0.0
 40
1.106497347354914
100
AcDbArc
 50
307.2270451694261
 51
336.7972836714922
  0
ARC
  5
20E
330
201
100
AcDbEntity
  8
0000
  6
Continuous
 62
     3
370
     5
100
AcDbCircle
 10
16.32474081553391
 20
-10.39465501793688
 30
0.0
 40
5.101730227470374
100
AcDbArc
 50
118.8463843884943
 51
131.6706929325941
  0
LINE
  5
20F
330
201
100
AcDbEntity
  8
0000
  6
Continuous
 62
     3
370
     5
100
AcDbLine
 10
15.42233603037755
 20
-7.964235096062338
 30
0.0
 11
15.42233603037755
 21
-7.428499012077736
 31
0.0
  0
LINE
  5
210
330
201
100
AcDbEntity
  8
0000
  6
Continuous
 62
     3
370
     5
100
AcDbLine
 10
15.42233603037755
 20
-7.428499012077736
 30
0.0
 11
13.01449911631471
 21
-7.428499012077736
 31
0.0
  0
ARC
  5
211
330
201
100
AcDbEntity
  8
0000
  6
Continuous
 62
     3
370
     5
100
AcDbCircle
 10
14.25748007334607
 20
-7.824464588249838
 30
0.0
 40
1.304454356432072
100
AcDbArc
 50
127.7774031434248
 51
162.3291214761668
  0
ARC
  5
212
330
201
100
AcDbEntity
  8
0000
  6
Continuous
 62
     3
370
     5
100
AcDbCircle
 10
14.60690634287675
 20
-5.029054431999838
 30
0.0
 40
2.189743667839915
100
AcDbArc
 50
164.8355780325544
 51
180.6108703994623
  0
ARC
  5
213
330
201
100
AcDbEntity
  8
0000
  6
Continuous
 62
     3
370
     5
100
AcDbCircle
 10
14.88659994639306
 20
-5.005708484734213
 30
0.0
 40
1.852045953273825
100
AcDbArc
 50
163.5209578626349
 51
181.4446358447954
  0
LINE
  5
214
330
201
100
AcDbEntity
  8
0000
  6
Continuous
 62
     3
370
     5
100
AcDbLine
 10
12.41727011240857
 20
-5.052400379265463
 30
0.0
 11
13.03509848154908
 21
-5.052400379265463
 31
0.0
  0
ARC
  5
215
330
201
100
AcDbEntity
  8
0000
  6
Continuous
 62
     3
370
     5
100
AcDbCircle
 10
11.50862462334873
 20
-1.651084729218155
 30
0.0
 40
4.88052994012791
100
AcDbArc
 50
298.8472226805137
 51
307.2242311314926
  0
LINE
  5
216
330
201
100
AcDbEntity
  8
0000
  6
Continuous
 62
     3
370
     5
100
AcDbLine
 10
12.32403891123681
 20
-7.964235096062338
 30
0.0
 11
15.42233603037755
 21
-7.964235096062338
 31
0.0
  0
ARC
  5
217
330
201
100
AcDbEntity
  8
0000
  6
Continuous
 62
     3
370
     5
100
AcDbCircle
 10
14.14090229873693
 20
-7.941042083733463
 30
0.0
 40
1.817013025284238
100
AcDbArc
 50
131.6707065929674
 51
180.7313639416993
  0
ENDBLK
  5
218
330
201
100
AcDbEntity
  8
0
100
AcDbBlockEnd
  0
BLOCK
  5
188
330
187
100
AcDbEntity
  8
0
100
AcDbBlockBegin
  2
ＮＯＮＡＭＥ_ds20urw外観_5
 70
     0
 10
-34.91802651845069
 20
-7.964231281365072
 30
0.0
  3
ＮＯＮＡＭＥ_ds20urw外観_5
  1

  0
LINE
  5
189
330
187
100
AcDbEntity
  8
0000
  6
Continuous
 62
     3
370
     5
100
AcDbLine
 10
-7.087154936419437
 20
-4.119931964958823
 30
0.0
 11
-7.738033842669437
 21
-6.096738605583822
 31
0.0
  0
LINE
  5
18A
330
187
100
AcDbEntity
  8
0000
  6
Continuous
 62
     3
370
     5
100
AcDbLine
 10
-7.738033842669437
 20
-6.096738605583822
 30
0.0
 11
-6.388058256731937
 21
-6.096738605583822
 31
0.0
  0
LINE
  5
18B
330
187
100
AcDbEntity
  8
0000
  6
Continuous
 62
     3
370
     5
100
AcDbLine
 10
-6.388058256731937
 20
-6.096738605583822
 30
0.0
 11
-7.087154936419437
 21
-4.119931964958823
 31
0.0
  0
LINE
  5
18C
330
187
100
AcDbEntity
  8
0000
  6
Continuous
 62
     3
370
     5
100
AcDbLine
 10
-34.91802651845069
 20
-7.964231281365072
 30
0.0
 11
-34.24303872548194
 21
-7.964231281365072
 31
0.0
  0
LINE
  5
18D
330
187
100
AcDbEntity
  8
0000
  6
Continuous
 62
     3
370
     5
100
AcDbLine
 10
-34.24303872548194
 20
-7.964231281365072
 30
0.0
 11
-33.79302651845069
 21
-6.614255695427572
 31
0.0
  0
LINE
  5
18E
330
187
100
AcDbEntity
  8
0000
  6
Continuous
 62
     3
370
     5
100
AcDbLine
 10
-33.79302651845069
 20
-6.614255695427572
 30
0.0
 11
-32.10552651845069
 21
-6.614255695427572
 31
0.0
  0
LINE
  5
18F
330
187
100
AcDbEntity
  8
0000
  6
Continuous
 62
     3
370
     5
100
AcDbLine
 10
-32.10552651845069
 20
-6.614255695427572
 30
0.0
 11
-31.63305337391944
 21
-7.964231281365072
 31
0.0
  0
LINE
  5
190
330
187
100
AcDbEntity
  8
0000
  6
Continuous
 62
     3
370
     5
100
AcDbLine
 10
-31.63305337391944
 20
-7.964231281365072
 30
0.0
 11
-30.91308267079444
 21
-7.964231281365072
 31
0.0
  0
LINE
  5
191
330
187
100
AcDbEntity
  8
0000
  6
Continuous
 62
     3
370
     5
100
AcDbLine
 10
-30.91308267079444
 20
-7.964231281365072
 30
0.0
 11
-32.62304360829444
 21
-3.464231281365073
 31
0.0
  0
LINE
  5
192
330
187
100
AcDbEntity
  8
0000
  6
Continuous
 62
     3
370
     5
100
AcDbLine
 10
-32.62304360829444
 20
-3.464231281365073
 30
0.0
 11
-33.32055337391944
 21
-3.464231281365073
 31
0.0
  0
LINE
  5
193
330
187
100
AcDbEntity
  8
0000
  6
Continuous
 62
     3
370
     5
100
AcDbLine
 10
-33.32055337391944
 20
-3.464231281365073
 30
0.0
 11
-34.91802651845069
 21
-7.964231281365072
 31
0.0
  0
LINE
  5
194
330
187
100
AcDbEntity
  8
0000
  6
Continuous
 62
     3
370
     5
100
AcDbLine
 10
-32.98467690907569
 20
-4.119931964958823
 30
0.0
 11
-33.63555581532569
 21
-6.096738605583822
 31
0.0
  0
LINE
  5
195
330
187
100
AcDbEntity
  8
0000
  6
Continuous
 62
     3
370
     5
100
AcDbLine
 10
-33.63555581532569
 20
-6.096738605583822
 30
0.0
 11
-32.28558022938819
 21
-6.096738605583822
 31
0.0
  0
LINE
  5
196
330
187
100
AcDbEntity
  8
0000
  6
Continuous
 62
     3
370
     5
100
AcDbLine
 10
-32.28558022938819
 20
-6.096738605583822
 30
0.0
 11
-32.98467690907569
 21
-4.119931964958823
 31
0.0
  0
LINE
  5
197
330
187
100
AcDbEntity
  8
0000
  6
Continuous
 62
     3
370
     5
100
AcDbLine
 10
-30.37304360829444
 20
-7.964231281365072
 30
0.0
 11
-29.74303872548194
 21
-7.964231281365072
 31
0.0
  0
LINE
  5
198
330
187
100
AcDbEntity
  8
0000
  6
Continuous
 62
     3
370
     5
100
AcDbLine
 10
-29.74303872548194
 20
-7.964231281365072
 30
0.0
 11
-29.74303872548194
 21
-4.458799152458823
 31
0.0
  0
LINE
  5
199
330
187
100
AcDbEntity
  8
0000
  6
Continuous
 62
     3
370
     5
100
AcDbLine
 10
-29.74303872548194
 20
-4.458799152458823
 30
0.0
 11
-27.47057778798194
 21
-7.964231281365072
 31
0.0
  0
LINE
  5
19A
330
187
100
AcDbEntity
  8
0000
  6
Continuous
 62
     3
370
     5
100
AcDbLine
 10
-27.47057778798194
 20
-7.964231281365072
 30
0.0
 11
-26.77306802235694
 21
-7.964231281365072
 31
0.0
  0
LINE
  5
19B
330
187
100
AcDbEntity
  8
0000
  6
Continuous
 62
     3
370
     5
100
AcDbLine
 10
-26.77306802235694
 20
-7.964231281365072
 30
0.0
 11
-26.77306802235694
 21
-3.464231281365073
 31
0.0
  0
LINE
  5
19C
330
187
100
AcDbEntity
  8
0000
  6
Continuous
 62
     3
370
     5
100
AcDbLine
 10
-26.77306802235694
 20
-3.464231281365073
 30
0.0
 11
-27.40307290516944
 21
-3.464231281365073
 31
0.0
  0
LINE
  5
19D
330
187
100
AcDbEntity
  8
0000
  6
Continuous
 62
     3
370
     5
100
AcDbLine
 10
-27.40307290516944
 20
-3.464231281365073
 30
0.0
 11
-27.40307290516944
 21
-6.969663410271322
 31
0.0
  0
LINE
  5
19E
330
187
100
AcDbEntity
  8
0000
  6
Continuous
 62
     3
370
     5
100
AcDbLine
 10
-27.40307290516944
 20
-6.969663410271322
 30
0.0
 11
-29.67553384266944
 21
-3.464231281365073
 31
0.0
  0
LINE
  5
19F
330
187
100
AcDbEntity
  8
0000
  6
Continuous
 62
     3
370
     5
100
AcDbLine
 10
-29.67553384266944
 20
-3.464231281365073
 30
0.0
 11
-30.37304360829444
 21
-3.464231281365073
 31
0.0
  0
LINE
  5
1A0
330
187
100
AcDbEntity
  8
0000
  6
Continuous
 62
     3
370
     5
100
AcDbLine
 10
-30.37304360829444
 20
-3.464231281365073
 30
0.0
 11
-30.37304360829444
 21
-7.964231281365072
 31
0.0
  0
LINE
  5
1A1
330
187
100
AcDbEntity
  8
0000
  6
Continuous
 62
     3
370
     5
100
AcDbLine
 10
-26.18804604970069
 20
-4.004209308708823
 30
0.0
 11
-24.74804360829444
 21
-4.004209308708823
 31
0.0
  0
LINE
  5
1A2
330
187
100
AcDbEntity
  8
0000
  6
Continuous
 62
     3
370
     5
100
AcDbLine
 10
-24.74804360829444
 20
-4.004209308708823
 30
0.0
 11
-24.74804360829444
 21
-7.964231281365072
 31
0.0
  0
LINE
  5
1A3
330
187
100
AcDbEntity
  8
0000
  6
Continuous
 62
     3
370
     5
100
AcDbLine
 10
-24.74804360829444
 20
-7.964231281365072
 30
0.0
 11
-24.09557778798194
 21
-7.964231281365072
 31
0.0
  0
LINE
  5
1A4
330
187
100
AcDbEntity
  8
0000
  6
Continuous
 62
     3
370
     5
100
AcDbLine
 10
-24.09557778798194
 20
-7.964231281365072
 30
0.0
 11
-24.09557778798194
 21
-4.004209308708823
 31
0.0
  0
LINE
  5
1A5
330
187
100
AcDbEntity
  8
0000
  6
Continuous
 62
     3
370
     5
100
AcDbLine
 10
-24.09557778798194
 20
-4.004209308708823
 30
0.0
 11
-22.65557534657569
 21
-4.004209308708823
 31
0.0
  0
LINE
  5
1A6
330
187
100
AcDbEntity
  8
0000
  6
Continuous
 62
     3
370
     5
100
AcDbLine
 10
-22.65557534657569
 20
-4.004209308708823
 30
0.0
 11
-22.65557534657569
 21
-3.464231281365073
 31
0.0
  0
LINE
  5
1A7
330
187
100
AcDbEntity
  8
0000
  6
Continuous
 62
     3
370
     5
100
AcDbLine
 10
-22.65557534657569
 20
-3.464231281365073
 30
0.0
 11
-26.18804604970069
 21
-3.464231281365073
 31
0.0
  0
LINE
  5
1A8
330
187
100
AcDbEntity
  8
0000
  6
Continuous
 62
     3
370
     5
100
AcDbLine
 10
-26.18804604970069
 20
-3.464231281365073
 30
0.0
 11
-26.18804604970069
 21
-4.004209308708823
 31
0.0
  0
LINE
  5
1A9
330
187
100
AcDbEntity
  8
0000
  6
Continuous
 62
     3
370
     5
100
AcDbLine
 10
-22.07055337391944
 20
-7.964231281365072
 30
0.0
 11
-18.67303140126319
 21
-7.964231281365072
 31
0.0
  0
LINE
  5
1AA
330
187
100
AcDbEntity
  8
0000
  6
Continuous
 62
     3
370
     5
100
AcDbLine
 10
-18.67303140126319
 20
-7.964231281365072
 30
0.0
 11
-18.67303140126319
 21
-7.379209308708822
 31
0.0
  0
LINE
  5
1AB
330
187
100
AcDbEntity
  8
0000
  6
Continuous
 62
     3
370
     5
100
AcDbLine
 10
-18.67303140126319
 20
-7.379209308708822
 30
0.0
 11
-21.41802651845069
 21
-7.379209308708822
 31
0.0
  0
LINE
  5
1AC
330
187
100
AcDbEntity
  8
0000
  6
Continuous
 62
     3
370
     5
100
AcDbLine
 10
-21.41802651845069
 20
-7.379209308708822
 30
0.0
 11
-21.41802651845069
 21
-5.894223957146322
 31
0.0
  0
LINE
  5
1AD
330
187
100
AcDbEntity
  8
0000
  6
Continuous
 62
     3
370
     5
100
AcDbLine
 10
-21.41802651845069
 20
-5.894223957146322
 30
0.0
 11
-18.96557290516944
 21
-5.894223957146322
 31
0.0
  0
LINE
  5
1AE
330
187
100
AcDbEntity
  8
0000
  6
Continuous
 62
     3
370
     5
100
AcDbLine
 10
-18.96557290516944
 20
-5.894223957146322
 30
0.0
 11
-18.96557290516944
 21
-5.354245929802573
 31
0.0
  0
LINE
  5
1AF
330
187
100
AcDbEntity
  8
0000
  6
Continuous
 62
     3
370
     5
100
AcDbLine
 10
-18.96557290516944
 20
-5.354245929802573
 30
0.0
 11
-21.41802651845069
 21
-5.354245929802573
 31
0.0
  0
LINE
  5
1B0
330
187
100
AcDbEntity
  8
0000
  6
Continuous
 62
     3
370
     5
100
AcDbLine
 10
-21.41802651845069
 20
-5.354245929802573
 30
0.0
 11
-21.41802651845069
 21
-4.026731281365073
 31
0.0
  0
LINE
  5
1B1
330
187
100
AcDbEntity
  8
0000
  6
Continuous
 62
     3
370
     5
100
AcDbLine
 10
-21.41802651845069
 20
-4.026731281365073
 30
0.0
 11
-18.74053628407569
 21
-4.026731281365073
 31
0.0
  0
LINE
  5
1B2
330
187
100
AcDbEntity
  8
0000
  6
Continuous
 62
     3
370
     5
100
AcDbLine
 10
-18.74053628407569
 20
-4.026731281365073
 30
0.0
 11
-18.74053628407569
 21
-3.464231281365073
 31
0.0
  0
LINE
  5
1B3
330
187
100
AcDbEntity
  8
0000
  6
Continuous
 62
     3
370
     5
100
AcDbLine
 10
-18.74053628407569
 20
-3.464231281365073
 30
0.0
 11
-22.07055337391944
 21
-3.464231281365073
 31
0.0
  0
LINE
  5
1B4
330
187
100
AcDbEntity
  8
0000
  6
Continuous
 62
     3
370
     5
100
AcDbLine
 10
-22.07055337391944
 20
-3.464231281365073
 30
0.0
 11
-22.07055337391944
 21
-7.964231281365072
 31
0.0
  0
LINE
  5
1B5
330
187
100
AcDbEntity
  8
0000
  6
Continuous
 62
     3
370
     5
100
AcDbLine
 10
-17.79558999501318
 20
-7.964231281365072
 30
0.0
 11
-17.16558511220069
 21
-7.964231281365072
 31
0.0
  0
LINE
  5
1B6
330
187
100
AcDbEntity
  8
0000
  6
Continuous
 62
     3
370
     5
100
AcDbLine
 10
-17.16558511220069
 20
-7.964231281365072
 30
0.0
 11
-17.16558511220069
 21
-4.458799152458823
 31
0.0
  0
LINE
  5
1B7
330
187
100
AcDbEntity
  8
0000
  6
Continuous
 62
     3
370
     5
100
AcDbLine
 10
-17.16558511220069
 20
-4.458799152458823
 30
0.0
 11
-14.89306313954443
 21
-7.964231281365072
 31
0.0
  0
LINE
  5
1B8
330
187
100
AcDbEntity
  8
0000
  6
Continuous
 62
     3
370
     5
100
AcDbLine
 10
-14.89306313954443
 20
-7.964231281365072
 30
0.0
 11
-14.19555337391944
 21
-7.964231281365072
 31
0.0
  0
LINE
  5
1B9
330
187
100
AcDbEntity
  8
0000
  6
Continuous
 62
     3
370
     5
100
AcDbLine
 10
-14.19555337391944
 20
-7.964231281365072
 30
0.0
 11
-14.19555337391944
 21
-3.464231281365073
 31
0.0
  0
LINE
  5
1BA
330
187
100
AcDbEntity
  8
0000
  6
Continuous
 62
     3
370
     5
100
AcDbLine
 10
-14.19555337391944
 20
-3.464231281365073
 30
0.0
 11
-14.82555825673194
 21
-3.464231281365073
 31
0.0
  0
LINE
  5
1BB
330
187
100
AcDbEntity
  8
0000
  6
Continuous
 62
     3
370
     5
100
AcDbLine
 10
-14.82555825673194
 20
-3.464231281365073
 30
0.0
 11
-14.82555825673194
 21
-6.969663410271322
 31
0.0
  0
LINE
  5
1BC
330
187
100
AcDbEntity
  8
0000
  6
Continuous
 62
     3
370
     5
100
AcDbLine
 10
-14.82555825673194
 20
-6.969663410271322
 30
0.0
 11
-17.09808022938819
 21
-3.464231281365073
 31
0.0
  0
LINE
  5
1BD
330
187
100
AcDbEntity
  8
0000
  6
Continuous
 62
     3
370
     5
100
AcDbLine
 10
-17.09808022938819
 20
-3.464231281365073
 30
0.0
 11
-17.79558999501318
 21
-3.464231281365073
 31
0.0
  0
LINE
  5
1BE
330
187
100
AcDbEntity
  8
0000
  6
Continuous
 62
     3
370
     5
100
AcDbLine
 10
-17.79558999501318
 20
-3.464231281365073
 30
0.0
 11
-17.79558999501318
 21
-7.964231281365072
 31
0.0
  0
LINE
  5
1BF
330
187
100
AcDbEntity
  8
0000
  6
Continuous
 62
     3
370
     5
100
AcDbLine
 10
-13.16058022938819
 20
-7.964231281365072
 30
0.0
 11
-12.53057534657569
 21
-7.964231281365072
 31
0.0
  0
LINE
  5
1C0
330
187
100
AcDbEntity
  8
0000
  6
Continuous
 62
     3
370
     5
100
AcDbLine
 10
-12.53057534657569
 20
-7.964231281365072
 30
0.0
 11
-12.53057534657569
 21
-4.458799152458823
 31
0.0
  0
LINE
  5
1C1
330
187
100
AcDbEntity
  8
0000
  6
Continuous
 62
     3
370
     5
100
AcDbLine
 10
-12.53057534657569
 20
-4.458799152458823
 30
0.0
 11
-10.25805337391944
 21
-7.964231281365072
 31
0.0
  0
LINE
  5
1C2
330
187
100
AcDbEntity
  8
0000
  6
Continuous
 62
     3
370
     5
100
AcDbLine
 10
-10.25805337391944
 20
-7.964231281365072
 30
0.0
 11
-9.560543608294436
 21
-7.964231281365072
 31
0.0
  0
LINE
  5
1C3
330
187
100
AcDbEntity
  8
0000
  6
Continuous
 62
     3
370
     5
100
AcDbLine
 10
-9.560543608294436
 20
-7.964231281365072
 30
0.0
 11
-9.560543608294436
 21
-3.464231281365073
 31
0.0
  0
LINE
  5
1C4
330
187
100
AcDbEntity
  8
0000
  6
Continuous
 62
     3
370
     5
100
AcDbLine
 10
-9.560543608294436
 20
-3.464231281365073
 30
0.0
 11
-10.19054849110694
 21
-3.464231281365073
 31
0.0
  0
LINE
  5
1C5
330
187
100
AcDbEntity
  8
0000
  6
Continuous
 62
     3
370
     5
100
AcDbLine
 10
-10.19054849110694
 20
-3.464231281365073
 30
0.0
 11
-10.19054849110694
 21
-6.969663410271322
 31
0.0
  0
LINE
  5
1C6
330
187
100
AcDbEntity
  8
0000
  6
Continuous
 62
     3
370
     5
100
AcDbLine
 10
-10.19054849110694
 20
-6.969663410271322
 30
0.0
 11
-12.46307046376319
 21
-3.464231281365073
 31
0.0
  0
LINE
  5
1C7
330
187
100
AcDbEntity
  8
0000
  6
Continuous
 62
     3
370
     5
100
AcDbLine
 10
-12.46307046376319
 20
-3.464231281365073
 30
0.0
 11
-13.16058022938819
 21
-3.464231281365073
 31
0.0
  0
LINE
  5
1C8
330
187
100
AcDbEntity
  8
0000
  6
Continuous
 62
     3
370
     5
100
AcDbLine
 10
-13.16058022938819
 20
-3.464231281365073
 30
0.0
 11
-13.16058022938819
 21
-7.964231281365072
 31
0.0
  0
LINE
  5
1C9
330
187
100
AcDbEntity
  8
0000
  6
Continuous
 62
     3
370
     5
100
AcDbLine
 10
-9.020565580950686
 20
-7.964231281365072
 30
0.0
 11
-8.345577787981936
 21
-7.964231281365072
 31
0.0
  0
LINE
  5
1CA
330
187
100
AcDbEntity
  8
0000
  6
Continuous
 62
     3
370
     5
100
AcDbLine
 10
-8.345577787981936
 20
-7.964231281365072
 30
0.0
 11
-7.895565580950687
 21
-6.614255695427572
 31
0.0
  0
LINE
  5
1CB
330
187
100
AcDbEntity
  8
0000
  6
Continuous
 62
     3
370
     5
100
AcDbLine
 10
-7.895565580950687
 20
-6.614255695427572
 30
0.0
 11
-6.208065580950687
 21
-6.614255695427572
 31
0.0
  0
LINE
  5
1CC
330
187
100
AcDbEntity
  8
0000
  6
Continuous
 62
     3
370
     5
100
AcDbLine
 10
-6.208065580950687
 20
-6.614255695427572
 30
0.0
 11
-5.735531401263187
 21
-7.964231281365072
 31
0.0
  0
LINE
  5
1CD
330
187
100
AcDbEntity
  8
0000
  6
Continuous
 62
     3
370
     5
100
AcDbLine
 10
-5.735531401263187
 20
-7.964231281365072
 30
0.0
 11
-5.015560698138186
 21
-7.964231281365072
 31
0.0
  0
LINE
  5
1CE
330
187
100
AcDbEntity
  8
0000
  6
Continuous
 62
     3
370
     5
100
AcDbLine
 10
-5.015560698138186
 20
-7.964231281365072
 30
0.0
 11
-6.725521635638187
 21
-3.464231281365073
 31
0.0
  0
LINE
  5
1CF
330
187
100
AcDbEntity
  8
0000
  6
Continuous
 62
     3
370
     5
100
AcDbLine
 10
-6.725521635638187
 20
-3.464231281365073
 30
0.0
 11
-7.423031401263187
 21
-3.464231281365073
 31
0.0
  0
LINE
  5
1D0
330
187
100
AcDbEntity
  8
0000
  6
Continuous
 62
     3
370
     5
100
AcDbLine
 10
-7.423031401263187
 20
-3.464231281365073
 30
0.0
 11
-9.020565580950686
 21
-7.964231281365072
 31
0.0
  0
ENDBLK
  5
1D1
330
187
100
AcDbEntity
  8
0
100
AcDbBlockEnd
  0
BLOCK
  5
185
330
184
100
AcDbEntity
  8
0
100
AcDbBlockBegin
  2
ＮＯＮＡＭＥ_ds20urw外観_6
 70
     0
 10
-34.91802651845069
 20
-8.079333810890956
 30
0.0
  3
ＮＯＮＡＭＥ_ds20urw外観_6
  1

  0
INSERT
  5
186
330
184
100
AcDbEntity
  8
0000
100
AcDbBlockReference
  2
ＮＯＮＡＭＥ_ds20urw外観_5
 10
-34.91802651845069
 20
-7.964231281365072
 30
0.0
  0
LINE
  5
1D2
330
184
100
AcDbEntity
  8
0000
  6
Continuous
 62
     3
370
     5
100
AcDbLine
 10
0.6544832471743121
 20
-7.964231281365072
 30
0.0
 11
2.364444184674312
 21
-7.964231281365072
 31
0.0
  0
ARC
  5
1D3
330
184
100
AcDbEntity
  8
0000
  6
Continuous
 62
     3
370
     5
100
AcDbCircle
 10
2.364444184674312
 20
-5.916745929802572
 30
0.0
 40
2.0474853515625
100
AcDbArc
 50
270.0000006832435
 51
299.1301017951849
  0
ARC
  5
1D4
330
184
100
AcDbEntity
  8
0000
  6
Continuous
 62
     3
370
     5
100
AcDbCircle
 10
2.484927583111812
 20
-6.132932453240072
 30
0.0
 40
1.799992203712421
100
AcDbArc
 50
299.1299105498925
 51
344.6339148760781
  0
ARC
  5
1D5
330
184
100
AcDbEntity
  8
0000
  6
Continuous
 62
     3
370
     5
100
AcDbCircle
 10
0.879458833111812
 20
-5.691709308708822
 30
0.0
 40
3.464985132217497
100
AcDbArc
 50
344.6342427251573
 51
14.77612389188714
  0
ARC
  5
1D6
330
184
100
AcDbEntity
  8
0000
  6
Continuous
 62
     3
370
     5
100
AcDbCircle
 10
2.554629731549312
 20
-5.249875812615073
 30
0.0
 40
1.732474684715154
100
AcDbArc
 50
14.77746773160704
 51
49.80853639019903
  0
ARC
  5
1D7
330
184
100
AcDbEntity
  8
0000
  6
Continuous
 62
     3
370
     5
100
AcDbCircle
 10
2.409427094830562
 20
-5.421750812615072
 30
0.0
 40
1.957475423812725
100
AcDbArc
 50
49.80854322038606
 51
90.0000025044793
  0
LINE
  5
1D8
330
184
100
AcDbEntity
  8
0000
  6
Continuous
 62
     3
370
     5
100
AcDbLine
 10
2.409427094830562
 20
-3.464231281365073
 30
0.0
 11
0.6544832471743121
 21
-3.464231281365073
 31
0.0
  0
LINE
  5
1D9
330
184
100
AcDbEntity
  8
0000
  6
Continuous
 62
     3
370
     5
100
AcDbLine
 10
0.6544832471743121
 20
-3.464231281365073
 30
0.0
 11
0.6544832471743121
 21
-7.964231281365072
 31
0.0
  0
LINE
  5
1DA
330
184
100
AcDbEntity
  8
0000
  6
Continuous
 62
     3
370
     5
100
AcDbLine
 10
1.306949067486812
 20
-7.424253254021322
 30
0.0
 11
2.386966157330562
 21
-7.424253254021322
 31
0.0
  0
ARC
  5
1DB
330
184
100
AcDbEntity
  8
0000
  6
Continuous
 62
     3
370
     5
100
AcDbCircle
 10
2.386966157330562
 20
-6.164243488396322
 30
0.0
 40
1.260009765625
100
AcDbArc
 50
270.0000006832433
 51
321.1130656388625
  0
ARC
  5
1DC
330
184
100
AcDbEntity
  8
0000
  6
Continuous
 62
     3
370
     5
100
AcDbCircle
 10
2.562076020611812
 20
-6.305478839958822
 30
0.0
 40
1.035002112388767
100
AcDbArc
 50
321.1159343183148
 51
341.7682133871443
  0
ARC
  5
1DD
330
184
100
AcDbEntity
  8
0000
  6
Continuous
 62
     3
370
     5
100
AcDbCircle
 10
0.7669710401430621
 20
-5.714231281365072
 30
0.0
 40
2.925009250640961
100
AcDbArc
 50
341.7699892363373
 51
19.22549523988972
  0
ARC
  5
1DE
330
184
100
AcDbEntity
  8
0000
  6
Continuous
 62
     3
370
     5
100
AcDbCircle
 10
2.530276704205562
 20
-5.099241046990073
 30
0.0
 40
1.057506322860739
100
AcDbArc
 50
19.22449973982149
 51
60.65497582992239
  0
ARC
  5
1DF
330
184
100
AcDbEntity
  8
0000
  6
Continuous
 62
     3
370
     5
100
AcDbCircle
 10
2.386966157330562
 20
-5.354245929802573
 30
0.0
 40
1.34997057914729
100
AcDbArc
 50
60.65579545262187
 51
90.00000250447596
  0
LINE
  5
1E0
330
184
100
AcDbEntity
  8
0000
  6
Continuous
 62
     3
370
     5
100
AcDbLine
 10
2.386966157330562
 20
-4.004209308708823
 30
0.0
 11
1.306949067486812
 21
-4.004209308708823
 31
0.0
  0
LINE
  5
1E1
330
184
100
AcDbEntity
  8
0000
  6
Continuous
 62
     3
370
     5
100
AcDbLine
 10
1.306949067486812
 20
-4.004209308708823
 30
0.0
 11
1.306949067486812
 21
-7.424253254021322
 31
0.0
  0
ARC
  5
1E2
330
184
100
AcDbEntity
  8
0000
  6
Continuous
 62
     3
370
     5
100
AcDbCircle
 10
6.616946626080562
 20
-6.344236164177572
 30
0.0
 40
1.687505602836598
100
AcDbArc
 50
182.2905909093927
 51
250.0180910210782
  0
ARC
  5
1E3
330
184
100
AcDbEntity
  8
0000
  6
Continuous
 62
     3
370
     5
100
AcDbCircle
 10
6.886966157330562
 20
-5.601743488396322
 30
0.0
 40
2.477590322494633
100
AcDbArc
 50
250.017380681405
 51
289.5731371839662
  0
ARC
  5
1E4
330
184
100
AcDbEntity
  8
0000
  6
Continuous
 62
     3
370
     5
100
AcDbCircle
 10
7.246951508893062
 20
-6.614255695427572
 30
0.0
 40
1.402978181839311
100
AcDbArc
 50
289.574011448178
 51
323.1296380101824
  0
ARC
  5
1E5
330
184
100
AcDbEntity
  8
0000
  6
Continuous
 62
     3
370
     5
100
AcDbCircle
 10
7.336978364361812
 20
-6.681699543083822
 30
0.0
 40
1.290502905845688
100
AcDbArc
 50
323.1306488781838
 51
11.31085046837008
  0
ARC
  5
1E6
330
184
100
AcDbEntity
  8
0000
  6
Continuous
 62
     3
370
     5
100
AcDbCircle
 10
7.449466157330562
 20
-6.659238605583822
 30
0.0
 40
1.17572724819172
100
AcDbArc
 50
11.3105157890932
 51
66.62043573024991
  0
ARC
  5
1E7
330
184
100
AcDbEntity
  8
0000
  6
Continuous
 62
     3
370
     5
100
AcDbCircle
 10
6.541018891705562
 20
-8.760495929802573
 30
0.0
 40
3.464979648589908
100
AcDbArc
 50
66.61998493776678
 51
78.31059819286409
  0
LINE
  5
1E8
330
184
100
AcDbEntity
  8
0000
  6
Continuous
 62
     3
370
     5
100
AcDbLine
 10
7.243045258893062
 20
-5.367368488396323
 30
0.0
 11
6.602115083111812
 21
-5.234800129021323
 31
0.0
  0
ARC
  5
1E9
330
184
100
AcDbEntity
  8
0000
  6
Continuous
 62
     3
370
     5
100
AcDbCircle
 10
7.090091157330562
 20
-2.877256183708823
 30
0.0
 40
2.407492160797372
100
AcDbArc
 50
245.3295759672157
 51
258.3056786354296
  0
ARC
  5
1EA
330
184
100
AcDbEntity
  8
0000
  6
Continuous
 62
     3
370
     5
100
AcDbCircle
 10
6.324466157330562
 20
-4.544248371208823
 30
0.0
 40
0.5730817317961953
100
AcDbArc
 50
128.1575714726237
 51
245.3235654007463
  0
ARC
  5
1EB
330
184
100
AcDbEntity
  8
0000
  6
Continuous
 62
     3
370
     5
100
AcDbCircle
 10
6.571963715924312
 20
-4.859250812615073
 30
0.0
 40
0.9737014770505155
100
AcDbArc
 50
110.2819692070797
 51
128.1563830197106
  0
ARC
  5
1EC
330
184
100
AcDbEntity
  8
0000
  6
Continuous
 62
     3
370
     5
100
AcDbCircle
 10
6.763186860455562
 20
-5.376706867302572
 30
0.0
 40
1.525395631790058
100
AcDbArc
 50
78.92925623731866
 51
110.2837518864502
  0
ARC
  5
1ED
330
184
100
AcDbEntity
  8
0000
  6
Continuous
 62
     3
370
     5
100
AcDbCircle
 10
6.864444184674312
 20
-4.859250812615073
 30
0.0
 40
0.9980844855309031
100
AcDbArc
 50
2.58315235775704
 51
78.92940650148
  0
LINE
  5
1EE
330
184
100
AcDbEntity
  8
0000
  6
Continuous
 62
     3
370
     5
100
AcDbLine
 10
7.861514497174312
 20
-4.814206867302573
 30
0.0
 11
8.439456391705563
 21
-4.814206867302573
 31
0.0
  0
ARC
  5
1EF
330
184
100
AcDbEntity
  8
0000
  6
Continuous
 62
     3
370
     5
100
AcDbCircle
 10
6.999453950299312
 20
-4.814206867302573
 30
0.0
 40
1.44000244140625
100
AcDbArc
 50
0.0
 51
78.68998788050331
  0
ARC
  5
1F0
330
184
100
AcDbEntity
  8
0000
  6
Continuous
 62
     3
370
     5
100
AcDbCircle
 10
6.774478364361812
 20
-5.939206867302572
 30
0.0
 40
2.587286949157717
100
AcDbArc
 50
78.69059576733993
 51
108.5918388969542
  0
ARC
  5
1F1
330
184
100
AcDbEntity
  8
0000
  6
Continuous
 62
     3
370
     5
100
AcDbCircle
 10
6.358218598736812
 20
-4.701719074333823
 30
0.0
 40
1.281669139861952
100
AcDbArc
 50
108.5919823309317
 51
142.4305768000604
  0
ARC
  5
1F2
330
184
100
AcDbEntity
  8
0000
  6
Continuous
 62
     3
370
     5
100
AcDbCircle
 10
6.211978364361812
 20
-4.589231281365073
 30
0.0
 40
1.097151875495796
100
AcDbArc
 50
142.4314100831419
 51
248.8802361468682
  0
ARC
  5
1F3
330
184
100
AcDbEntity
  8
0000
  6
Continuous
 62
     3
370
     5
100
AcDbCircle
 10
6.797610688580562
 20
-3.073056964958823
 30
0.0
 40
2.722482442856073
100
AcDbArc
 50
248.8803454298947
 51
257.6609087777797
  0
LINE
  5
1F4
330
184
100
AcDbEntity
  8
0000
  6
Continuous
 62
     3
370
     5
100
AcDbLine
 10
6.215823579205562
 20
-5.732663898552572
 30
0.0
 11
7.046389985455562
 21
-5.914365558708822
 31
0.0
  0
ARC
  5
1F5
330
184
100
AcDbEntity
  8
0000
  6
Continuous
 62
     3
370
     5
100
AcDbCircle
 10
6.504458833111812
 20
-8.391721515740073
 30
0.0
 40
2.535993576049508
100
AcDbArc
 50
63.43433006735786
 51
77.66097890090576
  0
ARC
  5
1F6
330
184
100
AcDbEntity
  8
0000
  6
Continuous
 62
     3
370
     5
100
AcDbCircle
 10
7.336978364361812
 20
-6.726743488396322
 30
0.0
 40
0.6744506359100934
100
AcDbArc
 50
327.532405269921
 51
63.43378365222207
  0
ARC
  5
1F7
330
184
100
AcDbEntity
  8
0000
  6
Continuous
 62
     3
370
     5
100
AcDbCircle
 10
7.089419770611812
 20
-6.569211750115072
 30
0.0
 40
0.9678092598914439
100
AcDbArc
 50
286.8601860456399
 51
327.5312851189031
  0
ARC
  5
1F8
330
184
100
AcDbEntity
  8
0000
  6
Continuous
 62
     3
370
     5
100
AcDbCircle
 10
6.864444184674312
 20
-5.826719074333822
 30
0.0
 40
1.743659257889074
100
AcDbArc
 50
254.357392163058
 51
286.8584921587252
  0
ARC
  5
1F9
330
184
100
AcDbEntity
  8
0000
  6
Continuous
 62
     3
370
     5
100
AcDbCircle
 10
6.706973481549312
 20
-6.389219074333822
 30
0.0
 40
1.159546017646774
100
AcDbArc
 50
180.0211785953829
 51
254.359113370727
  0
LINE
  5
1FA
330
184
100
AcDbEntity
  8
0000
  6
Continuous
 62
     3
370
     5
100
AcDbLine
 10
5.547427583111812
 20
-6.389646320427572
 30
0.0
 11
4.930789399518061
 21
-6.411680011833822
 31
0.0
  0
LINE
  5
1FB
330
184
100
AcDbEntity
  8
0000
  6
Continuous
 62
     3
370
     5
100
AcDbLine
 10
9.572451997174313
 20
-5.444211750115072
 30
0.0
 11
9.572451997174313
 21
-6.029233722771322
 31
0.0
  0
LINE
  5
1FC
330
184
100
AcDbEntity
  8
0000
  6
Continuous
 62
     3
370
     5
100
AcDbLine
 10
9.572451997174313
 20
-6.029233722771322
 30
0.0
 11
11.48492758311181
 21
-6.029233722771322
 31
0.0
  0
LINE
  5
1FD
330
184
100
AcDbEntity
  8
0000
  6
Continuous
 62
     3
370
     5
100
AcDbLine
 10
11.48492758311181
 20
-6.029233722771322
 30
0.0
 11
11.48492758311181
 21
-5.444211750115072
 31
0.0
  0
LINE
  5
1FE
330
184
100
AcDbEntity
  8
0000
  6
Continuous
 62
     3
370
     5
100
AcDbLine
 10
11.48492758311181
 20
-5.444211750115072
 30
0.0
 11
9.572451997174313
 21
-5.444211750115072
 31
0.0
  0
ENDBLK
  5
1FF
330
184
100
AcDbEntity
  8
0
100
AcDbBlockEnd
  0
BLOCK
  5
177
330
176
100
AcDbEntity
  8
0
100
AcDbBlockBegin
  2
GD2Parts_ds20urw外観_7
 70
     0
 10
-21.00914014410887
 20
4.035756511603722
 30
0.0
  3
GD2Parts_ds20urw外観_7
  1

  0
LINE
  5
178
330
176
100
AcDbEntity
  8
0000
  6
Continuous
 62
     3
370
     5
100
AcDbLine
 10
-21.00914014410887
 20
4.035756511603722
 30
0.0
 11
-20.09564069342525
 21
4.035756511603722
 31
0.0
  0
LINE
  5
179
330
176
100
AcDbEntity
  8
0000
  6
Continuous
 62
     3
370
     5
100
AcDbLine
 10
-20.09564069342525
 20
4.035756511603722
 30
0.0
 11
-20.09564069342525
 21
6.933757610236398
 31
0.0
  0
LINE
  5
17A
330
176
100
AcDbEntity
  8
0000
  6
Continuous
 62
     3
370
     5
100
AcDbLine
 10
-20.09564069342525
 20
6.933757610236398
 30
0.0
 11
-17.16614316534901
 21
6.933757610236398
 31
0.0
  0
LINE
  5
17B
330
176
100
AcDbEntity
  8
0000
  6
Continuous
 62
     3
370
     5
100
AcDbLine
 10
-17.16614316534901
 20
6.933757610236398
 30
0.0
 11
-17.16614316534901
 21
7.689757747565636
 31
0.0
  0
LINE
  5
17C
330
176
100
AcDbEntity
  8
0000
  6
Continuous
 62
     3
370
     5
100
AcDbLine
 10
-17.16614316534901
 20
7.689757747565636
 30
0.0
 11
-20.09564069342525
 21
7.689757747565636
 31
0.0
  0
LINE
  5
17D
330
176
100
AcDbEntity
  8
0000
  6
Continuous
 62
     3
370
     5
100
AcDbLine
 10
-20.09564069342525
 20
7.689757747565636
 30
0.0
 11
-20.09564069342525
 21
9.548256511603767
 31
0.0
  0
LINE
  5
17E
330
176
100
AcDbEntity
  8
0000
  6
Continuous
 62
     3
370
     5
100
AcDbLine
 10
-20.09564069342525
 20
9.548256511603767
 30
0.0
 11
-16.59914563727284
 21
9.548256511603767
 31
0.0
  0
LINE
  5
17F
330
176
100
AcDbEntity
  8
0000
  6
Continuous
 62
     3
370
     5
100
AcDbLine
 10
-16.59914563727284
 20
9.548256511603767
 30
0.0
 11
-16.59914563727284
 21
10.33575651160367
 31
0.0
  0
LINE
  5
180
330
176
100
AcDbEntity
  8
0000
  6
Continuous
 62
     3
370
     5
100
AcDbLine
 10
-16.59914563727284
 20
10.33575651160367
 30
0.0
 11
-21.00914014410887
 21
10.33575651160367
 31
0.0
  0
LINE
  5
181
330
176
100
AcDbEntity
  8
0000
  6
Continuous
 62
     3
370
     5
100
AcDbLine
 10
-21.00914014410887
 20
10.33575651160367
 30
0.0
 11
-21.00914014410887
 21
4.035756511603722
 31
0.0
  0
ENDBLK
  5
182
330
176
100
AcDbEntity
  8
0
100
AcDbBlockEnd
  0
BLOCK
  5
F5
330
F4
100
AcDbEntity
  8
0
100
AcDbBlockBegin
  2
ＮＯＮＡＭＥ_ds20urw外観_8
 70
     0
 10
-33.1347978309019
 20
4.035850554679595
 30
0.0
  3
ＮＯＮＡＭＥ_ds20urw外観_8
  1

  0
ARC
  5
F6
330
F4
100
AcDbEntity
  8
0000
  6
Continuous
 62
     3
370
     5
100
AcDbCircle
 10
-30.39151232751442
 20
6.023906656359486
 30
0.0
 40
1.198518632769413
100
AcDbArc
 50
288.7134895750264
 51
324.7547039382709
  0
ARC
  5
F7
330
F4
100
AcDbEntity
  8
0000
  6
Continuous
 62
     3
370
     5
100
AcDbCircle
 10
-31.02253082879622
 20
6.023906656359486
 30
0.0
 40
1.198518632769562
100
AcDbArc
 50
215.245297428224
 51
251.2865117914679
  0
ARC
  5
F8
330
F4
100
AcDbEntity
  8
0000
  6
Continuous
 62
     3
370
     5
100
AcDbCircle
 10
-30.70702157815527
 20
6.955319011603704
 30
0.0
 40
2.181918720692543
100
AcDbArc
 50
251.2865117914614
 51
288.7134895750242
  0
ARC
  5
F9
330
F4
100
AcDbEntity
  8
0000
  6
Continuous
 62
     3
370
     5
100
AcDbCircle
 10
-30.4919178336486
 20
6.094844099526425
 30
0.0
 40
1.321444101691332
100
AcDbArc
 50
324.7547039382811
 51
0.0000079420854147
  0
ARC
  5
FA
330
F4
100
AcDbEntity
  8
0000
  6
Continuous
 62
     3
370
     5
100
AcDbCircle
 10
-30.92214407952861
 20
6.094844099526425
 30
0.0
 40
1.321443662077242
100
AcDbArc
 50
180.0000186693321
 51
215.2453110885983
  0
ARC
  5
FB
330
F4
100
AcDbEntity
  8
0000
  6
Continuous
 62
     3
370
     5
100
AcDbCircle
 10
-30.18460533364851
 20
6.036800390129201
 30
0.0
 40
1.9053375879229
100
AcDbArc
 50
290.7423836075973
 51
0.0000110164298079
  0
ARC
  5
FC
330
F4
100
AcDbEntity
  8
0000
  6
Continuous
 62
     3
370
     5
100
AcDbCircle
 10
-31.22945657952869
 20
6.036800390129201
 30
0.0
 40
1.905337587922764
100
AcDbArc
 50
180.0000050089616
 51
249.2576450796482
  0
ARC
  5
FD
330
F4
100
AcDbEntity
  8
0000
  6
Continuous
 62
     3
370
     5
100
AcDbCircle
 10
-30.70702157815527
 20
7.416287761603597
 30
0.0
 40
3.380437206924002
100
AcDbArc
 50
249.2576450796422
 51
290.7424109283598
  0
LINE
  5
FE
330
F4
100
AcDbEntity
  8
0000
  6
Continuous
 62
     3
370
     5
100
AcDbLine
 10
-28.27926408227518
 20
10.33575651160367
 30
0.0
 11
-28.27926408227518
 21
6.036800390129201
 31
0.0
  0
LINE
  5
FF
330
F4
100
AcDbEntity
  8
0000
  6
Continuous
 62
     3
370
     5
100
AcDbLine
 10
-29.17045907815532
 20
10.33575651160367
 30
0.0
 11
-28.27926408227518
 21
10.33575651160367
 31
0.0
  0
LINE
  5
100
330
F4
100
AcDbEntity
  8
0000
  6
Continuous
 62
     3
370
     5
100
AcDbLine
 10
-29.17045907815532
 20
6.094844099526425
 30
0.0
 11
-29.17045907815532
 21
10.33575651160367
 31
0.0
  0
LINE
  5
101
330
F4
100
AcDbEntity
  8
0000
  6
Continuous
 62
     3
370
     5
100
AcDbLine
 10
-32.24358407815532
 20
10.33575651160367
 30
0.0
 11
-32.24358407815532
 21
6.094844099526425
 31
0.0
  0
LINE
  5
102
330
F4
100
AcDbEntity
  8
0000
  6
Continuous
 62
     3
370
     5
100
AcDbLine
 10
-33.1347978309019
 20
10.33575651160367
 30
0.0
 11
-32.24358407815532
 21
10.33575651160367
 31
0.0
  0
LINE
  5
103
330
F4
100
AcDbEntity
  8
0000
  6
Continuous
 62
     3
370
     5
100
AcDbLine
 10
-33.1347978309019
 20
6.036800390129201
 30
0.0
 11
-33.1347978309019
 21
10.33575651160367
 31
0.0
  0
ENDBLK
  5
104
330
F4
100
AcDbEntity
  8
0
100
AcDbBlockEnd
  0
BLOCK
  5
44A
330
449
100
AcDbEntity
  8
0
100
AcDbBlockBegin
  2
GENAXEH
 70
     0
 10
0.0
 20
0.0
 30
0.0
  3
GENAXEH
  1

  0
LINE
  5
44B
330
449
100
AcDbEntity
  8
0
100
AcDbLine
 10
-1.0
 20
0.0
 30
0.0
 11
1.0
 21
0.0
 31
0.0
  0
ENDBLK
  5
44C
330
449
100
AcDbEntity
  8
0
100
AcDbBlockEnd
  0
BLOCK
  5
81
330
80
100
AcDbEntity
  8
0
100
AcDbBlockBegin
  2
*D17
 70
     1
 10
0.0
 20
0.0
 30
0.0
  3
*D17
  1

  0
LINE
  5
82
330
80
100
AcDbEntity
  8
AM_5
 62
     3
370
     5
100
AcDbLine
 10
100.1035927228479
 20
86.77418618416146
 30
0.0
 11
72.86059873358103
 21
69.87578346047548
 31
0.0
  0
LINE
  5
83
330
80
100
AcDbEntity
  8
AM_5
 62
     3
370
     5
100
AcDbLine
 10
57.13940126641896
 20
60.12417076315732
 30
0.0
 11
51.19084006262789
 21
56.43437136417208
 31
0.0
  0
MTEXT
  5
84
102
{ACAD_XDICTIONARY
360
477
102
}
330
80
100
AcDbEntity
  8
AM_5
 62
     3
100
AcDbMText
 10
87.76961089057389
 20
82.88922678640128
 30
0.0
 40
5.0
 41
0.0
 71
     5
 72
     1
  1
\A1;4-\U+22054.5
  7
GD2_STANDARD_DIM
 11
0.8497944576844368
 21
0.5271141998550352
 31
0.0
 73
     1
 44
1.0
1001
ACAD
1000
MTEXTBEGIN
1070
    73
1070
     1
1070
    44
1040
1.0
1070
    74
1070
     0
1000
MTEXTEND
  0
LINE
  5
85
330
80
100
AcDbEntity
  8
AM_5
 62
     3
370
     5
100
AcDbLine
 10
63.08796247021
 20
63.81397016214258
 30
0.0
 11
66.91203752978997
 21
66.18598406149025
 31
0.0
  0
INSERT
  5
86
330
80
100
AcDbEntity
  8
AM_5
 62
     3
370
     5
100
AcDbBlockReference
  2
_Open
 10
63.08796247021
 20
63.81397016214258
 30
0.0
 41
7.0
 42
7.0
 43
7.0
 50
31.81067949611849
  0
INSERT
  5
87
330
80
100
AcDbEntity
  8
AM_5
 62
     3
370
     5
100
AcDbBlockReference
  2
_Open
 10
66.91203752978997
 20
66.18598406149025
 30
0.0
 41
7.0
 42
7.0
 43
7.0
 50
211.8106794961185
  0
POINT
  5
88
330
80
100
AcDbEntity
  8
Defpoints
 62
     0
100
AcDbPoint
 10
66.91203752978997
 20
66.18598406149025
 30
0.0
  0
POINT
  5
89
330
80
100
AcDbEntity
  8
Defpoints
 62
     0
100
AcDbPoint
 10
63.08796247021
 20
63.81397016214258
 30
0.0
  0
ENDBLK
  5
8A
330
80
100
AcDbEntity
  8
0
100
AcDbBlockEnd
  0
BLOCK
  5
6B
330
6A
100
AcDbEntity
  8
0
100
AcDbBlockBegin
  2
*D18
 70
     1
 10
0.0
 20
0.0
 30
0.0
  3
*D18
  1

  0
LINE
  5
6C
330
6A
100
AcDbEntity
  8
AM_5
 62
     3
370
     5
100
AcDbLine
 10
180.1999999999999
 20
70.80004277954083
 30
0.0
 11
180.1999999999999
 21
83.13287113359605
 31
0.0
  0
LINE
  5
6D
330
6A
100
AcDbEntity
  8
AM_5
 62
     3
370
     5
100
AcDbLine
 10
169.6999999999999
 20
68.99998474121092
 30
0.0
 11
169.6999999999999
 21
83.13287113359605
 31
0.0
  0
LINE
  5
6E
330
6A
100
AcDbEntity
  8
AM_5
 62
     3
370
     5
100
AcDbLine
 10
187.1999999999999
 20
82.63287113359604
 30
0.0
 11
194.1999999999999
 21
82.63287113359604
 31
0.0
  0
LINE
  5
6F
330
6A
100
AcDbEntity
  8
AM_5
 62
     3
370
     5
100
AcDbLine
 10
162.6999999999999
 20
82.63287113359604
 30
0.0
 11
155.6999999999999
 21
82.63287113359604
 31
0.0
  0
LINE
  5
70
330
6A
100
AcDbEntity
  8
AM_5
 62
     3
370
     5
100
AcDbLine
 10
180.1999999999999
 20
82.63287113359604
 30
0.0
 11
169.6999999999999
 21
82.63287113359604
 31
0.0
  0
INSERT
  5
71
330
6A
100
AcDbEntity
  8
AM_5
 62
     3
370
     5
100
AcDbBlockReference
  2
_Open
 10
180.1999999999999
 20
82.63287113359604
 30
0.0
 41
7.0
 42
7.0
 43
7.0
 50
180.0
  0
INSERT
  5
72
330
6A
100
AcDbEntity
  8
AM_5
 62
     3
370
     5
100
AcDbBlockReference
  2
_Open
 10
169.6999999999999
 20
82.63287113359604
 30
0.0
 41
7.0
 42
7.0
 43
7.0
  0
MTEXT
  5
73
330
6A
100
AcDbEntity
  8
AM_5
 62
     3
100
AcDbMText
 10
174.9499999999999
 20
86.53287113359604
 30
0.0
 40
5.0
 41
0.0
 71
     5
 72
     1
  1
\A1;10.5
  7
GD2_STANDARD_DIM
 73
     1
 44
1.0
1001
ACAD
1000
MTEXTBEGIN
1070
    73
1070
     1
1070
    44
1040
1.0
1070
    74
1070
     0
1000
MTEXTEND
  0
POINT
  5
74
330
6A
100
AcDbEntity
  8
Defpoints
 62
     0
100
AcDbPoint
 10
180.1999999999999
 20
69.80004277954083
 30
0.0
  0
POINT
  5
76
330
6A
100
AcDbEntity
  8
Defpoints
 62
     0
100
AcDbPoint
 10
169.6999999999999
 20
67.99998474121093
 30
0.0
  0
POINT
  5
77
330
6A
100
AcDbEntity
  8
Defpoints
 62
     0
100
AcDbPoint
 10
169.6999999999999
 20
82.63287113359604
 30
0.0
  0
ENDBLK
  5
78
330
6A
100
AcDbEntity
  8
0
100
AcDbBlockEnd
  0
ENDSEC
  0
SECTION
  2
ENTITIES
  0
DIMENSION
  5
65
102
{ACAD_XDICTIONARY
360
66
102
}
102
{ACAD_REACTORS
330
67
102
}
330
2
100
AcDbEntity
  8
AM_5
100
AcDbDimension
  2
*D18
 10
169.6999999999999
 20
82.63287113359604
 30
0.0
 11
174.9499999999999
 21
82.63287113359604
 31
0.0
 70
   128
 71
     5
 42
10.50000000000003
  3
Standard$0
100
AcDbAlignedDimension
 13
180.1999999999999
 23
69.80004277954083
 33
0.0
 14
169.6999999999999
 24
67.99998474121093
 34
0.0
100
AcDbRotatedDimension
1001
ACAD_DSTYLE_DIMINSPECT
1070
   396
1000
100%
1070
   395
1000

1070
   394
1070
    33
1070
   393
1070
     0
1001
ACAD
1000
DSTYLE
1002
{
1070
    41
1040
7.0
1070
    42
1040
1.0
1070
    44
1040
0.5
1070
    73
1070
     0
1070
    74
1070
     0
1070
    77
1070
     1
1070
    78
1070
     8
1070
    90
1070
     2
1070
   140
1040
5.0
1070
   141
1040
0.0
1070
   147
1040
1.399999999999999
1070
   172
1070
     1
1070
   173
1070
     1
1070
   176
1070
     3
1070
   177
1070
     3
1070
   178
1070
     3
1070
   288
1070
     1
1070
   340
1005
2D
1070
   343
1005
2E
1070
   344
1005
2E
1070
   371
1070
     5
1070
   372
1070
     5
1002
}
  0
DIMENSION
  5
7D
102
{ACAD_XDICTIONARY
360
7E
102
}
102
{ACAD_REACTORS
330
7F
102
}
330
2
100
AcDbEntity
  8
AM_5
100
AcDbDimension
  2
*D17
 10
63.08796247021
 20
63.81397016214258
 30
0.0
 11
87.76961089057389
 21
82.88922678640128
 31
0.0
 70
     3
  1
4-<>
 71
     5
 42
4.5
  3
Standard$3
100
AcDbDiametricDimension
 15
66.91203752978997
 25
66.18598406149025
 35
0.0
 40
0.0
1001
ACAD
1000
DSTYLE
1002
{
1070
    41
1040
7.0
1070
    42
1040
1.0
1070
    44
1040
0.5
1070
    73
1070
     0
1070
    74
1070
     0
1070
    77
1070
     1
1070
    78
1070
     8
1070
    90
1070
     2
1070
   140
1040
5.0
1070
   141
1040
0.0
1070
   147
1040
0.6999999999999888
1070
   172
1070
     1
1070
   173
1070
     1
1070
   176
1070
     3
1070
   177
1070
     3
1070
   178
1070
     3
1070
   288
1070
     1
1070
   340
1005
2D
1070
   343
1005
2E
1070
   344
1005
2E
1070
   371
1070
     5
1070
   372
1070
     5
1002
}
1001
ACAD_DSTYLE_DIMRADIAL_EXTENSION
1070
   387
1070
     1
1070
   388
1040
0.0
1070
   390
1040
0.0
1001
ACAD_DSTYLE_DIMINSPECT
1070
   396
1000
100%
1070
   395
1000

1070
   394
1070
    33
1070
   393
1070
     0
  0
ARC
  5
8D
330
2
100
AcDbEntity
  8
0000
  6
Continuous
 62
     3
370
     5
100
AcDbCircle
 10
18.18539348394256
 20
24.18503151310688
 30
0.0
 40
1.96048152446741
100
AcDbArc
 50
287.6500291212582
 51
309.3403056986347
  0
ARC
  5
8F
330
2
100
AcDbEntity
  8
0000
  6
Continuous
 62
     3
370
     5
100
AcDbCircle
 10
17.97567668706756
 20
24.84415016545063
 30
0.0
 40
2.652172088622936
100
AcDbArc
 50
271.564004720151
 51
287.6499198382331
  0
ARC
  5
90
330
2
100
AcDbEntity
  8
0000
  6
Continuous
 62
     3
370
     5
100
AcDbCircle
 10
17.81899944097381
 20
30.57864723576313
 30
0.0
 40
8.388821601867681
100
AcDbArc
 50
256.6248510429591
 51
271.5647150598248
  0
LINE
  5
91
330
2
100
AcDbEntity
  8
0000
  6
Continuous
 62
     3
370
     5
100
AcDbLine
 10
15.87844768316131
 20
24.2149692572475
 30
0.0
 11
15.87844768316131
 21
22.4173618353725
 31
0.0
  0
ARC
  5
92
330
2
100
AcDbEntity
  8
0000
  6
Continuous
 62
     3
370
     5
100
AcDbCircle
 10
17.40316692144256
 20
13.84039650334125
 30
0.0
 40
10.48600959777833
100
AcDbArc
 50
85.45065255495361
 51
98.36107612411192
  0
ARC
  5
93
330
2
100
AcDbEntity
  8
0000
  6
Continuous
 62
     3
370
     5
100
AcDbCircle
 10
18.03555217534881
 20
21.7882114447475
 30
0.0
 40
2.513106107711826
100
AcDbArc
 50
58.78148909153513
 51
85.45048863041179
  0
ARC
  5
94
330
2
100
AcDbEntity
  8
0000
  6
Continuous
 62
     3
370
     5
100
AcDbCircle
 10
18.93435588628631
 20
23.27124367131
 30
0.0
 40
0.7789842486382068
100
AcDbArc
 50
309.3419995855527
 51
58.78166667644215
  0
ARC
  5
95
330
2
100
AcDbEntity
  8
0000
  6
Continuous
 62
     3
370
     5
100
AcDbCircle
 10
19.50363078863006
 20
24.30487404240376
 30
0.0
 40
2.923872470855566
100
AcDbArc
 50
299.4760918577857
 51
319.5921191144985
  0
ARC
  5
96
330
2
100
AcDbEntity
  8
0000
  6
Continuous
 62
     3
370
     5
100
AcDbCircle
 10
18.72463908941131
 20
25.68301735295063
 30
0.0
 40
4.50695896148669
100
AcDbArc
 50
285.1681842636882
 51
299.4763650653517
  0
ARC
  5
97
330
2
100
AcDbEntity
  8
0000
  6
Continuous
 62
     3
370
     5
100
AcDbCircle
 10
18.33608928472381
 20
27.1163364447475
 30
0.0
 40
5.991988658905115
100
AcDbArc
 50
274.2245819679259
 51
285.1680476599023
  0
ARC
  5
98
330
2
100
AcDbEntity
  8
0000
  6
Continuous
 62
     3
370
     5
100
AcDbCircle
 10
17.89474406988006
 20
33.09207497013813
 30
0.0
 40
11.98404693603515
100
AcDbArc
 50
260.3140274589802
 51
274.2239809112778
  0
LINE
  5
99
330
2
100
AcDbEntity
  8
0000
  6
Continuous
 62
     3
370
     5
100
AcDbLine
 10
15.87844768316131
 20
19.1517368353725
 30
0.0
 11
15.87844768316131
 21
21.27887306584125
 31
0.0
  0
LINE
  5
9A
330
2
100
AcDbEntity
  8
0000
  6
Continuous
 62
     3
370
     5
100
AcDbLine
 10
13.78121867925506
 20
19.1517368353725
 30
0.0
 11
15.87844768316131
 21
19.1517368353725
 31
0.0
  0
LINE
  5
9B
330
2
100
AcDbEntity
  8
0000
  6
Continuous
 62
     3
370
     5
100
AcDbLine
 10
13.78121867925506
 20
25.14374122990375
 30
0.0
 11
13.78121867925506
 21
19.1517368353725
 31
0.0
  0
ARC
  5
9C
330
2
100
AcDbEntity
  8
0000
  6
Continuous
 62
     3
370
     5
100
AcDbCircle
 10
16.98202434331756
 20
1.390384296310002
 30
0.0
 40
23.96803665161136
100
AcDbArc
 50
86.86337473193319
 51
97.67447818798547
  0
ARC
  5
9D
330
2
100
AcDbEntity
  8
0000
  6
Continuous
 62
     3
370
     5
100
AcDbCircle
 10
17.63772502691131
 20
13.356448749435
 30
0.0
 40
11.98402786254882
100
AcDbArc
 50
77.45609371637169
 51
86.86351816590541
  0
ARC
  5
9E
330
2
100
AcDbEntity
  8
0000
  6
Continuous
 62
     3
370
     5
100
AcDbCircle
 10
19.35378948003631
 20
21.06915626896626
 30
0.0
 40
4.082694530487232
100
AcDbArc
 50
61.23217462611254
 51
77.45598443334603
  0
ARC
  5
9F
330
2
100
AcDbEntity
  8
0000
  6
Continuous
 62
     3
370
     5
100
AcDbCircle
 10
20.61215129644256
 20
23.36111793888813
 30
0.0
 40
1.468082308769288
100
AcDbArc
 50
319.5914634163397
 51
61.23165553173133
  0
ARC
  5
A0
330
2
100
AcDbEntity
  8
0000
  6
Continuous
 62
     3
370
     5
100
AcDbCircle
 10
10.87509074956756
 20
24.54452858341938
 30
0.0
 40
2.907059669494673
100
AcDbArc
 50
297.3214677029688
 51
312.2738719471536
  0
ARC
  5
A1
330
2
100
AcDbEntity
  8
0000
  6
Continuous
 62
     3
370
     5
100
AcDbCircle
 10
10.16049114019256
 20
25.92782936466938
 30
0.0
 40
4.464026927947993
100
AcDbArc
 50
277.6568613088843
 51
297.3211944954039
  0
LINE
  5
A2
330
2
100
AcDbEntity
  8
0000
  6
Continuous
 62
     3
370
     5
100
AcDbLine
 10
13.57150188238006
 20
19.1517368353725
 30
0.0
 11
10.75527873784881
 21
21.50360451115375
 31
0.0
  0
LINE
  5
A3
330
2
100
AcDbEntity
  8
0000
  6
Continuous
 62
     3
370
     5
100
AcDbLine
 10
10.42574992925506
 20
19.1517368353725
 30
0.0
 11
13.57150188238006
 21
19.1517368353725
 31
0.0
  0
LINE
  5
A4
330
2
100
AcDbEntity
  8
0000
  6
Continuous
 62
     3
370
     5
100
AcDbLine
 10
7.279936940973811
 20
21.81817970646625
 30
0.0
 11
10.42574992925506
 21
19.1517368353725
 31
0.0
  0
LINE
  5
A5
330
2
100
AcDbEntity
  8
0000
  6
Continuous
 62
     3
370
     5
100
AcDbLine
 10
7.729338796442561
 20
22.4173618353725
 30
0.0
 11
7.279936940973811
 21
21.81817970646625
 31
0.0
  0
ARC
  5
A6
330
2
100
AcDbEntity
  8
0000
  6
Continuous
 62
     3
370
     5
100
AcDbCircle
 10
9.27023235113006
 20
30.6634555853725
 30
0.0
 40
8.388826370239165
100
AcDbArc
 50
259.4155843755564
 51
269.2558925543087
  0
ARC
  5
A7
330
2
100
AcDbEntity
  8
0000
  6
Continuous
 62
     3
370
     5
100
AcDbCircle
 10
9.19735637456756
 20
25.05386696232563
 30
0.0
 40
2.778737545013326
100
AcDbArc
 50
269.2562204033908
 51
286.1887511294719
  0
ARC
  5
A8
330
2
100
AcDbEntity
  8
0000
  6
Continuous
 62
     3
370
     5
100
AcDbCircle
 10
9.46700969488006
 20
24.12509498966938
 30
0.0
 40
1.811651706695485
100
AcDbArc
 50
286.1898712804956
 51
310.4264970219585
  0
ARC
  5
A9
330
2
100
AcDbEntity
  8
0000
  6
Continuous
 62
     3
370
     5
100
AcDbCircle
 10
10.15609660894256
 20
23.31616554631001
 30
0.0
 40
0.7490020990371247
100
AcDbArc
 50
310.4276171729808
 51
59.88578724635515
  0
ARC
  5
AA
330
2
100
AcDbEntity
  8
0000
  6
Continuous
 62
     3
370
     5
100
AcDbCircle
 10
9.28720012456756
 20
21.81817970646625
 30
0.0
 40
2.480727195739809
100
AcDbArc
 50
59.8861833973235
 51
83.59513604427171
  0
ARC
  5
AB
330
2
100
AcDbEntity
  8
0000
  6
Continuous
 62
     3
370
     5
100
AcDbCircle
 10
8.561247976130061
 20
15.35150490177875
 30
0.0
 40
8.988026618957519
100
AcDbArc
 50
83.59448034611061
 51
99.54935828496402
  0
LINE
  5
AC
330
2
100
AcDbEntity
  8
0000
  6
Continuous
 62
     3
370
     5
100
AcDbLine
 10
7.070159108942561
 20
19.1517368353725
 30
0.0
 11
7.070159108942561
 21
24.2149692572475
 31
0.0
  0
LINE
  5
AD
330
2
100
AcDbEntity
  8
0000
  6
Continuous
 62
     3
370
     5
100
AcDbLine
 10
4.972991140192561
 20
19.1517368353725
 30
0.0
 11
7.070159108942561
 21
19.1517368353725
 31
0.0
  0
LINE
  5
AE
330
2
100
AcDbEntity
  8
0000
  6
Continuous
 62
     3
370
     5
100
AcDbLine
 10
4.972991140192561
 20
25.14374122990375
 30
0.0
 11
4.972991140192561
 21
19.1517368353725
 31
0.0
  0
ARC
  5
AF
330
2
100
AcDbEntity
  8
0000
  6
Continuous
 62
     3
370
     5
100
AcDbCircle
 10
8.174529226130061
 20
1.390506366622502
 30
0.0
 40
23.9680519104005
100
AcDbArc
 50
86.72571909940058
 51
97.67638381076368
  0
ARC
  5
B0
330
2
100
AcDbEntity
  8
0000
  6
Continuous
 62
     3
370
     5
100
AcDbCircle
 10
8.94460979253631
 20
14.85052833927875
 30
0.0
 40
10.48601436615003
100
AcDbArc
 50
73.99697856216532
 51
86.72594449564298
  0
ARC
  5
B1
330
2
100
AcDbEntity
  8
0000
  6
Continuous
 62
     3
370
     5
100
AcDbCircle
 10
11.11483684331756
 20
22.4173618353725
 30
0.0
 40
2.614068508148235
100
AcDbArc
 50
50.2821280468702
 51
73.99755912824393
  0
ARC
  5
B2
330
2
100
AcDbEntity
  8
0000
  6
Continuous
 62
     3
370
     5
100
AcDbCircle
 10
11.92373576909881
 20
23.39108620060688
 30
0.0
 40
1.34821748733527
100
AcDbArc
 50
312.2743910415333
 51
50.28269836766504
  0
LINE
  5
B3
330
2
100
AcDbEntity
  8
0000
  6
Continuous
 62
     3
370
     5
100
AcDbLine
 10
0.5988456323800621
 20
21.7882114447475
 30
0.0
 11
-0.6594551488699381
 21
23.82550392521626
 31
0.0
  0
LINE
  5
B4
330
2
100
AcDbEntity
  8
0000
  6
Continuous
 62
     3
370
     5
100
AcDbLine
 10
-1.887848703557438
 20
21.7882114447475
 30
0.0
 11
0.5988456323800621
 21
21.7882114447475
 31
0.0
  0
LINE
  5
B5
330
2
100
AcDbEntity
  8
0000
  6
Continuous
 62
     3
370
     5
100
AcDbLine
 10
-0.6594551488699381
 20
23.82550392521626
 30
0.0
 11
-1.887848703557438
 21
21.7882114447475
 31
0.0
  0
LINE
  5
B6
330
2
100
AcDbEntity
  8
0000
  6
Continuous
 62
     3
370
     5
100
AcDbLine
 10
-1.438507883244938
 20
25.14374122990375
 30
0.0
 11
-5.093598215276188
 21
19.1517368353725
 31
0.0
  0
LINE
  5
B7
330
2
100
AcDbEntity
  8
0000
  6
Continuous
 62
     3
370
     5
100
AcDbLine
 10
1.138091237848811
 20
25.14374122990375
 30
0.0
 11
-1.438507883244938
 21
25.14374122990375
 31
0.0
  0
LINE
  5
B8
330
2
100
AcDbEntity
  8
0000
  6
Continuous
 62
     3
370
     5
100
AcDbLine
 10
4.793181569880061
 20
19.1517368353725
 30
0.0
 11
1.138091237848811
 21
25.14374122990375
 31
0.0
  0
LINE
  5
B9
330
2
100
AcDbEntity
  8
0000
  6
Continuous
 62
     3
370
     5
100
AcDbLine
 10
2.186736257380061
 20
19.1517368353725
 30
0.0
 11
4.793181569880061
 21
19.1517368353725
 31
0.0
  0
LINE
  5
BA
330
2
100
AcDbEntity
  8
0000
  6
Continuous
 62
     3
370
     5
100
AcDbLine
 10
1.347808034723811
 20
20.52991066349751
 30
0.0
 11
2.186736257380061
 21
19.1517368353725
 31
0.0
  0
LINE
  5
BB
330
2
100
AcDbEntity
  8
0000
  6
Continuous
 62
     3
370
     5
100
AcDbLine
 10
-2.666840402776188
 20
20.52991066349751
 30
0.0
 11
1.347808034723811
 21
20.52991066349751
 31
0.0
  0
LINE
  5
BC
330
2
100
AcDbEntity
  8
0000
  6
Continuous
 62
     3
370
     5
100
AcDbLine
 10
-3.505707590276188
 20
19.1517368353725
 30
0.0
 11
-2.666840402776188
 21
20.52991066349751
 31
0.0
  0
LINE
  5
BD
330
2
100
AcDbEntity
  8
0000
  6
Continuous
 62
     3
370
     5
100
AcDbLine
 10
-5.093598215276188
 20
19.1517368353725
 30
0.0
 11
-3.505707590276188
 21
19.1517368353725
 31
0.0
  0
LINE
  5
BE
330
2
100
AcDbEntity
  8
0000
  6
Continuous
 62
     3
370
     5
100
AcDbLine
 10
-13.51236042230744
 20
25.14374122990375
 30
0.0
 11
-13.51236042230744
 21
19.1517368353725
 31
0.0
  0
LINE
  5
BF
330
2
100
AcDbEntity
  8
0000
  6
Continuous
 62
     3
370
     5
100
AcDbLine
 10
-11.41519245355744
 20
25.14374122990375
 30
0.0
 11
-13.51236042230744
 21
25.14374122990375
 31
0.0
  0
LINE
  5
C0
330
2
100
AcDbEntity
  8
0000
  6
Continuous
 62
     3
370
     5
100
AcDbLine
 10
-11.41519245355744
 20
22.86676369084125
 30
0.0
 11
-11.41519245355744
 21
25.14374122990375
 31
0.0
  0
LINE
  5
C1
330
2
100
AcDbEntity
  8
0000
  6
Continuous
 62
     3
370
     5
100
AcDbLine
 10
-7.400544016057438
 20
22.86676369084125
 30
0.0
 11
-11.41519245355744
 21
22.86676369084125
 31
0.0
  0
LINE
  5
C2
330
2
100
AcDbEntity
  8
0000
  6
Continuous
 62
     3
370
     5
100
AcDbLine
 10
-7.400544016057438
 20
25.14374122990375
 30
0.0
 11
-7.400544016057438
 21
22.86676369084125
 31
0.0
  0
LINE
  5
C3
330
2
100
AcDbEntity
  8
0000
  6
Continuous
 62
     3
370
     5
100
AcDbLine
 10
-5.303315012151188
 20
25.14374122990375
 30
0.0
 11
-7.400544016057438
 21
25.14374122990375
 31
0.0
  0
LINE
  5
C4
330
2
100
AcDbEntity
  8
0000
  6
Continuous
 62
     3
370
     5
100
AcDbLine
 10
-5.303315012151188
 20
19.1517368353725
 30
0.0
 11
-5.303315012151188
 21
25.14374122990375
 31
0.0
  0
LINE
  5
C5
330
2
100
AcDbEntity
  8
0000
  6
Continuous
 62
     3
370
     5
100
AcDbLine
 10
-7.400544016057438
 20
19.1517368353725
 30
0.0
 11
-5.303315012151188
 21
19.1517368353725
 31
0.0
  0
LINE
  5
C6
330
2
100
AcDbEntity
  8
0000
  6
Continuous
 62
     3
370
     5
100
AcDbLine
 10
-7.400544016057438
 20
21.60846290959125
 30
0.0
 11
-7.400544016057438
 21
19.1517368353725
 31
0.0
  0
LINE
  5
C7
330
2
100
AcDbEntity
  8
0000
  6
Continuous
 62
     3
370
     5
100
AcDbLine
 10
-11.41519245355744
 20
21.60846290959125
 30
0.0
 11
-7.400544016057438
 21
21.60846290959125
 31
0.0
  0
LINE
  5
C8
330
2
100
AcDbEntity
  8
0000
  6
Continuous
 62
     3
370
     5
100
AcDbLine
 10
-11.41519245355744
 20
19.1517368353725
 30
0.0
 11
-11.41519245355744
 21
21.60846290959125
 31
0.0
  0
LINE
  5
C9
330
2
100
AcDbEntity
  8
0000
  6
Continuous
 62
     3
370
     5
100
AcDbLine
 10
-13.51236042230744
 20
19.1517368353725
 30
0.0
 11
-11.41519245355744
 21
19.1517368353725
 31
0.0
  0
ARC
  5
CA
330
2
100
AcDbEntity
  8
0000
  6
Continuous
 62
     3
370
     5
100
AcDbCircle
 10
-16.29861530511994
 20
21.75824318302876
 30
0.0
 40
2.707194805145214
100
AcDbArc
 50
288.2401028240355
 51
311.9877143416868
  0
ARC
  5
CB
330
2
100
AcDbEntity
  8
0000
  6
Continuous
 62
     3
370
     5
100
AcDbCircle
 10
-17.16751178949493
 20
24.39474830998188
 30
0.0
 40
5.483155250549331
100
AcDbArc
 50
277.792181016719
 51
288.2396656919297
  0
ARC
  5
CC
330
2
100
AcDbEntity
  8
0000
  6
Continuous
 62
     3
370
     5
100
AcDbCircle
 10
-18.04885944574493
 20
30.8355747259975
 30
0.0
 40
11.98402214050295
100
AcDbArc
 50
254.077518331625
 51
277.7919897714229
  0
ARC
  5
CD
330
2
100
AcDbEntity
  8
0000
  6
Continuous
 62
     3
370
     5
100
AcDbCircle
 10
-13.11740192621369
 20
48.12192116154438
 30
0.0
 40
29.96005058288555
100
AcDbArc
 50
250.9021087449727
 51
254.0776822561653
  0
LINE
  5
CE
330
2
100
AcDbEntity
  8
0000
  6
Continuous
 62
     3
370
     5
100
AcDbLine
 10
-22.14083942621369
 20
21.27887306584125
 30
0.0
 11
-22.91983112543245
 21
19.81085548771625
 31
0.0
  0
ARC
  5
CF
330
2
100
AcDbEntity
  8
0000
  6
Continuous
 62
     3
370
     5
100
AcDbCircle
 10
-16.51016315668243
 20
33.52881203068501
 30
0.0
 40
13.48204612731913
100
AcDbArc
 50
245.3141670604454
 51
266.2510191308527
  0
ARC
  5
D0
330
2
100
AcDbEntity
  8
0000
  6
Continuous
 62
     3
370
     5
100
AcDbCircle
 10
-17.28732380121369
 20
21.66839943302875
 30
0.0
 40
1.596128463745061
100
AcDbArc
 50
266.2508005647978
 51
291.522691739146
  0
ARC
  5
D1
330
2
100
AcDbEntity
  8
0000
  6
Continuous
 62
     3
370
     5
100
AcDbCircle
 10
-16.86789020746369
 20
20.60480080021625
 30
0.0
 40
0.4528417289256386
100
AcDbArc
 50
291.5232108335374
 51
68.07777270289469
  0
ARC
  5
D2
330
2
100
AcDbEntity
  8
0000
  6
Continuous
 62
     3
370
     5
100
AcDbCircle
 10
-17.88656696527619
 20
18.07318458927875
 30
0.0
 40
3.181705474853571
100
AcDbArc
 50
68.08163858995893
 51
80.65350334233889
  0
ARC
  5
D3
330
2
100
AcDbEntity
  8
0000
  6
Continuous
 62
     3
370
     5
100
AcDbCircle
 10
-25.6415718480887
 20
-29.04320945368977
 30
0.0
 40
50.93205261230449
100
AcDbArc
 50
80.65328477628751
 51
81.63386771466964
  0
ARC
  5
D4
330
2
100
AcDbEntity
  8
0000
  6
Continuous
 62
     3
370
     5
100
AcDbCircle
 10
-10.82058796136994
 20
71.73697243107561
 30
0.0
 40
50.93210983276365
100
AcDbArc
 50
259.3965691289076
 51
261.6339478557068
  0
ARC
  5
D5
330
2
100
AcDbEntity
  8
0000
  6
Continuous
 62
     3
370
     5
100
AcDbCircle
 10
-18.97976764886994
 20
28.15323219670063
 30
0.0
 40
6.591229915618757
100
AcDbArc
 50
244.4713217168657
 51
259.3967876949613
  0
ARC
  5
D6
330
2
100
AcDbEntity
  8
0000
  6
Continuous
 62
     3
370
     5
100
AcDbCircle
 10
-21.03231891840119
 20
23.855472186935
 30
0.0
 40
1.82844150066378
100
AcDbArc
 50
220.2360893339893
 51
244.4722506225959
  0
ARC
  5
D7
330
2
100
AcDbEntity
  8
0000
  6
Continuous
 62
     3
370
     5
100
AcDbCircle
 10
-21.42178425043244
 20
23.525882343185
 30
0.0
 40
1.318276643753168
100
AcDbArc
 50
126.254981298172
 51
220.2367860132858
  0
ARC
  5
D8
330
2
100
AcDbEntity
  8
0000
  6
Continuous
 62
     3
370
     5
100
AcDbCircle
 10
-20.43313678949494
 20
22.17770729435688
 30
0.0
 40
2.990115404128994
100
AcDbArc
 50
109.0573982511585
 51
126.2539294490406
  0
ARC
  5
D9
330
2
100
AcDbEntity
  8
0000
  6
Continuous
 62
     3
370
     5
100
AcDbCircle
 10
-19.45297321527618
 20
19.340335468185
 30
0.0
 40
5.991995334625302
100
AcDbArc
 50
101.4824179332935
 51
109.0580607795108
  0
ARC
  5
DA
330
2
100
AcDbEntity
  8
0000
  6
Continuous
 62
     3
370
     5
100
AcDbCircle
 10
-18.55831989496369
 20
14.93628273381
 30
0.0
 40
10.48600482940686
100
AcDbArc
 50
88.3045856279401
 51
101.4823154804565
  0
ARC
  5
DB
330
2
100
AcDbEntity
  8
0000
  6
Continuous
 62
     3
370
     5
100
AcDbCircle
 10
-18.69131550043244
 20
10.4442173041225
 30
0.0
 40
14.98002624511721
100
AcDbArc
 50
72.79912730628463
 51
88.30468808077776
  0
LINE
  5
DC
330
2
100
AcDbEntity
  8
0000
  6
Continuous
 62
     3
370
     5
100
AcDbLine
 10
-14.86056598871369
 20
23.34613380802875
 30
0.0
 11
-14.26138385980744
 21
24.75424538029438
 31
0.0
  0
ARC
  5
DD
330
2
100
AcDbEntity
  8
0000
  6
Continuous
 62
     3
370
     5
100
AcDbCircle
 10
-20.48837360590119
 20
7.858951190841252
 30
0.0
 40
16.47801780700693
100
AcDbArc
 50
70.02962220162799
 51
80.32154248829984
  0
ARC
  5
DE
330
2
100
AcDbEntity
  8
0000
  6
Continuous
 62
     3
370
     5
100
AcDbCircle
 10
-19.48104938715118
 20
13.76568947209125
 30
0.0
 40
10.48603916168223
100
AcDbArc
 50
80.32165860151547
 51
91.19233496750826
  0
ARC
  5
DF
330
2
100
AcDbEntity
  8
0000
  6
Continuous
 62
     3
370
     5
100
AcDbCircle
 10
-19.68411335199494
 20
23.525882343185
 30
0.0
 40
0.7236678004266066
100
AcDbArc
 50
91.19368734495759
 51
128.6614072069302
  0
ARC
  5
E0
330
2
100
AcDbEntity
  8
0000
  6
Continuous
 62
     3
370
     5
100
AcDbCircle
 10
-19.92379841058869
 20
23.82550392521626
 30
0.0
 40
0.3400096595287312
100
AcDbArc
 50
128.659808942638
 51
241.9335512703923
  0
ARC
  5
E1
330
2
100
AcDbEntity
  8
0000
  6
Continuous
 62
     3
370
     5
100
AcDbCircle
 10
-19.20474323480744
 20
25.17370949162251
 30
0.0
 40
1.867948651313612
100
AcDbArc
 50
241.9277592699534
 51
259.4985301928374
  0
ARC
  5
E2
330
2
100
AcDbEntity
  8
0000
  6
Continuous
 62
     3
370
     5
100
AcDbCircle
 10
-10.80807575433869
 20
70.47012672795061
 30
0.0
 40
47.93611145019521
100
AcDbArc
 50
259.4982296645139
 51
261.3745372710298
  0
ARC
  5
E3
330
2
100
AcDbEntity
  8
0000
  6
Continuous
 62
     3
370
     5
100
AcDbCircle
 10
-24.2879341527762
 20
-18.39342918025227
 30
0.0
 40
41.944065093994
100
AcDbArc
 50
78.97792816534249
 51
81.37448445074909
  0
ARC
  5
E4
330
2
100
AcDbEntity
  8
0000
  6
Continuous
 62
     3
370
     5
100
AcDbCircle
 10
-18.04397663324493
 20
15.1922641791225
 30
0.0
 40
7.789616584777839
100
AcDbArc
 50
71.02499932975205
 51
76.82641857678738
  0
ARC
  5
E5
330
2
100
AcDbEntity
  8
0000
  6
Continuous
 62
     3
370
     5
100
AcDbCircle
 10
-16.53836139886994
 20
19.5711704291225
 30
0.0
 40
3.159104585647767
100
AcDbArc
 50
50.85577514468933
 51
71.02458951840076
  0
ARC
  5
E6
330
2
100
AcDbEntity
  8
0000
  6
Continuous
 62
     3
370
     5
100
AcDbCircle
 10
-15.48971637933869
 20
20.85943947209125
 30
0.0
 40
1.498025298118718
100
AcDbArc
 50
311.9877416624455
 51
50.85511261634017
  0
LINE
  5
E7
330
2
100
AcDbEntity
  8
0000
  6
Continuous
 62
     3
370
     5
100
AcDbLine
 10
-25.8898950369645
 20
10.33575651160367
 30
0.0
 11
-27.16129671924978
 21
10.33575651160367
 31
0.0
  0
LINE
  5
E8
330
2
100
AcDbEntity
  8
0000
  6
Continuous
 62
     3
370
     5
100
AcDbLine
 10
-27.16129671924978
 20
10.33575651160367
 30
0.0
 11
-27.16129671924978
 21
4.035728602401832
 31
0.0
  0
LINE
  5
E9
330
2
100
AcDbEntity
  8
0000
  6
Continuous
 62
     3
370
     5
100
AcDbLine
 10
-27.16129671924978
 20
4.035728602401832
 30
0.0
 11
-25.8898950369645
 21
4.035728602401832
 31
0.0
  0
LINE
  5
EA
330
2
100
AcDbEntity
  8
0000
  6
Continuous
 62
     3
370
     5
100
AcDbLine
 10
-25.8898950369645
 20
4.035728602401832
 30
0.0
 11
-25.8898950369645
 21
6.810588615486267
 31
0.0
  0
LINE
  5
EB
330
2
100
AcDbEntity
  8
0000
  6
Continuous
 62
     3
370
     5
100
AcDbLine
 10
-25.8898950369645
 20
6.810588615486267
 30
0.0
 11
-23.36130449607833
 21
6.810588615486267
 31
0.0
  0
LINE
  5
EC
330
2
100
AcDbEntity
  8
0000
  6
Continuous
 62
     3
370
     5
100
AcDbLine
 10
-23.36130449607833
 20
6.810588615486267
 30
0.0
 11
-23.36130449607833
 21
4.035728602401832
 31
0.0
  0
LINE
  5
ED
330
2
100
AcDbEntity
  8
0000
  6
Continuous
 62
     3
370
     5
100
AcDbLine
 10
-23.36130449607833
 20
4.035728602401832
 30
0.0
 11
-22.08292560943982
 21
4.035728602401832
 31
0.0
  0
LINE
  5
EE
330
2
100
AcDbEntity
  8
0000
  6
Continuous
 62
     3
370
     5
100
AcDbLine
 10
-22.08292560943982
 20
4.035728602401832
 30
0.0
 11
-22.08292560943982
 21
10.33575651160367
 31
0.0
  0
LINE
  5
EF
330
2
100
AcDbEntity
  8
0000
  6
Continuous
 62
     3
370
     5
100
AcDbLine
 10
-22.08292560943982
 20
10.33575651160367
 30
0.0
 11
-23.36130449607833
 21
10.33575651160367
 31
0.0
  0
LINE
  5
F0
330
2
100
AcDbEntity
  8
0000
  6
Continuous
 62
     3
370
     5
100
AcDbLine
 10
-23.36130449607833
 20
10.33575651160367
 30
0.0
 11
-23.36130449607833
 21
7.891796875381714
 31
0.0
  0
LINE
  5
F1
330
2
100
AcDbEntity
  8
0000
  6
Continuous
 62
     3
370
     5
100
AcDbLine
 10
-23.36130449607833
 20
7.891796875381714
 30
0.0
 11
-25.8898950369645
 21
7.891796875381714
 31
0.0
  0
LINE
  5
F2
330
2
100
AcDbEntity
  8
0000
  6
Continuous
 62
     3
370
     5
100
AcDbLine
 10
-25.8898950369645
 20
7.891796875381714
 30
0.0
 11
-25.8898950369645
 21
10.33575651160367
 31
0.0
  0
INSERT
  5
F3
330
2
100
AcDbEntity
  8
0000
100
AcDbBlockReference
  2
ＮＯＮＡＭＥ_ds20urw外観_8
 10
-33.1347978309019
 20
4.035850554679595
 30
0.0
  0
LINE
  5
105
330
2
100
AcDbEntity
  8
0000
  6
Continuous
 62
     3
370
     5
100
AcDbLine
 10
26.99246018307667
 20
10.33575651160367
 30
0.0
 11
26.99246018307667
 21
4.035768718634925
 31
0.0
  0
LINE
  5
106
330
2
100
AcDbEntity
  8
0000
  6
Continuous
 62
     3
370
     5
100
AcDbLine
 10
28.09493821042043
 20
10.33575651160367
 30
0.0
 11
26.99246018307667
 21
10.33575651160367
 31
0.0
  0
LINE
  5
107
330
2
100
AcDbEntity
  8
0000
  6
Continuous
 62
     3
370
     5
100
AcDbLine
 10
30.04684250729543
 20
5.153078288947425
 30
0.0
 11
28.09493821042043
 21
10.33575651160367
 31
0.0
  0
LINE
  5
108
330
2
100
AcDbEntity
  8
0000
  6
Continuous
 62
     3
370
     5
100
AcDbLine
 10
32.03243821042042
 20
10.33575651160367
 30
0.0
 11
30.04684250729543
 21
5.153078288947425
 31
0.0
  0
LINE
  5
109
330
2
100
AcDbEntity
  8
0000
  6
Continuous
 62
     3
370
     5
100
AcDbLine
 10
33.13491623776418
 20
10.33575651160367
 30
0.0
 11
32.03243821042042
 21
10.33575651160367
 31
0.0
  0
LINE
  5
10A
330
2
100
AcDbEntity
  8
0000
  6
Continuous
 62
     3
370
     5
100
AcDbLine
 10
33.13491623776418
 20
4.035768718634925
 30
0.0
 11
33.13491623776418
 21
10.33575651160367
 31
0.0
  0
LINE
  5
10B
330
2
100
AcDbEntity
  8
0000
  6
Continuous
 62
     3
370
     5
100
AcDbLine
 10
32.31594651120167
 20
4.035768718634925
 30
0.0
 11
33.13491623776418
 21
4.035768718634925
 31
0.0
  0
LINE
  5
10C
330
2
100
AcDbEntity
  8
0000
  6
Continuous
 62
     3
370
     5
100
AcDbLine
 10
32.31594651120167
 20
8.872621745978676
 30
0.0
 11
32.31594651120167
 21
4.035768718634925
 31
0.0
  0
LINE
  5
10D
330
2
100
AcDbEntity
  8
0000
  6
Continuous
 62
     3
370
     5
100
AcDbLine
 10
30.39443772213918
 20
4.035768718634925
 30
0.0
 11
32.31594651120167
 21
8.872621745978676
 31
0.0
  0
LINE
  5
10E
330
2
100
AcDbEntity
  8
0000
  6
Continuous
 62
     3
370
     5
100
AcDbLine
 10
29.70144455807668
 20
4.035768718634925
 30
0.0
 11
30.39443772213918
 21
4.035768718634925
 31
0.0
  0
LINE
  5
10F
330
2
100
AcDbEntity
  8
0000
  6
Continuous
 62
     3
370
     5
100
AcDbLine
 10
27.81142990963918
 20
8.876833171759926
 30
0.0
 11
29.70144455807668
 21
4.035768718634925
 31
0.0
  0
LINE
  5
110
330
2
100
AcDbEntity
  8
0000
  6
Continuous
 62
     3
370
     5
100
AcDbLine
 10
27.81142990963918
 20
4.035768718634925
 30
0.0
 11
27.81142990963918
 21
8.876833171759926
 31
0.0
  0
LINE
  5
111
330
2
100
AcDbEntity
  8
0000
  6
Continuous
 62
     3
370
     5
100
AcDbLine
 10
26.99246018307667
 20
4.035768718634925
 30
0.0
 11
27.81142990963918
 21
4.035768718634925
 31
0.0
  0
LINE
  5
112
330
2
100
AcDbEntity
  8
0000
  6
Continuous
 62
     3
370
     5
100
AcDbLine
 10
21.00741379635792
 20
10.33575651160367
 30
0.0
 11
21.00741379635792
 21
4.035768718634925
 31
0.0
  0
LINE
  5
113
330
2
100
AcDbEntity
  8
0000
  6
Continuous
 62
     3
370
     5
100
AcDbLine
 10
25.66940110104543
 20
10.33575651160367
 30
0.0
 11
21.00741379635792
 21
10.33575651160367
 31
0.0
  0
LINE
  5
114
330
2
100
AcDbEntity
  8
0000
  6
Continuous
 62
     3
370
     5
100
AcDbLine
 10
25.66940110104543
 20
9.548280925666176
 30
0.0
 11
25.66940110104543
 21
10.33575651160367
 31
0.0
  0
LINE
  5
115
330
2
100
AcDbEntity
  8
0000
  6
Continuous
 62
     3
370
     5
100
AcDbLine
 10
21.92092697995168
 20
9.548280925666176
 30
0.0
 11
25.66940110104543
 21
9.548280925666176
 31
0.0
  0
LINE
  5
116
330
2
100
AcDbEntity
  8
0000
  6
Continuous
 62
     3
370
     5
100
AcDbLine
 10
21.92092697995168
 20
7.689760417853675
 30
0.0
 11
21.92092697995168
 21
9.548280925666176
 31
0.0
  0
LINE
  5
117
330
2
100
AcDbEntity
  8
0000
  6
Continuous
 62
     3
370
     5
100
AcDbLine
 10
25.35439865963918
 20
7.689760417853675
 30
0.0
 11
21.92092697995168
 21
7.689760417853675
 31
0.0
  0
LINE
  5
118
330
2
100
AcDbEntity
  8
0000
  6
Continuous
 62
     3
370
     5
100
AcDbLine
 10
25.35439865963918
 20
6.933778972541175
 30
0.0
 11
25.35439865963918
 21
7.689760417853675
 31
0.0
  0
LINE
  5
119
330
2
100
AcDbEntity
  8
0000
  6
Continuous
 62
     3
370
     5
100
AcDbLine
 10
21.92092697995168
 20
6.933778972541175
 30
0.0
 11
25.35439865963918
 21
6.933778972541175
 31
0.0
  0
LINE
  5
11A
330
2
100
AcDbEntity
  8
0000
  6
Continuous
 62
     3
370
     5
100
AcDbLine
 10
21.92092697995168
 20
4.854738445197425
 30
0.0
 11
21.92092697995168
 21
6.933778972541175
 31
0.0
  0
LINE
  5
11B
330
2
100
AcDbEntity
  8
0000
  6
Continuous
 62
     3
370
     5
100
AcDbLine
 10
25.76394455807668
 20
4.854738445197425
 30
0.0
 11
21.92092697995168
 21
4.854738445197425
 31
0.0
  0
LINE
  5
11C
330
2
100
AcDbEntity
  8
0000
  6
Continuous
 62
     3
370
     5
100
AcDbLine
 10
25.76394455807668
 20
4.035768718634925
 30
0.0
 11
25.76394455807668
 21
4.854738445197425
 31
0.0
  0
LINE
  5
11D
330
2
100
AcDbEntity
  8
0000
  6
Continuous
 62
     3
370
     5
100
AcDbLine
 10
21.00741379635792
 20
4.035768718634925
 30
0.0
 11
25.76394455807668
 21
4.035768718634925
 31
0.0
  0
LINE
  5
11E
330
2
100
AcDbEntity
  8
0000
  6
Continuous
 62
     3
370
     5
100
AcDbLine
 10
15.24294846432667
 20
10.33575651160367
 30
0.0
 11
15.24294846432667
 21
9.579775066291176
 31
0.0
  0
LINE
  5
11F
330
2
100
AcDbEntity
  8
0000
  6
Continuous
 62
     3
370
     5
100
AcDbLine
 10
20.18844406979543
 20
10.33575651160367
 30
0.0
 11
15.24294846432667
 21
10.33575651160367
 31
0.0
  0
LINE
  5
120
330
2
100
AcDbEntity
  8
0000
  6
Continuous
 62
     3
370
     5
100
AcDbLine
 10
20.18844406979543
 20
9.579775066291176
 30
0.0
 11
20.18844406979543
 21
10.33575651160367
 31
0.0
  0
LINE
  5
121
330
2
100
AcDbEntity
  8
0000
  6
Continuous
 62
     3
370
     5
100
AcDbLine
 10
18.17245285885792
 20
9.579775066291176
 30
0.0
 11
20.18844406979543
 21
9.579775066291176
 31
0.0
  0
LINE
  5
122
330
2
100
AcDbEntity
  8
0000
  6
Continuous
 62
     3
370
     5
100
AcDbLine
 10
18.17245285885792
 20
4.035768718634925
 30
0.0
 11
18.17245285885792
 21
9.579775066291176
 31
0.0
  0
LINE
  5
123
330
2
100
AcDbEntity
  8
0000
  6
Continuous
 62
     3
370
     5
100
AcDbLine
 10
17.25893967526417
 20
4.035768718634925
 30
0.0
 11
18.17245285885792
 21
4.035768718634925
 31
0.0
  0
LINE
  5
124
330
2
100
AcDbEntity
  8
0000
  6
Continuous
 62
     3
370
     5
100
AcDbLine
 10
17.25893967526417
 20
9.579775066291176
 30
0.0
 11
17.25893967526417
 21
4.035768718634925
 31
0.0
  0
LINE
  5
125
330
2
100
AcDbEntity
  8
0000
  6
Continuous
 62
     3
370
     5
100
AcDbLine
 10
15.24294846432667
 20
9.579775066291176
 30
0.0
 11
17.25893967526417
 21
9.579775066291176
 31
0.0
  0
LINE
  5
126
330
2
100
AcDbEntity
  8
0000
  6
Continuous
 62
     3
370
     5
100
AcDbLine
 10
10.80496018307667
 20
6.240175456916175
 30
0.0
 11
9.941678933076671
 21
6.209291667853675
 31
0.0
  0
ARC
  5
127
330
2
100
AcDbEntity
  8
0000
  6
Continuous
 62
     3
370
     5
100
AcDbCircle
 10
12.42825119870167
 20
6.240724773322425
 30
0.0
 40
1.623352169990514
100
AcDbArc
 50
180.0215474256015
 51
254.3562993327891
  0
ARC
  5
128
330
2
100
AcDbEntity
  8
0000
  6
Continuous
 62
     3
370
     5
100
AcDbCircle
 10
12.64877121823292
 20
7.028261394416175
 30
0.0
 40
2.441118478774995
100
AcDbArc
 50
254.3576653706236
 51
286.858519479481
  0
ARC
  5
129
330
2
100
AcDbEntity
  8
0000
  6
Continuous
 62
     3
370
     5
100
AcDbCircle
 10
12.96377365963917
 20
5.988771648322425
 30
0.0
 40
1.354922533035187
100
AcDbArc
 50
286.8587107247732
 51
327.5268591563266
  0
ARC
  5
12A
330
2
100
AcDbEntity
  8
0000
  6
Continuous
 62
     3
370
     5
100
AcDbCircle
 10
13.31027024167042
 20
5.768251628791175
 30
0.0
 40
0.9442601203918215
100
AcDbArc
 50
327.5282525149114
 51
63.43383829374436
  0
ARC
  5
12B
330
2
100
AcDbEntity
  8
0000
  6
Continuous
 62
     3
370
     5
100
AcDbCircle
 10
12.14474289792042
 20
3.437257976447426
 30
0.0
 40
3.550358533859191
100
AcDbArc
 50
63.43495161457697
 51
77.6604598065272
  0
LINE
  5
12C
330
2
100
AcDbEntity
  8
0000
  6
Continuous
 62
     3
370
     5
100
AcDbLine
 10
11.74062912838917
 20
7.159975261603675
 30
0.0
 11
12.90347092526417
 21
6.905580730353675
 31
0.0
  0
ARC
  5
12D
330
2
100
AcDbEntity
  8
0000
  6
Continuous
 62
     3
370
     5
100
AcDbCircle
 10
12.55520432370167
 20
10.88342496863492
 30
0.0
 40
3.811501264572035
100
AcDbArc
 50
248.8802907883775
 51
257.6607994947523
  0
ARC
  5
12E
330
2
100
AcDbEntity
  8
0000
  6
Continuous
 62
     3
370
     5
100
AcDbCircle
 10
11.73525803463917
 20
8.760744304572426
 30
0.0
 40
1.536002993583735
100
AcDbArc
 50
142.431136875567
 51
248.8795804487022
  0
ARC
  5
12F
330
2
100
AcDbEntity
  8
0000
  6
Continuous
 62
     3
370
     5
100
AcDbCircle
 10
11.93996994870167
 20
8.603273601447426
 30
0.0
 40
1.794305801391626
100
AcDbArc
 50
108.590261123256
 51
142.4328854039975
  0
ARC
  5
130
330
2
100
AcDbEntity
  8
0000
  6
Continuous
 62
     3
370
     5
100
AcDbCircle
 10
12.52279465573292
 20
6.870729656134925
 30
0.0
 40
3.622211456298931
100
AcDbArc
 50
78.69082799377018
 51
108.5907733874456
  0
ARC
  5
131
330
2
100
AcDbEntity
  8
0000
  6
Continuous
 62
     3
370
     5
100
AcDbCircle
 10
12.83779709713917
 20
8.445741863166176
 30
0.0
 40
2.0159912109375
100
AcDbArc
 50
0.0
 51
78.69133342776668
  0
LINE
  5
132
330
2
100
AcDbEntity
  8
0000
  6
Continuous
 62
     3
370
     5
100
AcDbLine
 10
14.04470627682667
 20
8.445741863166176
 30
0.0
 11
14.85378830807667
 21
8.445741863166176
 31
0.0
  0
ARC
  5
133
330
2
100
AcDbEntity
  8
0000
  6
Continuous
 62
     3
370
     5
100
AcDbCircle
 10
12.64877121823292
 20
8.382753581916176
 30
0.0
 40
1.397355437278702
100
AcDbArc
 50
2.583584580686496
 51
78.92971385998912
  0
ARC
  5
134
330
2
100
AcDbEntity
  8
0000
  6
Continuous
 62
     3
370
     5
100
AcDbCircle
 10
12.50698655026417
 20
7.658266277228675
 30
0.0
 40
2.135558843612712
100
AcDbArc
 50
78.93028759588118
 51
110.282659056185
  0
ARC
  5
135
330
2
100
AcDbEntity
  8
0000
  6
Continuous
 62
     3
370
     5
100
AcDbCircle
 10
12.23928635495167
 20
8.382753581916176
 30
0.0
 40
1.363204956054759
100
AcDbArc
 50
110.281614037238
 51
128.1575851329918
  0
ARC
  5
136
330
2
100
AcDbEntity
  8
0000
  6
Continuous
 62
     3
370
     5
100
AcDbCircle
 10
11.89272873776417
 20
8.823732585822426
 30
0.0
 40
0.8023754358291379
100
AcDbArc
 50
128.1574758499679
 51
245.3255871367389
  0
ARC
  5
137
330
2
100
AcDbEntity
  8
0000
  6
Continuous
 62
     3
370
     5
100
AcDbCircle
 10
12.96468918698292
 20
11.15753385535367
 30
0.0
 40
3.370490074157723
100
AcDbArc
 50
245.3279913633236
 51
258.3046131259187
  0
LINE
  5
138
330
2
100
AcDbEntity
  8
0000
  6
Continuous
 62
     3
370
     5
100
AcDbLine
 10
13.17880051510792
 20
7.671327800666175
 30
0.0
 11
12.28146164792042
 21
7.856996745978675
 31
0.0
  0
ARC
  5
139
330
2
100
AcDbEntity
  8
0000
  6
Continuous
 62
     3
370
     5
100
AcDbCircle
 10
12.19595139401417
 20
2.920961589728676
 30
0.0
 40
4.850988864898677
100
AcDbArc
 50
66.62023082457776
 51
78.31048890983741
  0
ARC
  5
13A
330
2
100
AcDbEntity
  8
0000
  6
Continuous
 62
     3
370
     5
100
AcDbCircle
 10
13.46774094479542
 20
5.862734050666175
 30
0.0
 40
1.64603972434995
100
AcDbArc
 50
11.30993266170246
 51
66.61984150379575
  0
ARC
  5
13B
330
2
100
AcDbEntity
  8
0000
  6
Continuous
 62
     3
370
     5
100
AcDbCircle
 10
13.31027024167042
 20
5.831239910041175
 30
0.0
 40
1.806689500808668
100
AcDbArc
 50
323.1312772555892
 51
11.30955273243411
  0
ARC
  5
13C
330
2
100
AcDbEntity
  8
0000
  6
Continuous
 62
     3
370
     5
100
AcDbCircle
 10
13.18423264401417
 20
5.925722331916175
 30
0.0
 40
1.964149832725588
100
AcDbArc
 50
289.5734650330481
 51
323.1315231423973
  0
ARC
  5
13D
330
2
100
AcDbEntity
  8
0000
  6
Continuous
 62
     3
370
     5
100
AcDbCircle
 10
12.68026535885792
 20
7.343263835822425
 30
0.0
 40
3.468596220016594
100
AcDbArc
 50
250.0169981908073
 51
289.5737382406131
  0
ARC
  5
13E
330
2
100
AcDbEntity
  8
0000
  6
Continuous
 62
     3
370
     5
100
AcDbCircle
 10
12.30227463620167
 20
6.303774089728675
 30
0.0
 40
2.36248326301582
100
AcDbArc
 50
182.2905772490127
 51
250.016615700215
  0
LINE
  5
13F
330
2
100
AcDbEntity
  8
0000
  6
Continuous
 62
     3
370
     5
100
AcDbLine
 10
5.183256081514172
 20
10.33575651160367
 30
0.0
 11
4.112272194795423
 21
10.33575651160367
 31
0.0
  0
LINE
  5
140
330
2
100
AcDbEntity
  8
0000
  6
Continuous
 62
     3
370
     5
100
AcDbLine
 10
6.962003640107922
 20
7.382387370978675
 30
0.0
 11
5.183256081514172
 21
10.33575651160367
 31
0.0
  0
LINE
  5
141
330
2
100
AcDbEntity
  8
0000
  6
Continuous
 62
     3
370
     5
100
AcDbLine
 10
8.774259499482923
 20
10.33575651160367
 30
0.0
 11
6.962003640107922
 21
7.382387370978675
 31
0.0
  0
LINE
  5
142
330
2
100
AcDbEntity
  8
0000
  6
Continuous
 62
     3
370
     5
100
AcDbLine
 10
9.813749245576671
 20
10.33575651160367
 30
0.0
 11
8.774259499482923
 21
10.33575651160367
 31
0.0
  0
LINE
  5
143
330
2
100
AcDbEntity
  8
0000
  6
Continuous
 62
     3
370
     5
100
AcDbLine
 10
7.419767311982922
 20
6.681764812384925
 30
0.0
 11
9.813749245576671
 21
10.33575651160367
 31
0.0
  0
LINE
  5
144
330
2
100
AcDbEntity
  8
0000
  6
Continuous
 62
     3
370
     5
100
AcDbLine
 10
7.419767311982922
 20
4.035768718634925
 30
0.0
 11
7.419767311982922
 21
6.681764812384925
 31
0.0
  0
LINE
  5
145
330
2
100
AcDbEntity
  8
0000
  6
Continuous
 62
     3
370
     5
100
AcDbLine
 10
6.506254128389172
 20
4.035768718634925
 30
0.0
 11
7.419767311982922
 21
4.035768718634925
 31
0.0
  0
LINE
  5
146
330
2
100
AcDbEntity
  8
0000
  6
Continuous
 62
     3
370
     5
100
AcDbLine
 10
6.506254128389172
 20
6.681764812384925
 30
0.0
 11
6.506254128389172
 21
4.035768718634925
 31
0.0
  0
LINE
  5
147
330
2
100
AcDbEntity
  8
0000
  6
Continuous
 62
     3
370
     5
100
AcDbLine
 10
4.112272194795423
 20
10.33575651160367
 30
0.0
 11
6.506254128389172
 21
6.681764812384925
 31
0.0
  0
LINE
  5
148
330
2
100
AcDbEntity
  8
0000
  6
Continuous
 62
     3
370
     5
100
AcDbLine
 10
-0.3257160864545767
 20
6.240175456916175
 30
0.0
 11
-1.188997336454576
 21
6.209291667853675
 31
0.0
  0
ARC
  5
149
330
2
100
AcDbEntity
  8
0000
  6
Continuous
 62
     3
370
     5
100
AcDbCircle
 10
1.297635964326672
 20
6.240724773322425
 30
0.0
 40
1.623352169990514
100
AcDbArc
 50
180.0215474256015
 51
254.3562993327891
  0
ARC
  5
14A
330
2
100
AcDbEntity
  8
0000
  6
Continuous
 62
     3
370
     5
100
AcDbCircle
 10
1.518094948701673
 20
7.028261394416175
 30
0.0
 40
2.441118478774995
100
AcDbArc
 50
254.3576653706236
 51
286.858519479481
  0
ARC
  5
14B
330
2
100
AcDbEntity
  8
0000
  6
Continuous
 62
     3
370
     5
100
AcDbCircle
 10
1.833097390107923
 20
5.988771648322425
 30
0.0
 40
1.354922533035187
100
AcDbArc
 50
286.8587107247732
 51
327.5310665528561
  0
ARC
  5
14C
330
2
100
AcDbEntity
  8
0000
  6
Continuous
 62
     3
370
     5
100
AcDbCircle
 10
2.179593972139173
 20
5.768251628791175
 30
0.0
 40
0.9442601203918215
100
AcDbArc
 50
327.5282525149114
 51
63.43797738837896
  0
ARC
  5
14D
330
2
100
AcDbEntity
  8
0000
  6
Continuous
 62
     3
370
     5
100
AcDbCircle
 10
1.014066628389173
 20
3.437257976447426
 30
0.0
 40
3.550358533859191
100
AcDbArc
 50
63.43495161457697
 51
77.6604598065272
  0
LINE
  5
14E
330
2
100
AcDbEntity
  8
0000
  6
Continuous
 62
     3
370
     5
100
AcDbLine
 10
0.6100138940141733
 20
7.159975261603675
 30
0.0
 11
1.772794655732923
 21
6.905580730353675
 31
0.0
  0
ARC
  5
14F
330
2
100
AcDbEntity
  8
0000
  6
Continuous
 62
     3
370
     5
100
AcDbCircle
 10
1.424528054170423
 20
10.88342496863492
 30
0.0
 40
3.811501264572035
100
AcDbArc
 50
248.8802907883775
 51
257.6607994947523
  0
ARC
  5
150
330
2
100
AcDbEntity
  8
0000
  6
Continuous
 62
     3
370
     5
100
AcDbCircle
 10
0.6046428002641733
 20
8.760744304572426
 30
0.0
 40
1.536002993583735
100
AcDbArc
 50
142.431136875567
 51
248.8795804487022
  0
ARC
  5
151
330
2
100
AcDbEntity
  8
0000
  6
Continuous
 62
     3
370
     5
100
AcDbCircle
 10
0.809354714326673
 20
8.603273601447426
 30
0.0
 40
1.794325232505901
100
AcDbArc
 50
108.5921052743353
 51
142.4322570265958
  0
ARC
  5
152
330
2
100
AcDbEntity
  8
0000
  6
Continuous
 62
     3
370
     5
100
AcDbCircle
 10
1.392118386201672
 20
6.870729656134925
 30
0.0
 40
3.622211456298931
100
AcDbArc
 50
78.69082799377018
 51
108.5907733874456
  0
ARC
  5
153
330
2
100
AcDbEntity
  8
0000
  6
Continuous
 62
     3
370
     5
100
AcDbCircle
 10
1.707120827607923
 20
8.445741863166176
 30
0.0
 40
2.0159912109375
100
AcDbArc
 50
0.0
 51
78.68957123896399
  0
LINE
  5
154
330
2
100
AcDbEntity
  8
0000
  6
Continuous
 62
     3
370
     5
100
AcDbLine
 10
2.914030007295423
 20
8.445741863166176
 30
0.0
 11
3.723112038545423
 21
8.445741863166176
 31
0.0
  0
ARC
  5
155
330
2
100
AcDbEntity
  8
0000
  6
Continuous
 62
     3
370
     5
100
AcDbCircle
 10
1.518094948701673
 20
8.382753581916176
 30
0.0
 40
1.397355437278702
100
AcDbArc
 50
2.583584580686496
 51
78.92971385998912
  0
ARC
  5
156
330
2
100
AcDbEntity
  8
0000
  6
Continuous
 62
     3
370
     5
100
AcDbCircle
 10
1.376371315889172
 20
7.658266277228675
 30
0.0
 40
2.135558843612712
100
AcDbArc
 50
78.93028759588118
 51
110.282659056185
  0
ARC
  5
157
330
2
100
AcDbEntity
  8
0000
  6
Continuous
 62
     3
370
     5
100
AcDbCircle
 10
1.108610085420422
 20
8.382753581916176
 30
0.0
 40
1.363204956054759
100
AcDbArc
 50
110.281614037238
 51
128.1575851329918
  0
ARC
  5
158
330
2
100
AcDbEntity
  8
0000
  6
Continuous
 62
     3
370
     5
100
AcDbCircle
 10
0.7621135033891733
 20
8.823732585822426
 30
0.0
 40
0.8023754358291379
100
AcDbArc
 50
128.1574758499679
 51
245.3255871367389
  0
ARC
  5
159
330
2
100
AcDbEntity
  8
0000
  6
Continuous
 62
     3
370
     5
100
AcDbCircle
 10
1.834012917451673
 20
11.15753385535367
 30
0.0
 40
3.370490074157723
100
AcDbArc
 50
245.3279913633236
 51
258.3056786354279
  0
LINE
  5
15A
330
2
100
AcDbEntity
  8
0000
  6
Continuous
 62
     3
370
     5
100
AcDbLine
 10
2.048124245576673
 20
7.671327800666175
 30
0.0
 11
1.150846413545422
 21
7.856996745978675
 31
0.0
  0
ARC
  5
15B
330
2
100
AcDbEntity
  8
0000
  6
Continuous
 62
     3
370
     5
100
AcDbCircle
 10
1.065275124482923
 20
2.920961589728676
 30
0.0
 40
4.850988864898677
100
AcDbArc
 50
66.62023082457776
 51
78.31048890983741
  0
ARC
  5
15C
330
2
100
AcDbEntity
  8
0000
  6
Continuous
 62
     3
370
     5
100
AcDbCircle
 10
2.337064675264173
 20
5.862734050666175
 30
0.0
 40
1.64603972434995
100
AcDbArc
 50
11.30993266170246
 51
66.61984150379575
  0
ARC
  5
15D
330
2
100
AcDbEntity
  8
0000
  6
Continuous
 62
     3
370
     5
100
AcDbCircle
 10
2.179593972139173
 20
5.831239910041175
 30
0.0
 40
1.806640625000045
100
AcDbArc
 50
323.1301024630511
 51
11.31017001078357
  0
ARC
  5
15E
330
2
100
AcDbEntity
  8
0000
  6
Continuous
 62
     3
370
     5
100
AcDbCircle
 10
2.053617409639173
 20
5.925722331916175
 30
0.0
 40
1.964149832725588
100
AcDbArc
 50
289.5734650330481
 51
323.1315231423973
  0
ARC
  5
15F
330
2
100
AcDbEntity
  8
0000
  6
Continuous
 62
     3
370
     5
100
AcDbCircle
 10
1.549589089326673
 20
7.343263835822425
 30
0.0
 40
3.468596220016594
100
AcDbArc
 50
250.0169981908073
 51
289.5737382406131
  0
ARC
  5
160
330
2
100
AcDbEntity
  8
0000
  6
Continuous
 62
     3
370
     5
100
AcDbCircle
 10
1.171598366670422
 20
6.303774089728675
 30
0.0
 40
2.36248326301582
100
AcDbArc
 50
182.2905772490127
 51
250.016615700215
  0
LINE
  5
161
330
2
100
AcDbEntity
  8
0000
  6
Continuous
 62
     3
370
     5
100
AcDbLine
 10
-9.253365012235915
 20
9.579775066291176
 30
0.0
 11
-9.253365012235915
 21
4.791750163947425
 31
0.0
  0
LINE
  5
162
330
2
100
AcDbEntity
  8
0000
  6
Continuous
 62
     3
370
     5
100
AcDbLine
 10
-7.741402121610917
 20
9.579775066291176
 30
0.0
 11
-9.253365012235915
 21
9.579775066291176
 31
0.0
  0
ARC
  5
163
330
2
100
AcDbEntity
  8
0000
  6
Continuous
 62
     3
370
     5
100
AcDbCircle
 10
-7.741402121610917
 20
7.689760417853675
 30
0.0
 40
1.890024065971438
100
AcDbArc
 50
60.6560549998116
 51
90.00000250448051
  0
ARC
  5
164
330
2
100
AcDbEntity
  8
0000
  6
Continuous
 62
     3
370
     5
100
AcDbCircle
 10
-7.540718527860917
 20
8.046694011603676
 30
0.0
 40
1.480471372604417
100
AcDbArc
 50
19.22750843814907
 51
60.65524903749016
  0
ARC
  5
165
330
2
100
AcDbEntity
  8
0000
  6
Continuous
 62
     3
370
     5
100
AcDbCircle
 10
-10.00940749270466
 20
7.185732097541175
 30
0.0
 40
4.094986915588425
100
AcDbArc
 50
341.7705629722286
 51
19.22654538148033
  0
ARC
  5
166
330
2
100
AcDbEntity
  8
0000
  6
Continuous
 62
     3
370
     5
100
AcDbCircle
 10
-7.496223898954667
 20
6.358034343634925
 30
0.0
 40
1.449041485786465
100
AcDbArc
 50
321.1140491861147
 51
341.7688144437982
  0
ARC
  5
167
330
2
100
AcDbEntity
  8
0000
  6
Continuous
 62
     3
370
     5
100
AcDbCircle
 10
-7.741402121610917
 20
6.555727214728675
 30
0.0
 40
1.76397705078125
100
AcDbArc
 50
270.0000006832427
 51
321.1157430730285
  0
LINE
  5
168
330
2
100
AcDbEntity
  8
0000
  6
Continuous
 62
     3
370
     5
100
AcDbLine
 10
-9.253365012235915
 20
4.791750163947425
 30
0.0
 11
-7.741402121610917
 21
4.791750163947425
 31
0.0
  0
LINE
  5
169
330
2
100
AcDbEntity
  8
0000
  6
Continuous
 62
     3
370
     5
100
AcDbLine
 10
-10.16687819582966
 20
10.33575651160367
 30
0.0
 11
-10.16687819582966
 21
4.035768718634925
 31
0.0
  0
LINE
  5
16A
330
2
100
AcDbEntity
  8
0000
  6
Continuous
 62
     3
370
     5
100
AcDbLine
 10
-7.709907980985917
 20
10.33575651160367
 30
0.0
 11
-10.16687819582966
 21
10.33575651160367
 31
0.0
  0
ARC
  5
16B
330
2
100
AcDbEntity
  8
0000
  6
Continuous
 62
     3
370
     5
100
AcDbCircle
 10
-7.709907980985917
 20
7.595277995978675
 30
0.0
 40
2.740492105483983
100
AcDbArc
 50
49.80867640907506
 51
90.0000025044798
  0
ARC
  5
16C
330
2
100
AcDbEntity
  8
0000
  6
Continuous
 62
     3
370
     5
100
AcDbCircle
 10
-7.506599875517167
 20
7.835878581916175
 30
0.0
 40
2.425499916076571
100
AcDbArc
 50
14.7772457504615
 51
49.80961897518029
  0
ARC
  5
16D
330
2
100
AcDbEntity
  8
0000
  6
Continuous
 62
     3
370
     5
100
AcDbCircle
 10
-9.851875754423415
 20
7.217226238166175
 30
0.0
 40
4.851011276245058
100
AcDbArc
 50
344.6344886119729
 51
14.77665323155231
  0
ARC
  5
16E
330
2
100
AcDbEntity
  8
0000
  6
Continuous
 62
     3
370
     5
100
AcDbCircle
 10
-7.604195090360917
 20
6.599550456916175
 30
0.0
 40
2.519986391067514
100
AcDbArc
 50
299.1308940971351
 51
344.6352809139167
  0
ARC
  5
16F
330
2
100
AcDbEntity
  8
0000
  6
Continuous
 62
     3
370
     5
100
AcDbCircle
 10
-7.772896262235917
 20
6.902223796759925
 30
0.0
 40
2.86651611328125
100
AcDbArc
 50
270.0000006832439
 51
299.129719304596
  0
LINE
  5
170
330
2
100
AcDbEntity
  8
0000
  6
Continuous
 62
     3
370
     5
100
AcDbLine
 10
-10.16687819582966
 20
4.035768718634925
 30
0.0
 11
-7.772896262235917
 21
4.035768718634925
 31
0.0
  0
LINE
  5
171
330
2
100
AcDbEntity
  8
0000
  6
Continuous
 62
     3
370
     5
100
AcDbLine
 10
-12.52936598879841
 20
10.33575651160367
 30
0.0
 11
-12.52936598879841
 21
4.035768718634925
 31
0.0
  0
LINE
  5
172
330
2
100
AcDbEntity
  8
0000
  6
Continuous
 62
     3
370
     5
100
AcDbLine
 10
-11.61591384036092
 20
10.33575651160367
 30
0.0
 11
-12.52936598879841
 21
10.33575651160367
 31
0.0
  0
LINE
  5
173
330
2
100
AcDbEntity
  8
0000
  6
Continuous
 62
     3
370
     5
100
AcDbLine
 10
-11.61591384036092
 20
4.035768718634925
 30
0.0
 11
-11.61591384036092
 21
10.33575651160367
 31
0.0
  0
LINE
  5
174
330
2
100
AcDbEntity
  8
0000
  6
Continuous
 62
     3
370
     5
100
AcDbLine
 10
-12.52936598879841
 20
4.035768718634925
 30
0.0
 11
-11.61591384036092
 21
4.035768718634925
 31
0.0
  0
INSERT
  5
175
330
2
100
AcDbEntity
  8
0000
100
AcDbBlockReference
  2
GD2Parts_ds20urw外観_7
 10
-21.00914014410887
 20
4.035756511603722
 30
0.0
  0
INSERT
  5
183
330
2
100
AcDbEntity
  8
0000
100
AcDbBlockReference
  2
ＮＯＮＡＭＥ_ds20urw外観_6
 10
-34.91802651845069
 20
-8.079333810890956
 30
0.0
  0
INSERT
  5
200
330
2
100
AcDbEntity
  8
0000
100
AcDbBlockReference
  2
ＮＯＮＡＭＥ_ds20urw外観_4
 10
12.32388927345269
 20
-7.964235096062338
 30
0.0
  0
ARC
  5
219
330
2
100
AcDbEntity
  8
0000
  6
Continuous
 62
     3
370
     5
100
AcDbCircle
 10
14.42676107920556
 20
-5.714235096062338
 30
0.0
 40
5.120642781257448
100
AcDbArc
 50
347.0190715757628
 51
0.0
  0
ARC
  5
21A
330
2
100
AcDbEntity
  8
0000
  6
Continuous
 62
     3
370
     5
100
AcDbCircle
 10
14.42676107920556
 20
-5.714235096062338
 30
0.0
 40
5.120658874511717
100
AcDbArc
 50
0.0
 51
12.98094014969989
  0
ARC
  5
21B
330
2
100
AcDbEntity
  8
0000
  6
Continuous
 62
     3
370
     5
100
AcDbCircle
 10
18.01125662363915
 20
-4.887943058098471
 30
0.0
 40
1.442142516374476
100
AcDbArc
 50
12.98086587138265
 51
41.63246185932575
  0
ARC
  5
21C
330
2
100
AcDbEntity
  8
0000
  6
Continuous
 62
     3
370
     5
100
AcDbCircle
 10
17.80176107920556
 20
-5.074144153679526
 30
0.0
 40
1.722447976469668
100
AcDbArc
 50
41.632639444242
 51
90.00000250447408
  0
ARC
  5
21D
330
2
100
AcDbEntity
  8
0000
  6
Continuous
 62
     3
370
     5
100
AcDbCircle
 10
17.80176107920556
 20
-4.887943058098471
 30
0.0
 40
1.0008544921875
100
AcDbArc
 50
90.00000250447817
 51
140.1920369411113
  0
ARC
  5
21E
330
2
100
AcDbEntity
  8
0000
  6
Continuous
 62
     3
370
     5
100
AcDbCircle
 10
17.94142477549462
 20
-5.004312305534995
 30
0.0
 40
1.182621091604109
100
AcDbArc
 50
140.1933619977978
 51
169.0740109408772
  0
ARC
  5
21F
330
2
100
AcDbEntity
  8
0000
  6
Continuous
 62
     3
370
     5
100
AcDbCircle
 10
21.61902945078759
 20
-5.714235096062338
 30
0.0
 40
4.928123474121009
100
AcDbArc
 50
169.0740382616364
 51
180.0000050089576
  0
ARC
  5
220
330
2
100
AcDbEntity
  8
0000
  6
Continuous
 62
     3
370
     5
100
AcDbCircle
 10
21.61902945078759
 20
-5.714235096062338
 30
0.0
 40
4.928123474121112
100
AcDbArc
 50
180.0000050089576
 51
190.925971756281
  0
ARC
  5
221
330
2
100
AcDbEntity
  8
0000
  6
Continuous
 62
     3
370
     5
100
AcDbCircle
 10
17.94142477549462
 20
-6.424140720451986
 30
0.0
 40
1.182623773813159
100
AcDbArc
 50
190.9259990770545
 51
219.8069622088206
  0
ARC
  5
222
330
2
100
AcDbEntity
  8
0000
  6
Continuous
 62
     3
370
     5
100
AcDbCircle
 10
17.80176107920556
 20
-6.540527134026205
 30
0.0
 40
1.000830754637775
100
AcDbArc
 50
219.807590586231
 51
270.0000006832486
  0
ARC
  5
223
330
2
100
AcDbEntity
  8
0000
  6
Continuous
 62
     3
370
     5
100
AcDbCircle
 10
17.80176107920556
 20
-6.540527134026205
 30
0.0
 40
1.0008544921875
100
AcDbArc
 50
270.0000006832324
 51
320.1956892710694
  0
ARC
  5
224
330
2
100
AcDbEntity
  8
0000
  6
Continuous
 62
     3
370
     5
100
AcDbCircle
 10
17.66216604746728
 20
-6.424140720451986
 30
0.0
 40
1.182621091604574
100
AcDbArc
 50
320.1933670067313
 51
349.0740296102123
  0
ARC
  5
225
330
2
100
AcDbEntity
  8
0000
  6
Continuous
 62
     3
370
     5
100
AcDbCircle
 10
13.98456137217431
 20
-5.714235096062338
 30
0.0
 40
4.928123474121282
100
AcDbArc
 50
349.0740569309651
 51
0.0
  0
ARC
  5
226
330
2
100
AcDbEntity
  8
0000
  6
Continuous
 62
     3
370
     5
100
AcDbCircle
 10
13.98456137217431
 20
-5.714235096062338
 30
0.0
 40
4.928123474121092
100
AcDbArc
 50
0.0
 51
10.92596077090631
  0
ARC
  5
227
330
2
100
AcDbEntity
  8
0000
  6
Continuous
 62
     3
370
     5
100
AcDbCircle
 10
17.66216604746728
 20
-5.004312305534995
 30
0.0
 40
1.182623773813235
100
AcDbArc
 50
10.92598553032487
 51
39.80663618096195
  0
ARC
  5
228
330
2
100
AcDbEntity
  8
0000
  6
Continuous
 62
     3
370
     5
100
AcDbCircle
 10
17.80176107920556
 20
-4.887943058098471
 30
0.0
 40
1.000883527099786
100
AcDbArc
 50
39.80506865254603
 51
90.00000250447063
  0
ARC
  5
229
330
2
100
AcDbEntity
  8
0000
  6
Continuous
 62
     3
370
     5
100
AcDbCircle
 10
17.80176107920556
 20
-5.074144153679526
 30
0.0
 40
1.722415924072266
100
AcDbArc
 50
90.00000250448286
 51
138.3656306966532
  0
ARC
  5
22A
330
2
100
AcDbEntity
  8
0000
  6
Continuous
 62
     3
370
     5
100
AcDbCircle
 10
17.59226553477197
 20
-4.887943058098471
 30
0.0
 40
1.442101076245465
100
AcDbArc
 50
138.3657263193118
 51
167.0181923025924
  0
ARC
  5
22B
330
2
100
AcDbEntity
  8
0000
  6
Continuous
 62
     3
370
     5
100
AcDbCircle
 10
21.17676107920556
 20
-5.714235096062338
 30
0.0
 40
5.120642781257833
100
AcDbArc
 50
167.0190665668058
 51
180.0000050089585
  0
ARC
  5
22C
330
2
100
AcDbEntity
  8
0000
  6
Continuous
 62
     3
370
     5
100
AcDbCircle
 10
21.17676107920556
 20
-5.714235096062338
 30
0.0
 40
5.120590209960957
100
AcDbArc
 50
180.000005008959
 51
192.981025413379
  0
ARC
  5
22D
330
2
100
AcDbEntity
  8
0000
  6
Continuous
 62
     3
370
     5
100
AcDbCircle
 10
17.59226553477197
 20
-6.540527134026205
 30
0.0
 40
1.44207546114905
100
AcDbArc
 50
192.9814898662384
 51
221.6337782646065
  0
ARC
  5
22E
330
2
100
AcDbEntity
  8
0000
  6
Continuous
 62
     3
370
     5
100
AcDbCircle
 10
17.80176107920556
 20
-6.354308872307455
 30
0.0
 40
1.722396612167619
100
AcDbArc
 50
221.6341607552017
 51
270.0000006832444
  0
ARC
  5
22F
330
2
100
AcDbEntity
  8
0000
  6
Continuous
 62
     3
370
     5
100
AcDbCircle
 10
17.80176107920556
 20
-6.354308872307455
 30
0.0
 40
1.722415924072264
100
AcDbArc
 50
270.0000006832443
 51
318.3677940453844
  0
ARC
  5
230
330
2
100
AcDbEntity
  8
0000
  6
Continuous
 62
     3
370
     5
100
AcDbCircle
 10
18.01125662363915
 20
-6.540527134026205
 30
0.0
 40
1.442152306437533
100
AcDbArc
 50
318.3675481585926
 51
347.0191535380382
  0
INSERT
  5
231
330
2
100
AcDbEntity
  8
0000
100
AcDbBlockReference
  2
ＮＯＮＡＭＥ_ds20urw外観_3
 10
29.20313943214888
 20
-7.964231281365072
 30
0.0
  0
INSERT
  5
242
330
2
100
AcDbEntity
  8
0000
100
AcDbBlockReference
  2
ＮＯＮＡＭＥ_ds20urw外観_2
 10
24.85590804231356
 20
-7.964231590346747
 30
0.0
  0
INSERT
  5
261
330
2
100
AcDbEntity
  8
0000
100
AcDbBlockReference
  2
ＮＯＮＡＭＥ_ds20urw外観_0
 10
20.3961721050423
 20
-7.964254106395866
 30
0.0
  0
LINE
  5
273
330
2
100
AcDbEntity
  8
0000
  6
Continuous
 62
     3
370
     5
100
AcDbLine
 10
-39.5
 20
166.4999999999999
 30
0.0
 11
-30.5
 21
166.4999999999999
 31
0.0
  0
LINE
  5
274
330
2
100
AcDbEntity
  8
0000
  6
Continuous
 62
     3
370
     5
100
AcDbLine
 10
-33.5
 20
166.4999999999999
 30
0.0
 11
-36.5
 21
166.4999999999999
 31
0.0
  0
LINE
  5
275
330
2
100
AcDbEntity
  8
0000
  6
Continuous
 62
     3
370
     5
100
AcDbLine
 10
37.99996948242188
 20
166.4999999999999
 30
0.0
 11
31.99996948242187
 21
166.4999999999999
 31
0.0
  0
LINE
  5
276
330
2
100
AcDbEntity
  8
0000
  6
Continuous
 62
     3
370
     5
100
AcDbLine
 10
69.0
 20
164.9999999999999
 30
0.0
 11
69.0
 21
169.9999999999999
 31
0.0
  0
LINE
  5
277
330
2
100
AcDbEntity
  8
0000
  6
Continuous
 62
     3
370
     5
100
AcDbLine
 10
61.0
 20
164.9999999999999
 30
0.0
 11
61.0
 21
169.9999999999999
 31
0.0
  0
LINE
  5
278
330
2
100
AcDbEntity
  8
0000
  6
Continuous
 62
     3
370
     5
100
AcDbLine
 10
-68.99996948242186
 20
164.9999999999999
 30
0.0
 11
-68.99996948242186
 21
169.9999999999999
 31
0.0
  0
LINE
  5
279
330
2
100
AcDbEntity
  8
0000
  6
Continuous
 62
     3
370
     5
100
AcDbLine
 10
-60.99996948242186
 20
164.9999999999999
 30
0.0
 11
-60.99996948242186
 21
169.9999999999999
 31
0.0
  0
LINE
  5
27A
330
2
100
AcDbEntity
  8
0000
  6
Continuous
 62
     3
370
     5
100
AcDbLine
 10
60.00003051757811
 20
161.9999999999999
 30
0.0
 11
58.322998046875
 21
130.0
 31
0.0
  0
LINE
  5
27B
330
2
100
AcDbEntity
  8
0000
  6
Continuous
 62
     3
370
     5
100
AcDbLine
 10
-69.99996948242189
 20
164.9999999999999
 30
0.0
 11
70.00003051757811
 21
164.9999999999999
 31
0.0
  0
LINE
  5
27C
330
2
100
AcDbEntity
  8
0000
  6
Continuous
 62
     3
370
     5
100
AcDbLine
 10
69.0
 20
161.9999999999999
 30
0.0
 11
60.00003051757811
 21
161.9999999999999
 31
0.0
  0
ARC
  5
27D
330
2
100
AcDbEntity
  8
0000
  6
Continuous
 62
     3
370
     5
100
AcDbCircle
 10
68.9649658203125
 20
162.9999999999999
 30
0.0
 40
1.0
100
AcDbArc
 50
270.000000683243
 51
358.9997971158553
  0
LINE
  5
27E
330
2
100
AcDbEntity
  8
0000
  6
Continuous
 62
     3
370
     5
100
AcDbLine
 10
70.00003051757811
 20
164.9999999999999
 30
0.0
 11
69.94766235351561
 21
161.9999999999999
 31
0.0
  0
LINE
  5
27F
330
2
100
AcDbEntity
  8
0000
  6
Continuous
 62
     3
370
     5
100
AcDbLine
 10
69.0
 20
169.9999999999999
 30
0.0
 11
61.0
 21
169.9999999999999
 31
0.0
  0
LINE
  5
280
330
2
100
AcDbEntity
  8
0000
  6
Continuous
 62
     3
370
     5
100
AcDbLine
 10
-59.99996948242188
 20
161.9999999999999
 30
0.0
 11
-58.32293701171875
 21
130.0
 31
0.0
  0
LINE
  5
281
330
2
100
AcDbEntity
  8
0000
  6
Continuous
 62
     3
370
     5
100
AcDbLine
 10
-69.99996948242189
 20
164.9999999999999
 30
0.0
 11
-69.94760131835938
 21
161.9999999999999
 31
0.0
  0
LINE
  5
282
330
2
100
AcDbEntity
  8
0000
  6
Continuous
 62
     3
370
     5
100
AcDbLine
 10
-68.99996948242186
 20
169.9999999999999
 30
0.0
 11
-60.99996948242186
 21
169.9999999999999
 31
0.0
  0
LINE
  5
283
330
2
100
AcDbEntity
  8
0000
  6
Continuous
 62
     3
370
     5
100
AcDbLine
 10
-68.78900146484375
 20
162.0000610351562
 30
0.0
 11
-60.0
 21
162.0000610351562
 31
0.0
  0
ARC
  5
284
330
2
100
AcDbEntity
  8
0000
  6
Continuous
 62
     3
370
     5
100
AcDbCircle
 10
-68.78900146484375
 20
163.0000610351562
 30
0.0
 40
0.9999956488609026
100
AcDbArc
 50
182.9983624319344
 51
270.000000683246
  0
ARC
  5
285
330
2
100
AcDbEntity
  8
0000
  6
Continuous
 62
     3
370
     5
100
AcDbCircle
 10
5.0
 20
130.6999969482422
 30
0.0
 40
1.29998779296875
100
AcDbArc
 50
0.0
 51
180.0000050089504
  0
LINE
  5
286
330
2
100
AcDbEntity
  8
0000
  6
Continuous
 62
     3
370
     5
100
AcDbLine
 10
6.29998779296875
 20
130.0
 30
0.0
 11
6.29998779296875
 21
130.6999969482422
 31
0.0
  0
LINE
  5
287
330
2
100
AcDbEntity
  8
0000
  6
Continuous
 62
     3
370
     5
100
AcDbLine
 10
3.70001220703125
 20
130.0
 30
0.0
 11
3.70001220703125
 21
130.6999969482422
 31
0.0
  0
ARC
  5
288
330
2
100
AcDbEntity
  8
0000
  6
Continuous
 62
     3
370
     5
100
AcDbCircle
 10
-5.0
 20
130.6999969482422
 30
0.0
 40
1.29998779296875
100
AcDbArc
 50
0.0
 51
180.0000050089504
  0
LINE
  5
289
330
2
100
AcDbEntity
  8
0000
  6
Continuous
 62
     3
370
     5
100
AcDbLine
 10
-6.29998779296875
 20
130.0
 30
0.0
 11
-6.29998779296875
 21
130.6999969482422
 31
0.0
  0
LINE
  5
28A
330
2
100
AcDbEntity
  8
0000
  6
Continuous
 62
     3
370
     5
100
AcDbLine
 10
-3.70001220703125
 20
130.0
 30
0.0
 11
-3.70001220703125
 21
130.6999969482422
 31
0.0
  0
LINE
  5
28B
330
2
100
AcDbEntity
  8
0000
  6
Continuous
 62
     3
370
     5
100
AcDbLine
 10
69.94766235351561
 20
161.9999999999999
 30
0.0
 11
68.5189208984375
 21
134.7384185791015
 31
0.0
  0
ARC
  5
28C
330
2
100
AcDbEntity
  8
0000
  6
Continuous
 62
     3
370
     5
100
AcDbCircle
 10
63.52578735351563
 20
135.0
 30
0.0
 40
5.0
100
AcDbArc
 50
270.0000006832456
 51
356.999917726877
  0
LINE
  5
28D
330
2
100
AcDbEntity
  8
0000
  6
Continuous
 62
     3
370
     5
100
AcDbLine
 10
-63.5257568359375
 20
130.0
 30
0.0
 11
63.52578735351563
 21
130.0
 31
0.0
  0
LINE
  5
28E
330
2
100
AcDbEntity
  8
0000
  6
Continuous
 62
     3
370
     5
100
AcDbLine
 10
-69.94760131835938
 20
161.9999999999999
 30
0.0
 11
-68.51889038085936
 21
134.7383575439453
 31
0.0
  0
ARC
  5
28F
330
2
100
AcDbEntity
  8
0000
  6
Continuous
 62
     3
370
     5
100
AcDbCircle
 10
-63.5257568359375
 20
135.0
 30
0.0
 40
5.000016212463466
100
AcDbArc
 50
182.9999197150734
 51
270.000000683246
  0
LINE
  5
290
330
2
100
AcDbEntity
  8
0000
  6
Continuous
 62
     3
370
     5
100
AcDbLine
 10
-60.99996948242186
 20
166.4999999999999
 30
0.0
 11
61.0
 21
166.4999999999999
 31
0.0
  0
LINE
  5
291
330
2
100
AcDbEntity
  8
0000
  6
Continuous
 62
     3
370
     5
100
AcDbLine
 10
0.0000152587890625
 20
168.5
 30
0.0
 11
-54.39337621188928
 21
168.5
 31
0.0
  0
ARC
  5
292
330
2
100
AcDbEntity
  8
0000
  6
Continuous
 62
     3
370
     5
100
AcDbCircle
 10
-53.80758977426261
 20
168.5
 30
0.0
 40
2.0
100
AcDbArc
 50
180.0
 51
270.0
  0
LINE
  5
293
330
2
100
AcDbEntity
  8
0000
  6
Continuous
 62
     3
370
     5
100
AcDbLine
 10
47.77210548075447
 20
168.49999999998
 30
0.0
 11
47.77210548075447
 21
166.4999999999945
 31
0.0
  0
ARC
  5
294
330
2
100
AcDbEntity
  8
0000
  6
Continuous
 62
     3
370
     5
100
AcDbCircle
 10
53.80762029184086
 20
168.5
 30
0.0
 40
2.0
100
AcDbArc
 50
270.0
 51
0.0
  0
LINE
  5
295
330
2
100
AcDbEntity
  8
0000
  6
Continuous
 62
     3
370
     5
100
AcDbLine
 10
0.0000152587890625
 20
168.5
 30
0.0
 11
54.39340672946753
 21
168.5
 31
0.0
  0
ARC
  5
296
330
2
100
AcDbEntity
  8
0000
  6
Continuous
 62
     3
370
     5
100
AcDbCircle
 10
35.00005340576183
 20
164.2000122070312
 30
0.0
 40
6.999983310699316
100
AcDbArc
 50
73.74298500074539
 51
106.2571974794443
  0
LINE
  5
297
330
2
100
AcDbEntity
  8
0000
  6
Continuous
 62
     3
370
     5
100
AcDbLine
 10
32.25005340576184
 20
169.2000122070312
 30
0.0
 11
32.32418060302747
 21
170.0472412109375
 31
0.0
  0
LINE
  5
298
330
2
100
AcDbEntity
  8
0000
  6
Continuous
 62
     3
370
     5
100
AcDbLine
 10
37.75005340576182
 20
169.2000122070312
 30
0.0
 11
37.67592620849621
 21
170.0472412109375
 31
0.0
  0
ARC
  5
299
330
2
100
AcDbEntity
  8
0000
  6
Continuous
 62
     3
370
     5
100
AcDbCircle
 10
33.3203811645509
 20
169.9600830078125
 30
0.0
 40
1.000012159347485
100
AcDbArc
 50
106.2581058946097
 51
174.9999283716318
  0
ARC
  5
29A
330
2
100
AcDbEntity
  8
0000
  6
Continuous
 62
     3
370
     5
100
AcDbCircle
 10
36.67972564697278
 20
169.9600830078125
 30
0.0
 40
0.9999908208846076
100
AcDbArc
 50
5.000190929308481
 51
73.74506137825687
  0
LINE
  5
29B
330
2
100
AcDbEntity
  8
0000
  6
Continuous
 62
     3
370
     5
100
AcDbLine
 10
32.0000686645509
 20
169.2000122070312
 30
0.0
 11
38.0000686645509
 21
169.2000122070312
 31
0.0
  0
LINE
  5
29C
330
2
100
AcDbEntity
  8
0000
  6
Continuous
 62
     3
370
     5
100
AcDbLine
 10
38.0000686645509
 20
168.5
 30
0.0
 11
38.0000686645509
 21
169.2000122070312
 31
0.0
  0
LINE
  5
29D
330
2
100
AcDbEntity
  8
0000
  6
Continuous
 62
     3
370
     5
100
AcDbLine
 10
32.0000686645509
 20
168.5
 30
0.0
 11
32.0000686645509
 21
169.2000122070312
 31
0.0
  0
LINE
  5
29E
330
2
100
AcDbEntity
  8
0000
  6
Continuous
 62
     3
370
     5
100
AcDbLine
 10
-32.00003814697277
 20
168.5000000000291
 30
0.0
 11
-32.00003814697277
 21
169.2000122070604
 31
0.0
  0
LINE
  5
29F
330
2
100
AcDbEntity
  8
0000
  6
Continuous
 62
     3
370
     5
100
AcDbLine
 10
-38.00003814697278
 20
168.5000000000291
 30
0.0
 11
-38.00003814697278
 21
169.2000122070604
 31
0.0
  0
LINE
  5
2A0
330
2
100
AcDbEntity
  8
0000
  6
Continuous
 62
     3
370
     5
100
AcDbLine
 10
-32.00003814697277
 20
169.2000122070604
 30
0.0
 11
-38.00003814697278
 21
169.2000122070604
 31
0.0
  0
ARC
  5
2A1
330
2
100
AcDbEntity
  8
0000
  6
Continuous
 62
     3
370
     5
100
AcDbCircle
 10
-36.67969512939464
 20
169.9600830078126
 30
0.0
 40
0.9999908208959432
100
AcDbArc
 50
106.2549386215535
 51
174.9998090693418
  0
ARC
  5
2A2
330
2
100
AcDbEntity
  8
0000
  6
Continuous
 62
     3
370
     5
100
AcDbCircle
 10
-33.32035064697277
 20
169.9600830078126
 30
0.0
 40
1.000012159347737
100
AcDbArc
 50
5.000071628471927
 51
73.74189410528815
  0
LINE
  5
2A3
330
2
100
AcDbEntity
  8
0000
  6
Continuous
 62
     3
370
     5
100
AcDbLine
 10
-37.75002288818372
 20
169.2000122070604
 30
0.0
 11
-37.67589569091807
 21
170.0472412109666
 31
0.0
  0
LINE
  5
2A4
330
2
100
AcDbEntity
  8
0000
  6
Continuous
 62
     3
370
     5
100
AcDbLine
 10
-32.25002288818372
 20
169.2000122070604
 30
0.0
 11
-32.32415008544933
 21
170.0472412109666
 31
0.0
  0
ARC
  5
2A5
330
2
100
AcDbEntity
  8
0000
  6
Continuous
 62
     3
370
     5
100
AcDbCircle
 10
-35.00002288818372
 20
164.2000122070314
 30
0.0
 40
6.999983310734249
100
AcDbArc
 50
73.74280252063901
 51
106.2570149992712
  0
LINE
  5
2A6
330
2
100
AcDbEntity
  8
0000
  6
Continuous
 62
     3
370
     5
100
AcDbLine
 10
69.80006185302716
 20
172.1999999999712
 30
0.0
 11
69.80006185302716
 21
170.1999999999858
 31
0.0
  0
LINE
  5
2A7
330
2
100
AcDbEntity
  8
0000
  6
Continuous
 62
     3
370
     5
100
AcDbLine
 10
55.80762029184086
 20
170.1999999999999
 30
0.0
 11
69.80006185302716
 21
170.1999999999999
 31
0.0
  0
LINE
  5
2A8
330
2
100
AcDbEntity
  8
0000
  6
Continuous
 62
     3
370
     5
100
AcDbLine
 10
56.39340672946754
 20
172.1999999999999
 30
0.0
 11
69.80006185302716
 21
172.1999999999999
 31
0.0
  0
LINE
  5
2A9
330
2
100
AcDbEntity
  8
0000
  6
Continuous
 62
     3
370
     5
100
AcDbLine
 10
55.80762029184086
 20
170.2000000000149
 30
0.0
 11
55.80762029184086
 21
168.5
 31
0.0
  0
LINE
  5
2AA
330
2
100
AcDbEntity
  8
0000
  6
Continuous
 62
     3
370
     5
100
AcDbLine
 10
54.39340672946753
 20
170.1999999999999
 30
0.0
 11
54.39340672946753
 21
166.5
 31
0.0
  0
ARC
  5
2AB
330
2
100
AcDbEntity
  8
0000
  6
Continuous
 62
     3
370
     5
100
AcDbCircle
 10
56.39340672946754
 20
170.1999999999999
 30
0.0
 40
2.0
100
AcDbArc
 50
90.0
 51
180.0
  0
LINE
  5
2AC
330
2
100
AcDbEntity
  8
0000
  6
Continuous
 62
     3
370
     5
100
AcDbLine
 10
68.0
 20
169.9999999999953
 30
0.0
 11
68.0
 21
170.1999999999807
 31
0.0
  0
LINE
  5
2AD
330
2
100
AcDbEntity
  8
0000
  6
Continuous
 62
     3
370
     5
100
AcDbLine
 10
62.0
 20
169.9999999999953
 30
0.0
 11
62.0
 21
170.1999999999807
 31
0.0
  0
LINE
  5
2AE
330
2
100
AcDbEntity
  8
0000
  6
Continuous
 62
     3
370
     5
100
AcDbLine
 10
-69.80003133544892
 20
172.1999999999712
 30
0.0
 11
-69.80003133544892
 21
170.1999999999858
 31
0.0
  0
LINE
  5
2AF
330
2
100
AcDbEntity
  8
0000
  6
Continuous
 62
     3
370
     5
100
AcDbLine
 10
-56.39337621188929
 20
172.1999999999999
 30
0.0
 11
-69.80003133544892
 21
172.1999999999999
 31
0.0
  0
LINE
  5
2B0
330
2
100
AcDbEntity
  8
0000
  6
Continuous
 62
     3
370
     5
100
AcDbLine
 10
-55.80758977426262
 20
170.1999999999999
 30
0.0
 11
-69.80003133544892
 21
170.1999999999999
 31
0.0
  0
ARC
  5
2B1
330
2
100
AcDbEntity
  8
0000
  6
Continuous
 62
     3
370
     5
100
AcDbCircle
 10
-56.39337621188929
 20
170.1999999999999
 30
0.0
 40
2.0
100
AcDbArc
 50
0.0
 51
90.0
  0
LINE
  5
2B2
330
2
100
AcDbEntity
  8
0000
  6
Continuous
 62
     3
370
     5
100
AcDbLine
 10
-54.39337621188928
 20
170.1999999999999
 30
0.0
 11
-54.39337621188928
 21
166.5
 31
0.0
  0
LINE
  5
2B3
330
2
100
AcDbEntity
  8
0000
  6
Continuous
 62
     3
370
     5
100
AcDbLine
 10
-55.80758977426262
 20
170.2000000000149
 30
0.0
 11
-55.80758977426262
 21
168.5
 31
0.0
  0
LINE
  5
2B4
330
2
100
AcDbEntity
  8
0000
  6
Continuous
 62
     3
370
     5
100
AcDbLine
 10
-67.99997711181652
 20
169.9999999999953
 30
0.0
 11
-67.99997711181652
 21
170.1999999999807
 31
0.0
  0
LINE
  5
2B5
330
2
100
AcDbEntity
  8
0000
  6
Continuous
 62
     3
370
     5
100
AcDbLine
 10
-61.99997711181651
 20
169.9999999999953
 30
0.0
 11
-61.99997711181651
 21
170.1999999999807
 31
0.0
  0
MTEXT
  5
2B6
330
2
100
AcDbEntity
  8
0000
  6
Continuous
 62
     3
370
     5
100
AcDbMText
 10
-76.82317880283296
 20
189.2819968929859
 30
0.0
 40
7.0
 41
0.0
 71
     7
 72
     5
  1
ＤＳ２０ＵＲＷ
  7
GD2_STANDARD
 73
     1
 44
1.0
1001
ACAD
1000
MTEXTBEGIN
1070
    73
1070
     1
1070
    44
1040
1.0
1070
    74
1070
     0
1000
MTEXTEND
  0
DIMENSION
  5
2B8
330
2
100
AcDbEntity
  8
0000
100
AcDbDimension
  2
*D6
 10
180.1999999999999
 20
93.83688914444148
 30
0.0
 11
159.8660551228416
 21
93.83688914444148
 31
0.0
 70
   128
  1
<>
 71
     5
 42
42.1999980926513
  3
GD2_Style6
100
AcDbAlignedDimension
 13
138.0000019073486
 23
58.78093338012695
 33
0.0
 14
180.1999999999999
 24
69.80004277954083
 34
0.0
100
AcDbRotatedDimension
  0
LINE
  5
2C5
330
2
100
AcDbEntity
  8
0000
  6
Continuous
 62
     3
370
     5
100
AcDbLine
 10
174.5
 20
-0.0000038146972656
 30
0.0
 11
174.5
 21
-60.99999237060547
 31
0.0
  0
LINE
  5
2C6
330
2
100
AcDbEntity
  8
0000
  6
Continuous
 62
     3
370
     5
100
AcDbLine
 10
174.5
 20
-0.0000038146972656
 30
0.0
 11
174.5
 21
60.99998474121093
 31
0.0
  0
LINE
  5
2C7
330
2
100
AcDbEntity
  8
0000
  6
Continuous
 62
     3
370
     5
100
AcDbLine
 10
176.49999999998
 20
-47.77209403666268
 30
0.0
 11
174.4999999999945
 21
-47.77209403666268
 31
0.0
  0
ARC
  5
2C8
330
2
100
AcDbEntity
  8
0000
  6
Continuous
 62
     3
370
     5
100
AcDbCircle
 10
176.5
 20
-53.80760884774896
 30
0.0
 40
2.0
100
AcDbArc
 50
180.0
 51
270.0
  0
LINE
  5
2C9
330
2
100
AcDbEntity
  8
0000
  6
Continuous
 62
     3
370
     5
100
AcDbLine
 10
176.5
 20
-0.0000038146972656
 30
0.0
 11
176.5
 21
-54.39339528537561
 31
0.0
  0
LINE
  5
2CA
330
2
100
AcDbEntity
  8
0000
  6
Continuous
 62
     3
370
     5
100
AcDbLine
 10
176.5
 20
-0.0000038146972656
 30
0.0
 11
176.5
 21
54.39338765598107
 31
0.0
  0
ARC
  5
2CB
330
2
100
AcDbEntity
  8
0000
  6
Continuous
 62
     3
370
     5
100
AcDbCircle
 10
176.5
 20
53.80760121835443
 30
0.0
 40
2.0
100
AcDbArc
 50
90.0
 51
180.0
  0
LINE
  5
2CC
330
2
100
AcDbEntity
  8
0000
  6
Continuous
 62
     3
370
     5
100
AcDbLine
 10
151.25
 20
-152.5999755859375
 30
0.0
 11
151.25
 21
-142.5
 31
0.0
  0
LINE
  5
2CD
330
2
100
AcDbEntity
  8
0000
  6
Continuous
 62
     3
370
     5
100
AcDbLine
 10
164.75
 20
-152.5999755859375
 30
0.0
 11
164.75
 21
-142.5
 31
0.0
  0
LINE
  5
2CE
330
2
100
AcDbEntity
  8
0000
  6
Continuous
 62
     3
370
     5
100
AcDbLine
 10
151.25
 20
-152.5999755859375
 30
0.0
 11
164.75
 21
-152.5999755859375
 31
0.0
  0
LINE
  5
2CF
330
2
100
AcDbEntity
  8
0000
  6
Continuous
 62
     3
370
     5
100
AcDbLine
 10
153.5
 20
-130.0
 30
0.0
 11
162.5
 21
-130.0
 31
0.0
  0
LINE
  5
2D0
330
2
100
AcDbEntity
  8
0000
  6
Continuous
 62
     3
370
     5
100
AcDbLine
 10
151.25
 20
-142.5
 30
0.0
 11
164.75
 21
-142.5
 31
0.0
  0
LINE
  5
2D1
330
2
100
AcDbEntity
  8
0000
  6
Continuous
 62
     3
370
     5
100
AcDbLine
 10
151.9000244140625
 20
-156.0999755859375
 30
0.0
 11
164.0999755859375
 21
-156.0999755859375
 31
0.0
  0
LINE
  5
2D2
330
2
100
AcDbEntity
  8
0000
  6
Continuous
 62
     3
370
     5
100
AcDbLine
 10
164.0999755859375
 20
-156.0999755859375
 30
0.0
 11
164.75
 21
-152.5999755859375
 31
0.0
  0
LINE
  5
2D3
330
2
100
AcDbEntity
  8
0000
  6
Continuous
 62
     3
370
     5
100
AcDbLine
 10
151.25
 20
-152.5999755859375
 30
0.0
 11
151.9000244140625
 21
-156.0999755859375
 31
0.0
  0
LINE
  5
2D4
330
2
100
AcDbEntity
  8
0000
  6
Continuous
 62
     3
370
     5
100
AcDbLine
 10
162.5
 20
-130.0
 30
0.0
 11
164.1500244140625
 21
-142.5
 31
0.0
  0
LINE
  5
2D5
330
2
100
AcDbEntity
  8
0000
  6
Continuous
 62
     3
370
     5
100
AcDbLine
 10
153.5
 20
-130.0
 30
0.0
 11
151.8499755859375
 21
-142.5
 31
0.0
  0
LINE
  5
2D6
330
2
100
AcDbEntity
  8
0000
  6
Continuous
 62
     3
370
     5
100
AcDbLine
 10
164.0999755859375
 20
-158.5
 30
0.0
 11
165.0
 21
-159.300048828125
 31
0.0
  0
LINE
  5
2D7
330
2
100
AcDbEntity
  8
0000
  6
Continuous
 62
     3
370
     5
100
AcDbLine
 10
151.9000244140625
 20
-158.5
 30
0.0
 11
151.0
 21
-159.300048828125
 31
0.0
  0
LINE
  5
2D8
330
2
100
AcDbEntity
  8
0000
  6
Continuous
 62
     3
370
     5
100
AcDbLine
 10
151.9000244140625
 20
-158.5
 30
0.0
 11
164.0999755859375
 21
-158.5
 31
0.0
  0
LINE
  5
2D9
330
2
100
AcDbEntity
  8
0000
  6
Continuous
 62
     3
370
     5
100
AcDbLine
 10
151.9000244140625
 20
-158.5
 30
0.0
 11
151.9000244140625
 21
-156.0999755859375
 31
0.0
  0
LINE
  5
2DA
330
2
100
AcDbEntity
  8
0000
  6
Continuous
 62
     3
370
     5
100
AcDbLine
 10
164.0999755859375
 20
-158.5
 30
0.0
 11
164.0999755859375
 21
-156.0999755859375
 31
0.0
  0
LINE
  5
2DB
330
2
100
AcDbEntity
  8
0000
  6
Continuous
 62
     3
370
     5
100
AcDbLine
 10
151.0
 20
-159.300048828125
 30
0.0
 11
165.0
 21
-159.300048828125
 31
0.0
  0
LINE
  5
2DC
330
2
100
AcDbEntity
  8
0000
  6
Continuous
 62
     3
370
     5
100
AcDbLine
 10
151.0
 20
-160.0999755859375
 30
0.0
 11
151.0
 21
-159.300048828125
 31
0.0
  0
LINE
  5
2DD
330
2
100
AcDbEntity
  8
0000
  6
Continuous
 62
     3
370
     5
100
AcDbLine
 10
165.0
 20
-160.0999755859375
 30
0.0
 11
165.0
 21
-159.300048828125
 31
0.0
  0
LINE
  5
2DE
330
2
100
AcDbEntity
  8
0000
  6
Continuous
 62
     3
370
     5
100
AcDbLine
 10
150.6500244140625
 20
-167.5
 30
0.0
 11
165.3499755859375
 21
-167.5
 31
0.0
  0
LINE
  5
2DF
330
2
100
AcDbEntity
  8
0000
  6
Continuous
 62
     3
370
     5
100
AcDbLine
 10
150.6500244140625
 20
-160.0999755859375
 30
0.0
 11
165.3499755859375
 21
-160.0999755859375
 31
0.0
  0
LINE
  5
2E0
330
2
100
AcDbEntity
  8
0000
  6
Continuous
 62
     3
370
     5
100
AcDbLine
 10
150.6500244140625
 20
-167.5
 30
0.0
 11
150.6500244140625
 21
-160.0999755859375
 31
0.0
  0
LINE
  5
2E1
330
2
100
AcDbEntity
  8
0000
  6
Continuous
 62
     3
370
     5
100
AcDbLine
 10
165.3499755859375
 20
-167.5
 30
0.0
 11
165.3499755859375
 21
-160.0999755859375
 31
0.0
  0
LINE
  5
2E2
330
2
100
AcDbEntity
  8
0000
  6
Continuous
 62
     3
370
     5
100
AcDbLine
 10
165.0
 20
-172.5
 30
0.0
 11
165.0
 21
-167.5
 31
0.0
  0
LINE
  5
2E3
330
2
100
AcDbEntity
  8
0000
  6
Continuous
 62
     3
370
     5
100
AcDbLine
 10
150.9999389648437
 20
-172.5
 30
0.0
 11
151.0
 21
-167.5
 31
0.0
  0
LINE
  5
2E4
330
2
100
AcDbEntity
  8
0000
  6
Continuous
 62
     3
370
     5
100
AcDbLine
 10
150.9999389648437
 20
-172.5
 30
0.0
 11
165.0
 21
-172.5
 31
0.0
  0
LINE
  5
2E5
330
2
100
AcDbEntity
  8
0000
  6
Continuous
 62
     3
370
     5
100
AcDbLine
 10
174.5
 20
39.50005340576172
 30
0.0
 11
174.5
 21
45.50005340576172
 31
0.0
  0
LINE
  5
2E6
330
2
100
AcDbEntity
  8
0000
  6
Continuous
 62
     3
370
     5
100
AcDbLine
 10
174.5
 20
-60.99999237060547
 30
0.0
 11
174.5
 21
60.99998474121093
 31
0.0
  0
LINE
  5
2E7
330
2
100
AcDbEntity
  8
0000
  6
Continuous
 62
     3
370
     5
100
AcDbLine
 10
168.0
 20
-76.99953460693359
 30
0.0
 11
168.0
 21
-69.84282684326172
 31
0.0
  0
LINE
  5
2E8
330
2
100
AcDbEntity
  8
0000
  6
Continuous
 62
     3
370
     5
100
AcDbLine
 10
148.0
 20
-76.99953460693359
 30
0.0
 11
148.0
 21
-68.79466247558593
 31
0.0
  0
LINE
  5
2E9
330
2
100
AcDbEntity
  8
0000
  6
Continuous
 62
     3
370
     5
100
AcDbLine
 10
170.0
 20
-60.00000762939453
 30
0.0
 11
138.0
 21
-58.32295608520507
 31
0.0
  0
LINE
  5
2EA
330
2
100
AcDbEntity
  8
0000
  6
Continuous
 62
     3
370
     5
100
AcDbLine
 10
170.0
 20
60.0
 30
0.0
 11
138.0
 21
58.32294845581055
 31
0.0
  0
ARC
  5
2EB
330
2
100
AcDbEntity
  8
0000
  6
Continuous
 62
     3
370
     5
100
AcDbCircle
 10
148.0
 20
58.78093338012695
 30
0.0
 40
9.999998092651376
100
AcDbArc
 50
92.99992404078535
 51
180.0000050089563
  0
LINE
  5
2EC
330
2
100
AcDbEntity
  8
0000
  6
Continuous
 62
     3
370
     5
100
AcDbLine
 10
170.0
 20
69.9476318359375
 30
0.0
 11
147.4766540527344
 21
68.76722717285156
 31
0.0
  0
ARC
  5
2ED
330
2
100
AcDbEntity
  8
0000
  6
Continuous
 62
     3
370
     5
100
AcDbCircle
 10
148.0
 20
-58.78094100952147
 30
0.0
 40
10.00000000000004
100
AcDbArc
 50
180.0000050089563
 51
267.0000723167491
  0
LINE
  5
2EE
330
2
100
AcDbEntity
  8
0000
  6
Continuous
 62
     3
370
     5
100
AcDbLine
 10
170.0
 20
-69.94763946533203
 30
0.0
 11
147.4766540527344
 21
-68.76723480224609
 31
0.0
  0
LINE
  5
2EF
330
2
100
AcDbEntity
  8
0000
  6
Continuous
 62
     3
370
     5
100
AcDbLine
 10
173.0
 20
-70.00000762939453
 30
0.0
 11
173.0
 21
70.0
 31
0.0
  0
LINE
  5
2F0
330
2
100
AcDbEntity
  8
0000
  6
Continuous
 62
     3
370
     5
100
AcDbLine
 10
173.0
 20
-70.00000762939453
 30
0.0
 11
170.0
 21
-69.94763946533203
 31
0.0
  0
LINE
  5
2F1
330
2
100
AcDbEntity
  8
0000
  6
Continuous
 62
     3
370
     5
100
AcDbLine
 10
170.0
 20
68.99998474121094
 30
0.0
 11
170.0
 21
60.0
 31
0.0
  0
ARC
  5
2F2
330
2
100
AcDbEntity
  8
0000
  6
Continuous
 62
     3
370
     5
100
AcDbCircle
 10
171.0
 20
68.96493530273438
 30
0.0
 40
0.99999976158141
100
AcDbArc
 50
91.00020857633245
 51
180.0000050089581
  0
LINE
  5
2F3
330
2
100
AcDbEntity
  8
0000
  6
Continuous
 62
     3
370
     5
100
AcDbLine
 10
173.0
 20
70.0
 30
0.0
 11
170.0
 21
69.9476318359375
 31
0.0
  0
LINE
  5
2F4
330
2
100
AcDbEntity
  8
0000
  6
Continuous
 62
     3
370
     5
100
AcDbLine
 10
170.0000610351562
 20
-68.78903961181641
 30
0.0
 11
170.0000610351562
 21
-60.00003814697265
 31
0.0
  0
ARC
  5
2F5
330
2
100
AcDbEntity
  8
0000
  6
Continuous
 62
     3
370
     5
100
AcDbCircle
 10
171.0000610351562
 20
-68.78903961181641
 30
0.0
 40
1.000000000000002
100
AcDbArc
 50
180.0000050089569
 51
267.0016842413934
  0
LINE
  5
2F6
330
2
100
AcDbEntity
  8
0000
  6
Continuous
 62
     3
370
     5
100
AcDbLine
 10
168.0
 20
-76.99953460693359
 30
0.0
 11
148.0
 21
-76.99953460693359
 31
0.0
  0
LINE
  5
2F7
330
2
100
AcDbEntity
  8
0000
  6
Continuous
 62
     3
370
     5
100
AcDbLine
 10
173.0
 20
-68.99999237060547
 30
0.0
 11
178.0
 21
-68.99999237060547
 31
0.0
  0
LINE
  5
2F8
330
2
100
AcDbEntity
  8
0000
  6
Continuous
 62
     3
370
     5
100
AcDbLine
 10
173.0
 20
-60.99999237060547
 30
0.0
 11
178.0
 21
-60.99999237060547
 31
0.0
  0
LINE
  5
2F9
330
2
100
AcDbEntity
  8
0000
  6
Continuous
 62
     3
370
     5
100
AcDbLine
 10
155.9765014648437
 20
-76.99946594238281
 30
0.0
 11
154.0
 21
-76.99946594238281
 31
0.0
  0
LINE
  5
2FA
330
2
100
AcDbEntity
  8
0000
  6
Continuous
 62
     3
370
     5
100
AcDbLine
 10
157.81201171875
 20
-76.99946594238281
 30
0.0
 11
155.5
 21
-76.99946594238281
 31
0.0
  0
LINE
  5
2FB
330
2
100
AcDbEntity
  8
0000
  6
Continuous
 62
     3
370
     5
100
AcDbLine
 10
161.5
 20
-106.2999420166015
 30
0.0
 11
161.5
 21
-129.9999847412109
 31
0.0
  0
LINE
  5
2FC
330
2
100
AcDbEntity
  8
0000
  6
Continuous
 62
     3
370
     5
100
AcDbLine
 10
154.5
 20
-106.2999420166015
 30
0.0
 11
154.5
 21
-130.0
 31
0.0
  0
ARC
  5
2FD
330
2
100
AcDbEntity
  8
0000
  6
Continuous
 62
     3
370
     5
100
AcDbCircle
 10
159.75
 20
-107.2999420166015
 30
0.0
 40
2.015556812286273
100
AcDbArc
 50
29.74450394854527
 51
150.2553098151154
  0
ARC
  5
2FE
330
2
100
AcDbEntity
  8
0000
  6
Continuous
 62
     3
370
     5
100
AcDbCircle
 10
156.25
 20
-107.2999420166015
 30
0.0
 40
2.015564441680823
100
AcDbArc
 50
29.7448796089501
 51
150.25511856982
  0
ARC
  5
2FF
330
2
100
AcDbEntity
  8
0000
  6
Continuous
 62
     3
370
     5
100
AcDbCircle
 10
159.75
 20
-105.2999420166015
 30
0.0
 40
2.015564441680742
100
AcDbArc
 50
209.744891448097
 51
330.2551372391576
  0
LINE
  5
300
330
2
100
AcDbEntity
  8
0000
  6
Continuous
 62
     3
370
     5
100
AcDbLine
 10
161.5
 20
-79.49946594238281
 30
0.0
 11
161.5
 21
-101.9999542236328
 31
0.0
  0
LINE
  5
301
330
2
100
AcDbEntity
  8
0000
  6
Continuous
 62
     3
370
     5
100
AcDbLine
 10
154.5
 20
-79.49946594238281
 30
0.0
 11
154.5
 21
-101.9999542236328
 31
0.0
  0
ARC
  5
302
330
2
100
AcDbEntity
  8
0000
  6
Continuous
 62
     3
370
     5
100
AcDbCircle
 10
159.75
 20
-100.9999542236328
 30
0.0
 40
2.015564441680742
100
AcDbArc
 50
209.744891448097
 51
330.2551372391576
  0
ARC
  5
303
330
2
100
AcDbEntity
  8
0000
  6
Continuous
 62
     3
370
     5
100
AcDbCircle
 10
156.25
 20
-100.9999542236328
 30
0.0
 40
2.015564441680742
100
AcDbArc
 50
209.744891448097
 51
330.2551372391576
  0
ARC
  5
304
330
2
100
AcDbEntity
  8
0000
  6
Continuous
 62
     3
370
     5
100
AcDbCircle
 10
156.25
 20
-102.9999542236328
 30
0.0
 40
2.015564441680823
100
AcDbArc
 50
29.7448796089501
 51
150.25511856982
  0
LINE
  5
305
330
2
100
AcDbEntity
  8
0000
  6
Continuous
 62
     3
370
     5
100
AcDbLine
 10
166.5
 20
-76.99946594238281
 30
0.0
 11
166.5
 21
-79.49946594238281
 31
0.0
  0
LINE
  5
306
330
2
100
AcDbEntity
  8
0000
  6
Continuous
 62
     3
370
     5
100
AcDbLine
 10
166.5
 20
-79.49946594238281
 30
0.0
 11
149.5
 21
-79.49946594238281
 31
0.0
  0
LINE
  5
307
330
2
100
AcDbEntity
  8
0000
  6
Continuous
 62
     3
370
     5
100
AcDbLine
 10
149.5
 20
-76.99946594238281
 30
0.0
 11
149.5
 21
-79.49946594238281
 31
0.0
  0
LINE
  5
308
330
2
100
AcDbEntity
  8
0000
  6
Continuous
 62
     3
370
     5
100
AcDbLine
 10
138.0
 20
-58.78094100952147
 30
0.0
 11
138.0
 21
58.78093338012695
 31
0.0
  0
LINE
  5
309
330
2
100
AcDbEntity
  8
0000
  6
Continuous
 62
     3
370
     5
100
AcDbLine
 10
178.0
 20
-68.99999237060547
 30
0.0
 11
178.0
 21
-60.99999237060547
 31
0.0
  0
LINE
  5
30A
330
2
100
AcDbEntity
  8
0000
  6
Continuous
 62
     3
370
     5
100
AcDbLine
 10
176.5
 20
32.00005340576172
 30
0.0
 11
177.2000122070311
 21
32.00005340576172
 31
0.0
  0
LINE
  5
30B
330
2
100
AcDbEntity
  8
0000
  6
Continuous
 62
     3
370
     5
100
AcDbLine
 10
176.5
 20
38.00005340576172
 30
0.0
 11
177.2000122070311
 21
38.00005340576172
 31
0.0
  0
LINE
  5
30C
330
2
100
AcDbEntity
  8
0000
  6
Continuous
 62
     3
370
     5
100
AcDbLine
 10
177.2000122070311
 20
32.00005340576172
 30
0.0
 11
177.2000122070311
 21
38.00005340576172
 31
0.0
  0
ARC
  5
30D
330
2
100
AcDbEntity
  8
0000
  6
Continuous
 62
     3
370
     5
100
AcDbCircle
 10
177.9600830078125
 20
36.6797103881836
 30
0.0
 40
0.9999994039536986
100
AcDbArc
 50
16.25558896989027
 51
84.99985323955042
  0
ARC
  5
30E
330
2
100
AcDbEntity
  8
0000
  6
Continuous
 62
     3
370
     5
100
AcDbCircle
 10
177.9600830078125
 20
33.32036590576172
 30
0.0
 40
0.9999870657920586
100
AcDbArc
 50
275.0002182500669
 51
343.7414003968592
  0
LINE
  5
30F
330
2
100
AcDbEntity
  8
0000
  6
Continuous
 62
     3
370
     5
100
AcDbLine
 10
177.2000122070311
 20
37.75003814697266
 30
0.0
 11
178.0472412109375
 21
37.67591094970703
 31
0.0
  0
LINE
  5
310
330
2
100
AcDbEntity
  8
0000
  6
Continuous
 62
     3
370
     5
100
AcDbLine
 10
177.2000122070311
 20
32.25003814697267
 30
0.0
 11
178.0472412109375
 21
32.32416534423828
 31
0.0
  0
ARC
  5
311
330
2
100
AcDbEntity
  8
0000
  6
Continuous
 62
     3
370
     5
100
AcDbCircle
 10
172.2000122070311
 20
35.00003814697266
 30
0.0
 40
6.999987602233883
100
AcDbArc
 50
343.7428757177187
 51
16.2571069794375
  0
LINE
  5
312
330
2
100
AcDbEntity
  8
0000
  6
Continuous
 62
     3
370
     5
100
AcDbLine
 10
174.5
 20
-32.00005722045899
 30
0.0
 11
174.5
 21
-38.00005722045899
 31
0.0
  0
ARC
  5
313
330
2
100
AcDbEntity
  8
0000
  6
Continuous
 62
     3
370
     5
100
AcDbCircle
 10
172.2000122070311
 20
-35.00004196166992
 30
0.0
 40
6.999983310699331
100
AcDbArc
 50
343.7429850007449
 51
16.25719747944436
  0
LINE
  5
314
330
2
100
AcDbEntity
  8
0000
  6
Continuous
 62
     3
370
     5
100
AcDbLine
 10
177.2000122070311
 20
-32.25004196166992
 30
0.0
 11
178.0472412109375
 21
-32.32416915893555
 31
0.0
  0
LINE
  5
315
330
2
100
AcDbEntity
  8
0000
  6
Continuous
 62
     3
370
     5
100
AcDbLine
 10
177.2000122070311
 20
-37.75004196166992
 30
0.0
 11
178.0472412109375
 21
-37.6759147644043
 31
0.0
  0
ARC
  5
316
330
2
100
AcDbEntity
  8
0000
  6
Continuous
 62
     3
370
     5
100
AcDbCircle
 10
177.9600830078125
 20
-33.32036972045898
 30
0.0
 40
1.000012159347452
100
AcDbArc
 50
16.25810589460346
 51
84.9999283716316
  0
ARC
  5
317
330
2
100
AcDbEntity
  8
0000
  6
Continuous
 62
     3
370
     5
100
AcDbCircle
 10
177.9600830078125
 20
-36.67971420288086
 30
0.0
 40
0.999990820884664
100
AcDbArc
 50
275.0001909293082
 51
343.7450613782507
  0
LINE
  5
318
330
2
100
AcDbEntity
  8
0000
  6
Continuous
 62
     3
370
     5
100
AcDbLine
 10
177.2000122070311
 20
-32.00005722045899
 30
0.0
 11
177.2000122070311
 21
-38.00005722045899
 31
0.0
  0
LINE
  5
319
330
2
100
AcDbEntity
  8
0000
  6
Continuous
 62
     3
370
     5
100
AcDbLine
 10
176.5
 20
-38.00005722045899
 30
0.0
 11
177.2000122070311
 21
-38.00005722045899
 31
0.0
  0
LINE
  5
31A
330
2
100
AcDbEntity
  8
0000
  6
Continuous
 62
     3
370
     5
100
AcDbLine
 10
176.5
 20
-32.00005722045899
 30
0.0
 11
177.2000122070311
 21
-32.00005722045899
 31
0.0
  0
LINE
  5
31B
330
2
100
AcDbEntity
  8
0000
  6
Continuous
 62
     3
370
     5
100
AcDbLine
 10
173.0
 20
60.99998474121093
 30
0.0
 11
178.0
 21
60.99998474121093
 31
0.0
  0
LINE
  5
31C
330
2
100
AcDbEntity
  8
0000
  6
Continuous
 62
     3
370
     5
100
AcDbLine
 10
178.0
 20
68.99998474121094
 30
0.0
 11
178.0
 21
60.99998474121093
 31
0.0
  0
LINE
  5
31D
330
2
100
AcDbEntity
  8
0000
  6
Continuous
 62
     3
370
     5
100
AcDbLine
 10
173.0
 20
68.99998474121094
 30
0.0
 11
178.0
 21
68.99998474121094
 31
0.0
  0
ARC
  5
31E
330
2
100
AcDbEntity
  8
0000
  6
Continuous
 62
     3
370
     5
100
AcDbCircle
 10
178.1999999999999
 20
56.39338765598107
 30
0.0
 40
2.0
100
AcDbArc
 50
270.0
 51
0.0
  0
LINE
  5
31F
330
2
100
AcDbEntity
  8
0000
  6
Continuous
 62
     3
370
     5
100
AcDbLine
 10
178.1999999999999
 20
54.39338765598107
 30
0.0
 11
174.5
 21
54.39338765598107
 31
0.0
  0
LINE
  5
320
102
{ACAD_REACTORS
330
67
102
}
330
2
100
AcDbEntity
  8
0000
  6
Continuous
 62
     3
370
     5
100
AcDbLine
 10
180.1999999999999
 20
56.39338765598107
 30
0.0
 11
180.1999999999999
 21
69.80004277954083
 31
0.0
  0
LINE
  5
321
330
2
100
AcDbEntity
  8
0000
  6
Continuous
 62
     3
370
     5
100
AcDbLine
 10
178.2000000000149
 20
55.80760121835442
 30
0.0
 11
176.5
 21
55.80760121835442
 31
0.0
  0
LINE
  5
322
330
2
100
AcDbEntity
  8
0000
  6
Continuous
 62
     3
370
     5
100
AcDbLine
 10
178.1999999999999
 20
55.80760121835442
 30
0.0
 11
178.1999999999999
 21
69.80004277954083
 31
0.0
  0
LINE
  5
323
330
2
100
AcDbEntity
  8
0000
  6
Continuous
 62
     3
370
     5
100
AcDbLine
 10
180.1999999999713
 20
69.80004277954083
 30
0.0
 11
178.1999999999858
 21
69.80004277954083
 31
0.0
  0
LINE
  5
324
330
2
100
AcDbEntity
  8
0000
  6
Continuous
 62
     3
370
     5
100
AcDbLine
 10
177.9999999999953
 20
61.99998474121094
 30
0.0
 11
178.1999999999808
 21
61.99998474121094
 31
0.0
  0
LINE
  5
325
330
2
100
AcDbEntity
  8
0000
  6
Continuous
 62
     3
370
     5
100
AcDbLine
 10
177.9999999999953
 20
67.99998474121093
 30
0.0
 11
178.1999999999808
 21
67.99998474121093
 31
0.0
  0
LINE
  5
326
330
2
100
AcDbEntity
  8
0000
  6
Continuous
 62
     3
370
     5
100
AcDbLine
 10
180.1999999999713
 20
-69.80005040893536
 30
0.0
 11
178.1999999999858
 21
-69.80005040893536
 31
0.0
  0
LINE
  5
327
330
2
100
AcDbEntity
  8
0000
  6
Continuous
 62
     3
370
     5
100
AcDbLine
 10
178.1999999999999
 20
-55.80760884774896
 30
0.0
 11
178.1999999999999
 21
-69.80005040893536
 31
0.0
  0
LINE
  5
328
330
2
100
AcDbEntity
  8
0000
  6
Continuous
 62
     3
370
     5
100
AcDbLine
 10
180.1999999999999
 20
-56.3933952853756
 30
0.0
 11
180.1999999999999
 21
-69.80005040893536
 31
0.0
  0
LINE
  5
329
330
2
100
AcDbEntity
  8
0000
  6
Continuous
 62
     3
370
     5
100
AcDbLine
 10
178.2000000000149
 20
-55.80760884774896
 30
0.0
 11
176.5
 21
-55.80760884774896
 31
0.0
  0
LINE
  5
32A
330
2
100
AcDbEntity
  8
0000
  6
Continuous
 62
     3
370
     5
100
AcDbLine
 10
178.1999999999999
 20
-54.39339528537561
 30
0.0
 11
174.5
 21
-54.39339528537561
 31
0.0
  0
ARC
  5
32B
330
2
100
AcDbEntity
  8
0000
  6
Continuous
 62
     3
370
     5
100
AcDbCircle
 10
178.1999999999999
 20
-56.3933952853756
 30
0.0
 40
2.0
100
AcDbArc
 50
0.0
 51
90.0
  0
LINE
  5
32C
330
2
100
AcDbEntity
  8
0000
  6
Continuous
 62
     3
370
     5
100
AcDbLine
 10
177.9999999999953
 20
-61.99999237060547
 30
0.0
 11
178.1999999999808
 21
-61.99999237060547
 31
0.0
  0
LINE
  5
32D
330
2
100
AcDbEntity
  8
0000
  6
Continuous
 62
     3
370
     5
100
AcDbLine
 10
177.9999999999953
 20
-67.99999237060545
 30
0.0
 11
178.1999999999808
 21
-67.99999237060545
 31
0.0
  0
LINE
  5
32E
102
{ACAD_REACTORS
330
67
102
}
330
2
100
AcDbEntity
  8
0000
  6
Continuous
 62
     3
370
     5
100
AcDbLine
 10
169.6999999999999
 20
67.99998474121093
 30
0.0
 11
170.0
 21
67.99998474121093
 31
0.0
  0
LINE
  5
32F
330
2
100
AcDbEntity
  8
0000
  6
Continuous
 62
     3
370
     5
100
AcDbLine
 10
169.6999999999999
 20
61.99998474121094
 30
0.0
 11
170.0
 21
61.99998474121094
 31
0.0
  0
LINE
  5
330
330
2
100
AcDbEntity
  8
0000
  6
Continuous
 62
     3
370
     5
100
AcDbLine
 10
169.6999999999999
 20
61.99998474121094
 30
0.0
 11
169.6999999999999
 21
67.99998474121093
 31
0.0
  0
LINE
  5
331
330
2
100
AcDbEntity
  8
0000
  6
Continuous
 62
     3
370
     5
100
AcDbLine
 10
169.7000610351562
 20
-67.99999237060545
 30
0.0
 11
169.7000610351562
 21
-61.99999237060547
 31
0.0
  0
LINE
  5
332
330
2
100
AcDbEntity
  8
0000
  6
Continuous
 62
     3
370
     5
100
AcDbLine
 10
169.7000610351562
 20
-67.99999237060545
 30
0.0
 11
170.0000610351562
 21
-67.99999237060545
 31
0.0
  0
LINE
  5
333
330
2
100
AcDbEntity
  8
0000
  6
Continuous
 62
     3
370
     5
100
AcDbLine
 10
169.7000610351562
 20
-61.99999237060547
 30
0.0
 11
170.0000610351562
 21
-61.99999237060547
 31
0.0
  0
LINE
  5
334
330
2
100
AcDbEntity
  8
0000
  6
Continuous
 62
     3
370
     5
100
AcDbLine
 10
10.0
 20
-76.99950408935547
 30
0.0
 11
-10.0
 21
-76.99950408935547
 31
0.0
  0
LINE
  5
335
330
2
100
AcDbEntity
  8
0000
  6
Continuous
 62
     3
370
     5
100
AcDbLine
 10
6.29998779296875
 20
64.0953369140625
 30
0.0
 11
6.29998779296875
 21
61.99998092651367
 31
0.0
  0
LINE
  5
336
330
2
100
AcDbEntity
  8
0000
  6
Continuous
 62
     3
370
     5
100
AcDbLine
 10
3.70001220703125
 20
64.0953369140625
 30
0.0
 11
3.70001220703125
 21
61.99998092651367
 31
0.0
  0
DIMENSION
  5
337
330
2
100
AcDbEntity
  8
0000
100
AcDbDimension
  2
*D5
 10
100.0305709838867
 20
-172.5000305175781
 30
0.0
 11
100.0305709838867
 21
-130.1786041259765
 31
0.0
 70
   128
  1
3000
 71
     5
 42
102.5000076293945
  3
GD2_Style5
100
AcDbAlignedDimension
 13
45.0
 23
-70.00002288818359
 33
0.0
 14
7.0
 24
-172.5000305175781
 34
0.0
 50
90.0
100
AcDbRotatedDimension
  0
LINE
  5
343
330
2
100
AcDbEntity
  8
0000
  6
Continuous
 62
     3
370
     5
100
AcDbLine
 10
10.32501220703125
 20
58.99998474121094
 30
0.0
 11
8.855010986328125
 21
57.56584167480468
 31
0.0
  0
LINE
  5
344
330
2
100
AcDbEntity
  8
0000
  6
Continuous
 62
     3
370
     5
100
AcDbLine
 10
8.420013427734375
 20
58.99998474121094
 30
0.0
 11
8.420013427734375
 21
55.99998474121093
 31
0.0
  0
LINE
  5
345
330
2
100
AcDbEntity
  8
0000
  6
Continuous
 62
     3
370
     5
100
AcDbLine
 10
8.855010986328125
 20
58.99998474121094
 30
0.0
 11
8.420013427734375
 21
58.99998474121094
 31
0.0
  0
LINE
  5
346
330
2
100
AcDbEntity
  8
0000
  6
Continuous
 62
     3
370
     5
100
AcDbLine
 10
8.855010986328125
 20
57.56584167480468
 30
0.0
 11
8.855010986328125
 21
58.99998474121094
 31
0.0
  0
LINE
  5
347
330
2
100
AcDbEntity
  8
0000
  6
Continuous
 62
     3
370
     5
100
AcDbLine
 10
10.89501953125
 20
58.99998474121094
 30
0.0
 11
10.32501220703125
 21
58.99998474121094
 31
0.0
  0
LINE
  5
348
330
2
100
AcDbEntity
  8
0000
  6
Continuous
 62
     3
370
     5
100
AcDbLine
 10
9.620025634765623
 20
57.76998901367186
 30
0.0
 11
10.89501953125
 21
58.99998474121094
 31
0.0
  0
LINE
  5
349
330
2
100
AcDbEntity
  8
0000
  6
Continuous
 62
     3
370
     5
100
AcDbLine
 10
10.98501586914062
 20
55.99998474121093
 30
0.0
 11
9.620025634765623
 21
57.76998901367186
 31
0.0
  0
LINE
  5
34A
330
2
100
AcDbEntity
  8
0000
  6
Continuous
 62
     3
370
     5
100
AcDbLine
 10
10.44500732421875
 20
55.99998474121093
 30
0.0
 11
10.98501586914062
 21
55.99998474121093
 31
0.0
  0
LINE
  5
34B
330
2
100
AcDbEntity
  8
0000
  6
Continuous
 62
     3
370
     5
100
AcDbLine
 10
9.33502197265625
 20
57.49998474121094
 30
0.0
 11
10.44500732421875
 21
55.99998474121093
 31
0.0
  0
LINE
  5
34C
330
2
100
AcDbEntity
  8
0000
  6
Continuous
 62
     3
370
     5
100
AcDbLine
 10
8.855010986328125
 20
57.04998779296875
 30
0.0
 11
9.33502197265625
 21
57.49998474121094
 31
0.0
  0
LINE
  5
34D
330
2
100
AcDbEntity
  8
0000
  6
Continuous
 62
     3
370
     5
100
AcDbLine
 10
8.855010986328125
 20
55.99998474121093
 30
0.0
 11
8.855010986328125
 21
57.04998779296875
 31
0.0
  0
LINE
  5
34E
330
2
100
AcDbEntity
  8
0000
  6
Continuous
 62
     3
370
     5
100
AcDbLine
 10
8.420013427734375
 20
55.99998474121093
 30
0.0
 11
8.855010986328125
 21
55.99998474121093
 31
0.0
  0
ARC
  5
34F
330
2
100
AcDbEntity
  8
0000
  6
Continuous
 62
     3
370
     5
100
AcDbCircle
 10
6.095001220703125
 20
57.49998474121094
 30
0.0
 40
1.84501266479492
100
AcDbArc
 50
339.4196665014238
 51
20.58033668629979
  0
ARC
  5
350
330
2
100
AcDbEntity
  8
0000
  6
Continuous
 62
     3
370
     5
100
AcDbCircle
 10
6.516265869140625
 20
57.341796875
 30
0.0
 40
1.394994616508481
100
AcDbArc
 50
320.4746615175328
 51
339.4196118599105
  0
ARC
  5
351
330
2
100
AcDbEntity
  8
0000
  6
Continuous
 62
     3
370
     5
100
AcDbCircle
 10
6.470001220703125
 20
57.37998962402343
 30
0.0
 40
1.455000996589659
100
AcDbArc
 50
219.524779773446
 51
320.475235253423
  0
ARC
  5
352
330
2
100
AcDbEntity
  8
0000
  6
Continuous
 62
     3
370
     5
100
AcDbCircle
 10
6.4237060546875
 20
57.341796875
 30
0.0
 40
1.394998192787168
100
AcDbArc
 50
200.5804031669585
 51
219.5253671697146
  0
ARC
  5
353
330
2
100
AcDbEntity
  8
0000
  6
Continuous
 62
     3
370
     5
100
AcDbCircle
 10
6.845001220703125
 20
57.49998474121094
 30
0.0
 40
1.845012664794919
100
AcDbArc
 50
159.4196614924675
 51
200.5803485254451
  0
ARC
  5
354
330
2
100
AcDbEntity
  8
0000
  6
Continuous
 62
     3
370
     5
100
AcDbCircle
 10
6.4237060546875
 20
57.65817260742188
 30
0.0
 40
1.394994616508481
100
AcDbArc
 50
140.474642848198
 51
159.4196068509541
  0
ARC
  5
355
330
2
100
AcDbEntity
  8
0000
  6
Continuous
 62
     3
370
     5
100
AcDbCircle
 10
6.470001220703125
 20
57.61997985839844
 30
0.0
 40
1.45500099658966
100
AcDbArc
 50
39.52476451920598
 51
140.4752302444665
  0
ARC
  5
356
330
2
100
AcDbEntity
  8
0000
  6
Continuous
 62
     3
370
     5
100
AcDbCircle
 10
6.516265869140625
 20
57.65817260742188
 30
0.0
 40
1.394998192787169
100
AcDbArc
 50
20.58039815800219
 51
39.52536216075836
  0
ARC
  5
357
330
2
100
AcDbEntity
  8
0000
  6
Continuous
 62
     3
370
     5
100
AcDbCircle
 10
6.501312255859375
 20
57.727294921875
 30
0.0
 40
0.95999789237976
100
AcDbArc
 50
14.38478820339689
 51
45.90414754361948
  0
ARC
  5
358
330
2
100
AcDbEntity
  8
0000
  6
Continuous
 62
     3
370
     5
100
AcDbCircle
 10
6.501312255859375
 20
57.27267456054686
 30
0.0
 40
0.9600049257278463
100
AcDbArc
 50
314.0958658893877
 51
345.6154403805688
  0
ARC
  5
359
330
2
100
AcDbEntity
  8
0000
  6
Continuous
 62
     3
370
     5
100
AcDbCircle
 10
5.614990234375
 20
57.49998474121094
 30
0.0
 40
1.875007987022399
100
AcDbArc
 50
345.6150032484623
 51
14.38500847699786
  0
ARC
  5
35A
330
2
100
AcDbEntity
  8
0000
  6
Continuous
 62
     3
370
     5
100
AcDbCircle
 10
6.470001220703125
 20
57.30499267578125
 30
0.0
 40
1.005003213882444
100
AcDbArc
 50
225.9042720808863
 51
314.095756606361
  0
ARC
  5
35B
330
2
100
AcDbEntity
  8
0000
  6
Continuous
 62
     3
370
     5
100
AcDbCircle
 10
6.438690185546875
 20
57.27267456054686
 30
0.0
 40
0.9599978923797603
100
AcDbArc
 50
194.3847932123533
 51
225.9041627978596
  0
ARC
  5
35C
330
2
100
AcDbEntity
  8
0000
  6
Continuous
 62
     3
370
     5
100
AcDbCircle
 10
7.32501220703125
 20
57.49998474121094
 30
0.0
 40
1.875007987022399
100
AcDbArc
 50
165.6149982395059
 51
194.3850117784068
  0
ARC
  5
35D
330
2
100
AcDbEntity
  8
0000
  6
Continuous
 62
     3
370
     5
100
AcDbCircle
 10
6.438690185546875
 20
57.727294921875
 30
0.0
 40
0.9600049257278447
100
AcDbArc
 50
134.0958472200529
 51
165.6154353716126
  0
ARC
  5
35E
330
2
100
AcDbEntity
  8
0000
  6
Continuous
 62
     3
370
     5
100
AcDbCircle
 10
6.470001220703125
 20
57.69497680664063
 30
0.0
 40
1.005003213882447
100
AcDbArc
 50
45.90426365683554
 51
134.0957379370263
  0
LINE
  5
35F
330
2
100
AcDbEntity
  8
0000
  6
Continuous
 62
     3
370
     5
100
AcDbLine
 10
-6.529998779296875
 20
57.52998352050781
 30
0.0
 11
-7.535003662109375
 21
58.99998474121094
 31
0.0
  0
LINE
  5
360
330
2
100
AcDbEntity
  8
0000
  6
Continuous
 62
     3
370
     5
100
AcDbLine
 10
-7.579986572265625
 20
55.99998474121093
 30
0.0
 11
-6.529998779296875
 21
57.52998352050781
 31
0.0
  0
LINE
  5
361
330
2
100
AcDbEntity
  8
0000
  6
Continuous
 62
     3
370
     5
100
AcDbLine
 10
-7.07000732421875
 20
55.99998474121093
 30
0.0
 11
-7.579986572265625
 21
55.99998474121093
 31
0.0
  0
LINE
  5
362
330
2
100
AcDbEntity
  8
0000
  6
Continuous
 62
     3
370
     5
100
AcDbLine
 10
-6.290008544921875
 20
57.20248413085936
 30
0.0
 11
-7.07000732421875
 21
55.99998474121093
 31
0.0
  0
LINE
  5
363
330
2
100
AcDbEntity
  8
0000
  6
Continuous
 62
     3
370
     5
100
AcDbLine
 10
-5.509979248046875
 20
55.99998474121093
 30
0.0
 11
-6.290008544921875
 21
57.20248413085936
 31
0.0
  0
LINE
  5
364
330
2
100
AcDbEntity
  8
0000
  6
Continuous
 62
     3
370
     5
100
AcDbLine
 10
-5.0
 20
55.99998474121093
 30
0.0
 11
-5.509979248046875
 21
55.99998474121093
 31
0.0
  0
LINE
  5
365
330
2
100
AcDbEntity
  8
0000
  6
Continuous
 62
     3
370
     5
100
AcDbLine
 10
-6.04998779296875
 20
57.52998352050781
 30
0.0
 11
-5.0
 21
55.99998474121093
 31
0.0
  0
LINE
  5
366
330
2
100
AcDbEntity
  8
0000
  6
Continuous
 62
     3
370
     5
100
AcDbLine
 10
-5.04498291015625
 20
58.99998474121094
 30
0.0
 11
-6.04998779296875
 21
57.52998352050781
 31
0.0
  0
LINE
  5
367
330
2
100
AcDbEntity
  8
0000
  6
Continuous
 62
     3
370
     5
100
AcDbLine
 10
-5.540008544921875
 20
58.99998474121094
 30
0.0
 11
-5.04498291015625
 21
58.99998474121094
 31
0.0
  0
LINE
  5
368
330
2
100
AcDbEntity
  8
0000
  6
Continuous
 62
     3
370
     5
100
AcDbLine
 10
-6.290008544921875
 20
57.84237670898438
 30
0.0
 11
-5.540008544921875
 21
58.99998474121094
 31
0.0
  0
LINE
  5
369
330
2
100
AcDbEntity
  8
0000
  6
Continuous
 62
     3
370
     5
100
AcDbLine
 10
-7.040008544921875
 20
58.99998474121094
 30
0.0
 11
-6.290008544921875
 21
57.84237670898438
 31
0.0
  0
LINE
  5
36A
330
2
100
AcDbEntity
  8
0000
  6
Continuous
 62
     3
370
     5
100
AcDbLine
 10
-7.535003662109375
 20
58.99998474121094
 30
0.0
 11
-7.040008544921875
 21
58.99998474121094
 31
0.0
  0
LINE
  5
36B
330
2
100
AcDbEntity
  8
0000
  6
Continuous
 62
     3
370
     5
100
AcDbLine
 10
-10.114990234375
 20
58.99998474121094
 30
0.0
 11
-10.114990234375
 21
58.63998413085937
 31
0.0
  0
LINE
  5
36C
330
2
100
AcDbEntity
  8
0000
  6
Continuous
 62
     3
370
     5
100
AcDbLine
 10
-7.760009765625
 20
58.99998474121094
 30
0.0
 11
-10.114990234375
 21
58.99998474121094
 31
0.0
  0
LINE
  5
36D
330
2
100
AcDbEntity
  8
0000
  6
Continuous
 62
     3
370
     5
100
AcDbLine
 10
-7.760009765625
 20
58.63998413085937
 30
0.0
 11
-7.760009765625
 21
58.99998474121094
 31
0.0
  0
LINE
  5
36E
330
2
100
AcDbEntity
  8
0000
  6
Continuous
 62
     3
370
     5
100
AcDbLine
 10
-8.720001220703125
 20
58.63998413085937
 30
0.0
 11
-7.760009765625
 21
58.63998413085937
 31
0.0
  0
LINE
  5
36F
330
2
100
AcDbEntity
  8
0000
  6
Continuous
 62
     3
370
     5
100
AcDbLine
 10
-8.720001220703125
 20
55.99998474121093
 30
0.0
 11
-8.720001220703125
 21
58.63998413085937
 31
0.0
  0
LINE
  5
370
330
2
100
AcDbEntity
  8
0000
  6
Continuous
 62
     3
370
     5
100
AcDbLine
 10
-9.154998779296876
 20
55.99998474121093
 30
0.0
 11
-8.720001220703125
 21
55.99998474121093
 31
0.0
  0
LINE
  5
371
330
2
100
AcDbEntity
  8
0000
  6
Continuous
 62
     3
370
     5
100
AcDbLine
 10
-9.154998779296876
 20
58.63998413085937
 30
0.0
 11
-9.154998779296876
 21
55.99998474121093
 31
0.0
  0
LINE
  5
372
330
2
100
AcDbEntity
  8
0000
  6
Continuous
 62
     3
370
     5
100
AcDbLine
 10
-10.114990234375
 20
58.63998413085937
 30
0.0
 11
-9.154998779296876
 21
58.63998413085937
 31
0.0
  0
LINE
  5
373
330
2
100
AcDbEntity
  8
0000
  6
Continuous
 62
     3
370
     5
100
AcDbLine
 10
-6.75
 20
-152.6000061035156
 30
0.0
 11
-6.75
 21
-142.5000305175781
 31
0.0
  0
LINE
  5
374
330
2
100
AcDbEntity
  8
0000
  6
Continuous
 62
     3
370
     5
100
AcDbLine
 10
6.75
 20
-152.6000061035156
 30
0.0
 11
6.75
 21
-142.5000305175781
 31
0.0
  0
LINE
  5
375
330
2
100
AcDbEntity
  8
0000
  6
Continuous
 62
     3
370
     5
100
AcDbLine
 10
-6.75
 20
-152.6000061035156
 30
0.0
 11
6.75
 21
-152.6000061035156
 31
0.0
  0
LINE
  5
376
330
2
100
AcDbEntity
  8
0000
  6
Continuous
 62
     3
370
     5
100
AcDbLine
 10
-4.5
 20
-130.0000305175781
 30
0.0
 11
4.5
 21
-130.0000305175781
 31
0.0
  0
LINE
  5
377
330
2
100
AcDbEntity
  8
0000
  6
Continuous
 62
     3
370
     5
100
AcDbLine
 10
-6.75
 20
-142.5000305175781
 30
0.0
 11
6.75
 21
-142.5000305175781
 31
0.0
  0
LINE
  5
378
330
2
100
AcDbEntity
  8
0000
  6
Continuous
 62
     3
370
     5
100
AcDbLine
 10
-6.0999755859375
 20
-156.1000061035156
 30
0.0
 11
6.0999755859375
 21
-156.1000061035156
 31
0.0
  0
LINE
  5
379
330
2
100
AcDbEntity
  8
0000
  6
Continuous
 62
     3
370
     5
100
AcDbLine
 10
6.0999755859375
 20
-156.1000061035156
 30
0.0
 11
6.75
 21
-152.6000061035156
 31
0.0
  0
LINE
  5
37A
330
2
100
AcDbEntity
  8
0000
  6
Continuous
 62
     3
370
     5
100
AcDbLine
 10
-6.75
 20
-152.6000061035156
 30
0.0
 11
-6.0999755859375
 21
-156.1000061035156
 31
0.0
  0
LINE
  5
37B
330
2
100
AcDbEntity
  8
0000
  6
Continuous
 62
     3
370
     5
100
AcDbLine
 10
4.5
 20
-130.0000305175781
 30
0.0
 11
6.1500244140625
 21
-142.5000305175781
 31
0.0
  0
LINE
  5
37C
330
2
100
AcDbEntity
  8
0000
  6
Continuous
 62
     3
370
     5
100
AcDbLine
 10
-4.5
 20
-130.0000305175781
 30
0.0
 11
-6.1500244140625
 21
-142.5000305175781
 31
0.0
  0
LINE
  5
37D
330
2
100
AcDbEntity
  8
0000
  6
Continuous
 62
     3
370
     5
100
AcDbLine
 10
6.0999755859375
 20
-158.5000305175781
 30
0.0
 11
7.0
 21
-159.3000793457031
 31
0.0
  0
LINE
  5
37E
330
2
100
AcDbEntity
  8
0000
  6
Continuous
 62
     3
370
     5
100
AcDbLine
 10
-6.0999755859375
 20
-158.5000305175781
 30
0.0
 11
-7.0
 21
-159.3000793457031
 31
0.0
  0
LINE
  5
37F
330
2
100
AcDbEntity
  8
0000
  6
Continuous
 62
     3
370
     5
100
AcDbLine
 10
-6.0999755859375
 20
-158.5000305175781
 30
0.0
 11
6.0999755859375
 21
-158.5000305175781
 31
0.0
  0
LINE
  5
380
330
2
100
AcDbEntity
  8
0000
  6
Continuous
 62
     3
370
     5
100
AcDbLine
 10
-6.0999755859375
 20
-158.5000305175781
 30
0.0
 11
-6.0999755859375
 21
-156.1000061035156
 31
0.0
  0
LINE
  5
381
330
2
100
AcDbEntity
  8
0000
  6
Continuous
 62
     3
370
     5
100
AcDbLine
 10
6.0999755859375
 20
-158.5000305175781
 30
0.0
 11
6.0999755859375
 21
-156.1000061035156
 31
0.0
  0
LINE
  5
382
330
2
100
AcDbEntity
  8
0000
  6
Continuous
 62
     3
370
     5
100
AcDbLine
 10
-7.0
 20
-159.3000793457031
 30
0.0
 11
7.0
 21
-159.3000793457031
 31
0.0
  0
LINE
  5
383
330
2
100
AcDbEntity
  8
0000
  6
Continuous
 62
     3
370
     5
100
AcDbLine
 10
-7.0
 20
-160.1000061035156
 30
0.0
 11
-7.0
 21
-159.3000793457031
 31
0.0
  0
LINE
  5
384
330
2
100
AcDbEntity
  8
0000
  6
Continuous
 62
     3
370
     5
100
AcDbLine
 10
7.0
 20
-160.1000061035156
 30
0.0
 11
7.0
 21
-159.3000793457031
 31
0.0
  0
LINE
  5
385
330
2
100
AcDbEntity
  8
0000
  6
Continuous
 62
     3
370
     5
100
AcDbLine
 10
-7.3499755859375
 20
-167.5000305175781
 30
0.0
 11
7.3499755859375
 21
-167.5000305175781
 31
0.0
  0
LINE
  5
386
330
2
100
AcDbEntity
  8
0000
  6
Continuous
 62
     3
370
     5
100
AcDbLine
 10
-7.3499755859375
 20
-160.1000061035156
 30
0.0
 11
7.3499755859375
 21
-160.1000061035156
 31
0.0
  0
LINE
  5
387
330
2
100
AcDbEntity
  8
0000
  6
Continuous
 62
     3
370
     5
100
AcDbLine
 10
-7.3499755859375
 20
-167.5000305175781
 30
0.0
 11
-7.3499755859375
 21
-160.1000061035156
 31
0.0
  0
LINE
  5
388
330
2
100
AcDbEntity
  8
0000
  6
Continuous
 62
     3
370
     5
100
AcDbLine
 10
7.3499755859375
 20
-167.5000305175781
 30
0.0
 11
7.3499755859375
 21
-160.1000061035156
 31
0.0
  0
LINE
  5
389
330
2
100
AcDbEntity
  8
0000
  6
Continuous
 62
     3
370
     5
100
AcDbLine
 10
7.0
 20
-172.5000305175781
 30
0.0
 11
7.0
 21
-167.5000305175781
 31
0.0
  0
LINE
  5
38A
330
2
100
AcDbEntity
  8
0000
  6
Continuous
 62
     3
370
     5
100
AcDbLine
 10
-7.00006103515625
 20
-172.5000305175781
 30
0.0
 11
-7.0
 21
-167.5000305175781
 31
0.0
  0
LINE
  5
38B
330
2
100
AcDbEntity
  8
0000
  6
Continuous
 62
     3
370
     5
100
AcDbLine
 10
-7.00006103515625
 20
-172.5000305175781
 30
0.0
 11
7.0
 21
-172.5000305175781
 31
0.0
  0
ARC
  5
38C
330
2
100
AcDbEntity
  8
0000
  6
Continuous
 62
     3
370
     5
100
AcDbCircle
 10
-1.75
 20
-107.2999801635742
 30
0.0
 40
2.015564441680909
100
AcDbArc
 50
29.74487960894779
 51
150.2551185698195
  0
LINE
  5
38D
330
2
100
AcDbEntity
  8
0000
  6
Continuous
 62
     3
370
     5
100
AcDbLine
 10
-3.5
 20
-79.49950408935547
 30
0.0
 11
-3.5
 21
-101.9999923706054
 31
0.0
  0
ARC
  5
38E
330
2
100
AcDbEntity
  8
0000
  6
Continuous
 62
     3
370
     5
100
AcDbCircle
 10
-1.75
 20
-100.9999923706054
 30
0.0
 40
2.01556444168091
100
AcDbArc
 50
209.7448914480934
 51
330.255137239154
  0
ARC
  5
38F
330
2
100
AcDbEntity
  8
0000
  6
Continuous
 62
     3
370
     5
100
AcDbCircle
 10
-1.75
 20
-102.9999923706054
 30
0.0
 40
2.015564441680909
100
AcDbArc
 50
29.74487960894779
 51
150.2551185698195
  0
LINE
  5
390
330
2
100
AcDbEntity
  8
0000
  6
Continuous
 62
     3
370
     5
100
AcDbLine
 10
-8.5
 20
-76.99950408935547
 30
0.0
 11
-8.5
 21
-79.49950408935547
 31
0.0
  0
LINE
  5
391
330
2
100
AcDbEntity
  8
0000
  6
Continuous
 62
     3
370
     5
100
AcDbLine
 10
3.5
 20
-106.2999801635742
 30
0.0
 11
3.5
 21
-130.0000305175781
 31
0.0
  0
ARC
  5
392
330
2
100
AcDbEntity
  8
0000
  6
Continuous
 62
     3
370
     5
100
AcDbCircle
 10
1.75
 20
-107.2999801635742
 30
0.0
 40
2.01555681228638
100
AcDbArc
 50
29.74450394854354
 51
150.2553098151163
  0
ARC
  5
393
330
2
100
AcDbEntity
  8
0000
  6
Continuous
 62
     3
370
     5
100
AcDbCircle
 10
1.75
 20
-105.2999801635742
 30
0.0
 40
2.01556444168091
100
AcDbArc
 50
209.7448914480934
 51
330.255137239154
  0
LINE
  5
394
330
2
100
AcDbEntity
  8
0000
  6
Continuous
 62
     3
370
     5
100
AcDbLine
 10
3.5
 20
-79.49950408935547
 30
0.0
 11
3.5
 21
-101.9999923706054
 31
0.0
  0
ARC
  5
395
330
2
100
AcDbEntity
  8
0000
  6
Continuous
 62
     3
370
     5
100
AcDbCircle
 10
1.75
 20
-100.9999923706054
 30
0.0
 40
2.01556444168091
100
AcDbArc
 50
209.7448914480934
 51
330.255137239154
  0
LINE
  5
396
330
2
100
AcDbEntity
  8
0000
  6
Continuous
 62
     3
370
     5
100
AcDbLine
 10
10.0
 20
-70.00003051757811
 30
0.0
 11
10.0
 21
-76.99950408935547
 31
0.0
  0
LINE
  5
397
330
2
100
AcDbEntity
  8
0000
  6
Continuous
 62
     3
370
     5
100
AcDbLine
 10
8.5
 20
-76.99950408935547
 30
0.0
 11
8.5
 21
-79.49950408935547
 31
0.0
  0
LINE
  5
398
330
2
100
AcDbEntity
  8
0000
  6
Continuous
 62
     3
370
     5
100
AcDbLine
 10
8.5
 20
-79.49950408935547
 30
0.0
 11
-8.5
 21
-79.49950408935547
 31
0.0
  0
CIRCLE
  5
399
330
2
100
AcDbEntity
  8
0000
  6
Continuous
 62
     3
370
     5
100
AcDbCircle
 10
65.0
 20
-65.00002288818359
 30
0.0
 40
2.25
  0
ARC
  5
39A
330
2
100
AcDbEntity
  8
0000
  6
Continuous
 62
     3
370
     5
100
AcDbCircle
 10
65.0
 20
-65.00002288818359
 30
0.0
 40
4.999999999999997
100
AcDbArc
 50
90.00000250447815
 51
180.0000050089563
  0
ARC
  5
39B
330
2
100
AcDbEntity
  8
0000
  6
Continuous
 62
     3
370
     5
100
AcDbCircle
 10
65.0
 20
-65.00002288818359
 30
0.0
 40
5.0
100
AcDbArc
 50
270.0000006832453
 51
0.0
  0
CIRCLE
  5
39C
330
2
100
AcDbEntity
  8
0000
  6
Continuous
 62
     3
370
     5
100
AcDbCircle
 10
-65.0
 20
-65.00003051757811
 30
0.0
 40
2.25
  0
ARC
  5
39D
330
2
100
AcDbEntity
  8
0000
  6
Continuous
 62
     3
370
     5
100
AcDbCircle
 10
-65.0
 20
-65.00003051757811
 30
0.0
 40
5.0
100
AcDbArc
 50
0.0
 51
90.00000250447815
  0
ARC
  5
39E
330
2
100
AcDbEntity
  8
0000
  6
Continuous
 62
     3
370
     5
100
AcDbCircle
 10
-65.0
 20
-65.00003051757811
 30
0.0
 40
5.000000000000004
100
AcDbArc
 50
180.0000050089563
 51
270.0000006832453
  0
CIRCLE
  5
39F
102
{ACAD_REACTORS
330
7F
102
}
330
2
100
AcDbEntity
  8
0000
  6
Continuous
 62
     3
370
     5
100
AcDbCircle
 10
65.0
 20
64.99997711181641
 30
0.0
 40
2.25
  0
ARC
  5
3A0
330
2
100
AcDbEntity
  8
0000
  6
Continuous
 62
     3
370
     5
100
AcDbCircle
 10
65.0
 20
64.99997711181641
 30
0.0
 40
4.999999999999998
100
AcDbArc
 50
180.0000050089563
 51
270.0000006832453
  0
LINE
  5
3A1
330
2
100
AcDbEntity
  8
0000
  6
Continuous
 62
     3
370
     5
100
AcDbLine
 10
70.0
 20
64.99997711181641
 30
0.0
 11
70.0
 21
-65.00002288818359
 31
0.0
  0
ARC
  5
3A2
330
2
100
AcDbEntity
  8
0000
  6
Continuous
 62
     3
370
     5
100
AcDbCircle
 10
65.0
 20
64.99997711181641
 30
0.0
 40
5.0
100
AcDbArc
 50
0.0
 51
90.00000250447815
  0
LINE
  5
3A3
330
2
100
AcDbEntity
  8
0000
  6
Continuous
 62
     3
370
     5
100
AcDbLine
 10
-65.00003051757811
 20
69.99996948242189
 30
0.0
 11
65.0
 21
69.99997711181641
 31
0.0
  0
CIRCLE
  5
3A4
330
2
100
AcDbEntity
  8
0000
  6
Continuous
 62
     3
370
     5
100
AcDbCircle
 10
-65.0
 20
64.99996948242189
 30
0.0
 40
2.25
  0
ARC
  5
3A5
330
2
100
AcDbEntity
  8
0000
  6
Continuous
 62
     3
370
     5
100
AcDbCircle
 10
-65.0
 20
64.99996948242189
 30
0.0
 40
5.0
100
AcDbArc
 50
270.0000006832453
 51
0.0
  0
ARC
  5
3A6
330
2
100
AcDbEntity
  8
0000
  6
Continuous
 62
     3
370
     5
100
AcDbCircle
 10
-65.0
 20
64.99996948242189
 30
0.0
 40
5.000000000000004
100
AcDbArc
 50
90.00000250447815
 51
180.0000050089563
  0
LINE
  5
3A7
330
2
100
AcDbEntity
  8
0000
  6
Continuous
 62
     3
370
     5
100
AcDbLine
 10
-70.0
 20
64.99996948242189
 30
0.0
 11
-70.0
 21
-65.00003051757811
 31
0.0
  0
ARC
  5
3A8
330
2
100
AcDbEntity
  8
0000
  6
Continuous
 62
     3
370
     5
100
AcDbCircle
 10
-64.99993896484375
 20
64.99996948242189
 30
0.0
 40
6.677017211914062
100
AcDbArc
 50
270.0000006832453
 51
0.0
  0
ARC
  5
3A9
330
2
100
AcDbEntity
  8
0000
  6
Continuous
 62
     3
370
     5
100
AcDbCircle
 10
-63.72296142578125
 20
82.07846832275391
 30
0.0
 40
23.78981590270996
100
AcDbArc
 50
257.5617617517885
 51
266.9230277829113
  0
ARC
  5
3AA
330
2
100
AcDbEntity
  8
0000
  6
Continuous
 62
     3
370
     5
100
AcDbCircle
 10
-82.07846069335937
 20
63.722900390625
 30
0.0
 40
23.78979301452636
100
AcDbArc
 50
3.077048886188588
 51
12.43831406353765
  0
ARC
  5
3AB
330
2
100
AcDbEntity
  8
0000
  6
Continuous
 62
     3
370
     5
100
AcDbCircle
 10
65.0
 20
64.99993896484375
 30
0.0
 40
6.677001953124997
100
AcDbArc
 50
180.0000050089563
 51
270.0000006832453
  0
ARC
  5
3AC
330
2
100
AcDbEntity
  8
0000
  6
Continuous
 62
     3
370
     5
100
AcDbCircle
 10
82.07849121093749
 20
63.72295761108397
 30
0.0
 40
23.78979301452637
100
AcDbArc
 50
167.5617250963645
 51
176.9230184482439
  0
ARC
  5
3AD
330
2
100
AcDbEntity
  8
0000
  6
Continuous
 62
     3
370
     5
100
AcDbCircle
 10
63.72293090820313
 20
82.07846069335937
 30
0.0
 40
23.78979682922363
100
AcDbArc
 50
273.0770555458494
 51
282.4383488977288
  0
ARC
  5
3AE
330
2
100
AcDbEntity
  8
0000
  6
Continuous
 62
     3
370
     5
100
AcDbCircle
 10
64.99993896484375
 20
-64.99997711181641
 30
0.0
 40
6.677021026611327
100
AcDbArc
 50
90.00000250447813
 51
180.0000050089563
  0
ARC
  5
3AF
330
2
100
AcDbEntity
  8
0000
  6
Continuous
 62
     3
370
     5
100
AcDbCircle
 10
63.72296142578125
 20
-82.07847595214843
 30
0.0
 40
23.78981590270996
100
AcDbArc
 50
77.56174991264305
 51
86.92302960414409
  0
ARC
  5
3B0
330
2
100
AcDbEntity
  8
0000
  6
Continuous
 62
     3
370
     5
100
AcDbCircle
 10
82.07846069335937
 20
-63.72290802001953
 30
0.0
 40
23.78979301452636
100
AcDbArc
 50
183.0770735319388
 51
192.4383259026831
  0
ARC
  5
3B1
330
2
100
AcDbEntity
  8
0000
  6
Continuous
 62
     3
370
     5
100
AcDbCircle
 10
-65.0
 20
-64.99993133544922
 30
0.0
 40
6.677001953125
100
AcDbArc
 50
0.0
 51
90.0000025044782
  0
ARC
  5
3B2
330
2
100
AcDbEntity
  8
0000
  6
Continuous
 62
     3
370
     5
100
AcDbCircle
 10
-82.07849121093749
 20
-63.72294998168945
 30
0.0
 40
23.78982353210449
100
AcDbArc
 50
347.5617437656991
 51
356.9230371175787
  0
ARC
  5
3B3
330
2
100
AcDbEntity
  8
0000
  6
Continuous
 62
     3
370
     5
100
AcDbCircle
 10
-63.72293090820313
 20
-82.07845306396484
 30
0.0
 40
23.78979301452637
100
AcDbArc
 50
93.07705053689309
 51
102.4383370585833
  0
LINE
  5
3B4
330
2
100
AcDbEntity
  8
0000
  6
Continuous
 62
     3
370
     5
100
AcDbLine
 10
-10.0
 20
-76.99951934814453
 30
0.0
 11
-10.0
 21
-70.00003051757811
 31
0.0
  0
ARC
  5
3B5
330
2
100
AcDbEntity
  8
0000
  6
Continuous
 62
     3
370
     5
100
AcDbCircle
 10
0.000030517578125
 20
-110.8785781860351
 30
0.0
 40
42.08391952514647
100
AcDbArc
 50
76.25385747904481
 51
103.7461406997223
  0
LINE
  5
3B6
330
2
100
AcDbEntity
  8
0000
  6
Continuous
 62
     3
370
     5
100
AcDbLine
 10
-65.00003051757811
 20
-70.00003051757811
 30
0.0
 11
-10.0
 21
-70.00003051757811
 31
0.0
  0
LINE
  5
3B7
330
2
100
AcDbEntity
  8
0000
  6
Continuous
 62
     3
370
     5
100
AcDbLine
 10
10.0
 20
-70.00002288818359
 30
0.0
 11
65.0
 21
-70.00002288818359
 31
0.0
  0
CIRCLE
  5
3B8
330
2
100
AcDbEntity
  8
0000
  6
Continuous
 62
     3
370
     5
100
AcDbCircle
 10
5.0
 20
61.99998092651367
 30
0.0
 40
1.29998779296875
  0
ARC
  5
3B9
330
2
100
AcDbEntity
  8
0000
  6
Continuous
 62
     3
370
     5
100
AcDbCircle
 10
-69.0
 20
-59.00003433227539
 30
0.0
 40
1.000000000000002
100
AcDbArc
 50
180.0000050089561
 51
270.0000006832454
  0
ARC
  5
3BA
330
2
100
AcDbEntity
  8
0000
  6
Continuous
 62
     3
370
     5
100
AcDbCircle
 10
-59.0
 20
-69.00003051757813
 30
0.0
 40
0.9999999999999966
100
AcDbArc
 50
180.0000050089561
 51
270.0000006832454
  0
ARC
  5
3BB
330
2
100
AcDbEntity
  8
0000
  6
Continuous
 62
     3
370
     5
100
AcDbCircle
 10
59.0
 20
-69.0000228881836
 30
0.0
 40
1.0
100
AcDbArc
 50
270.0000006832454
 51
0.0
  0
ARC
  5
3BC
330
2
100
AcDbEntity
  8
0000
  6
Continuous
 62
     3
370
     5
100
AcDbCircle
 10
69.0
 20
-59.0000228881836
 30
0.0
 40
1.0
100
AcDbArc
 50
270.0000006832454
 51
0.0
  0
ARC
  5
3BD
330
2
100
AcDbEntity
  8
0000
  6
Continuous
 62
     3
370
     5
100
AcDbCircle
 10
69.0
 20
58.9999771118164
 30
0.0
 40
1.0
100
AcDbArc
 50
0.0
 51
90.00000250447845
  0
ARC
  5
3BE
330
2
100
AcDbEntity
  8
0000
  6
Continuous
 62
     3
370
     5
100
AcDbCircle
 10
59.0
 20
68.99997711181639
 30
0.0
 40
1.0
100
AcDbArc
 50
0.0
 51
90.00000250447804
  0
ARC
  5
3BF
330
2
100
AcDbEntity
  8
0000
  6
Continuous
 62
     3
370
     5
100
AcDbCircle
 10
-59.0
 20
68.99996948242186
 30
0.0
 40
1.0
100
AcDbArc
 50
90.00000250447804
 51
180.0000050089561
  0
ARC
  5
3C0
330
2
100
AcDbEntity
  8
0000
  6
Continuous
 62
     3
370
     5
100
AcDbCircle
 10
-69.0
 20
58.99995422363281
 30
0.0
 40
1.0
100
AcDbArc
 50
90.00000250447845
 51
180.0000050089561
  0
LINE
  5
3C1
330
2
100
AcDbEntity
  8
0000
  6
Continuous
 62
     3
370
     5
100
AcDbLine
 10
69.0
 20
-60.00002288818359
 30
0.0
 11
65.0
 21
-60.00002288818359
 31
0.0
  0
LINE
  5
3C2
330
2
100
AcDbEntity
  8
0000
  6
Continuous
 62
     3
370
     5
100
AcDbLine
 10
69.0
 20
59.99997711181641
 30
0.0
 11
65.0
 21
59.99997711181641
 31
0.0
  0
LINE
  5
3C3
330
2
100
AcDbEntity
  8
0000
  6
Continuous
 62
     3
370
     5
100
AcDbLine
 10
-69.0
 20
59.99995422363281
 30
0.0
 11
-65.0
 21
59.99995422363281
 31
0.0
  0
LINE
  5
3C4
330
2
100
AcDbEntity
  8
0000
  6
Continuous
 62
     3
370
     5
100
AcDbLine
 10
-69.0
 20
-60.00003433227539
 30
0.0
 11
-65.0
 21
-60.00003433227539
 31
0.0
  0
LINE
  5
3C5
330
2
100
AcDbEntity
  8
0000
  6
Continuous
 62
     3
370
     5
100
AcDbLine
 10
-60.0
 20
-69.00003051757813
 30
0.0
 11
-60.0
 21
-65.00003051757811
 31
0.0
  0
LINE
  5
3C6
330
2
100
AcDbEntity
  8
0000
  6
Continuous
 62
     3
370
     5
100
AcDbLine
 10
60.0
 20
-69.00003051757813
 30
0.0
 11
60.0
 21
-65.00002288818359
 31
0.0
  0
LINE
  5
3C7
330
2
100
AcDbEntity
  8
0000
  6
Continuous
 62
     3
370
     5
100
AcDbLine
 10
-60.0
 20
68.99996948242186
 30
0.0
 11
-60.0
 21
64.99995422363281
 31
0.0
  0
LINE
  5
3C8
330
2
100
AcDbEntity
  8
0000
  6
Continuous
 62
     3
370
     5
100
AcDbLine
 10
60.0
 20
68.99996948242186
 30
0.0
 11
60.0
 21
64.99997711181641
 31
0.0
  0
LINE
  5
3C9
330
2
100
AcDbEntity
  8
0000
  6
Continuous
 62
     3
370
     5
100
AcDbLine
 10
-59.70709228515625
 20
69.70709228515625
 30
0.0
 11
-58.84698486328125
 21
68.84705352783203
 31
0.0
  0
LINE
  5
3CA
330
2
100
AcDbEntity
  8
0000
  6
Continuous
 62
     3
370
     5
100
AcDbLine
 10
-69.70709228515625
 20
59.70706939697265
 30
0.0
 11
-68.84698486328125
 21
58.84703063964844
 31
0.0
  0
LINE
  5
3CB
330
2
100
AcDbEntity
  8
0000
  6
Continuous
 62
     3
370
     5
100
AcDbLine
 10
-69.7071533203125
 20
-59.70711517333985
 30
0.0
 11
-68.84707641601561
 21
-58.84697723388672
 31
0.0
  0
LINE
  5
3CC
330
2
100
AcDbEntity
  8
0000
  6
Continuous
 62
     3
370
     5
100
AcDbLine
 10
-59.70712280273438
 20
-69.70709991455078
 30
0.0
 11
-58.8470458984375
 21
-68.84697723388672
 31
0.0
  0
LINE
  5
3CD
330
2
100
AcDbEntity
  8
0000
  6
Continuous
 62
     3
370
     5
100
AcDbLine
 10
59.70712280273438
 20
-69.70712280273438
 30
0.0
 11
58.84698486328125
 21
-68.84706115722656
 31
0.0
  0
LINE
  5
3CE
330
2
100
AcDbEntity
  8
0000
  6
Continuous
 62
     3
370
     5
100
AcDbLine
 10
69.70712280273438
 20
-59.70710754394531
 30
0.0
 11
68.84698486328125
 21
-58.84703826904297
 31
0.0
  0
LINE
  5
3CF
330
2
100
AcDbEntity
  8
0000
  6
Continuous
 62
     3
370
     5
100
AcDbLine
 10
69.70709228515625
 20
59.70708084106445
 30
0.0
 11
68.84707641601561
 21
58.84698104858397
 31
0.0
  0
LINE
  5
3D0
330
2
100
AcDbEntity
  8
0000
  6
Continuous
 62
     3
370
     5
100
AcDbLine
 10
59.70709228515625
 20
69.70708465576172
 30
0.0
 11
58.8470458984375
 21
68.84698486328125
 31
0.0
  0
LINE
  5
3D1
330
2
100
AcDbEntity
  8
0000
  6
Continuous
 62
     3
370
     5
100
AcDbLine
 10
57.00006103515625
 20
-45.0
 30
0.0
 11
-56.99993896484375
 21
-45.0
 31
0.0
  0
ARC
  5
3D2
330
2
100
AcDbEntity
  8
0000
  6
Continuous
 62
     3
370
     5
100
AcDbCircle
 10
-56.99993896484375
 20
-42.0
 30
0.0
 40
2.999999999999996
100
AcDbArc
 50
180.0000050089563
 51
270.0000006832453
  0
LINE
  5
3D3
330
2
100
AcDbEntity
  8
0000
  6
Continuous
 62
     3
370
     5
100
AcDbLine
 10
-59.99993896484375
 20
-42.0
 30
0.0
 11
-59.99993896484375
 21
42.0
 31
0.0
  0
ARC
  5
3D4
330
2
100
AcDbEntity
  8
0000
  6
Continuous
 62
     3
370
     5
100
AcDbCircle
 10
-56.99993896484375
 20
42.0
 30
0.0
 40
3.000000000000003
100
AcDbArc
 50
90.00000250447817
 51
180.0000050089563
  0
LINE
  5
3D5
330
2
100
AcDbEntity
  8
0000
  6
Continuous
 62
     3
370
     5
100
AcDbLine
 10
57.00006103515625
 20
45.0
 30
0.0
 11
-56.99993896484375
 21
45.0
 31
0.0
  0
ARC
  5
3D6
330
2
100
AcDbEntity
  8
0000
  6
Continuous
 62
     3
370
     5
100
AcDbCircle
 10
57.00006103515625
 20
42.0
 30
0.0
 40
3.0
100
AcDbArc
 50
0.0
 51
90.00000250447817
  0
LINE
  5
3D7
330
2
100
AcDbEntity
  8
0000
  6
Continuous
 62
     3
370
     5
100
AcDbLine
 10
60.00006103515625
 20
-42.0
 30
0.0
 11
60.00006103515625
 21
42.0
 31
0.0
  0
ARC
  5
3D8
330
2
100
AcDbEntity
  8
0000
  6
Continuous
 62
     3
370
     5
100
AcDbCircle
 10
57.00006103515625
 20
-42.0
 30
0.0
 40
3.0
100
AcDbArc
 50
270.0000006832453
 51
0.0
  0
CIRCLE
  5
3D9
330
2
100
AcDbEntity
  8
0000
  6
Continuous
 62
     3
370
     5
100
AcDbCircle
 10
-5.0
 20
61.99998474121094
 30
0.0
 40
1.29998779296875
  0
ARC
  5
3DA
330
2
100
AcDbEntity
  8
0000
  6
Continuous
 62
     3
370
     5
100
AcDbCircle
 10
5.0
 20
64.0953369140625
 30
0.0
 40
1.29998779296875
100
AcDbArc
 50
0.0
 51
180.0000050089566
  0
ARC
  5
3DB
330
2
100
AcDbEntity
  8
0000
  6
Continuous
 62
     3
370
     5
100
AcDbCircle
 10
-5.0
 20
64.0953369140625
 30
0.0
 40
1.29998779296875
100
AcDbArc
 50
0.0
 51
180.0000050089566
  0
LINE
  5
3DC
330
2
100
AcDbEntity
  8
0000
  6
Continuous
 62
     3
370
     5
100
AcDbLine
 10
-6.29998779296875
 20
64.0953369140625
 30
0.0
 11
-6.29998779296875
 21
61.99998474121094
 31
0.0
  0
LINE
  5
3DD
330
2
100
AcDbEntity
  8
0000
  6
Continuous
 62
     3
370
     5
100
AcDbLine
 10
-3.70001220703125
 20
64.0953369140625
 30
0.0
 11
-3.70001220703125
 21
61.99998474121094
 31
0.0
  0
DIMENSION
  5
3DE
330
2
100
AcDbEntity
  8
0000
100
AcDbDimension
  2
*D4
 10
-65.0
 20
88.06304168701172
 30
0.0
 11
1.071428775787353
 21
88.06304168701172
 31
0.0
 70
   128
  1
<>
 71
     5
 42
130.0
  3
GD2_Style4
100
AcDbAlignedDimension
 13
65.0
 23
64.99997711181641
 33
0.0
 14
-65.0
 24
64.99996948242189
 34
0.0
100
AcDbRotatedDimension
  0
DIMENSION
  5
3EB
330
2
100
AcDbEntity
  8
0000
100
AcDbDimension
  2
*D3
 10
-70.0
 20
102.5559921264648
 30
0.0
 11
1.071428775787353
 21
102.5559921264648
 31
0.0
 70
   128
  1
<>
 71
     5
 42
140.0
  3
GD2_Style3
100
AcDbAlignedDimension
 13
70.0
 23
64.99997711181641
 33
0.0
 14
-70.0
 24
64.99996948242189
 34
0.0
100
AcDbRotatedDimension
  0
DIMENSION
  5
3F8
330
2
100
AcDbEntity
  8
0000
100
AcDbDimension
  2
*D2
 10
100.0305709838867
 20
69.99997711181639
 30
0.0
 11
100.0305709838867
 21
1.071405887603759
 31
0.0
 70
   128
  1
<>
 71
     5
 42
140.0
  3
GD2_Style2
100
AcDbAlignedDimension
 13
65.0
 23
-70.00002288818359
 33
0.0
 14
65.0
 24
69.99997711181641
 34
0.0
 50
90.0
100
AcDbRotatedDimension
  0
DIMENSION
  5
406
330
2
100
AcDbEntity
  8
0000
100
AcDbDimension
  2
*D1
 10
87.17240142822269
 20
64.99997711181641
 30
0.0
 11
87.17240142822266
 21
1.071405887603759
 31
0.0
 70
   128
  1
<>
 71
     5
 42
130.0
  3
GD2_Style1
100
AcDbAlignedDimension
 13
65.0
 23
-65.00002288818359
 33
0.0
 14
65.0
 24
64.99997711181641
 34
0.0
 50
90.0
100
AcDbRotatedDimension
  0
LINE
  5
414
330
2
100
AcDbEntity
  8
0000
  6
Continuous
 62
     3
370
     5
100
AcDbLine
 10
-3.5
 20
-106.2999801635742
 30
0.0
 11
-3.5
 21
-130.0000305175781
 31
0.0
  0
ENDSEC
  0
SECTION
  2
OBJECTS
  0
DICTIONARY
  5
7
330
0
100
AcDbDictionary
281
     1
  3
ACAD_2007HEADERVARS_RT
350
466
  3
ACAD_COLOR
350
4B
  3
ACAD_GROUP
350
38
  3
ACAD_LAYOUT
350
14
  3
ACAD_MATERIAL
350
9
  3
ACAD_MLEADERSTYLE
350
4E
  3
ACAD_MLINESTYLE
350
39
  3
ACAD_PLOTSETTINGS
350
3A
  3
ACAD_PLOTSTYLENAME
350
6
  3
ACAD_SCALELIST
350
4C
  3
ACAD_TABLESTYLE
350
4D
  3
ACAD_VISUALSTYLE
350
26
  3
ACDB_RECOMPOSE_DATA
350
465
  3
AcDbVariableDictionary
350
452
  3
AcmDictionary
350
425
  3
AcmSystemVariableManager
350
47C
  3
AMG
350
416
  0
DICTIONARY
  5
477
330
84
100
AcDbDictionary
280
     1
281
     1
  3
ACAD_MTEXT_RT
360
478
  0
DICTIONARY
  5
66
330
65
100
AcDbDictionary
280
     1
281
     1
  3
ACAD_DIMASSOC
360
67
  0
DICTIONARY
  5
7E
330
7D
100
AcDbDictionary
280
     1
281
     1
  3
ACAD_DIMASSOC
360
7F
  0
DICTIONARY
  5
466
102
{ACAD_REACTORS
330
7
102
}
330
7
100
AcDbDictionary
281
     1
  3
DIMARCSYM
350
467
  0
DICTIONARY
  5
4B
102
{ACAD_REACTORS
330
7
102
}
330
7
100
AcDbDictionary
281
     1
  0
DICTIONARY
  5
38
102
{ACAD_REACTORS
330
7
102
}
330
7
100
AcDbDictionary
281
     1
  0
DICTIONARY
  5
14
102
{ACAD_REACTORS
330
7
102
}
330
7
100
AcDbDictionary
281
     1
  3
Model
350
13
  3
レイアウト1
350
19
  0
DICTIONARY
  5
9
102
{ACAD_REACTORS
330
7
102
}
330
7
100
AcDbDictionary
281
     1
  3
ByBlock
350
43
  3
ByLayer
350
3B
  3
Global
350
8
  0
DICTIONARY
  5
4E
102
{ACAD_REACTORS
330
7
102
}
330
7
100
AcDbDictionary
281
     1
  0
DICTIONARY
  5
39
102
{ACAD_REACTORS
330
7
102
}
330
7
100
AcDbDictionary
281
     1
  3
Standard
350
4F
  0
DICTIONARY
  5
3A
102
{ACAD_REACTORS
330
7
102
}
330
7
100
AcDbDictionary
281
     1
  0
ACDBDICTIONARYWDFLT
  5
6
102
{ACAD_REACTORS
330
7
102
}
330
7
100
AcDbDictionary
281
     1
  3
Normal
350
5
100
AcDbDictionaryWithDefault
340
5
  0
DICTIONARY
  5
4C
102
{ACAD_REACTORS
330
7
102
}
330
7
100
AcDbDictionary
281
     1
  3
A0
350
54
  3
A1
350
55
  3
A2
350
56
  3
A3
350
57
  3
A4
350
58
  3
A5
350
59
  3
A6
350
5A
  3
A7
350
5B
  3
A8
350
5C
  3
A9
350
5D
  3
B0
350
5E
  3
B1
350
5F
  3
B2
350
60
  3
B3
350
61
  3
B4
350
62
  3
B5
350
63
  3
B6
350
64
  0
DICTIONARY
  5
4D
102
{ACAD_REACTORS
330
7
102
}
330
7
100
AcDbDictionary
281
     1
  3
Standard
350
50
  0
DICTIONARY
  5
26
102
{ACAD_REACTORS
330
7
102
}
330
7
100
AcDbDictionary
281
     1
  3
2dWireframe
350
25
  3
Realistic
350
52
  3
Wireframe
350
53
  0
XRECORD
  5
465
102
{ACAD_REACTORS
330
7
102
}
330
7
100
AcDbXrecord
280
     1
 90
        1
330
50
  0
DICTIONARY
  5
452
102
{ACAD_REACTORS
330
7
102
}
330
7
100
AcDbDictionary
281
     1
  3
CANNOSCALE
350
456
  3
CMLEADERSTYLE
350
454
  3
CTABLESTYLE
350
453
  3
DIMASSOC
350
45D
  3
HIDETEXT
350
45C
  3
INDEXCTL
350
45B
  3
LAYEREVAL
350
458
  3
LAYERNOTIFY
350
459
  3
LIGHTINGUNITS
350
457
  3
LOFTANG1
350
45E
  3
LOFTANG2
350
45F
  3
LONGITUDE
350
460
  3
MSLTSCALE
350
455
  3
SORTENTS
350
45A
  3
XCLIPFRAME
350
461
  0
DICTIONARY
  5
425
102
{ACAD_REACTORS
330
7
102
}
330
7
100
AcDbDictionary
281
     1
  3
AcmStdDictionary
350
426
  0
DICTIONARY
  5
416
102
{ACAD_REACTORS
330
7
102
}
330
7
100
AcDbDictionary
281
     1
  3
AcMgSettings
350
420
  0
XRECORD
  5
478
102
{ACAD_REACTORS
330
477
102
}
330
477
100
AcDbXrecord
280
     1
 40
7427.0
  1
\A1;4-\U+22054.5
  0
DIMASSOC
  5
67
102
{ACAD_REACTORS
330
66
102
}
330
66
100
AcDbDimAssoc
330
65
 90
        3
 70
     0
 71
     0
  1
AcDbOsnapPointRef
 72
     1
331
320
 73
     0
 91
        0
 40
0.0
 10
0.0
 20
0.0
 30
2.000000000000000E+50
 75
     0
  1
AcDbOsnapPointRef
 72
    13
331
32E
 73
     0
 91
        0
 40
0.0
 10
0.0
 20
0.0
 30
2.000000000000000E+50
 75
     0
  0
DIMASSOC
  5
7F
102
{ACAD_REACTORS
330
7E
102
}
330
7E
100
AcDbDimAssoc
330
7D
 90
        2
 70
     0
 71
     0
  1
AcDbOsnapPointRef
 72
     3
331
39F
 73
     2
 91
        0
 40
0.0
 10
0.0
 20
0.0
 30
0.0
 75
     0
  0
XRECORD
  5
467
102
{ACAD_REACTORS
330
466
102
}
330
466
100
AcDbXrecord
280
     1
 70
     2
  0
LAYOUT
  5
13
102
{ACAD_XDICTIONARY
360
469
102
}
102
{ACAD_REACTORS
330
14
102
}
330
14
100
AcDbPlotSettings
  1

  2
SHARP MX-5111FN SPDL2-c
  4
A4
  6

 40
5.027082920074462
 41
5.027085781097412
 42
5.027069091796875
 43
5.027069091796875
 44
209.9733276367187
 45
296.9259948730469
 46
0.0
 47
0.0
 48
0.0
 49
0.0
140
0.0
141
0.0
142
1.0
143
4.186044025324693
 70
 11952
 72
     1
 73
     1
 74
     0
  7

 75
     0
147
0.2388890307770794
148
448.7031422387069
149
350.9662172957921
100
AcDbLayout
  1
Model
 70
     1
 71
     0
 10
0.0
 20
0.0
 11
12.0
 21
9.0
 12
0.0
 22
0.0
 32
0.0
 14
0.0
 24
0.0
 34
0.0
 15
0.0
 25
0.0
 35
0.0
146
0.0
 13
0.0
 23
0.0
 33
0.0
 16
1.0
 26
0.0
 36
0.0
 17
0.0
 27
1.0
 37
0.0
 76
     0
330
2
331
24
1001
ACAD_PSEXT
1000
SHARP MX-5111FN SPDL2-c
1000
SHARP MX-5111FN SPDL2-c
1000
10.68.23.66
1000

1070
     0
  0
LAYOUT
  5
19
102
{ACAD_XDICTIONARY
360
46B
102
}
102
{ACAD_REACTORS
330
14
102
}
330
14
100
AcDbPlotSettings
  1

  2
SHARP MX-5111FN SPDL2-c
  4

  6

 40
0.0
 41
0.0
 42
0.0
 43
0.0
 44
0.0
 45
0.0
 46
0.0
 47
0.0
 48
0.0
 49
0.0
140
0.0
141
0.0
142
1.0
143
1.0
 70
   688
 72
     0
 73
     0
 74
     5
  7

 75
    16
147
1.0
148
0.0
149
0.0
100
AcDbLayout
  1
レイアウト1
 70
     1
 71
     1
 10
0.0
 20
0.0
 11
12.0
 21
9.0
 12
0.0
 22
0.0
 32
0.0
 14
0.0
 24
0.0
 34
0.0
 15
0.0
 25
0.0
 35
0.0
146
0.0
 13
0.0
 23
0.0
 33
0.0
 16
1.0
 26
0.0
 36
0.0
 17
0.0
 27
1.0
 37
0.0
 76
     0
330
16
  0
MATERIAL
  5
43
102
{ACAD_XDICTIONARY
360
44
102
}
102
{ACAD_REACTORS
330
9
102
}
330
9
100
AcDbMaterial
  1
ByBlock
 72
     0
 43
0.0208333333333333
 43
0.0
 43
0.0
 43
0.0
 43
0.0
 43
0.0208333333333333
 43
0.0
 43
0.0
 43
0.0
 43
0.0
 43
1.0
 43
0.0
 43
0.0
 43
0.0
 43
0.0
 43
1.0
 77
     0
 47
0.0208333333333333
 47
0.0
 47
0.0
 47
0.0
 47
0.0
 47
0.0208333333333333
 47
0.0
 47
0.0
 47
0.0
 47
0.0
 47
1.0
 47
0.0
 47
0.0
 47
0.0
 47
0.0
 47
1.0
171
     0
 49
0.0208333333333333
 49
0.0
 49
0.0
 49
0.0
 49
0.0
 49
0.0208333333333333
 49
0.0
 49
0.0
 49
0.0
 49
0.0
 49
1.0
 49
0.0
 49
0.0
 49
0.0
 49
0.0
 49
1.0
175
     0
142
0.0208333333333333
142
0.0
142
0.0
142
0.0
142
0.0
142
0.0208333333333333
142
0.0
142
0.0
142
0.0
142
0.0
142
1.0
142
0.0
142
0.0
142
0.0
142
0.0
142
1.0
179
     0
144
0.0208333333333333
144
0.0
144
0.0
144
0.0
144
0.0
144
0.0208333333333333
144
0.0
144
0.0
144
0.0
144
0.0
144
1.0
144
0.0
144
0.0
144
0.0
144
0.0
144
1.0
147
0.0208333333333333
147
0.0
147
0.0
147
0.0
147
0.0
147
0.0208333333333333
147
0.0
147
0.0
147
0.0
147
0.0
147
1.0
147
0.0
147
0.0
147
0.0
147
0.0
147
1.0
  0
MATERIAL
  5
3B
102
{ACAD_XDICTIONARY
360
3C
102
}
102
{ACAD_REACTORS
330
9
102
}
330
9
100
AcDbMaterial
  1
ByLayer
 72
     0
 43
0.0208333333333333
 43
0.0
 43
0.0
 43
0.0
 43
0.0
 43
0.0208333333333333
 43
0.0
 43
0.0
 43
0.0
 43
0.0
 43
1.0
 43
0.0
 43
0.0
 43
0.0
 43
0.0
 43
1.0
 77
     0
 47
0.0208333333333333
 47
0.0
 47
0.0
 47
0.0
 47
0.0
 47
0.0208333333333333
 47
0.0
 47
0.0
 47
0.0
 47
0.0
 47
1.0
 47
0.0
 47
0.0
 47
0.0
 47
0.0
 47
1.0
171
     0
 49
0.0208333333333333
 49
0.0
 49
0.0
 49
0.0
 49
0.0
 49
0.0208333333333333
 49
0.0
 49
0.0
 49
0.0
 49
0.0
 49
1.0
 49
0.0
 49
0.0
 49
0.0
 49
0.0
 49
1.0
175
     0
142
0.0208333333333333
142
0.0
142
0.0
142
0.0
142
0.0
142
0.0208333333333333
142
0.0
142
0.0
142
0.0
142
0.0
142
1.0
142
0.0
142
0.0
142
0.0
142
0.0
142
1.0
179
     0
144
0.0208333333333333
144
0.0
144
0.0
144
0.0
144
0.0
144
0.0208333333333333
144
0.0
144
0.0
144
0.0
144
0.0
144
1.0
144
0.0
144
0.0
144
0.0
144
0.0
144
1.0
147
0.0208333333333333
147
0.0
147
0.0
147
0.0
147
0.0
147
0.0208333333333333
147
0.0
147
0.0
147
0.0
147
0.0
147
1.0
147
0.0
147
0.0
147
0.0
147
0.0
147
1.0
  0
MATERIAL
  5
8
102
{ACAD_XDICTIONARY
360
A
102
}
102
{ACAD_REACTORS
330
9
102
}
330
9
100
AcDbMaterial
  1
Global
 72
     0
 43
0.0208333333333333
 43
0.0
 43
0.0
 43
0.0
 43
0.0
 43
0.0208333333333333
 43
0.0
 43
0.0
 43
0.0
 43
0.0
 43
1.0
 43
0.0
 43
0.0
 43
0.0
 43
0.0
 43
1.0
 77
     0
 47
0.0208333333333333
 47
0.0
 47
0.0
 47
0.0
 47
0.0
 47
0.0208333333333333
 47
0.0
 47
0.0
 47
0.0
 47
0.0
 47
1.0
 47
0.0
 47
0.0
 47
0.0
 47
0.0
 47
1.0
171
     0
 49
0.0208333333333333
 49
0.0
 49
0.0
 49
0.0
 49
0.0
 49
0.0208333333333333
 49
0.0
 49
0.0
 49
0.0
 49
0.0
 49
1.0
 49
0.0
 49
0.0
 49
0.0
 49
0.0
 49
1.0
175
     0
142
0.0208333333333333
142
0.0
142
0.0
142
0.0
142
0.0
142
0.0208333333333333
142
0.0
142
0.0
142
0.0
142
0.0
142
1.0
142
0.0
142
0.0
142
0.0
142
0.0
142
1.0
179
     0
144
0.0208333333333333
144
0.0
144
0.0
144
0.0
144
0.0
144
0.0208333333333333
144
0.0
144
0.0
144
0.0
144
0.0
144
1.0
144
0.0
144
0.0
144
0.0
144
0.0
144
1.0
147
0.0208333333333333
147
0.0
147
0.0
147
0.0
147
0.0
147
0.0208333333333333
147
0.0
147
0.0
147
0.0
147
0.0
147
1.0
147
0.0
147
0.0
147
0.0
147
0.0
147
1.0
  0
MLINESTYLE
  5
4F
102
{ACAD_REACTORS
330
39
102
}
330
39
100
AcDbMlineStyle
  2
STANDARD
 70
     0
  3

 62
   256
 51
90.0
 52
90.0
 71
     2
 49
0.5
 62
   256
  6
BYLAYER
 49
-0.5
 62
   256
  6
BYLAYER
  0
ACDBPLACEHOLDER
  5
5
102
{ACAD_REACTORS
330
6
102
}
330
6
  0
SCALE
  5
54
102
{ACAD_REACTORS
330
4C
102
}
330
4C
100
AcDbScale
 70
     0
300
1:1
140
1.0
141
1.0
290
     1
  0
SCALE
  5
55
102
{ACAD_REACTORS
330
4C
102
}
330
4C
100
AcDbScale
 70
     0
300
1:2
140
1.0
141
2.0
290
     0
  0
SCALE
  5
56
102
{ACAD_REACTORS
330
4C
102
}
330
4C
100
AcDbScale
 70
     0
300
1:4
140
1.0
141
4.0
290
     0
  0
SCALE
  5
57
102
{ACAD_REACTORS
330
4C
102
}
330
4C
100
AcDbScale
 70
     0
300
1:5
140
1.0
141
5.0
290
     0
  0
SCALE
  5
58
102
{ACAD_REACTORS
330
4C
102
}
330
4C
100
AcDbScale
 70
     0
300
1:8
140
1.0
141
8.0
290
     0
  0
SCALE
  5
59
102
{ACAD_REACTORS
330
4C
102
}
330
4C
100
AcDbScale
 70
     0
300
1:10
140
1.0
141
10.0
290
     0
  0
SCALE
  5
5A
102
{ACAD_REACTORS
330
4C
102
}
330
4C
100
AcDbScale
 70
     0
300
1:16
140
1.0
141
16.0
290
     0
  0
SCALE
  5
5B
102
{ACAD_REACTORS
330
4C
102
}
330
4C
100
AcDbScale
 70
     0
300
1:20
140
1.0
141
20.0
290
     0
  0
SCALE
  5
5C
102
{ACAD_REACTORS
330
4C
102
}
330
4C
100
AcDbScale
 70
     0
300
1:30
140
1.0
141
30.0
290
     0
  0
SCALE
  5
5D
102
{ACAD_REACTORS
330
4C
102
}
330
4C
100
AcDbScale
 70
     0
300
1:40
140
1.0
141
40.0
290
     0
  0
SCALE
  5
5E
102
{ACAD_REACTORS
330
4C
102
}
330
4C
100
AcDbScale
 70
     0
300
1:50
140
1.0
141
50.0
290
     0
  0
SCALE
  5
5F
102
{ACAD_REACTORS
330
4C
102
}
330
4C
100
AcDbScale
 70
     0
300
1:100
140
1.0
141
100.0
290
     0
  0
SCALE
  5
60
102
{ACAD_REACTORS
330
4C
102
}
330
4C
100
AcDbScale
 70
     0
300
2:1
140
2.0
141
1.0
290
     0
  0
SCALE
  5
61
102
{ACAD_REACTORS
330
4C
102
}
330
4C
100
AcDbScale
 70
     0
300
4:1
140
4.0
141
1.0
290
     0
  0
SCALE
  5
62
102
{ACAD_REACTORS
330
4C
102
}
330
4C
100
AcDbScale
 70
     0
300
8:1
140
8.0
141
1.0
290
     0
  0
SCALE
  5
63
102
{ACAD_REACTORS
330
4C
102
}
330
4C
100
AcDbScale
 70
     0
300
10:1
140
10.0
141
1.0
290
     0
  0
SCALE
  5
64
102
{ACAD_REACTORS
330
4C
102
}
330
4C
100
AcDbScale
 70
     0
300
100:1
140
100.0
141
1.0
290
     0
  0
TABLESTYLE
  5
50
102
{ACAD_XDICTIONARY
360
51
102
}
102
{ACAD_REACTORS
330
4D
102
}
330
4D
100
AcDbTableStyle
  3
Standard
 70
     0
 71
     0
 40
0.06
 41
0.06
280
     0
281
     0
  7
Standard
140
0.18
170
     2
 62
     0
 63
     7
283
     0
274
    -2
284
     1
 64
     0
275
    -2
285
     1
 65
     0
276
    -2
286
     1
 66
     0
277
    -2
287
     1
 67
     0
278
    -2
288
     1
 68
     0
279
    -2
289
     1
 69
     0
  7
Standard
140
0.25
170
     5
 62
     0
 63
     7
283
     0
274
    -2
284
     1
 64
     0
275
    -2
285
     1
 65
     0
276
    -2
286
     1
 66
     0
277
    -2
287
     1
 67
     0
278
    -2
288
     1
 68
     0
279
    -2
289
     1
 69
     0
  7
Standard
140
0.18
170
     5
 62
     0
 63
     7
283
     0
274
    -2
284
     1
 64
     0
275
    -2
285
     1
 65
     0
276
    -2
286
     1
 66
     0
277
    -2
287
     1
 67
     0
278
    -2
288
     1
 68
     0
279
    -2
289
     1
 69
     0
  0
VISUALSTYLE
  5
25
102
{ACAD_XDICTIONARY
360
46D
102
}
102
{ACAD_REACTORS
330
26
102
}
330
26
100
AcDbVisualStyle
  2
2dWireframe
 70
     4
 71
     0
 72
     2
 73
     0
 90
        0
 40
-0.6
 41
-30.0
 62
     5
 63
     7
 74
     1
 91
        4
 64
     7
 65
   257
 75
     1
175
     1
 42
1.0
 92
        0
 66
   257
 43
1.0
 76
     1
 77
     6
 78
     2
 67
     7
 79
     5
170
     0
171
     0
290
     0
174
     0
 93
        1
 44
0.0
173
     0
291
     0
 45
0.0
1001
ACAD
1000
AcDbSavedByObjectVersion
1070
     0
  0
VISUALSTYLE
  5
52
102
{ACAD_XDICTIONARY
360
473
102
}
102
{ACAD_REACTORS
330
26
102
}
330
26
100
AcDbVisualStyle
  2
Realistic
 70
     8
 71
     2
 72
     3
 73
     0
 90
        2
 40
-0.6
 41
30.0
 62
     5
 63
     7
 74
     0
 91
        0
 64
     7
 65
   257
 75
     1
175
     1
 42
1.0
 92
        8
 66
   257
 43
1.0
 76
     1
 77
     6
 78
     2
 67
     7
 79
     3
170
     0
171
     0
290
     0
174
     0
 93
       13
 44
0.0
173
     0
291
     0
 45
0.0
1001
ACAD
1000
AcDbSavedByObjectVersion
1070
     0
  0
VISUALSTYLE
  5
53
102
{ACAD_XDICTIONARY
360
475
102
}
102
{ACAD_REACTORS
330
26
102
}
330
26
100
AcDbVisualStyle
  2
Wireframe
 70
     5
 71
     0
 72
     2
 73
     0
 90
        0
 40
-0.6
 41
-30.0
 62
     5
 63
     7
 74
     1
 91
        4
 64
     7
 65
   257
 75
     1
175
     1
 42
1.0
 92
        0
 66
   257
 43
1.0
 76
     1
 77
     6
 78
     2
 67
     7
 79
     3
170
     0
171
     0
290
     0
174
     0
 93
        1
 44
0.0
173
     0
291
     0
 45
0.0
1001
ACAD
1000
AcDbSavedByObjectVersion
1070
     0
  0
DICTIONARYVAR
  5
456
102
{ACAD_REACTORS
330
452
102
}
330
452
100
DictionaryVariables
280
     0
  1
1:1
  0
DICTIONARYVAR
  5
454
102
{ACAD_REACTORS
330
452
102
}
330
452
100
DictionaryVariables
280
     0
  1
STANDARD
  0
DICTIONARYVAR
  5
453
102
{ACAD_REACTORS
330
452
102
}
330
452
100
DictionaryVariables
280
     0
  1
STANDARD
  0
DICTIONARYVAR
  5
45D
102
{ACAD_REACTORS
330
452
102
}
330
452
100
DictionaryVariables
280
     0
  1
2
  0
DICTIONARYVAR
  5
45C
102
{ACAD_REACTORS
330
452
102
}
330
452
100
DictionaryVariables
280
     0
  1
1
  0
DICTIONARYVAR
  5
45B
102
{ACAD_REACTORS
330
452
102
}
330
452
100
DictionaryVariables
280
     0
  1
0
  0
DICTIONARYVAR
  5
458
102
{ACAD_REACTORS
330
452
102
}
330
452
100
DictionaryVariables
280
     0
  1
0
  0
DICTIONARYVAR
  5
459
102
{ACAD_REACTORS
330
452
102
}
330
452
100
DictionaryVariables
280
     0
  1
0
  0
DICTIONARYVAR
  5
457
102
{ACAD_REACTORS
330
452
102
}
330
452
100
DictionaryVariables
280
     0
  1
2
  0
DICTIONARYVAR
  5
45E
102
{ACAD_REACTORS
330
452
102
}
330
452
100
DictionaryVariables
280
     0
  1
1.570796
  0
DICTIONARYVAR
  5
45F
102
{ACAD_REACTORS
330
452
102
}
330
452
100
DictionaryVariables
280
     0
  1
1.570796
  0
DICTIONARYVAR
  5
460
102
{ACAD_REACTORS
330
452
102
}
330
452
100
DictionaryVariables
280
     0
  1
-122.394000
  0
DICTIONARYVAR
  5
455
102
{ACAD_REACTORS
330
452
102
}
330
452
100
DictionaryVariables
280
     0
  1
1
  0
DICTIONARYVAR
  5
45A
102
{ACAD_REACTORS
330
452
102
}
330
452
100
DictionaryVariables
280
     0
  1
127
  0
DICTIONARYVAR
  5
461
102
{ACAD_REACTORS
330
452
102
}
330
452
100
DictionaryVariables
280
     0
  1
2
  0
DICTIONARY
  5
426
102
{ACAD_REACTORS
330
425
102
}
330
425
100
AcDbDictionary
281
     1
  0
DICTIONARY
  5
420
102
{ACAD_REACTORS
330
416
102
}
330
416
100
AcDbDictionary
281
     1
  3
DWGSETTINGS
350
41F
  3
TRANSSETTINGS
350
421
  0
DICTIONARY
  5
469
330
13
100
AcDbDictionary
280
     1
281
     1
  3
ACAD_XREC_ROUNDTRIP
360
46A
  0
DICTIONARY
  5
46B
330
19
100
AcDbDictionary
280
     1
281
     1
  3
ACAD_XREC_ROUNDTRIP
360
46C
  0
DICTIONARY
  5
44
330
43
100
AcDbDictionary
280
     1
281
     1
  3
ACAD_XREC_ROUNDTRIP
360
471
  3
BUMPTILE
360
45
  3
DIFFUSETILE
360
46
  3
OPACITYTILE
360
47
  3
REFLECTIONTILE
360
48
  3
REFRACTIONTILE
360
49
  3
SPECULARTILE
360
4A
  0
DICTIONARY
  5
3C
330
3B
100
AcDbDictionary
280
     1
281
     1
  3
ACAD_XREC_ROUNDTRIP
360
470
  3
BUMPTILE
360
3D
  3
DIFFUSETILE
360
3E
  3
OPACITYTILE
360
3F
  3
REFLECTIONTILE
360
40
  3
REFRACTIONTILE
360
41
  3
SPECULARTILE
360
42
  0
DICTIONARY
  5
A
330
8
100
AcDbDictionary
280
     1
281
     1
  3
ACAD_XREC_ROUNDTRIP
360
468
  3
BUMPTILE
360
B
  3
DIFFUSETILE
360
C
  3
OPACITYTILE
360
D
  3
REFLECTIONTILE
360
E
  3
REFRACTIONTILE
360
F
  3
SPECULARTILE
360
10
  0
DICTIONARY
  5
51
330
50
100
AcDbDictionary
280
     1
281
     1
  3
ACAD_ROUNDTRIP_2008_TABLESTYLE_CELLSTYLEMAP
360
462
  3
ACAD_XREC_ROUNDTRIP
360
472
  0
DICTIONARY
  5
46D
330
25
100
AcDbDictionary
280
     1
281
     1
  3
ACAD_XREC_ROUNDTRIP
360
46E
  0
DICTIONARY
  5
473
330
52
100
AcDbDictionary
280
     1
281
     1
  3
ACAD_XREC_ROUNDTRIP
360
474
  0
DICTIONARY
  5
475
330
53
100
AcDbDictionary
280
     1
281
     1
  3
ACAD_XREC_ROUNDTRIP
360
476
  0
XRECORD
  5
46A
102
{ACAD_REACTORS
330
469
102
}
330
469
100
AcDbXrecord
280
     1
102
SHADEPLOT
 70
     0
102
SHADEPLOTRESLEVEL
 70
     2
102
SHADEPLOTCUSTOMDPI
 70
   300
  0
XRECORD
  5
46C
102
{ACAD_REACTORS
330
46B
102
}
330
46B
100
AcDbXrecord
280
     1
102
SHADEPLOT
 70
     0
102
SHADEPLOTRESLEVEL
 70
     2
102
SHADEPLOTCUSTOMDPI
 70
   300
  0
XRECORD
  5
471
102
{ACAD_REACTORS
330
44
102
}
330
44
100
AcDbXrecord
280
     1
102
MATERIAL
148
0.0
149
0.0
149
0.0
 93
        0
 94
      127
282
     0
 72
     0
 77
     0
171
     0
175
     0
179
     0
273
     0
  0
XRECORD
  5
45
102
{ACAD_REACTORS
330
44
102
}
330
44
100
AcDbXrecord
280
     1
270
     1
271
     1
  0
XRECORD
  5
46
102
{ACAD_REACTORS
330
44
102
}
330
44
100
AcDbXrecord
280
     1
270
     1
271
     1
  0
XRECORD
  5
47
102
{ACAD_REACTORS
330
44
102
}
330
44
100
AcDbXrecord
280
     1
270
     1
271
     1
  0
XRECORD
  5
48
102
{ACAD_REACTORS
330
44
102
}
330
44
100
AcDbXrecord
280
     1
270
     1
271
     1
  0
XRECORD
  5
49
102
{ACAD_REACTORS
330
44
102
}
330
44
100
AcDbXrecord
280
     1
270
     1
271
     1
  0
XRECORD
  5
4A
102
{ACAD_REACTORS
330
44
102
}
330
44
100
AcDbXrecord
280
     1
270
     1
271
     1
  0
XRECORD
  5
470
102
{ACAD_REACTORS
330
3C
102
}
330
3C
100
AcDbXrecord
280
     1
102
MATERIAL
148
0.0
149
0.0
149
0.0
 93
        0
 94
      127
282
     0
 72
     0
 77
     0
171
     0
175
     0
179
     0
273
     0
  0
XRECORD
  5
3D
102
{ACAD_REACTORS
330
3C
102
}
330
3C
100
AcDbXrecord
280
     1
270
     1
271
     1
  0
XRECORD
  5
3E
102
{ACAD_REACTORS
330
3C
102
}
330
3C
100
AcDbXrecord
280
     1
270
     1
271
     1
  0
XRECORD
  5
3F
102
{ACAD_REACTORS
330
3C
102
}
330
3C
100
AcDbXrecord
280
     1
270
     1
271
     1
  0
XRECORD
  5
40
102
{ACAD_REACTORS
330
3C
102
}
330
3C
100
AcDbXrecord
280
     1
270
     1
271
     1
  0
XRECORD
  5
41
102
{ACAD_REACTORS
330
3C
102
}
330
3C
100
AcDbXrecord
280
     1
270
     1
271
     1
  0
XRECORD
  5
42
102
{ACAD_REACTORS
330
3C
102
}
330
3C
100
AcDbXrecord
280
     1
270
     1
271
     1
  0
XRECORD
  5
468
102
{ACAD_REACTORS
330
A
102
}
330
A
100
AcDbXrecord
280
     1
102
MATERIAL
148
0.0
149
0.0
149
0.0
 93
        0
 94
      127
282
     0
 72
     0
 77
     0
171
     0
175
     0
179
     0
273
     0
  0
XRECORD
  5
B
102
{ACAD_REACTORS
330
A
102
}
330
A
100
AcDbXrecord
280
     1
270
     1
271
     1
  0
XRECORD
  5
C
102
{ACAD_REACTORS
330
A
102
}
330
A
100
AcDbXrecord
280
     1
270
     1
271
     1
  0
XRECORD
  5
D
102
{ACAD_REACTORS
330
A
102
}
330
A
100
AcDbXrecord
280
     1
270
     1
271
     1
  0
XRECORD
  5
E
102
{ACAD_REACTORS
330
A
102
}
330
A
100
AcDbXrecord
280
     1
270
     1
271
     1
  0
XRECORD
  5
F
102
{ACAD_REACTORS
330
A
102
}
330
A
100
AcDbXrecord
280
     1
270
     1
271
     1
  0
XRECORD
  5
10
102
{ACAD_REACTORS
330
A
102
}
330
A
100
AcDbXrecord
280
     1
270
     1
271
     1
  0
CELLSTYLEMAP
  5
462
102
{ACAD_REACTORS
330
51
102
}
330
51
100
AcDbCellStyleMap
 90
        3
300
CELLSTYLE
  1
TABLEFORMAT_BEGIN
 90
        5
170
     1
 91
        0
 92
    32768
 62
   257
 93
        1
300
CONTENTFORMAT
  1
CONTENTFORMAT_BEGIN
 90
        0
 91
        0
 92
      512
 93
        0
300

 40
0.0
140
1.0
 94
        5
 62
     0
340
1C
144
0.25
309
CONTENTFORMAT_END
171
     1
301
MARGIN
  1
CELLMARGIN_BEGIN
 40
0.06
 40
0.06
 40
0.06
 40
0.06
 40
0.18
 40
0.18
309
CELLMARGIN_END
 94
        6
 95
        1
302
GRIDFORMAT
  1
GRIDFORMAT_BEGIN
 90
        0
 91
        1
 62
     0
 92
       -2
340
0
 93
        0
 40
0.045
309
GRIDFORMAT_END
 95
        2
302
GRIDFORMAT
  1
GRIDFORMAT_BEGIN
 90
        0
 91
        1
 62
     0
 92
       -2
340
0
 93
        0
 40
0.045
309
GRIDFORMAT_END
 95
        4
302
GRIDFORMAT
  1
GRIDFORMAT_BEGIN
 90
        0
 91
        1
 62
     0
 92
       -2
340
0
 93
        0
 40
0.045
309
GRIDFORMAT_END
 95
        8
302
GRIDFORMAT
  1
GRIDFORMAT_BEGIN
 90
        0
 91
        1
 62
     0
 92
       -2
340
0
 93
        0
 40
0.045
309
GRIDFORMAT_END
 95
       16
302
GRIDFORMAT
  1
GRIDFORMAT_BEGIN
 90
        0
 91
        1
 62
     0
 92
       -2
340
0
 93
        0
 40
0.045
309
GRIDFORMAT_END
 95
       32
302
GRIDFORMAT
  1
GRIDFORMAT_BEGIN
 90
        0
 91
        1
 62
     0
 92
       -2
340
0
 93
        0
 40
0.045
309
GRIDFORMAT_END
309
TABLEFORMAT_END
  1
CELLSTYLE_BEGIN
 90
        1
 91
        1
300
_TITLE
309
CELLSTYLE_END
300
CELLSTYLE
  1
TABLEFORMAT_BEGIN
 90
        5
170
     1
 91
        0
 92
        0
 62
   257
 93
        1
300
CONTENTFORMAT
  1
CONTENTFORMAT_BEGIN
 90
        0
 91
        0
 92
      512
 93
        0
300

 40
0.0
140
1.0
 94
        5
 62
     0
340
1C
144
0.18
309
CONTENTFORMAT_END
171
     1
301
MARGIN
  1
CELLMARGIN_BEGIN
 40
0.06
 40
0.06
 40
0.06
 40
0.06
 40
0.18
 40
0.18
309
CELLMARGIN_END
 94
        6
 95
        1
302
GRIDFORMAT
  1
GRIDFORMAT_BEGIN
 90
        0
 91
        1
 62
     0
 92
       -2
340
0
 93
        0
 40
0.045
309
GRIDFORMAT_END
 95
        2
302
GRIDFORMAT
  1
GRIDFORMAT_BEGIN
 90
        0
 91
        1
 62
     0
 92
       -2
340
0
 93
        0
 40
0.045
309
GRIDFORMAT_END
 95
        4
302
GRIDFORMAT
  1
GRIDFORMAT_BEGIN
 90
        0
 91
        1
 62
     0
 92
       -2
340
0
 93
        0
 40
0.045
309
GRIDFORMAT_END
 95
        8
302
GRIDFORMAT
  1
GRIDFORMAT_BEGIN
 90
        0
 91
        1
 62
     0
 92
       -2
340
0
 93
        0
 40
0.045
309
GRIDFORMAT_END
 95
       16
302
GRIDFORMAT
  1
GRIDFORMAT_BEGIN
 90
        0
 91
        1
 62
     0
 92
       -2
340
0
 93
        0
 40
0.045
309
GRIDFORMAT_END
 95
       32
302
GRIDFORMAT
  1
GRIDFORMAT_BEGIN
 90
        0
 91
        1
 62
     0
 92
       -2
340
0
 93
        0
 40
0.045
309
GRIDFORMAT_END
309
TABLEFORMAT_END
  1
CELLSTYLE_BEGIN
 90
        2
 91
        1
300
_HEADER
309
CELLSTYLE_END
300
CELLSTYLE
  1
TABLEFORMAT_BEGIN
 90
        5
170
     1
 91
        0
 92
        0
 62
   257
 93
        1
300
CONTENTFORMAT
  1
CONTENTFORMAT_BEGIN
 90
        0
 91
        0
 92
      512
 93
        0
300

 40
0.0
140
1.0
 94
        2
 62
     0
340
1C
144
0.18
309
CONTENTFORMAT_END
171
     1
301
MARGIN
  1
CELLMARGIN_BEGIN
 40
0.06
 40
0.06
 40
0.06
 40
0.06
 40
0.18
 40
0.18
309
CELLMARGIN_END
 94
        6
 95
        1
302
GRIDFORMAT
  1
GRIDFORMAT_BEGIN
 90
        0
 91
        1
 62
     0
 92
       -2
340
0
 93
        0
 40
0.045
309
GRIDFORMAT_END
 95
        2
302
GRIDFORMAT
  1
GRIDFORMAT_BEGIN
 90
        0
 91
        1
 62
     0
 92
       -2
340
0
 93
        0
 40
0.045
309
GRIDFORMAT_END
 95
        4
302
GRIDFORMAT
  1
GRIDFORMAT_BEGIN
 90
        0
 91
        1
 62
     0
 92
       -2
340
0
 93
        0
 40
0.045
309
GRIDFORMAT_END
 95
        8
302
GRIDFORMAT
  1
GRIDFORMAT_BEGIN
 90
        0
 91
        1
 62
     0
 92
       -2
340
0
 93
        0
 40
0.045
309
GRIDFORMAT_END
 95
       16
302
GRIDFORMAT
  1
GRIDFORMAT_BEGIN
 90
        0
 91
        1
 62
     0
 92
       -2
340
0
 93
        0
 40
0.045
309
GRIDFORMAT_END
 95
       32
302
GRIDFORMAT
  1
GRIDFORMAT_BEGIN
 90
        0
 91
        1
 62
     0
 92
       -2
340
0
 93
        0
 40
0.045
309
GRIDFORMAT_END
309
TABLEFORMAT_END
  1
CELLSTYLE_BEGIN
 90
        3
 91
        2
300
_DATA
309
CELLSTYLE_END
  0
XRECORD
  5
472
102
{ACAD_REACTORS
330
51
102
}
330
51
100
AcDbXrecord
280
     1
102
ACAD_ROUNDTRIP_PRE2007_TABLESTYLE
 90
      512
 91
        0
  1

 92
      512
 93
        0
  2

 94
      512
 95
        0
  3

  0
XRECORD
  5
46E
102
{ACAD_REACTORS
330
46D
102
}
330
46D
100
AcDbXrecord
280
     1
102
RTVSPropertyOp0
 70
     1
102
RTVSPropertyOp1
 70
     1
102
RTVSPropertyOp2
 70
     1
102
RTVSPropertyOp3
 70
     1
102
RTVSPropertyOp4
 70
     1
102
RTVSPropertyOp5
 70
     1
102
RTVSPropertyOp6
 70
     1
102
RTVSPropertyOp7
 70
     1
102
RTVSPropertyOp8
 70
     1
102
RTVSPropertyOp9
 70
     1
102
RTVSPropertyOp10
 70
     1
102
RTVSPropertyOp11
 70
     1
102
RTVSPropertyOp12
 70
     1
102
RTVSPropertyOp13
 70
     1
102
RTVSPropertyOp14
 70
     1
102
RTVSPropertyOp15
 70
     1
102
RTVSPropertyOp16
 70
     1
102
RTVSPropertyOp17
 70
     1
102
RTVSPropertyOp18
 70
     1
102
RTVSPropertyOp19
 70
     1
102
RTVSPropertyOp20
 70
     1
102
RTVSPropertyOp21
 70
     1
102
RTVSPropertyOp22
 70
     1
102
RTVSPropertyOp23
 70
     1
102
RTVSPropertyOp24
 70
     1
102
RTVSPropertyOp25
 70
     1
102
RTVSPropertyOp26
 70
     1
102
RTVSPropertyOp27
 70
     1
102
RTVSPropertyOp28
 70
     1
102
RTVSPropertyOp29
 70
     1
102
RTVSPropertyOp30
 70
     1
102
RTVSPropertyOp31
 70
     1
102
RTVSPropertyOp32
 70
     1
  0
XRECORD
  5
474
102
{ACAD_REACTORS
330
473
102
}
330
473
100
AcDbXrecord
280
     1
102
RTVSPropertyOp0
 70
     1
102
RTVSPropertyOp1
 70
     1
102
RTVSPropertyOp2
 70
     1
102
RTVSPropertyOp3
 70
     1
102
RTVSPropertyOp4
 70
     1
102
RTVSPropertyOp5
 70
     1
102
RTVSPropertyOp6
 70
     1
102
RTVSPropertyOp7
 70
     1
102
RTVSPropertyOp8
 70
     1
102
RTVSPropertyOp9
 70
     1
102
RTVSPropertyOp10
 70
     1
102
RTVSPropertyOp11
 70
     1
102
RTVSPropertyOp12
 70
     1
102
RTVSPropertyOp13
 70
     1
102
RTVSPropertyOp14
 70
     1
102
RTVSPropertyOp15
 70
     1
102
RTVSPropertyOp16
 70
     1
102
RTVSPropertyOp17
 70
     1
102
RTVSPropertyOp18
 70
     1
102
RTVSPropertyOp19
 70
     1
102
RTVSPropertyOp20
 70
     1
102
RTVSPropertyOp21
 70
     1
102
RTVSPropertyOp22
 70
     1
102
RTVSPropertyOp23
 70
     1
102
RTVSPropertyOp24
 70
     1
102
RTVSPropertyOp25
 70
     1
102
RTVSPropertyOp26
 70
     1
102
RTVSPropertyOp27
 70
     1
102
RTVSPropertyOp28
 70
     1
102
RTVSPropertyOp29
 70
     1
102
RTVSPropertyOp30
 70
     1
102
RTVSPropertyOp31
 70
     1
102
RTVSPropertyOp32
 70
     1
  0
XRECORD
  5
476
102
{ACAD_REACTORS
330
475
102
}
330
475
100
AcDbXrecord
280
     1
102
RTVSPropertyOp0
 70
     1
102
RTVSPropertyOp1
 70
     1
102
RTVSPropertyOp2
 70
     1
102
RTVSPropertyOp3
 70
     1
102
RTVSPropertyOp4
 70
     1
102
RTVSPropertyOp5
 70
     1
102
RTVSPropertyOp6
 70
     1
102
RTVSPropertyOp7
 70
     1
102
RTVSPropertyOp8
 70
     1
102
RTVSPropertyOp9
 70
     1
102
RTVSPropertyOp10
 70
     1
102
RTVSPropertyOp11
 70
     1
102
RTVSPropertyOp12
 70
     1
102
RTVSPropertyOp13
 70
     1
102
RTVSPropertyOp14
 70
     1
102
RTVSPropertyOp15
 70
     1
102
RTVSPropertyOp16
 70
     1
102
RTVSPropertyOp17
 70
     1
102
RTVSPropertyOp18
 70
     1
102
RTVSPropertyOp19
 70
     1
102
RTVSPropertyOp20
 70
     1
102
RTVSPropertyOp21
 70
     1
102
RTVSPropertyOp22
 70
     1
102
RTVSPropertyOp23
 70
     1
102
RTVSPropertyOp24
 70
     1
102
RTVSPropertyOp25
 70
     1
102
RTVSPropertyOp26
 70
     1
102
RTVSPropertyOp27
 70
     1
102
RTVSPropertyOp28
 70
     1
102
RTVSPropertyOp29
 70
     1
102
RTVSPropertyOp30
 70
     1
102
RTVSPropertyOp31
 70
     1
102
RTVSPropertyOp32
 70
     1
  0
ENDSEC
  0
EOF
