  0
SECTION
  2
HEADER
  9
$ACADVER
  1
AC1006
  9
$INSBASE
 10
0.0
 20
0.0
 30
0.0
  9
$EXTMIN
 10
     -180.927322
 20
     -180.927322
  9
$EXTMAX
 10
      180.362747
 20
      124.924210
  9
$LIMMIN
 10
     -180.927322
 20
     -180.927322
  9
$LIMMAX
 10
      180.362747
 20
      124.924210
  9
$VIEWCTR
 10
       -0.282288
 20
       -0.282288
  9
$ORTHOMODE
 70
     0
  9
$ANGBASE
 50
0.0
  9
$ANGDIR
 70
     0
  9
$SPLINETYPE
 70
     6
  9
$SPLINESEGS
 70
     8
9
$DIMASZ
 40
        3.000000
9
$DIMEXE
 40
        1.875000
9
$DIMEXO
 40
        0.625000
9
$DIMTXT
 40
        5.000000
9
$DIMGAP
 40
        1.875000
9
$DIMTAD
 70
1
9
$DIMTIH
 70
0
9
$DIMTOH
 70
0
  0
ENDSEC
  0
SECTION
  2
TABLES
  0
TABLE
  2
LTYPE
 70
     5
  0
LTYPE
  2
CONTINUOUS
 70
    64
  3
SOLID LINE
 72
    65
 73
     0
 40
0.0
  0
LTYPE
  2
DASHED
 70
    64
  3
-- -- -- -- -- --
 72
    65
 73
     2
 40
  0.75  
 49
  0.50  
 49
 -0.25  
  0
LTYPE
  2
DOT
 70
    64
  3
....................
 72
    65
 73
     2
 40
  0.25  
 49
  0.02  
 49
 -0.23  
  0
LTYPE
  2
CENTER
 70
    64
  3
-- . -- . -- . -- .
 72
    65
 73
    4
 40
  2.00  
 49
  1.25  
 49
 -0.25  
 49
  0.25  
 49
 -0.25  
  0
LTYPE
  2
PHANTOM
 70
    64
  3
-- .. -- .. -- ..
 72
    65
 73
    6
 40
  2.50  
 49
  1.25  
 49
 -0.25  
 49
  0.25  
 49
 -0.25  
 49
  0.25  
 49
 -0.25  
  0
ENDTAB
  0
TABLE
  2
LAYER
 70
     6
  0
LAYER
  2
0
 70
    64
 62
     3
  6
CONTINUOUS
  0
LAYER
  2
10
 70
    64
 62
     2
  6
CONTINUOUS
  0
LAYER
  2
70
 70
    64
 62
     3
  6
CONTINUOUS
  0
LAYER
  2
100
 70
    64
 62
     3
  6
CONTINUOUS
  0
LAYER
  2
160
 70
    64
 62
     4
  6
CONTINUOUS
  0
LAYER
  2
262
 70
    64
 62
     5
  6
CONTINUOUS
  0
ENDTAB
  0
TABLE
  2
STYLE
 70
     2
  0
STYLE
  2
STANDARD
 70
    64
 40
0.0
 41
1.0
 50
0.0
 71
     0
 42
5.0
  3
ROMANS
  4
BIGFONT
  0
STYLE
  2
BIGFONT
 70
    64
 40
0.0
 41
1.0
 50
0.0
 71
     0
 42
5.0
  3
ROMANS
  4
BIGFONT
  0
ENDTAB
  0
TABLE
  2
VIEW
 70
     0
  0
ENDTAB
  0
TABLE
  2
UCS
 70
     0
  0
ENDTAB
  0
TABLE
  2
DWGMGR
 70
     0
  0
ENDTAB
  0
ENDSEC
  0
SECTION
  2
BLOCKS
  0
BLOCK
  8
0
  2
BLK0001
 70
    64
 10
        0.000000
 20
        0.000000
  0
ARC
  8
10
 62
  3
 10
        0.000000
 20
        0.000000
 30
        0.000000
 40
       13.000000
 50
      274.411728
 51
      355.588274
  0
ARC
  8
10
 62
  3
 10
        0.000000
 20
        0.000000
 30
        0.000000
 40
       13.000000
 50
      184.411731
 51
      265.588277
  0
ARC
  8
10
 62
  3
 10
        0.000000
 20
        0.000000
 30
        0.000000
 40
       15.000000
 50
      273.822556
 51
      356.177446
  0
ARC
  8
10
 62
  3
 10
        0.000000
 20
        0.000000
 30
        0.000000
 40
       15.000000
 50
      183.822559
 51
      266.177449
  0
ARC
  8
10
 62
  3
 10
        0.000000
 20
        0.000000
 30
        0.000000
 40
       15.000000
 50
       93.822551
 51
      176.177441
  0
ARC
  8
10
 62
  3
 10
        0.000000
 20
        0.000000
 30
        0.000000
 40
       13.000000
 50
       94.411723
 51
      175.588269
  0
ARC
  8
10
 62
  3
 10
        0.000000
 20
        0.000000
 30
        0.000000
 40
       13.000000
 50
        4.411726
 51
       85.588272
  0
ARC
  8
10
 62
  3
 10
        0.000000
 20
        0.000000
 30
        0.000000
 40
       15.000000
 50
        3.822554
 51
       86.177444
  0
LINE
  8
10
 62
  3
 10
       -1.000000
 20
      -12.961481
 30
        0.000000
 11
       -1.000000
 21
       -6.000000
 31
        0.000000
  0
LINE
  8
10
 62
  3
 10
        1.000000
 20
      -12.961481
 30
        0.000000
 11
        1.000000
 21
       -6.000000
 31
        0.000000
  0
LINE
  8
10
 62
  3
 10
        6.000000
 20
        1.000000
 30
        0.000000
 11
       12.961481
 21
        1.000000
 31
        0.000000
  0
LINE
  8
10
 62
  3
 10
        6.000000
 20
       -1.000000
 30
        0.000000
 11
       12.961481
 21
       -1.000000
 31
        0.000000
  0
LINE
  8
10
 62
  3
 10
      -12.961481
 20
       -1.000000
 30
        0.000000
 11
       -6.000000
 21
       -1.000000
 31
        0.000000
  0
LINE
  8
10
 62
  3
 10
      -12.961481
 20
        1.000000
 30
        0.000000
 11
       -6.000000
 21
        1.000000
 31
        0.000000
  0
LINE
  8
10
 62
  3
 10
        1.000000
 20
        6.000000
 30
        0.000000
 11
        1.000000
 21
       12.961481
 31
        0.000000
  0
LINE
  8
10
 62
  3
 10
       -1.000000
 20
        6.000000
 30
        0.000000
 11
       -1.000000
 21
       12.961481
 31
        0.000000
  0
LINE
  8
10
 62
  3
 10
        1.000000
 20
       14.966630
 30
        0.000000
 11
        1.000000
 21
       22.978251
 31
        0.000000
  0
LINE
  8
10
 62
  3
 10
       -1.000000
 20
       14.966630
 30
        0.000000
 11
       -1.000000
 21
       22.978251
 31
        0.000000
  0
LINE
  8
10
 62
  3
 10
      -22.978251
 20
       -1.000000
 30
        0.000000
 11
      -14.966630
 21
       -1.000000
 31
        0.000000
  0
LINE
  8
10
 62
  3
 10
      -22.978251
 20
        1.000000
 30
        0.000000
 11
      -14.966630
 21
        1.000000
 31
        0.000000
  0
LINE
  8
10
 62
  3
 10
        1.000000
 20
      -22.978251
 30
        0.000000
 11
        1.000000
 21
      -14.966630
 31
        0.000000
  0
LINE
  8
10
 62
  3
 10
       -1.000000
 20
      -22.978251
 30
        0.000000
 11
       -1.000000
 21
      -14.966630
 31
        0.000000
  0
LINE
  8
10
 62
  3
 10
       14.966630
 20
        1.000000
 30
        0.000000
 11
       22.978251
 21
        1.000000
 31
        0.000000
  0
LINE
  8
10
 62
  3
 10
       14.966630
 20
       -1.000000
 30
        0.000000
 11
       22.978251
 21
       -1.000000
 31
        0.000000
  0
ARC
  8
10
 62
  3
 10
       -6.000000
 20
        0.000000
 30
        0.000000
 40
        1.000000
 50
      270.000000
 51
      450.000000
  0
ARC
  8
10
 62
  3
 10
        0.000000
 20
       -6.000000
 30
        0.000000
 40
        1.000000
 50
        0.000000
 51
      179.999995
  0
ARC
  8
10
 62
  3
 10
        6.000000
 20
        0.000000
 30
        0.000000
 40
        1.000000
 50
       90.000000
 51
      270.000000
  0
ARC
  8
10
 62
  3
 10
        0.000000
 20
        6.000000
 30
        0.000000
 40
        1.000000
 50
      179.999995
 51
      360.000000
  0
CIRCLE
  8
10
 10
        0.000000
 20
        0.000000
 30
        0.000000
 40
        3.000000
  0
ARC
  8
10
 62
  3
 10
        0.000000
 20
        0.000000
 30
        0.000000
 40
       23.000000
 50
        2.491906
 51
       87.508091
  0
ARC
  8
10
 62
  3
 10
        0.000000
 20
        0.000000
 30
        0.000000
 40
       23.000000
 50
       92.491904
 51
      177.508089
  0
ARC
  8
10
 62
  3
 10
        0.000000
 20
        0.000000
 30
        0.000000
 40
       23.000000
 50
      182.491911
 51
      267.508096
  0
ARC
  8
10
 62
  3
 10
        0.000000
 20
        0.000000
 30
        0.000000
 40
       23.000000
 50
      272.491909
 51
      357.508094
  0
CIRCLE
  8
10
 62
  3
 10
        0.000000
 20
        0.000000
 30
        0.000000
 40
       25.000000
  0
LINE
  8
70
 10
      -10.114990
 20
       58.139996
 30
        0.000000
 11
       -9.154999
 21
       58.139996
 31
        0.000000
  0
LINE
  8
70
 10
       -9.154999
 20
       58.139996
 30
        0.000000
 11
       -9.154999
 21
       55.499996
 31
        0.000000
  0
LINE
  8
70
 10
       -9.154999
 20
       55.499996
 30
        0.000000
 11
       -8.720001
 21
       55.499996
 31
        0.000000
  0
LINE
  8
70
 10
       -8.720001
 20
       55.499996
 30
        0.000000
 11
       -8.720001
 21
       58.139996
 31
        0.000000
  0
LINE
  8
70
 10
       -8.720001
 20
       58.139996
 30
        0.000000
 11
       -7.760010
 21
       58.139996
 31
        0.000000
  0
LINE
  8
70
 10
       -7.760010
 20
       58.139996
 30
        0.000000
 11
       -7.760010
 21
       58.499996
 31
        0.000000
  0
LINE
  8
70
 10
       -7.760010
 20
       58.499996
 30
        0.000000
 11
      -10.114990
 21
       58.499996
 31
        0.000000
  0
LINE
  8
70
 10
      -10.114990
 20
       58.499996
 30
        0.000000
 11
      -10.114990
 21
       58.139996
 31
        0.000000
  0
LINE
  8
70
 10
       -7.535004
 20
       58.499996
 30
        0.000000
 11
       -7.040009
 21
       58.499996
 31
        0.000000
  0
LINE
  8
70
 10
       -7.040009
 20
       58.499996
 30
        0.000000
 11
       -6.290009
 21
       57.342388
 31
        0.000000
  0
LINE
  8
70
 10
       -6.290009
 20
       57.342388
 30
        0.000000
 11
       -5.540009
 21
       58.499996
 31
        0.000000
  0
LINE
  8
70
 10
       -5.540009
 20
       58.499996
 30
        0.000000
 11
       -5.044983
 21
       58.499996
 31
        0.000000
  0
LINE
  8
70
 10
       -5.044983
 20
       58.499996
 30
        0.000000
 11
       -6.049988
 21
       57.029995
 31
        0.000000
  0
LINE
  8
70
 10
       -6.049988
 20
       57.029995
 30
        0.000000
 11
       -5.000000
 21
       55.499996
 31
        0.000000
  0
LINE
  8
70
 10
       -5.000000
 20
       55.499996
 30
        0.000000
 11
       -5.509979
 21
       55.499996
 31
        0.000000
  0
LINE
  8
70
 10
       -5.509979
 20
       55.499996
 30
        0.000000
 11
       -6.290009
 21
       56.702496
 31
        0.000000
  0
LINE
  8
70
 10
       -6.290009
 20
       56.702496
 30
        0.000000
 11
       -7.070007
 21
       55.499996
 31
        0.000000
  0
LINE
  8
70
 10
       -7.070007
 20
       55.499996
 30
        0.000000
 11
       -7.579987
 21
       55.499996
 31
        0.000000
  0
LINE
  8
70
 10
       -7.579987
 20
       55.499996
 30
        0.000000
 11
       -6.529999
 21
       57.029995
 31
        0.000000
  0
LINE
  8
70
 10
       -6.529999
 20
       57.029995
 30
        0.000000
 11
       -7.535004
 21
       58.499996
 31
        0.000000
  0
LINE
  8
70
 10
       10.325012
 20
       58.499996
 30
        0.000000
 11
        8.855011
 21
       57.065849
 31
        0.000000
  0
LINE
  8
70
 10
        8.420013
 20
       58.499996
 30
        0.000000
 11
        8.420013
 21
       55.499996
 31
        0.000000
  0
LINE
  8
70
 10
        8.855011
 20
       58.499996
 30
        0.000000
 11
        8.420013
 21
       58.499996
 31
        0.000000
  0
LINE
  8
70
 10
        8.855011
 20
       57.065849
 30
        0.000000
 11
        8.855011
 21
       58.499996
 31
        0.000000
  0
LINE
  8
70
 10
       10.895020
 20
       58.499996
 30
        0.000000
 11
       10.325012
 21
       58.499996
 31
        0.000000
  0
LINE
  8
70
 10
        9.620026
 20
       57.269997
 30
        0.000000
 11
       10.895020
 21
       58.499996
 31
        0.000000
  0
LINE
  8
70
 10
       10.985016
 20
       55.499996
 30
        0.000000
 11
        9.620026
 21
       57.269997
 31
        0.000000
  0
LINE
  8
70
 10
       10.445007
 20
       55.499996
 30
        0.000000
 11
       10.985016
 21
       55.499996
 31
        0.000000
  0
LINE
  8
70
 10
        9.335022
 20
       56.999996
 30
        0.000000
 11
       10.445007
 21
       55.499996
 31
        0.000000
  0
LINE
  8
70
 10
        8.855011
 20
       56.549995
 30
        0.000000
 11
        9.335022
 21
       56.999996
 31
        0.000000
  0
LINE
  8
70
 10
        8.855011
 20
       55.499996
 30
        0.000000
 11
        8.855011
 21
       56.549995
 31
        0.000000
  0
LINE
  8
70
 10
        8.420013
 20
       55.499996
 30
        0.000000
 11
        8.855011
 21
       55.499996
 31
        0.000000
  0
ARC
  8
70
 10
        6.095001
 20
       56.999996
 30
        0.000000
 40
        1.845013
 50
      339.419667
 51
      380.580336
  0
ARC
  8
70
 10
        6.516266
 20
       56.841812
 30
        0.000000
 40
        1.394992
 50
      320.474772
 51
      339.419476
  0
ARC
  8
70
 10
        6.470001
 20
       56.879997
 30
        0.000000
 40
        1.455003
 50
      219.524893
 51
      320.475127
  0
ARC
  8
70
 10
        6.423706
 20
       56.841812
 30
        0.000000
 40
        1.395000
 50
      200.580558
 51
      219.525262
  0
ARC
  8
70
 10
        6.845001
 20
       56.999996
 30
        0.000000
 40
        1.845013
 50
      159.419657
 51
      200.580353
  0
ARC
  8
70
 10
        6.423706
 20
       57.158180
 30
        0.000000
 40
        1.394992
 50
      140.474748
 51
      159.419452
  0
ARC
  8
70
 10
        6.470001
 20
       57.119995
 30
        0.000000
 40
        1.455003
 50
       39.524880
 51
      140.475117
  0
ARC
  8
70
 10
        6.516266
 20
       57.158180
 30
        0.000000
 40
        1.395000
 50
       20.580544
 51
       39.525242
  0
ARC
  8
70
 10
        6.501312
 20
       57.227314
 30
        0.000000
 40
        0.959999
 50
       14.385008
 51
       45.904464
  0
ARC
  8
70
 10
        6.501312
 20
       56.772678
 30
        0.000000
 40
        0.960010
 50
      314.095539
 51
      345.615222
  0
ARC
  8
70
 10
        5.614990
 20
       56.999996
 30
        0.000000
 40
        1.875007
 50
      345.615113
 51
      374.384895
  0
ARC
  8
70
 10
        6.470001
 20
       56.804996
 30
        0.000000
 40
        1.005009
 50
      225.904576
 51
      314.095430
  0
ARC
  8
70
 10
        6.438690
 20
       56.772678
 30
        0.000000
 40
        0.959999
 50
      194.385016
 51
      225.904481
  0
ARC
  8
70
 10
        7.325012
 20
       56.999996
 30
        0.000000
 40
        1.875006
 50
      165.615212
 51
      194.384907
  0
ARC
  8
70
 10
        6.438690
 20
       57.227314
 30
        0.000000
 40
        0.960010
 50
      134.095529
 51
      165.614994
  0
ARC
  8
70
 10
        6.470001
 20
       57.194996
 30
        0.000000
 40
        1.005009
 50
       45.904566
 51
      134.095434
  0
ENDBLK
  0
BLOCK
  8
0
  2
BLK0002
 70
    64
 10
        0.000000
 20
        0.000000
  0
TEXT
  8
10
 62
  5
 10
       -7.500000
 20
      101.074402
 30
        0.000000
 40
        5.000000
  1
１５０
 50
        0.000000
 41
        1.000000
 51
        0.000000
  7
BIGFONT
  0
LINE
  8
10
 62
  5
 10
       75.000000
 20
       75.625000
 30
        0.000000
 11
       75.000000
 21
      101.074402
 31
        0.000000
  0
LINE
  8
10
 62
  5
 10
      -75.000000
 20
       75.625000
 30
        0.000000
 11
      -75.000000
 21
      101.074402
 31
        0.000000
  0
LINE
  8
10
 62
  5
 10
       72.000000
 20
       98.414001
 30
        0.000000
 11
       75.000000
 21
       99.199402
 31
        0.000000
  0
LINE
  8
10
 62
  5
 10
       75.000000
 20
       99.199402
 30
        0.000000
 11
       72.000000
 21
       99.984802
 31
        0.000000
  0
LINE
  8
10
 62
  5
 10
      -72.000000
 20
       99.984802
 30
        0.000000
 11
      -75.000000
 21
       99.199402
 31
        0.000000
  0
LINE
  8
10
 62
  5
 10
      -75.000000
 20
       99.199402
 30
        0.000000
 11
      -72.000000
 21
       98.414001
 31
        0.000000
  0
LINE
  8
10
 62
  5
 10
       75.000000
 20
       99.199402
 30
        0.000000
 11
      -75.000000
 21
       99.199402
 31
        0.000000
  0
ENDBLK
  0
BLOCK
  8
0
  2
BLK0003
 70
    64
 10
        0.000000
 20
        0.000000
  0
TEXT
  8
10
 62
  5
 10
       -7.500000
 20
      111.802963
 30
        0.000000
 40
        5.000000
  1
１６２
 50
        0.000000
 41
        1.000000
 51
        0.000000
  7
BIGFONT
  0
LINE
  8
10
 62
  5
 10
       81.000000
 20
       75.625000
 30
        0.000000
 11
       81.000000
 21
      111.802963
 31
        0.000000
  0
LINE
  8
10
 62
  5
 10
      -81.000000
 20
       75.625000
 30
        0.000000
 11
      -81.000000
 21
      111.802963
 31
        0.000000
  0
LINE
  8
10
 62
  5
 10
       78.000000
 20
      109.142563
 30
        0.000000
 11
       81.000000
 21
      109.927963
 31
        0.000000
  0
LINE
  8
10
 62
  5
 10
       81.000000
 20
      109.927963
 30
        0.000000
 11
       78.000000
 21
      110.713364
 31
        0.000000
  0
LINE
  8
10
 62
  5
 10
      -78.000000
 20
      110.713364
 30
        0.000000
 11
      -81.000000
 21
      109.927963
 31
        0.000000
  0
LINE
  8
10
 62
  5
 10
      -81.000000
 20
      109.927963
 30
        0.000000
 11
      -78.000000
 21
      109.142563
 31
        0.000000
  0
LINE
  8
10
 62
  5
 10
       81.000000
 20
      109.927963
 30
        0.000000
 11
      -81.000000
 21
      109.927963
 31
        0.000000
  0
ENDBLK
  0
BLOCK
  8
0
  2
BLK0004
 70
    64
 10
        0.000000
 20
        0.000000
  0
TEXT
  8
10
 62
  5
 10
       98.635391
 20
       -7.500000
 30
        0.000000
 40
        5.000000
  1
１５０
 50
       90.000000
 41
        1.000000
 51
        0.000000
  7
BIGFONT
  0
LINE
  8
10
 62
  5
 10
       75.625000
 20
      -75.000000
 30
        0.000000
 11
      102.385391
 21
      -75.000000
 31
        0.000000
  0
LINE
  8
10
 62
  5
 10
       75.625000
 20
       75.000000
 30
        0.000000
 11
      102.385391
 21
       75.000000
 31
        0.000000
  0
LINE
  8
10
 62
  5
 10
       99.724991
 20
      -72.000000
 30
        0.000000
 11
      100.510391
 21
      -75.000000
 31
        0.000000
  0
LINE
  8
10
 62
  5
 10
      100.510391
 20
      -75.000000
 30
        0.000000
 11
      101.295792
 21
      -72.000000
 31
        0.000000
  0
LINE
  8
10
 62
  5
 10
      101.295792
 20
       72.000000
 30
        0.000000
 11
      100.510391
 21
       75.000000
 31
        0.000000
  0
LINE
  8
10
 62
  5
 10
      100.510391
 20
       75.000000
 30
        0.000000
 11
       99.724991
 21
       72.000000
 31
        0.000000
  0
LINE
  8
10
 62
  5
 10
      100.510391
 20
      -75.000000
 30
        0.000000
 11
      100.510391
 21
       75.000000
 31
        0.000000
  0
ENDBLK
  0
BLOCK
  8
0
  2
BLK0005
 70
    64
 10
        0.000000
 20
        0.000000
  0
TEXT
  8
10
 62
  5
 10
      110.439369
 20
     -140.963654
 30
        0.000000
 40
        5.000000
  1
３０００
 50
       90.000000
 41
        1.000000
 51
        0.000000
  7
BIGFONT
  0
LINE
  8
10
 62
  5
 10
       75.625000
 20
      -81.000000
 30
        0.000000
 11
      114.189369
 21
      -81.000000
 31
        0.000000
  0
LINE
  8
10
 62
  5
 10
        7.625000
 20
     -180.927322
 30
        0.000000
 11
      114.189369
 21
     -180.927322
 31
        0.000000
  0
LINE
  8
10
 62
  5
 10
      113.099770
 20
      -84.000000
 30
        0.000000
 11
      112.314369
 21
      -81.000000
 31
        0.000000
  0
LINE
  8
10
 62
  5
 10
      112.314369
 20
      -81.000000
 30
        0.000000
 11
      111.528969
 21
      -84.000000
 31
        0.000000
  0
LINE
  8
10
 62
  5
 10
      111.528969
 20
     -177.927322
 30
        0.000000
 11
      112.314369
 21
     -180.927322
 31
        0.000000
  0
LINE
  8
10
 62
  5
 10
      112.314369
 20
     -180.927322
 30
        0.000000
 11
      113.099770
 21
     -177.927322
 31
        0.000000
  0
LINE
  8
10
 62
  5
 10
      112.314369
 20
      -81.000000
 30
        0.000000
 11
      112.314369
 21
     -180.927322
 31
        0.000000
  0
ENDBLK
  0
BLOCK
  8
0
  2
BLK0006
 70
    64
 10
        0.000000
 20
        0.000000
  0
TEXT
  8
10
 62
  5
 10
      110.439369
 20
       -7.500000
 30
        0.000000
 40
        5.000000
  1
１６２
 50
       90.000000
 41
        1.000000
 51
        0.000000
  7
BIGFONT
  0
LINE
  8
10
 62
  5
 10
       75.625000
 20
       81.000000
 30
        0.000000
 11
      114.189369
 21
       81.000000
 31
        0.000000
  0
LINE
  8
10
 62
  5
 10
       75.625000
 20
      -81.000000
 30
        0.000000
 11
      114.189369
 21
      -81.000000
 31
        0.000000
  0
LINE
  8
10
 62
  5
 10
      113.099770
 20
       78.000000
 30
        0.000000
 11
      112.314369
 21
       81.000000
 31
        0.000000
  0
LINE
  8
10
 62
  5
 10
      112.314369
 20
       81.000000
 30
        0.000000
 11
      111.528969
 21
       78.000000
 31
        0.000000
  0
LINE
  8
10
 62
  5
 10
      111.528969
 20
      -78.000000
 30
        0.000000
 11
      112.314369
 21
      -81.000000
 31
        0.000000
  0
LINE
  8
10
 62
  5
 10
      112.314369
 20
      -81.000000
 30
        0.000000
 11
      113.099770
 21
      -78.000000
 31
        0.000000
  0
LINE
  8
10
 62
  5
 10
      112.314369
 20
       81.000000
 30
        0.000000
 11
      112.314369
 21
      -81.000000
 31
        0.000000
  0
ENDBLK
  0
BLOCK
  8
0
  2
BLK0007
 70
    64
 10
        0.000000
 20
        0.000000
  0
TEXT
  8
10
 62
  5
 10
      153.092743
 20
      102.011314
 30
        0.000000
 40
        5.000000
  1
４２
 50
        0.000000
 41
        1.000000
 51
        0.000000
  7
BIGFONT
  0
LINE
  8
10
 62
  5
 10
      180.362747
 20
       80.625000
 30
        0.000000
 11
      180.362747
 21
      102.011314
 31
        0.000000
  0
LINE
  8
10
 62
  5
 10
      138.362747
 20
       62.748325
 30
        0.000000
 11
      138.362747
 21
      102.011314
 31
        0.000000
  0
LINE
  8
10
 62
  5
 10
      177.362747
 20
       99.350914
 30
        0.000000
 11
      180.362747
 21
      100.136314
 31
        0.000000
  0
LINE
  8
10
 62
  5
 10
      180.362747
 20
      100.136314
 30
        0.000000
 11
      177.362747
 21
      100.921715
 31
        0.000000
  0
LINE
  8
10
 62
  5
 10
      141.362747
 20
      100.921715
 30
        0.000000
 11
      138.362747
 21
      100.136314
 31
        0.000000
  0
LINE
  8
10
 62
  5
 10
      138.362747
 20
      100.136314
 30
        0.000000
 11
      141.362747
 21
       99.350914
 31
        0.000000
  0
LINE
  8
10
 62
  5
 10
      180.362747
 20
      100.136314
 30
        0.000000
 11
      138.362747
 21
      100.136314
 31
        0.000000
  0
ENDBLK
  0
ENDSEC
  0
SECTION
  2
ENTITIES
  0
TEXT
  8
10
 10
      -88.718997
 20
      124.924208
 30
        0.000000
 40
        5.000000
  1
ＤＳ－５ＲＷ
 50
        0.000000
 41
        1.000000
 51
        0.000000
  7
BIGFONT
  0
INSERT
  8
70
 62
  2
  2
BLK0001
 10
        0.000000
 20
        0.000000
  0
DIMENSION
  8
10
 62
  3
  2
BLK0002
 10
       75.000000
 20
       99.199402
 11
       -7.500000
 21
      101.074402
 13
       75.000000
 23
       75.000000
 14
      -75.000000
 24
       75.000000
 50
        0.0
 70
  0
  0
DIMENSION
  8
10
 62
  3
  2
BLK0003
 10
       81.000000
 20
      109.927963
 11
       -7.500000
 21
      111.802963
 13
       81.000000
 23
       75.000000
 14
      -81.000000
 24
       75.000000
 50
        0.0
 70
  0
  0
DIMENSION
  8
10
 62
  3
  2
BLK0004
 10
      100.510391
 20
      -75.000000
 11
       98.635391
 21
       -7.500000
 13
       75.000000
 23
      -75.000000
 14
       75.000000
 24
       75.000000
 50
       90.0
 70
  0
  0
DIMENSION
  8
10
 62
  3
  2
BLK0005
 10
      112.314369
 20
      -81.000000
 11
      110.439369
 21
     -140.963654
 13
       75.000000
 23
      -81.000000
 14
        7.000000
 24
     -180.927322
 50
       90.0
 70
  0
  0
DIMENSION
  8
10
 62
  3
  2
BLK0006
 10
      112.314369
 20
       81.000000
 11
      110.439369
 21
       -7.500000
 13
       75.000000
 23
       81.000000
 14
       75.000000
 24
      -81.000000
 50
       90.0
 70
  0
  0
DIMENSION
  8
10
 62
  3
  2
BLK0007
 10
      180.362747
 20
      100.136314
 11
      153.092743
 21
      102.011314
 13
      180.362747
 23
       80.000000
 14
      138.362747
 24
       62.123325
 50
        0.0
 70
  0
  0
LINE
  8
262
 10
       -6.750000
 20
     -161.027294
 30
        0.000000
 11
       -6.750000
 21
     -150.927318
 31
        0.000000
  0
LINE
  8
262
 10
        6.750000
 20
     -161.027294
 30
        0.000000
 11
        6.750000
 21
     -150.927318
 31
        0.000000
  0
LINE
  8
262
 10
       -6.750000
 20
     -161.027294
 30
        0.000000
 11
        6.750000
 21
     -161.027294
 31
        0.000000
  0
LINE
  8
262
 10
       -4.500000
 20
     -138.427318
 30
        0.000000
 11
        4.500000
 21
     -138.427318
 31
        0.000000
  0
LINE
  8
262
 10
       -6.750000
 20
     -150.927318
 30
        0.000000
 11
        6.750000
 21
     -150.927318
 31
        0.000000
  0
LINE
  8
262
 10
       -6.099976
 20
     -164.527294
 30
        0.000000
 11
        6.099975
 21
     -164.527294
 31
        0.000000
  0
LINE
  8
262
 10
        6.099975
 20
     -164.527294
 30
        0.000000
 11
        6.750000
 21
     -161.027294
 31
        0.000000
  0
LINE
  8
262
 10
       -6.750000
 20
     -161.027294
 30
        0.000000
 11
       -6.099976
 21
     -164.527294
 31
        0.000000
  0
LINE
  8
262
 10
        4.500000
 20
     -138.427318
 30
        0.000000
 11
        6.150024
 21
     -150.927318
 31
        0.000000
  0
LINE
  8
262
 10
       -4.500000
 20
     -138.427318
 30
        0.000000
 11
       -6.150025
 21
     -150.927318
 31
        0.000000
  0
LINE
  8
262
 10
        6.099975
 20
     -166.927318
 30
        0.000000
 11
        7.000000
 21
     -167.727367
 31
        0.000000
  0
LINE
  8
262
 10
       -6.099976
 20
     -166.927318
 30
        0.000000
 11
       -7.000000
 21
     -167.727367
 31
        0.000000
  0
LINE
  8
262
 10
       -6.099976
 20
     -166.927318
 30
        0.000000
 11
        6.099975
 21
     -166.927318
 31
        0.000000
  0
LINE
  8
262
 10
       -6.099976
 20
     -166.927318
 30
        0.000000
 11
       -6.099976
 21
     -164.527294
 31
        0.000000
  0
LINE
  8
262
 10
        6.099975
 20
     -166.927318
 30
        0.000000
 11
        6.099975
 21
     -164.527294
 31
        0.000000
  0
LINE
  8
262
 10
       -7.000000
 20
     -167.727367
 30
        0.000000
 11
        7.000000
 21
     -167.727367
 31
        0.000000
  0
LINE
  8
262
 10
       -7.000000
 20
     -168.527294
 30
        0.000000
 11
       -7.000000
 21
     -167.727367
 31
        0.000000
  0
LINE
  8
262
 10
        7.000000
 20
     -168.527294
 30
        0.000000
 11
        7.000000
 21
     -167.727367
 31
        0.000000
  0
LINE
  8
262
 10
       -7.349976
 20
     -175.927318
 30
        0.000000
 11
        7.349975
 21
     -175.927318
 31
        0.000000
  0
LINE
  8
262
 10
       -7.349976
 20
     -168.527294
 30
        0.000000
 11
        7.349975
 21
     -168.527294
 31
        0.000000
  0
LINE
  8
262
 10
       -7.349976
 20
     -175.927318
 30
        0.000000
 11
       -7.349976
 21
     -168.527294
 31
        0.000000
  0
LINE
  8
262
 10
        7.349975
 20
     -175.927318
 30
        0.000000
 11
        7.349975
 21
     -168.527294
 31
        0.000000
  0
LINE
  8
262
 10
        7.000000
 20
     -180.927318
 30
        0.000000
 11
        7.000000
 21
     -175.927318
 31
        0.000000
  0
LINE
  8
262
 10
       -7.000061
 20
     -180.927318
 30
        0.000000
 11
       -7.000000
 21
     -175.927318
 31
        0.000000
  0
LINE
  8
262
 10
       -7.000061
 20
     -180.927318
 30
        0.000000
 11
        7.000000
 21
     -180.927318
 31
        0.000000
  0
LINE
  8
262
 10
      149.612751
 20
     -161.027293
 30
        0.000000
 11
      149.612751
 21
     -150.927318
 31
        0.000000
  0
LINE
  8
262
 10
      163.112751
 20
     -161.027293
 30
        0.000000
 11
      163.112751
 21
     -150.927318
 31
        0.000000
  0
LINE
  8
262
 10
      149.612751
 20
     -161.027293
 30
        0.000000
 11
      163.112751
 21
     -161.027293
 31
        0.000000
  0
LINE
  8
262
 10
      151.862751
 20
     -138.427318
 30
        0.000000
 11
      160.862751
 21
     -138.427318
 31
        0.000000
  0
LINE
  8
262
 10
      149.612751
 20
     -150.927318
 30
        0.000000
 11
      163.112751
 21
     -150.927318
 31
        0.000000
  0
LINE
  8
262
 10
      150.262776
 20
     -164.527293
 30
        0.000000
 11
      162.462727
 21
     -164.527293
 31
        0.000000
  0
LINE
  8
262
 10
      162.462727
 20
     -164.527293
 30
        0.000000
 11
      163.112751
 21
     -161.027293
 31
        0.000000
  0
LINE
  8
262
 10
      149.612751
 20
     -161.027293
 30
        0.000000
 11
      150.262776
 21
     -164.527293
 31
        0.000000
  0
LINE
  8
262
 10
      160.862751
 20
     -138.427318
 30
        0.000000
 11
      162.512776
 21
     -150.927318
 31
        0.000000
  0
LINE
  8
262
 10
      151.862751
 20
     -138.427318
 30
        0.000000
 11
      150.212727
 21
     -150.927318
 31
        0.000000
  0
LINE
  8
262
 10
      162.462727
 20
     -166.927318
 30
        0.000000
 11
      163.362751
 21
     -167.727366
 31
        0.000000
  0
LINE
  8
262
 10
      150.262776
 20
     -166.927318
 30
        0.000000
 11
      149.362751
 21
     -167.727366
 31
        0.000000
  0
LINE
  8
262
 10
      150.262776
 20
     -166.927318
 30
        0.000000
 11
      162.462727
 21
     -166.927318
 31
        0.000000
  0
LINE
  8
262
 10
      150.262776
 20
     -166.927318
 30
        0.000000
 11
      150.262776
 21
     -164.527293
 31
        0.000000
  0
LINE
  8
262
 10
      162.462727
 20
     -166.927318
 30
        0.000000
 11
      162.462727
 21
     -164.527293
 31
        0.000000
  0
LINE
  8
262
 10
      149.362751
 20
     -167.727366
 30
        0.000000
 11
      163.362751
 21
     -167.727366
 31
        0.000000
  0
LINE
  8
262
 10
      149.362751
 20
     -168.527293
 30
        0.000000
 11
      149.362751
 21
     -167.727366
 31
        0.000000
  0
LINE
  8
262
 10
      163.362751
 20
     -168.527293
 30
        0.000000
 11
      163.362751
 21
     -167.727366
 31
        0.000000
  0
LINE
  8
262
 10
      149.012776
 20
     -175.927318
 30
        0.000000
 11
      163.712727
 21
     -175.927318
 31
        0.000000
  0
LINE
  8
262
 10
      149.012776
 20
     -168.527293
 30
        0.000000
 11
      163.712727
 21
     -168.527293
 31
        0.000000
  0
LINE
  8
262
 10
      149.012776
 20
     -175.927318
 30
        0.000000
 11
      149.012776
 21
     -168.527293
 31
        0.000000
  0
LINE
  8
262
 10
      163.712727
 20
     -175.927318
 30
        0.000000
 11
      163.712727
 21
     -168.527293
 31
        0.000000
  0
LINE
  8
262
 10
      163.362751
 20
     -180.927318
 30
        0.000000
 11
      163.362751
 21
     -175.927318
 31
        0.000000
  0
LINE
  8
262
 10
      149.362690
 20
     -180.927318
 30
        0.000000
 11
      149.362751
 21
     -175.927318
 31
        0.000000
  0
LINE
  8
262
 10
      149.362690
 20
     -180.927318
 30
        0.000000
 11
      163.362751
 21
     -180.927318
 31
        0.000000
  0
CIRCLE
  8
10
 62
  3
 10
      -75.000000
 20
      -75.000000
 30
        0.000000
 40
        2.250000
  0
CIRCLE
  8
10
 62
  3
 10
      -75.000000
 20
       75.000000
 30
        0.000000
 40
        2.250000
  0
CIRCLE
  8
10
 62
  3
 10
       75.000000
 20
       75.000000
 30
        0.000000
 40
        2.250000
  0
CIRCLE
  8
10
 62
  3
 10
       75.000000
 20
      -75.000000
 30
        0.000000
 40
        2.250000
  0
CIRCLE
  8
100
 10
        5.000000
 20
       61.500011
 30
        0.000000
 40
        1.500000
  0
CIRCLE
  8
100
 10
       -5.000000
 20
       61.500011
 30
        0.000000
 40
        1.500000
  0
ARC
  8
100
 10
       75.000000
 20
       75.000000
 30
        0.000000
 40
        6.000000
 50
        0.000000
 51
       90.000000
  0
LINE
  8
100
 10
       81.000000
 20
       75.000000
 30
        0.000000
 11
       81.000000
 21
        0.000000
 31
        0.000000
  0
ARC
  8
100
 10
       63.000000
 20
       63.000000
 30
        0.000000
 40
        6.000000
 50
        0.000000
 51
       90.000000
  0
ARC
  8
100
 10
       61.917456
 20
       61.917456
 30
        0.000000
 40
        6.000000
 50
      360.000000
 51
      450.000000
  0
LINE
  8
100
 10
       75.000000
 20
       81.000000
 30
        0.000000
 11
        0.000000
 21
       81.000000
 31
        0.000000
  0
ARC
  8
100
 10
       72.000000
 20
       40.000000
 30
        0.000000
 40
        5.000000
 50
      270.000000
 51
      450.000000
  0
LINE
  8
100
 10
       72.000000
 20
       45.000000
 30
        0.000000
 11
       69.000000
 21
       45.000000
 31
        0.000000
  0
LINE
  8
100
 10
       72.000000
 20
       35.000000
 30
        0.000000
 11
       69.000000
 21
       35.000000
 31
        0.000000
  0
LINE
  8
100
 10
       35.000000
 20
       72.000000
 30
        0.000000
 11
       35.000000
 21
       69.000000
 31
        0.000000
  0
LINE
  8
100
 10
       45.000000
 20
       72.000000
 30
        0.000000
 11
       45.000000
 21
       69.000000
 31
        0.000000
  0
ARC
  8
100
 10
       40.000000
 20
       72.000000
 30
        0.000000
 40
        5.000000
 50
        0.000000
 51
      180.000005
  0
LINE
  8
100
 10
        0.000000
 20
       69.000000
 30
        0.000000
 11
       63.000000
 21
       69.000000
 31
        0.000000
  0
LINE
  8
100
 10
        0.000000
 20
       67.917456
 30
        0.000000
 11
       61.917456
 21
       67.917456
 31
        0.000000
  0
LINE
  8
100
 10
       67.917456
 20
       61.917456
 30
        0.000000
 11
       67.917456
 21
        0.000000
 31
        0.000000
  0
LINE
  8
100
 10
       69.000000
 20
       63.000000
 30
        0.000000
 11
       69.000000
 21
        0.000000
 31
        0.000000
  0
LINE
  8
100
 10
      -81.000000
 20
       75.000000
 30
        0.000000
 11
      -81.000000
 21
        0.000000
 31
        0.000000
  0
ARC
  8
100
 10
      -61.917456
 20
       61.917456
 30
        0.000000
 40
        6.000000
 50
       90.000000
 51
      180.000005
  0
ARC
  8
100
 10
      -63.000000
 20
       63.000000
 30
        0.000000
 40
        6.000000
 50
       90.000000
 51
      179.999995
  0
LINE
  8
100
 10
      -75.000000
 20
       81.000000
 30
        0.000000
 11
        0.000000
 21
       81.000000
 31
        0.000000
  0
ARC
  8
100
 10
      -75.000000
 20
       75.000000
 30
        0.000000
 40
        6.000000
 50
       90.000000
 51
      179.999995
  0
LINE
  8
100
 10
      -63.000000
 20
       69.000000
 30
        0.000000
 11
        0.000000
 21
       69.000000
 31
        0.000000
  0
LINE
  8
100
 10
      -61.917456
 20
       67.917456
 30
        0.000000
 11
        0.000000
 21
       67.917456
 31
        0.000000
  0
LINE
  8
100
 10
      -67.917456
 20
        0.000000
 30
        0.000000
 11
      -67.917456
 21
       61.917456
 31
        0.000000
  0
LINE
  8
100
 10
      -69.000000
 20
        0.000000
 30
        0.000000
 11
      -69.000000
 21
       63.000000
 31
        0.000000
  0
ARC
  8
100
 10
      -72.000000
 20
       40.000000
 30
        0.000000
 40
        5.000000
 50
       90.000000
 51
      270.000000
  0
LINE
  8
100
 10
      -72.000000
 20
       45.000000
 30
        0.000000
 11
      -69.000000
 21
       45.000000
 31
        0.000000
  0
LINE
  8
100
 10
      -72.000000
 20
       35.000000
 30
        0.000000
 11
      -69.000000
 21
       35.000000
 31
        0.000000
  0
LINE
  8
100
 10
      -35.000000
 20
       72.000000
 30
        0.000000
 11
      -35.000000
 21
       69.000000
 31
        0.000000
  0
LINE
  8
100
 10
      -45.000000
 20
       72.000000
 30
        0.000000
 11
      -45.000000
 21
       69.000000
 31
        0.000000
  0
ARC
  8
100
 10
      -40.000000
 20
       72.000000
 30
        0.000000
 40
        5.000000
 50
        0.000000
 51
      179.999995
  0
ARC
  8
100
 10
      -72.000000
 20
      -40.000000
 30
        0.000000
 40
        5.000000
 50
       90.000000
 51
      270.000000
  0
LINE
  8
100
 10
      -72.000000
 20
      -45.000000
 30
        0.000000
 11
      -69.000000
 21
      -45.000000
 31
        0.000000
  0
LINE
  8
100
 10
      -72.000000
 20
      -35.000000
 30
        0.000000
 11
      -69.000000
 21
      -35.000000
 31
        0.000000
  0
LINE
  8
100
 10
      -35.000000
 20
      -72.000000
 30
        0.000000
 11
      -35.000000
 21
      -69.000000
 31
        0.000000
  0
LINE
  8
100
 10
      -45.000000
 20
      -72.000000
 30
        0.000000
 11
      -45.000000
 21
      -69.000000
 31
        0.000000
  0
ARC
  8
100
 10
      -40.000000
 20
      -72.000000
 30
        0.000000
 40
        5.000000
 50
      180.000005
 51
      360.000000
  0
LINE
  8
100
 10
      -67.917456
 20
      -61.917456
 30
        0.000000
 11
      -67.917456
 21
        0.000000
 31
        0.000000
  0
LINE
  8
100
 10
      -69.000000
 20
      -63.000000
 30
        0.000000
 11
      -69.000000
 21
        0.000000
 31
        0.000000
  0
ARC
  8
100
 10
      -75.000000
 20
      -75.000000
 30
        0.000000
 40
        6.000000
 50
      179.999995
 51
      270.000000
  0
LINE
  8
100
 10
      -81.000000
 20
      -75.000000
 30
        0.000000
 11
      -81.000000
 21
        0.000000
 31
        0.000000
  0
ARC
  8
100
 10
      -63.000000
 20
      -63.000000
 30
        0.000000
 40
        6.000000
 50
      180.000005
 51
      270.000000
  0
ARC
  8
100
 10
      -61.917456
 20
      -61.917456
 30
        0.000000
 40
        6.000000
 50
      179.999995
 51
      270.000000
  0
LINE
  8
100
 10
       81.000000
 20
      -75.000000
 30
        0.000000
 11
       81.000000
 21
        0.000000
 31
        0.000000
  0
ARC
  8
100
 10
       61.917456
 20
      -61.917456
 30
        0.000000
 40
        6.000000
 50
      270.000000
 51
      360.000000
  0
ARC
  8
100
 10
       63.000000
 20
      -63.000000
 30
        0.000000
 40
        6.000000
 50
      270.000000
 51
      360.000000
  0
ARC
  8
100
 10
       75.000000
 20
      -75.000000
 30
        0.000000
 40
        6.000000
 50
      270.000000
 51
      360.000000
  0
LINE
  8
100
 10
       67.917456
 20
        0.000000
 30
        0.000000
 11
       67.917456
 21
      -61.917456
 31
        0.000000
  0
LINE
  8
100
 10
       69.000000
 20
        0.000000
 30
        0.000000
 11
       69.000000
 21
      -63.000000
 31
        0.000000
  0
ARC
  8
100
 10
       72.000000
 20
      -40.000000
 30
        0.000000
 40
        5.000000
 50
      270.000000
 51
      450.000000
  0
LINE
  8
100
 10
       72.000000
 20
      -45.000000
 30
        0.000000
 11
       69.000000
 21
      -45.000000
 31
        0.000000
  0
LINE
  8
100
 10
       72.000000
 20
      -35.000000
 30
        0.000000
 11
       69.000000
 21
      -35.000000
 31
        0.000000
  0
LINE
  8
100
 10
       35.000000
 20
      -72.000000
 30
        0.000000
 11
       35.000000
 21
      -69.000000
 31
        0.000000
  0
LINE
  8
100
 10
       45.000000
 20
      -72.000000
 30
        0.000000
 11
       45.000000
 21
      -69.000000
 31
        0.000000
  0
ARC
  8
100
 10
       40.000000
 20
      -72.000000
 30
        0.000000
 40
        5.000000
 50
      179.999995
 51
      360.000000
  0
LINE
  8
100
 10
      180.362751
 20
       70.000000
 30
        0.000000
 11
      178.362751
 21
       69.965090
 31
        0.000000
  0
ARC
  8
100
 10
      144.362751
 20
       62.123323
 30
        0.000000
 40
        6.000000
 50
       91.999997
 51
      179.999995
  0
LINE
  8
100
 10
      171.362751
 20
       35.034921
 30
        0.000000
 11
      164.827852
 21
       35.263124
 31
        0.000000
  0
ARC
  8
100
 10
      164.862751
 20
       36.262515
 30
        0.000000
 40
        1.000000
 50
      179.999995
 51
      268.000003
  0
LINE
  8
100
 10
      171.362751
 20
      -35.034921
 30
        0.000000
 11
      164.827852
 21
      -35.263124
 31
        0.000000
  0
LINE
  8
100
 10
      171.362751
 20
      -44.965079
 30
        0.000000
 11
      164.827852
 21
      -44.736876
 31
        0.000000
  0
ARC
  8
100
 10
      164.862751
 20
      -43.737485
 30
        0.000000
 40
        1.000000
 50
      179.999995
 51
      268.000003
  0
LINE
  8
100
 10
      163.862751
 20
      -36.262515
 30
        0.000000
 11
      163.862751
 21
      -43.737485
 31
        0.000000
  0
ARC
  8
100
 10
      164.862751
 20
      -36.262515
 30
        0.000000
 40
        1.000000
 50
       91.999997
 51
      179.999995
  0
ARC
  8
100
 10
      164.862751
 20
       75.737485
 30
        0.000000
 40
        1.000000
 50
       91.999997
 51
      179.999995
  0
LINE
  8
100
 10
      171.362751
 20
       76.965079
 30
        0.000000
 11
      164.827852
 21
       76.736876
 31
        0.000000
  0
LINE
  8
100
 10
      180.362751
 20
       80.000000
 30
        0.000000
 11
      178.362751
 21
       80.034910
 31
        0.000000
  0
LINE
  8
100
 10
      180.362751
 20
       80.000000
 30
        0.000000
 11
      180.362751
 21
       70.000000
 31
        0.000000
  0
LINE
  8
100
 10
      163.862751
 20
       75.737485
 30
        0.000000
 11
      163.862751
 21
       68.703173
 31
        0.000000
  0
LINE
  8
100
 10
      171.362751
 20
       69.000000
 30
        0.000000
 11
      144.153354
 21
       68.119668
 31
        0.000000
  0
ARC
  8
100
 10
      164.862751
 20
       43.737485
 30
        0.000000
 40
        1.000000
 50
       91.999997
 51
      179.999995
  0
LINE
  8
100
 10
      163.862751
 20
       36.262515
 30
        0.000000
 11
      163.862751
 21
       43.737485
 31
        0.000000
  0
LINE
  8
100
 10
      171.362751
 20
       44.965079
 30
        0.000000
 11
      164.827852
 21
       44.736876
 31
        0.000000
  0
ARC
  8
100
 10
      172.362751
 20
       79.789866
 30
        0.000000
 40
        1.000000
 50
       91.999997
 51
      179.999995
  0
LINE
  8
100
 10
      178.362751
 20
       81.000000
 30
        0.000000
 11
      172.327852
 21
       80.789257
 31
        0.000000
  0
LINE
  8
100
 10
      171.362751
 20
       79.789866
 30
        0.000000
 11
      171.362751
 21
        0.000000
 31
        0.000000
  0
ARC
  8
100
 10
      172.362751
 20
      -79.789866
 30
        0.000000
 40
        1.000000
 50
      179.999995
 51
      268.000003
  0
LINE
  8
100
 10
      171.362751
 20
        0.000000
 30
        0.000000
 11
      171.362751
 21
      -79.789866
 31
        0.000000
  0
LINE
  8
100
 10
      178.362751
 20
      -81.000000
 30
        0.000000
 11
      172.327852
 21
      -80.789257
 31
        0.000000
  0
LINE
  8
100
 10
      171.362751
 20
      -69.000000
 30
        0.000000
 11
      144.153354
 21
      -68.119668
 31
        0.000000
  0
LINE
  8
100
 10
      178.362751
 20
        0.000000
 30
        0.000000
 11
      178.362751
 21
      -80.965090
 31
        0.000000
  0
LINE
  8
100
 10
      180.362751
 20
      -80.000000
 30
        0.000000
 11
      178.362751
 21
      -80.034910
 31
        0.000000
  0
LINE
  8
100
 10
      180.362751
 20
      -80.000000
 30
        0.000000
 11
      180.362751
 21
      -70.000000
 31
        0.000000
  0
LINE
  8
100
 10
      180.362751
 20
      -70.000000
 30
        0.000000
 11
      178.362751
 21
      -69.965090
 31
        0.000000
  0
ARC
  8
100
 10
      164.862751
 20
      -75.737485
 30
        0.000000
 40
        1.000000
 50
      179.999995
 51
      268.000003
  0
LINE
  8
100
 10
      163.862751
 20
      -68.703173
 30
        0.000000
 11
      163.862751
 21
      -75.737485
 31
        0.000000
  0
LINE
  8
100
 10
      171.362751
 20
      -76.965079
 30
        0.000000
 11
      164.827852
 21
      -76.736876
 31
        0.000000
  0
LINE
  8
100
 10
      138.362751
 20
      -62.123323
 30
        0.000000
 11
      138.362751
 21
       62.123323
 31
        0.000000
  0
ARC
  8
100
 10
      144.362751
 20
      -62.123323
 30
        0.000000
 40
        6.000000
 50
      180.000005
 51
      268.000003
  0
LINE
  8
100
 10
      144.862751
 20
      -68.126981
 30
        0.000000
 11
      144.153354
 21
      -68.102208
 31
        0.000000
  0
LINE
  8
100
 10
      144.862751
 20
      -68.126981
 30
        0.000000
 11
      144.862751
 21
      -69.017460
 31
        0.000000
  0
LINE
  8
100
 10
      144.862751
 20
      -69.017460
 30
        0.000000
 11
      171.174261
 21
      -69.017460
 31
        0.000000
  0
LINE
  8
160
 10
      145.393096
 20
      -75.034921
 30
        0.000000
 11
      145.393096
 21
      -70.034921
 31
        0.000000
  0
LINE
  8
160
 10
      150.877924
 20
      -88.034921
 30
        0.000000
 11
      150.877924
 21
      -79.034921
 31
        0.000000
  0
LINE
  8
160
 10
      145.393096
 20
      -88.034921
 30
        0.000000
 11
      145.393096
 21
      -79.034921
 31
        0.000000
  0
ARC
  8
160
 10
      149.862751
 20
      -91.234921
 30
        0.000000
 40
        3.000000
 50
      180.000005
 51
      270.000000
  0
LINE
  8
160
 10
      148.762751
 20
      -79.034921
 30
        0.000000
 11
      148.762751
 21
      -75.034921
 31
        0.000000
  0
LINE
  8
160
 10
      150.877924
 20
      -75.034921
 30
        0.000000
 11
      150.877924
 21
      -70.034921
 31
        0.000000
  0
LINE
  8
160
 10
      146.862751
 20
      -91.234921
 30
        0.000000
 11
      146.862751
 21
      -88.034921
 31
        0.000000
  0
LINE
  8
160
 10
      156.362751
 20
      -70.034921
 30
        0.000000
 11
      145.393096
 21
      -70.034921
 31
        0.000000
  0
LINE
  8
160
 10
      156.362751
 20
      -70.034921
 30
        0.000000
 11
      164.462751
 21
      -70.034921
 31
        0.000000
  0
ARC
  8
160
 10
      162.862751
 20
      -91.234921
 30
        0.000000
 40
        3.000000
 50
      270.000000
 51
      360.000000
  0
LINE
  8
160
 10
      149.862751
 20
      -94.234921
 30
        0.000000
 11
      162.862751
 21
      -94.234921
 31
        0.000000
  0
LINE
  8
160
 10
      167.332406
 20
      -88.034921
 30
        0.000000
 11
      167.332406
 21
      -79.034921
 31
        0.000000
  0
LINE
  8
160
 10
      145.393096
 20
      -79.034921
 30
        0.000000
 11
      167.332406
 21
      -79.034921
 31
        0.000000
  0
LINE
  8
160
 10
      145.393096
 20
      -88.034921
 30
        0.000000
 11
      167.332406
 21
      -88.034921
 31
        0.000000
  0
LINE
  8
160
 10
      163.962751
 20
      -79.034921
 30
        0.000000
 11
      163.962751
 21
      -75.034921
 31
        0.000000
  0
LINE
  8
160
 10
      161.847579
 20
      -75.034921
 30
        0.000000
 11
      161.847579
 21
      -70.034921
 31
        0.000000
  0
LINE
  8
160
 10
      165.862751
 20
      -91.234921
 30
        0.000000
 11
      165.862751
 21
      -88.034921
 31
        0.000000
  0
LINE
  8
160
 10
      161.847579
 20
      -88.034921
 30
        0.000000
 11
      161.847579
 21
      -79.034921
 31
        0.000000
  0
LINE
  8
160
 10
      145.362751
 20
      -70.034921
 30
        0.000000
 11
      145.362751
 21
      -69.034921
 31
        0.000000
  0
LINE
  8
160
 10
      156.362751
 20
      -69.034921
 30
        0.000000
 11
      145.362751
 21
      -69.034921
 31
        0.000000
  0
LINE
  8
160
 10
      156.362751
 20
      -69.034921
 30
        0.000000
 11
      167.362751
 21
      -69.034921
 31
        0.000000
  0
LINE
  8
160
 10
      163.862751
 20
      -75.034921
 30
        0.000000
 11
      145.393096
 21
      -75.034921
 31
        0.000000
  0
LINE
  8
160
 10
      163.862751
 20
      -70.034921
 30
        0.000000
 11
      156.362751
 21
      -70.034921
 31
        0.000000
  0
LINE
  8
160
 10
      159.862751
 20
     -110.427279
 30
        0.000000
 11
      159.862751
 21
      -94.234921
 31
        0.000000
  0
LINE
  8
160
 10
      152.862751
 20
     -110.427279
 30
        0.000000
 11
      152.862751
 21
      -94.234921
 31
        0.000000
  0
ARC
  8
0
 10
      154.612751
 20
     -111.427279
 30
        0.000000
 40
        2.015564
 50
       29.744879
 51
      150.255114
  0
LINE
  8
0
 10
      159.862751
 20
     -114.727267
 30
        0.000000
 11
      159.862751
 21
     -138.427318
 31
        0.000000
  0
ARC
  8
0
 10
      158.112751
 20
     -115.727267
 30
        0.000000
 40
        2.015557
 50
       29.744503
 51
      150.255306
  0
ARC
  8
0
 10
      158.112751
 20
     -113.727267
 30
        0.000000
 40
        2.015564
 50
      209.744896
 51
      330.255138
  0
ARC
  8
0
 10
      158.112751
 20
     -109.427279
 30
        0.000000
 40
        2.015564
 50
      209.744896
 51
      330.255138
  0
LINE
  8
0
 10
      152.862751
 20
     -114.727267
 30
        0.000000
 11
      152.862751
 21
     -138.427318
 31
        0.000000
  0
ARC
  8
0
 10
      154.612751
 20
     -115.727267
 30
        0.000000
 40
        2.015564
 50
       29.744879
 51
      150.255114
  0
ARC
  8
0
 10
      154.612751
 20
     -109.427279
 30
        0.000000
 40
        2.015564
 50
      209.744896
 51
      330.255138
  0
LINE
  8
100
 10
      178.362751
 20
       81.000000
 30
        0.000000
 11
      178.362751
 21
      -80.965090
 31
        0.000000
  0
LINE
  8
160
 10
       -3.500000
 20
     -110.427281
 30
        0.000000
 11
       -3.500000
 21
      -94.200000
 31
        0.000000
  0
ARC
  8
0
 10
        1.750000
 20
     -109.427280
 30
        0.000000
 40
        2.015564
 50
      209.744896
 51
      330.255138
  0
ARC
  8
0
 10
        1.750000
 20
     -113.727268
 30
        0.000000
 40
        2.015564
 50
      209.744896
 51
      330.255138
  0
ARC
  8
0
 10
        1.750000
 20
     -115.727268
 30
        0.000000
 40
        2.015557
 50
       29.744503
 51
      150.255306
  0
LINE
  8
0
 10
        3.500000
 20
     -114.727268
 30
        0.000000
 11
        3.500000
 21
     -138.427318
 31
        0.000000
  0
ARC
  8
0
 10
       -1.750000
 20
     -111.427280
 30
        0.000000
 40
        2.015564
 50
       29.744879
 51
      150.255114
  0
ARC
  8
0
 10
       -1.750000
 20
     -109.427280
 30
        0.000000
 40
        2.015564
 50
      209.744896
 51
      330.255138
  0
ARC
  8
0
 10
       -1.750000
 20
     -115.727268
 30
        0.000000
 40
        2.015564
 50
       29.744879
 51
      150.255114
  0
LINE
  8
0
 10
       -3.500000
 20
     -114.727268
 30
        0.000000
 11
       -3.500000
 21
     -138.427318
 31
        0.000000
  0
LINE
  8
160
 10
       11.000000
 20
      -69.000000
 30
        0.000000
 11
       11.000000
 21
      -70.000000
 31
        0.000000
  0
LINE
  8
160
 10
      -11.000000
 20
      -69.000000
 30
        0.000000
 11
       11.000000
 21
      -69.000000
 31
        0.000000
  0
LINE
  8
160
 10
      -11.000000
 20
      -69.000000
 30
        0.000000
 11
      -11.000000
 21
      -70.000000
 31
        0.000000
  0
LINE
  8
160
 10
       11.000000
 20
      -70.000000
 30
        0.000000
 11
      -11.000000
 21
      -70.000000
 31
        0.000000
  0
LINE
  8
160
 10
       -7.600000
 20
      -79.000000
 30
        0.000000
 11
       -7.600000
 21
      -75.000000
 31
        0.000000
  0
ARC
  8
160
 10
       -6.500000
 20
      -91.200000
 30
        0.000000
 40
        3.000000
 50
      180.000005
 51
      270.000000
  0
LINE
  8
160
 10
      -10.969655
 20
      -88.000000
 30
        0.000000
 11
      -10.969655
 21
      -79.000000
 31
        0.000000
  0
LINE
  8
160
 10
       -5.484828
 20
      -88.000000
 30
        0.000000
 11
       -5.484828
 21
      -79.000000
 31
        0.000000
  0
LINE
  8
160
 10
       -9.500000
 20
      -91.200000
 30
        0.000000
 11
       -9.500000
 21
      -88.000000
 31
        0.000000
  0
LINE
  8
160
 10
      -10.969655
 20
      -75.000000
 30
        0.000000
 11
      -10.969655
 21
      -70.000000
 31
        0.000000
  0
LINE
  8
160
 10
       -5.484828
 20
      -75.000000
 30
        0.000000
 11
       -5.484828
 21
      -70.000000
 31
        0.000000
  0
LINE
  8
160
 10
        7.600000
 20
      -79.000000
 30
        0.000000
 11
        7.600000
 21
      -75.000000
 31
        0.000000
  0
LINE
  8
160
 10
      -10.969655
 20
      -88.000000
 30
        0.000000
 11
       10.969655
 21
      -88.000000
 31
        0.000000
  0
LINE
  8
160
 10
      -10.969655
 20
      -79.000000
 30
        0.000000
 11
       10.969655
 21
      -79.000000
 31
        0.000000
  0
LINE
  8
160
 10
       10.969655
 20
      -88.000000
 30
        0.000000
 11
       10.969655
 21
      -79.000000
 31
        0.000000
  0
LINE
  8
160
 10
       -6.500000
 20
      -94.200000
 30
        0.000000
 11
        6.500000
 21
      -94.200000
 31
        0.000000
  0
ARC
  8
160
 10
        6.500000
 20
      -91.200000
 30
        0.000000
 40
        3.000000
 50
      270.000000
 51
      360.000000
  0
LINE
  8
160
 10
        5.484828
 20
      -88.000000
 30
        0.000000
 11
        5.484828
 21
      -79.000000
 31
        0.000000
  0
LINE
  8
160
 10
        9.500000
 20
      -91.200000
 30
        0.000000
 11
        9.500000
 21
      -88.000000
 31
        0.000000
  0
LINE
  8
160
 10
      -10.969655
 20
      -75.000000
 30
        0.000000
 11
       10.969655
 21
      -75.000000
 31
        0.000000
  0
LINE
  8
160
 10
       10.969655
 20
      -75.000000
 30
        0.000000
 11
       10.969655
 21
      -70.000000
 31
        0.000000
  0
LINE
  8
160
 10
        5.484828
 20
      -75.000000
 30
        0.000000
 11
        5.484828
 21
      -70.000000
 31
        0.000000
  0
LINE
  8
160
 10
        3.500000
 20
     -110.427279
 30
        0.000000
 11
        3.500000
 21
      -94.200000
 31
        0.000000
  0
LINE
  8
100
 10
       61.917456
 20
      -67.917456
 30
        0.000000
 11
        0.000000
 21
      -67.917456
 31
        0.000000
  0
LINE
  8
100
 10
       63.000000
 20
      -69.000000
 30
        0.000000
 11
        0.000000
 21
      -69.000000
 31
        0.000000
  0
LINE
  8
100
 10
        0.000000
 20
      -67.917456
 30
        0.000000
 11
      -61.917456
 21
      -67.917456
 31
        0.000000
  0
LINE
  8
100
 10
        0.000000
 20
      -69.000000
 30
        0.000000
 11
      -63.000000
 21
      -69.000000
 31
        0.000000
  0
LINE
  8
100
 10
       75.000000
 20
      -81.000000
 30
        0.000000
 11
       10.969655
 21
      -81.000000
 31
        0.000000
  0
LINE
  8
100
 10
      -75.000000
 20
      -81.000000
 30
        0.000000
 11
      -10.969655
 21
      -81.000000
 31
        0.000000
  0
ENDSEC
  0
EOF
