  0
SECTION
  2
HEADER
  9
$ACADVER
  1
AC1006
  9
$INSBASE
 10
0.0
 20
0.0
 30
0.0
  9
$EXTMIN
 10
      -65.000298
 20
      -65.000298
  9
$EXTMAX
 10
      176.900696
 20
      129.999695
  9
$LIMMIN
 10
      -65.000298
 20
      -65.000298
  9
$LIMMAX
 10
      176.900696
 20
      129.999695
  9
$VIEWCTR
 10
       55.950199
 20
       55.950199
  9
$ORTHOMODE
 70
     0
  9
$ANGBASE
 50
0.0
  9
$ANGDIR
 70
     0
  9
$SPLINETYPE
 70
     6
  9
$SPLINESEGS
 70
     8
9
$DIMASZ
 40
        3.600000
9
$DIMEXE
 40
        0.500000
9
$DIMEXO
 40
        1.000000
9
$DIMTXT
 40
        4.000000
9
$DIMGAP
 40
        0.500000
9
$DIMTAD
 70
1
9
$DIMTIH
 70
0
9
$DIMTOH
 70
0
  0
ENDSEC
  0
SECTION
  2
TABLES
  0
TABLE
  2
LTYPE
 70
     5
  0
LTYPE
  2
CONTINUOUS
 70
    64
  3
SOLID LINE
 72
    65
 73
     0
 40
0.0
  0
LTYPE
  2
DASHED
 70
    64
  3
-- -- -- -- -- --
 72
    65
 73
     2
 40
  0.75  
 49
  0.50  
 49
 -0.25  
  0
LTYPE
  2
DOT
 70
    64
  3
....................
 72
    65
 73
     2
 40
  0.25  
 49
  0.02  
 49
 -0.23  
  0
LTYPE
  2
CENTER
 70
    64
  3
-- . -- . -- . -- .
 72
    65
 73
    4
 40
  2.00  
 49
  1.25  
 49
 -0.25  
 49
  0.25  
 49
 -0.25  
  0
LTYPE
  2
PHANTOM
 70
    64
  3
-- .. -- .. -- ..
 72
    65
 73
    6
 40
  2.50  
 49
  1.25  
 49
 -0.25  
 49
  0.25  
 49
 -0.25  
 49
  0.25  
 49
 -0.25  
  0
ENDTAB
  0
TABLE
  2
LAYER
 70
     1
  0
LAYER
  2
LVL0000
 70
    64
 62
     3
  6
CONTINUOUS
  0
ENDTAB
  0
TABLE
  2
STYLE
 70
     2
  0
STYLE
  2
STANDARD
 70
    64
 40
0.0
 41
1.0
 50
0.0
 71
     0
 42
5.0
  3
ROMANS
  4
BIGFONT
  0
STYLE
  2
BIGFONT
 70
    64
 40
0.0
 41
1.0
 50
0.0
 71
     0
 42
5.0
  3
ROMANS
  4
BIGFONT
  0
ENDTAB
  0
TABLE
  2
VIEW
 70
     0
  0
ENDTAB
  0
TABLE
  2
UCS
 70
     0
  0
ENDTAB
  0
TABLE
  2
DWGMGR
 70
     0
  0
ENDTAB
  0
ENDSEC
  0
SECTION
  2
BLOCKS
  0
BLOCK
  8
0
  2
BLK0001
 70
    64
 10
        0.000000
 20
        0.000000
  0
TEXT
  8
LVL0000
 62
  2
 10
       -4.000000
 20
      -79.177315
 30
        0.000000
 40
        4.000000
  1
３５
 50
        0.000000
 41
        0.835000
 51
        0.000000
  7
BIGFONT
  0
LINE
  8
LVL0000
 62
  2
 10
      -17.500000
 20
      -65.500008
 30
        0.000000
 11
      -17.500000
 21
      -80.177315
 31
        0.000000
  0
LINE
  8
LVL0000
 62
  2
 10
       17.500000
 20
      -65.500008
 30
        0.000000
 11
       17.500000
 21
      -80.177315
 31
        0.000000
  0
LINE
  8
LVL0000
 62
  2
 10
      -13.900000
 20
      -79.111832
 30
        0.000000
 11
      -17.500000
 21
      -79.677315
 31
        0.000000
  0
LINE
  8
LVL0000
 62
  2
 10
      -17.500000
 20
      -79.677315
 30
        0.000000
 11
      -13.900000
 21
      -80.242798
 31
        0.000000
  0
LINE
  8
LVL0000
 62
  2
 10
       13.900000
 20
      -80.242798
 30
        0.000000
 11
       17.500000
 21
      -79.677315
 31
        0.000000
  0
LINE
  8
LVL0000
 62
  2
 10
       17.500000
 20
      -79.677315
 30
        0.000000
 11
       13.900000
 21
      -79.111832
 31
        0.000000
  0
LINE
  8
LVL0000
 62
  2
 10
      -17.500000
 20
      -79.677315
 30
        0.000000
 11
       17.500000
 21
      -79.677315
 31
        0.000000
  0
ENDBLK
  0
BLOCK
  8
0
  2
BLK0002
 70
    64
 10
        0.000000
 20
        0.000000
  0
TEXT
  8
LVL0000
 62
  2
 10
      108.700226
 20
      -79.177315
 30
        0.000000
 40
        4.000000
  1
１０２．４
 50
        0.000000
 41
        0.835000
 51
        0.000000
  7
BIGFONT
  0
LINE
  8
LVL0000
 62
  2
 10
       67.500244
 20
       39.499702
 30
        0.000000
 11
       67.500244
 21
      -80.177315
 31
        0.000000
  0
LINE
  8
LVL0000
 62
  2
 10
      169.900208
 20
       53.999702
 30
        0.000000
 11
      169.900208
 21
      -80.177315
 31
        0.000000
  0
LINE
  8
LVL0000
 62
  2
 10
       70.500244
 20
      -78.891914
 30
        0.000000
 11
       67.500244
 21
      -79.677315
 31
        0.000000
  0
LINE
  8
LVL0000
 62
  2
 10
       67.500244
 20
      -79.677315
 30
        0.000000
 11
       70.500244
 21
      -80.462715
 31
        0.000000
  0
LINE
  8
LVL0000
 62
  2
 10
      166.900208
 20
      -80.462715
 30
        0.000000
 11
      169.900208
 21
      -79.677315
 31
        0.000000
  0
LINE
  8
LVL0000
 62
  2
 10
      169.900208
 20
      -79.677315
 30
        0.000000
 11
      166.900208
 21
      -78.891914
 31
        0.000000
  0
LINE
  8
LVL0000
 62
  2
 10
       67.500244
 20
      -79.677315
 30
        0.000000
 11
      169.900208
 21
      -79.677315
 31
        0.000000
  0
ENDBLK
  0
BLOCK
  8
0
  2
BLK0003
 70
    64
 10
        0.000000
 20
        0.000000
  0
TEXT
  8
LVL0000
 62
  2
 10
       31.432417
 20
       -6.648846
 30
        0.000000
 40
        4.000000
  1
１３０
 50
       90.000000
 41
        0.835000
 51
        0.000000
  7
BIGFONT
  0
LINE
  8
LVL0000
 62
  2
 10
       18.000000
 20
       65.000008
 30
        0.000000
 11
       32.432419
 21
       65.000008
 31
        0.000000
  0
LINE
  8
LVL0000
 62
  2
 10
       18.000000
 20
      -64.999992
 30
        0.000000
 11
       32.432419
 21
      -64.999992
 31
        0.000000
  0
LINE
  8
LVL0000
 62
  2
 10
       32.717819
 20
       62.000008
 30
        0.000000
 11
       31.932419
 21
       65.000008
 31
        0.000000
  0
LINE
  8
LVL0000
 62
  2
 10
       31.932419
 20
       65.000008
 30
        0.000000
 11
       31.147020
 21
       62.000008
 31
        0.000000
  0
LINE
  8
LVL0000
 62
  2
 10
       31.147020
 20
      -61.999992
 30
        0.000000
 11
       31.932419
 21
      -64.999992
 31
        0.000000
  0
LINE
  8
LVL0000
 62
  2
 10
       31.932419
 20
      -64.999992
 30
        0.000000
 11
       32.717815
 21
      -61.999992
 31
        0.000000
  0
LINE
  8
LVL0000
 62
  2
 10
       31.932419
 20
       65.000008
 30
        0.000000
 11
       31.932419
 21
      -64.999992
 31
        0.000000
  0
ENDBLK
  0
ENDSEC
  0
SECTION
  2
ENTITIES
  0
LINE
  8
LVL0000
 10
       11.585785
 20
       23.832100
 30
        0.000000
 11
       12.292908
 21
       24.539207
 31
        0.000000
  0
LINE
  8
LVL0000
 10
       13.707123
 20
       21.710793
 30
        0.000000
 11
       14.414215
 21
       22.417885
 31
        0.000000
  0
LINE
  8
LVL0000
 10
       -2.600006
 20
       26.724983
 30
        0.000000
 11
       17.500000
 21
       26.724983
 31
        0.000000
  0
LINE
  8
LVL0000
 10
       -2.600006
 20
       27.424995
 30
        0.000000
 11
       17.500000
 21
       27.424995
 31
        0.000000
  0
CIRCLE
  8
LVL0000
 10
       10.500000
 20
      -59.599998
 30
        0.000000
 40
        2.600006
  0
CIRCLE
  8
LVL0000
 10
       10.500000
 20
      -59.599998
 30
        0.000000
 40
        3.000000
  0
CIRCLE
  8
LVL0000
 10
       10.500000
 20
       33.599983
 30
        0.000000
 40
        3.000000
  0
CIRCLE
  8
LVL0000
 10
       10.500000
 20
       33.599983
 30
        0.000000
 40
        2.600006
  0
LINE
  8
LVL0000
 10
       -1.299988
 20
      -44.224998
 30
        0.000000
 11
       -1.299988
 21
      -37.025017
 31
        0.000000
  0
LINE
  8
LVL0000
 10
       -1.299988
 20
      -52.724998
 30
        0.000000
 11
       -1.299988
 21
      -45.525017
 31
        0.000000
  0
LINE
  8
LVL0000
 10
       -0.199982
 20
      -44.224998
 30
        0.000000
 11
       -0.199982
 21
      -37.025017
 31
        0.000000
  0
LINE
  8
LVL0000
 10
       -0.199982
 20
      -52.724998
 30
        0.000000
 11
       -0.199982
 21
      -45.525017
 31
        0.000000
  0
LINE
  8
LVL0000
 10
       -1.299988
 20
      -35.724998
 30
        0.000000
 11
       -1.299988
 21
      -28.525017
 31
        0.000000
  0
LINE
  8
LVL0000
 10
       -0.199982
 20
      -35.724998
 30
        0.000000
 11
       -0.199982
 21
      -28.525017
 31
        0.000000
  0
LINE
  8
LVL0000
 10
       -0.199982
 20
      -27.224998
 30
        0.000000
 11
       -0.199982
 21
      -20.025017
 31
        0.000000
  0
LINE
  8
LVL0000
 10
       -1.299988
 20
      -27.224998
 30
        0.000000
 11
       -1.299988
 21
      -20.025017
 31
        0.000000
  0
LINE
  8
LVL0000
 10
       -1.299988
 20
      -18.724998
 30
        0.000000
 11
       -1.299988
 21
      -11.525017
 31
        0.000000
  0
LINE
  8
LVL0000
 10
       -0.199982
 20
      -18.724998
 30
        0.000000
 11
       -0.199982
 21
      -11.525017
 31
        0.000000
  0
LINE
  8
LVL0000
 10
       -1.299988
 20
      -10.224998
 30
        0.000000
 11
       -1.299988
 21
       -3.025017
 31
        0.000000
  0
LINE
  8
LVL0000
 10
       -0.199982
 20
      -10.224998
 30
        0.000000
 11
       -0.199982
 21
       -3.025017
 31
        0.000000
  0
LINE
  8
LVL0000
 10
       -1.299988
 20
       -1.724998
 30
        0.000000
 11
       -1.299988
 21
        5.474983
 31
        0.000000
  0
LINE
  8
LVL0000
 10
       -0.199982
 20
       -1.724998
 30
        0.000000
 11
       -0.199982
 21
        5.474983
 31
        0.000000
  0
LINE
  8
LVL0000
 10
       -1.299988
 20
        6.775002
 30
        0.000000
 11
       -1.299988
 21
       13.974983
 31
        0.000000
  0
LINE
  8
LVL0000
 10
       -0.199982
 20
        6.775002
 30
        0.000000
 11
       -0.199982
 21
       13.974983
 31
        0.000000
  0
LINE
  8
LVL0000
 10
       -1.299988
 20
       15.275002
 30
        0.000000
 11
       -1.299988
 21
       22.474983
 31
        0.000000
  0
LINE
  8
LVL0000
 10
       -0.199982
 20
       15.275002
 30
        0.000000
 11
       -0.199982
 21
       22.474983
 31
        0.000000
  0
LINE
  8
LVL0000
 10
       -2.600006
 20
       23.775002
 30
        0.000000
 11
        7.000000
 21
       23.775002
 31
        0.000000
  0
LINE
  8
LVL0000
 10
       -2.600006
 20
       22.474983
 30
        0.000000
 11
        7.000000
 21
       22.474983
 31
        0.000000
  0
LINE
  8
LVL0000
 10
       -2.600006
 20
       15.275002
 30
        0.000000
 11
        7.000000
 21
       15.275002
 31
        0.000000
  0
LINE
  8
LVL0000
 10
       -2.600006
 20
       13.974983
 30
        0.000000
 11
        7.000000
 21
       13.974983
 31
        0.000000
  0
LINE
  8
LVL0000
 10
       -2.600006
 20
        6.775002
 30
        0.000000
 11
        7.000000
 21
        6.775002
 31
        0.000000
  0
LINE
  8
LVL0000
 10
       -2.600006
 20
        5.474983
 30
        0.000000
 11
        7.000000
 21
        5.474983
 31
        0.000000
  0
LINE
  8
LVL0000
 10
       -2.600006
 20
       -1.724998
 30
        0.000000
 11
        7.000000
 21
       -1.724998
 31
        0.000000
  0
LINE
  8
LVL0000
 10
       -2.600006
 20
       -3.025017
 30
        0.000000
 11
        7.000000
 21
       -3.025017
 31
        0.000000
  0
LINE
  8
LVL0000
 10
       -2.600006
 20
      -10.224998
 30
        0.000000
 11
        7.000000
 21
      -10.224998
 31
        0.000000
  0
LINE
  8
LVL0000
 10
       -2.600006
 20
      -11.525017
 30
        0.000000
 11
        7.000000
 21
      -11.525017
 31
        0.000000
  0
LINE
  8
LVL0000
 10
       -2.600006
 20
      -18.724998
 30
        0.000000
 11
        7.000000
 21
      -18.724998
 31
        0.000000
  0
LINE
  8
LVL0000
 10
       -2.600006
 20
      -20.025017
 30
        0.000000
 11
        7.000000
 21
      -20.025017
 31
        0.000000
  0
LINE
  8
LVL0000
 10
       -2.600006
 20
      -27.224998
 30
        0.000000
 11
        7.000000
 21
      -27.224998
 31
        0.000000
  0
LINE
  8
LVL0000
 10
       -2.600006
 20
      -28.525017
 30
        0.000000
 11
        7.000000
 21
      -28.525017
 31
        0.000000
  0
LINE
  8
LVL0000
 10
       -2.600006
 20
      -35.724998
 30
        0.000000
 11
        7.000000
 21
      -35.724998
 31
        0.000000
  0
LINE
  8
LVL0000
 10
       -2.600006
 20
      -37.025017
 30
        0.000000
 11
        7.000000
 21
      -37.025017
 31
        0.000000
  0
LINE
  8
LVL0000
 10
       -2.600006
 20
      -45.525017
 30
        0.000000
 11
        7.000000
 21
      -45.525017
 31
        0.000000
  0
LINE
  8
LVL0000
 10
       -2.600006
 20
      -44.224998
 30
        0.000000
 11
        7.000000
 21
      -44.224998
 31
        0.000000
  0
LINE
  8
LVL0000
 10
        7.000000
 20
       23.775002
 30
        0.000000
 11
        7.000000
 21
       26.724983
 31
        0.000000
  0
LINE
  8
LVL0000
 10
        7.000000
 20
       15.275002
 30
        0.000000
 11
        7.000000
 21
       22.474983
 31
        0.000000
  0
LINE
  8
LVL0000
 10
        7.000000
 20
        6.775002
 30
        0.000000
 11
        7.000000
 21
       13.974983
 31
        0.000000
  0
LINE
  8
LVL0000
 10
        7.000000
 20
       -1.724998
 30
        0.000000
 11
        7.000000
 21
        5.474983
 31
        0.000000
  0
LINE
  8
LVL0000
 10
        7.000000
 20
      -10.224998
 30
        0.000000
 11
        7.000000
 21
       -3.025017
 31
        0.000000
  0
LINE
  8
LVL0000
 10
        7.000000
 20
      -18.724998
 30
        0.000000
 11
        7.000000
 21
      -11.525017
 31
        0.000000
  0
LINE
  8
LVL0000
 10
        7.000000
 20
      -27.224998
 30
        0.000000
 11
        7.000000
 21
      -20.025017
 31
        0.000000
  0
LINE
  8
LVL0000
 10
        7.000000
 20
      -35.724998
 30
        0.000000
 11
        7.000000
 21
      -28.525017
 31
        0.000000
  0
LINE
  8
LVL0000
 10
        7.000000
 20
      -44.224998
 30
        0.000000
 11
        7.000000
 21
      -37.025017
 31
        0.000000
  0
LINE
  8
LVL0000
 10
        7.000000
 20
      -52.724998
 30
        0.000000
 11
        7.000000
 21
      -45.525017
 31
        0.000000
  0
LINE
  8
LVL0000
 10
       -2.600006
 20
       29.724983
 30
        0.000000
 11
       13.300018
 21
       29.724983
 31
        0.000000
  0
LINE
  8
LVL0000
 10
       -2.600006
 20
      -55.724998
 30
        0.000000
 11
       13.300018
 21
      -55.724998
 31
        0.000000
  0
LINE
  8
LVL0000
 10
       -2.600006
 20
      -55.724998
 30
        0.000000
 11
       -2.600006
 21
       29.724983
 31
        0.000000
  0
LINE
  8
LVL0000
 10
        8.300018
 20
      -48.474998
 30
        0.000000
 11
        8.300018
 21
      -41.275017
 31
        0.000000
  0
LINE
  8
LVL0000
 10
        8.300018
 20
      -39.974998
 30
        0.000000
 11
        8.300018
 21
      -32.775017
 31
        0.000000
  0
LINE
  8
LVL0000
 10
        9.399994
 20
      -39.974998
 30
        0.000000
 11
        9.399994
 21
      -32.775017
 31
        0.000000
  0
LINE
  8
LVL0000
 10
        9.399994
 20
      -48.474998
 30
        0.000000
 11
        9.399994
 21
      -41.275017
 31
        0.000000
  0
LINE
  8
LVL0000
 10
        8.300018
 20
      -31.474998
 30
        0.000000
 11
        8.300018
 21
      -24.275017
 31
        0.000000
  0
LINE
  8
LVL0000
 10
        9.399994
 20
      -31.474998
 30
        0.000000
 11
        9.399994
 21
      -24.275017
 31
        0.000000
  0
LINE
  8
LVL0000
 10
        9.399994
 20
      -22.974998
 30
        0.000000
 11
        9.399994
 21
      -15.775017
 31
        0.000000
  0
LINE
  8
LVL0000
 10
        8.300018
 20
      -22.974998
 30
        0.000000
 11
        8.300018
 21
      -15.775017
 31
        0.000000
  0
LINE
  8
LVL0000
 10
        9.399994
 20
      -14.474998
 30
        0.000000
 11
        9.399994
 21
       -7.275017
 31
        0.000000
  0
LINE
  8
LVL0000
 10
        8.300018
 20
      -14.474998
 30
        0.000000
 11
        8.300018
 21
       -7.275017
 31
        0.000000
  0
LINE
  8
LVL0000
 10
        9.399994
 20
       -5.974998
 30
        0.000000
 11
        9.399994
 21
        1.224983
 31
        0.000000
  0
LINE
  8
LVL0000
 10
        8.300018
 20
       -5.974998
 30
        0.000000
 11
        8.300018
 21
        1.224983
 31
        0.000000
  0
LINE
  8
LVL0000
 10
        9.399994
 20
        2.525002
 30
        0.000000
 11
        9.399994
 21
        9.724983
 31
        0.000000
  0
LINE
  8
LVL0000
 10
        8.300018
 20
        2.525002
 30
        0.000000
 11
        8.300018
 21
        9.724983
 31
        0.000000
  0
LINE
  8
LVL0000
 10
        9.399994
 20
       11.025002
 30
        0.000000
 11
        9.399994
 21
       18.224983
 31
        0.000000
  0
LINE
  8
LVL0000
 10
        8.300018
 20
       11.025002
 30
        0.000000
 11
        8.300018
 21
       18.224983
 31
        0.000000
  0
LINE
  8
LVL0000
 10
        8.300018
 20
       19.525002
 30
        0.000000
 11
        8.300018
 21
       26.724983
 31
        0.000000
  0
LINE
  8
LVL0000
 10
        9.399994
 20
       19.525002
 30
        0.000000
 11
        9.399994
 21
       26.724983
 31
        0.000000
  0
LINE
  8
LVL0000
 10
       16.600006
 20
       11.025002
 30
        0.000000
 11
       16.600006
 21
       18.224983
 31
        0.000000
  0
LINE
  8
LVL0000
 10
       16.600006
 20
        2.525002
 30
        0.000000
 11
       16.600006
 21
        9.724983
 31
        0.000000
  0
LINE
  8
LVL0000
 10
       16.600006
 20
       -5.974998
 30
        0.000000
 11
       16.600006
 21
        1.224983
 31
        0.000000
  0
LINE
  8
LVL0000
 10
       16.600006
 20
      -14.474998
 30
        0.000000
 11
       16.600006
 21
       -7.275017
 31
        0.000000
  0
LINE
  8
LVL0000
 10
       16.600006
 20
      -22.974998
 30
        0.000000
 11
       16.600006
 21
      -15.775017
 31
        0.000000
  0
LINE
  8
LVL0000
 10
       16.600006
 20
      -31.474998
 30
        0.000000
 11
       16.600006
 21
      -24.275017
 31
        0.000000
  0
LINE
  8
LVL0000
 10
       16.600006
 20
      -39.974998
 30
        0.000000
 11
       16.600006
 21
      -32.775017
 31
        0.000000
  0
LINE
  8
LVL0000
 10
       16.600006
 20
      -48.474998
 30
        0.000000
 11
       16.600006
 21
      -41.275017
 31
        0.000000
  0
LINE
  8
LVL0000
 10
       15.300018
 20
      -41.275017
 30
        0.000000
 11
       15.300018
 21
      -39.974998
 31
        0.000000
  0
LINE
  8
LVL0000
 10
       15.300018
 20
      -49.775002
 30
        0.000000
 11
       15.300018
 21
      -48.474998
 31
        0.000000
  0
LINE
  8
LVL0000
 10
       14.300018
 20
      -41.275017
 30
        0.000000
 11
       14.300018
 21
      -39.974998
 31
        0.000000
  0
LINE
  8
LVL0000
 10
       14.300018
 20
      -49.775002
 30
        0.000000
 11
       14.300018
 21
      -48.474998
 31
        0.000000
  0
LINE
  8
LVL0000
 10
       15.300018
 20
      -32.775017
 30
        0.000000
 11
       15.300018
 21
      -31.474998
 31
        0.000000
  0
LINE
  8
LVL0000
 10
       14.300018
 20
      -32.775017
 30
        0.000000
 11
       14.300018
 21
      -31.474998
 31
        0.000000
  0
LINE
  8
LVL0000
 10
       15.300018
 20
      -15.775017
 30
        0.000000
 11
       15.300018
 21
      -14.474998
 31
        0.000000
  0
LINE
  8
LVL0000
 10
       15.300018
 20
      -24.275017
 30
        0.000000
 11
       15.300018
 21
      -22.974998
 31
        0.000000
  0
LINE
  8
LVL0000
 10
       14.300018
 20
      -15.775017
 30
        0.000000
 11
       14.300018
 21
      -14.474998
 31
        0.000000
  0
LINE
  8
LVL0000
 10
       14.300018
 20
      -24.275017
 30
        0.000000
 11
       14.300018
 21
      -22.974998
 31
        0.000000
  0
LINE
  8
LVL0000
 10
       15.300018
 20
       -7.275017
 30
        0.000000
 11
       15.300018
 21
       -5.974998
 31
        0.000000
  0
LINE
  8
LVL0000
 10
       14.300018
 20
       -7.275017
 30
        0.000000
 11
       14.300018
 21
       -5.974998
 31
        0.000000
  0
LINE
  8
LVL0000
 10
       15.300018
 20
        1.224983
 30
        0.000000
 11
       15.300018
 21
        2.525002
 31
        0.000000
  0
LINE
  8
LVL0000
 10
       14.300018
 20
        1.224983
 30
        0.000000
 11
       14.300018
 21
        2.525002
 31
        0.000000
  0
LINE
  8
LVL0000
 10
       15.300018
 20
        9.724983
 30
        0.000000
 11
       15.300018
 21
       11.025002
 31
        0.000000
  0
LINE
  8
LVL0000
 10
       14.300018
 20
        9.724983
 30
        0.000000
 11
       14.300018
 21
       11.025002
 31
        0.000000
  0
LINE
  8
LVL0000
 10
       15.300018
 20
       18.224983
 30
        0.000000
 11
       15.300018
 21
       19.525002
 31
        0.000000
  0
LINE
  8
LVL0000
 10
       14.300018
 20
       18.224983
 30
        0.000000
 11
       14.300018
 21
       19.525002
 31
        0.000000
  0
LINE
  8
LVL0000
 10
        7.000000
 20
      -49.775002
 30
        0.000000
 11
       16.600006
 21
      -49.775002
 31
        0.000000
  0
LINE
  8
LVL0000
 10
        7.000000
 20
      -48.474998
 30
        0.000000
 11
       16.600006
 21
      -48.474998
 31
        0.000000
  0
LINE
  8
LVL0000
 10
        7.000000
 20
      -41.275017
 30
        0.000000
 11
       16.600006
 21
      -41.275017
 31
        0.000000
  0
LINE
  8
LVL0000
 10
        7.000000
 20
      -39.974998
 30
        0.000000
 11
       16.600006
 21
      -39.974998
 31
        0.000000
  0
LINE
  8
LVL0000
 10
        7.000000
 20
      -32.775017
 30
        0.000000
 11
       16.600006
 21
      -32.775017
 31
        0.000000
  0
LINE
  8
LVL0000
 10
        7.000000
 20
      -31.474998
 30
        0.000000
 11
       16.600006
 21
      -31.474998
 31
        0.000000
  0
LINE
  8
LVL0000
 10
        7.000000
 20
      -24.275017
 30
        0.000000
 11
       16.600006
 21
      -24.275017
 31
        0.000000
  0
LINE
  8
LVL0000
 10
        7.000000
 20
      -22.974998
 30
        0.000000
 11
       16.600006
 21
      -22.974998
 31
        0.000000
  0
LINE
  8
LVL0000
 10
        7.000000
 20
      -15.775017
 30
        0.000000
 11
       16.600006
 21
      -15.775017
 31
        0.000000
  0
LINE
  8
LVL0000
 10
        7.000000
 20
      -14.474998
 30
        0.000000
 11
       16.600006
 21
      -14.474998
 31
        0.000000
  0
LINE
  8
LVL0000
 10
        7.000000
 20
       -7.275017
 30
        0.000000
 11
       16.600006
 21
       -7.275017
 31
        0.000000
  0
LINE
  8
LVL0000
 10
        7.000000
 20
       -5.974998
 30
        0.000000
 11
       16.600006
 21
       -5.974998
 31
        0.000000
  0
LINE
  8
LVL0000
 10
        7.000000
 20
        1.224983
 30
        0.000000
 11
       16.600006
 21
        1.224983
 31
        0.000000
  0
LINE
  8
LVL0000
 10
        7.000000
 20
        2.525002
 30
        0.000000
 11
       16.600006
 21
        2.525002
 31
        0.000000
  0
LINE
  8
LVL0000
 10
        7.000000
 20
        9.724983
 30
        0.000000
 11
       16.600006
 21
        9.724983
 31
        0.000000
  0
LINE
  8
LVL0000
 10
        7.000000
 20
       11.025002
 30
        0.000000
 11
       16.600006
 21
       11.025002
 31
        0.000000
  0
LINE
  8
LVL0000
 10
        7.000000
 20
       18.224983
 30
        0.000000
 11
       16.600006
 21
       18.224983
 31
        0.000000
  0
LINE
  8
LVL0000
 10
        7.000000
 20
       19.525002
 30
        0.000000
 11
       16.600006
 21
       19.525002
 31
        0.000000
  0
LINE
  8
LVL0000
 10
       14.200012
 20
       30.524986
 30
        0.000000
 11
       17.500000
 21
       30.524986
 31
        0.000000
  0
LINE
  8
LVL0000
 10
       14.200012
 20
      -56.525002
 30
        0.000000
 11
       17.500000
 21
      -56.525002
 31
        0.000000
  0
LINE
  8
LVL0000
 10
       13.300018
 20
      -55.724998
 30
        0.000000
 11
       14.200012
 21
      -56.525002
 31
        0.000000
  0
LINE
  8
LVL0000
 10
       14.200012
 20
       30.524986
 30
        0.000000
 11
       13.300018
 21
       29.724983
 31
        0.000000
  0
LINE
  8
LVL0000
 10
        3.500000
 20
       29.724983
 30
        0.000000
 11
        3.500000
 21
       36.999992
 31
        0.000000
  0
LINE
  8
LVL0000
 10
        3.500000
 20
      -63.000008
 30
        0.000000
 11
        3.500000
 21
      -55.724998
 31
        0.000000
  0
LINE
  8
LVL0000
 10
       17.500000
 20
      -63.000008
 30
        0.000000
 11
       17.500000
 21
       36.999992
 31
        0.000000
  0
LINE
  8
LVL0000
 10
        3.500000
 20
      -63.000008
 30
        0.000000
 11
       17.500000
 21
      -63.000008
 31
        0.000000
  0
LINE
  8
LVL0000
 10
        3.500000
 20
       36.999992
 30
        0.000000
 11
       17.500000
 21
       36.999992
 31
        0.000000
  0
LINE
  8
LVL0000
 10
       16.099976
 20
       63.500008
 30
        0.000000
 11
       16.099976
 21
       58.000008
 31
        0.000000
  0
ARC
  8
LVL0000
 10
      -17.000000
 20
      -64.500008
 30
        0.000000
 40
        0.500000
 50
      180.000010
 51
      270.000000
  0
ARC
  8
LVL0000
 10
       17.000000
 20
      -64.500008
 30
        0.000000
 40
        0.499985
 50
      270.000000
 51
      360.000000
  0
ARC
  8
LVL0000
 10
       17.000000
 20
       64.500008
 30
        0.000000
 40
        0.500000
 50
        0.000000
 51
       90.000000
  0
LINE
  8
LVL0000
 10
       17.500000
 20
       64.500008
 30
        0.000000
 11
       17.500000
 21
      -64.500008
 31
        0.000000
  0
LINE
  8
LVL0000
 10
       17.000000
 20
      -64.999992
 30
        0.000000
 11
      -17.000000
 21
      -64.999992
 31
        0.000000
  0
LINE
  8
LVL0000
 10
      -17.500000
 20
       39.000008
 30
        0.000000
 11
       17.500000
 21
       39.000008
 31
        0.000000
  0
LINE
  8
LVL0000
 10
      -16.500000
 20
      -54.599998
 30
        0.000000
 11
      -16.500000
 21
       27.100014
 31
        0.000000
  0
LINE
  8
LVL0000
 10
      -17.500000
 20
       40.499687
 30
        0.000000
 11
       17.500000
 21
       40.499687
 31
        0.000000
  0
LINE
  8
LVL0000
 10
       11.145081
 20
      -58.309837
 30
        0.000000
 11
       10.500000
 21
      -58.696892
 31
        0.000000
  0
LINE
  8
LVL0000
 10
       11.790161
 20
       34.245079
 30
        0.000000
 11
       11.145081
 21
       34.890144
 31
        0.000000
  0
LINE
  8
LVL0000
 10
        9.854919
 20
       32.309837
 30
        0.000000
 11
        9.209839
 21
       32.954918
 31
        0.000000
  0
LINE
  8
LVL0000
 10
       11.790161
 20
       34.245079
 30
        0.000000
 11
       11.403107
 21
       33.599998
 31
        0.000000
  0
LINE
  8
LVL0000
 10
       11.145081
 20
       34.890144
 30
        0.000000
 11
       10.500000
 21
       34.503105
 31
        0.000000
  0
LINE
  8
LVL0000
 10
        9.209839
 20
       32.954918
 30
        0.000000
 11
        9.596893
 21
       33.599983
 31
        0.000000
  0
LINE
  8
LVL0000
 10
        9.854919
 20
       32.309837
 30
        0.000000
 11
       10.500000
 21
       32.696877
 31
        0.000000
  0
LINE
  8
LVL0000
 10
       12.080475
 20
       32.664619
 30
        0.000000
 11
       11.435394
 21
       32.019539
 31
        0.000000
  0
LINE
  8
LVL0000
 10
        9.564636
 20
       35.180443
 30
        0.000000
 11
        8.919556
 21
       34.535362
 31
        0.000000
  0
LINE
  8
LVL0000
 10
       11.403107
 20
       33.599998
 30
        0.000000
 11
       12.080475
 21
       32.664619
 31
        0.000000
  0
LINE
  8
LVL0000
 10
       10.500000
 20
       32.696877
 30
        0.000000
 11
       11.435394
 21
       32.019539
 31
        0.000000
  0
LINE
  8
LVL0000
 10
        9.596893
 20
       33.599983
 30
        0.000000
 11
        8.919556
 21
       34.535362
 31
        0.000000
  0
LINE
  8
LVL0000
 10
       10.500000
 20
       34.503105
 30
        0.000000
 11
        9.564636
 21
       35.180443
 31
        0.000000
  0
LINE
  8
LVL0000
 10
        9.596893
 20
       33.599983
 30
        0.000000
 11
        8.266296
 21
       32.269386
 31
        0.000000
  0
LINE
  8
LVL0000
 10
       11.830627
 20
       35.833717
 30
        0.000000
 11
       10.500000
 21
       34.503105
 31
        0.000000
  0
LINE
  8
LVL0000
 10
       10.500000
 20
       32.696877
 30
        0.000000
 11
        9.169403
 21
       31.366280
 31
        0.000000
  0
LINE
  8
LVL0000
 10
       12.733734
 20
       34.930595
 30
        0.000000
 11
       11.403107
 21
       33.599998
 31
        0.000000
  0
LINE
  8
LVL0000
 10
       12.733734
 20
      -58.269402
 30
        0.000000
 11
       11.403107
 21
      -59.599998
 31
        0.000000
  0
LINE
  8
LVL0000
 10
       10.500000
 20
      -60.503105
 30
        0.000000
 11
        9.169403
 21
      -61.833717
 31
        0.000000
  0
LINE
  8
LVL0000
 10
       11.830627
 20
      -57.366295
 30
        0.000000
 11
       10.500000
 21
      -58.696892
 31
        0.000000
  0
LINE
  8
LVL0000
 10
        9.596893
 20
      -59.599998
 30
        0.000000
 11
        8.266296
 21
      -60.930611
 31
        0.000000
  0
LINE
  8
LVL0000
 10
       10.500000
 20
      -58.696892
 30
        0.000000
 11
        9.564636
 21
      -58.019554
 31
        0.000000
  0
LINE
  8
LVL0000
 10
        9.596893
 20
      -59.599998
 30
        0.000000
 11
        8.919556
 21
      -58.664635
 31
        0.000000
  0
LINE
  8
LVL0000
 10
       10.500000
 20
      -60.503105
 30
        0.000000
 11
       11.435394
 21
      -61.180443
 31
        0.000000
  0
LINE
  8
LVL0000
 10
       11.403107
 20
      -59.599998
 30
        0.000000
 11
       12.080475
 21
      -60.535362
 31
        0.000000
  0
LINE
  8
LVL0000
 10
        9.564636
 20
      -58.019554
 30
        0.000000
 11
        8.919556
 21
      -58.664635
 31
        0.000000
  0
LINE
  8
LVL0000
 10
       12.080475
 20
      -60.535362
 30
        0.000000
 11
       11.435394
 21
      -61.180443
 31
        0.000000
  0
LINE
  8
LVL0000
 10
        9.854919
 20
      -60.890160
 30
        0.000000
 11
       10.500000
 21
      -60.503105
 31
        0.000000
  0
LINE
  8
LVL0000
 10
        9.209839
 20
      -60.245079
 30
        0.000000
 11
        9.596893
 21
      -59.599998
 31
        0.000000
  0
LINE
  8
LVL0000
 10
       11.790161
 20
      -58.954918
 30
        0.000000
 11
       11.403107
 21
      -59.599998
 31
        0.000000
  0
LINE
  8
LVL0000
 10
        9.854919
 20
      -60.890160
 30
        0.000000
 11
        9.209839
 21
      -60.245079
 31
        0.000000
  0
LINE
  8
LVL0000
  6
CENTER
 10
      -26.775342
 20
        0.000000
 30
        0.000000
 11
       25.692608
 21
        0.000000
 31
        0.000000
  0
LINE
  8
LVL0000
 10
      169.900269
 20
       94.999685
 30
        0.000000
 11
       68.000244
 21
       94.999701
 31
        0.000000
  0
ARC
  8
LVL0000
 10
       68.000244
 20
       95.499685
 30
        0.000000
 40
        0.500000
 50
      179.999995
 51
      270.000000
  0
LINE
  8
LVL0000
 10
      171.400696
 20
      124.399695
 30
        0.000000
 11
      171.400696
 21
      103.499197
 31
        0.000000
  0
LINE
  8
LVL0000
 10
      171.400696
 20
      124.399695
 30
        0.000000
 11
      169.900269
 21
      124.399695
 31
        0.000000
  0
LINE
  8
LVL0000
 10
      169.900696
 20
       99.499197
 30
        0.000000
 11
      174.900696
 21
       99.499197
 31
        0.000000
  0
LINE
  8
LVL0000
 10
      169.900696
 20
      103.499197
 30
        0.000000
 11
      174.900696
 21
      103.499197
 31
        0.000000
  0
ARC
  8
LVL0000
 10
      174.900696
 20
      101.499197
 30
        0.000000
 40
        2.000000
 50
      270.000000
 51
      450.000000
  0
LINE
  8
LVL0000
 10
      150.500244
 20
      108.899710
 30
        0.000000
 11
      148.500244
 21
      108.899710
 31
        0.000000
  0
LINE
  8
LVL0000
 10
      150.500244
 20
      116.099661
 30
        0.000000
 11
      148.500244
 21
      116.099661
 31
        0.000000
  0
LINE
  8
LVL0000
 10
      154.500244
 20
      108.899710
 30
        0.000000
 11
      152.500244
 21
      108.899710
 31
        0.000000
  0
LINE
  8
LVL0000
 10
      154.500244
 20
      116.099661
 30
        0.000000
 11
      152.500244
 21
      116.099661
 31
        0.000000
  0
LINE
  8
LVL0000
 10
      158.500244
 20
      108.899710
 30
        0.000000
 11
      156.500244
 21
      108.899710
 31
        0.000000
  0
LINE
  8
LVL0000
 10
      158.500244
 20
      116.099661
 30
        0.000000
 11
      156.500244
 21
      116.099661
 31
        0.000000
  0
LINE
  8
LVL0000
 10
      158.500244
 20
       94.999685
 30
        0.000000
 11
      158.500244
 21
      109.230826
 31
        0.000000
  0
LINE
  8
LVL0000
 10
      158.500244
 20
      115.768545
 30
        0.000000
 11
      158.500244
 21
      129.999685
 31
        0.000000
  0
LINE
  8
LVL0000
 10
      160.500244
 20
       97.999685
 30
        0.000000
 11
      158.500244
 21
       97.999685
 31
        0.000000
  0
LINE
  8
LVL0000
 10
      160.500244
 20
      126.999685
 30
        0.000000
 11
      158.500244
 21
      126.999685
 31
        0.000000
  0
LINE
  8
LVL0000
 10
      156.500244
 20
       97.999685
 30
        0.000000
 11
      154.500244
 21
       97.999685
 31
        0.000000
  0
LINE
  8
LVL0000
 10
      156.500244
 20
      126.999685
 30
        0.000000
 11
      154.500244
 21
      126.999685
 31
        0.000000
  0
LINE
  8
LVL0000
 10
      156.500244
 20
       94.999685
 30
        0.000000
 11
      156.500244
 21
      129.999685
 31
        0.000000
  0
LINE
  8
LVL0000
 10
      154.500244
 20
       94.999685
 30
        0.000000
 11
      154.500244
 21
      129.999685
 31
        0.000000
  0
LINE
  8
LVL0000
 10
      152.500244
 20
       97.999685
 30
        0.000000
 11
      150.500244
 21
       97.999685
 31
        0.000000
  0
LINE
  8
LVL0000
 10
      152.500244
 20
      126.999685
 30
        0.000000
 11
      150.500244
 21
      126.999685
 31
        0.000000
  0
LINE
  8
LVL0000
 10
      152.500244
 20
       94.999685
 30
        0.000000
 11
      152.500244
 21
      129.999685
 31
        0.000000
  0
LINE
  8
LVL0000
 10
      150.500244
 20
       94.999685
 30
        0.000000
 11
      150.500244
 21
      129.999685
 31
        0.000000
  0
LINE
  8
LVL0000
 10
      148.500244
 20
       97.999685
 30
        0.000000
 11
      146.500244
 21
       97.999685
 31
        0.000000
  0
LINE
  8
LVL0000
 10
      148.500244
 20
      126.999685
 30
        0.000000
 11
      146.500244
 21
      126.999685
 31
        0.000000
  0
LINE
  8
LVL0000
 10
      148.500244
 20
       94.999685
 30
        0.000000
 11
      148.500244
 21
      129.999685
 31
        0.000000
  0
LINE
  8
LVL0000
 10
      146.500244
 20
       94.999685
 30
        0.000000
 11
      146.500244
 21
      129.999685
 31
        0.000000
  0
LINE
  8
LVL0000
 10
      157.800232
 20
      114.499685
 30
        0.000000
 11
      157.800232
 21
      110.499685
 31
        0.000000
  0
LINE
  8
LVL0000
 10
      160.500244
 20
      108.999685
 30
        0.000000
 11
      159.300232
 21
      108.999685
 31
        0.000000
  0
ARC
  8
LVL0000
 10
      159.300232
 20
      110.499685
 30
        0.000000
 40
        1.500000
 50
      180.000010
 51
      270.000000
  0
ARC
  8
LVL0000
 10
      159.300232
 20
      114.499685
 30
        0.000000
 40
        1.500000
 50
       90.000000
 51
      180.000010
  0
LINE
  8
LVL0000
 10
      160.500244
 20
      115.999685
 30
        0.000000
 11
      159.300232
 21
      115.999685
 31
        0.000000
  0
LINE
  8
LVL0000
 10
      160.500244
 20
      129.999685
 30
        0.000000
 11
      160.500244
 21
       94.999685
 31
        0.000000
  0
LINE
  8
LVL0000
 10
      169.900269
 20
      129.999685
 30
        0.000000
 11
      169.900269
 21
       94.999685
 31
        0.000000
  0
LINE
  8
LVL0000
 10
      169.900269
 20
      129.999685
 30
        0.000000
 11
       68.000244
 21
      129.999701
 31
        0.000000
  0
ARC
  8
LVL0000
 10
       68.000244
 20
      129.499685
 30
        0.000000
 40
        0.500015
 50
       90.000000
 51
      179.999995
  0
LINE
  8
LVL0000
 10
       99.500244
 20
       94.999685
 30
        0.000000
 11
       99.500244
 21
      129.999685
 31
        0.000000
  0
LINE
  8
LVL0000
 10
      106.500244
 20
       94.999685
 30
        0.000000
 11
      106.500244
 21
      129.999685
 31
        0.000000
  0
LINE
  8
LVL0000
 10
      108.500244
 20
       94.999685
 30
        0.000000
 11
      108.500244
 21
      129.999685
 31
        0.000000
  0
LINE
  8
LVL0000
 10
      108.500244
 20
      126.999685
 30
        0.000000
 11
      106.500244
 21
      126.999685
 31
        0.000000
  0
LINE
  8
LVL0000
 10
      108.500244
 20
       97.999685
 30
        0.000000
 11
      106.500244
 21
       97.999685
 31
        0.000000
  0
LINE
  8
LVL0000
 10
      110.500244
 20
       94.999685
 30
        0.000000
 11
      110.500244
 21
      129.999685
 31
        0.000000
  0
LINE
  8
LVL0000
 10
      112.500244
 20
       94.999685
 30
        0.000000
 11
      112.500244
 21
      129.999685
 31
        0.000000
  0
LINE
  8
LVL0000
 10
      112.500244
 20
      126.999685
 30
        0.000000
 11
      110.500244
 21
      126.999685
 31
        0.000000
  0
LINE
  8
LVL0000
 10
      112.500244
 20
       97.999685
 30
        0.000000
 11
      110.500244
 21
       97.999685
 31
        0.000000
  0
LINE
  8
LVL0000
 10
      114.500244
 20
       94.999685
 30
        0.000000
 11
      114.500244
 21
      129.999685
 31
        0.000000
  0
LINE
  8
LVL0000
 10
      116.500244
 20
       94.999685
 30
        0.000000
 11
      116.500244
 21
      129.999685
 31
        0.000000
  0
LINE
  8
LVL0000
 10
      116.500244
 20
      126.999685
 30
        0.000000
 11
      114.500244
 21
      126.999685
 31
        0.000000
  0
LINE
  8
LVL0000
 10
      116.500244
 20
       97.999685
 30
        0.000000
 11
      114.500244
 21
       97.999685
 31
        0.000000
  0
LINE
  8
LVL0000
 10
      118.500244
 20
       94.999685
 30
        0.000000
 11
      118.500244
 21
      129.999685
 31
        0.000000
  0
LINE
  8
LVL0000
 10
      120.500244
 20
       94.999685
 30
        0.000000
 11
      120.500244
 21
      129.999685
 31
        0.000000
  0
LINE
  8
LVL0000
 10
      120.500244
 20
      126.999685
 30
        0.000000
 11
      118.500244
 21
      126.999685
 31
        0.000000
  0
LINE
  8
LVL0000
 10
      120.500244
 20
       97.999685
 30
        0.000000
 11
      118.500244
 21
       97.999685
 31
        0.000000
  0
LINE
  8
LVL0000
 10
      122.500244
 20
       94.999685
 30
        0.000000
 11
      122.500244
 21
      129.999685
 31
        0.000000
  0
LINE
  8
LVL0000
 10
      124.500244
 20
       94.999685
 30
        0.000000
 11
      124.500244
 21
      129.999685
 31
        0.000000
  0
LINE
  8
LVL0000
 10
      124.500244
 20
      126.999685
 30
        0.000000
 11
      122.500244
 21
      126.999685
 31
        0.000000
  0
LINE
  8
LVL0000
 10
      124.500244
 20
       97.999685
 30
        0.000000
 11
      122.500244
 21
       97.999685
 31
        0.000000
  0
LINE
  8
LVL0000
 10
      126.500244
 20
       94.999685
 30
        0.000000
 11
      126.500244
 21
      129.999685
 31
        0.000000
  0
LINE
  8
LVL0000
 10
      128.500244
 20
       94.999685
 30
        0.000000
 11
      128.500244
 21
      129.999685
 31
        0.000000
  0
LINE
  8
LVL0000
 10
      128.500244
 20
      126.999685
 30
        0.000000
 11
      126.500244
 21
      126.999685
 31
        0.000000
  0
LINE
  8
LVL0000
 10
      128.500244
 20
       97.999685
 30
        0.000000
 11
      126.500244
 21
       97.999685
 31
        0.000000
  0
LINE
  8
LVL0000
 10
      130.500244
 20
       94.999685
 30
        0.000000
 11
      130.500244
 21
      129.999685
 31
        0.000000
  0
LINE
  8
LVL0000
 10
      132.500244
 20
       94.999685
 30
        0.000000
 11
      132.500244
 21
      129.999685
 31
        0.000000
  0
LINE
  8
LVL0000
 10
      132.500244
 20
      126.999685
 30
        0.000000
 11
      130.500244
 21
      126.999685
 31
        0.000000
  0
LINE
  8
LVL0000
 10
      132.500244
 20
       97.999685
 30
        0.000000
 11
      130.500244
 21
       97.999685
 31
        0.000000
  0
LINE
  8
LVL0000
 10
      134.500244
 20
       94.999685
 30
        0.000000
 11
      134.500244
 21
      129.999685
 31
        0.000000
  0
LINE
  8
LVL0000
 10
      136.500244
 20
       94.999685
 30
        0.000000
 11
      136.500244
 21
      129.999685
 31
        0.000000
  0
LINE
  8
LVL0000
 10
      136.500244
 20
      126.999685
 30
        0.000000
 11
      134.500244
 21
      126.999685
 31
        0.000000
  0
LINE
  8
LVL0000
 10
      136.500244
 20
       97.999685
 30
        0.000000
 11
      134.500244
 21
       97.999685
 31
        0.000000
  0
LINE
  8
LVL0000
 10
      138.500244
 20
       94.999685
 30
        0.000000
 11
      138.500244
 21
      129.999685
 31
        0.000000
  0
LINE
  8
LVL0000
 10
      140.500244
 20
       94.999685
 30
        0.000000
 11
      140.500244
 21
      129.999685
 31
        0.000000
  0
LINE
  8
LVL0000
 10
      140.500244
 20
      126.999685
 30
        0.000000
 11
      138.500244
 21
      126.999685
 31
        0.000000
  0
LINE
  8
LVL0000
 10
      140.500244
 20
       97.999685
 30
        0.000000
 11
      138.500244
 21
       97.999685
 31
        0.000000
  0
LINE
  8
LVL0000
 10
      142.500244
 20
       94.999685
 30
        0.000000
 11
      142.500244
 21
      129.999685
 31
        0.000000
  0
LINE
  8
LVL0000
 10
      144.500244
 20
       94.999685
 30
        0.000000
 11
      144.500244
 21
      129.999685
 31
        0.000000
  0
LINE
  8
LVL0000
 10
      144.500244
 20
      126.999685
 30
        0.000000
 11
      142.500244
 21
      126.999685
 31
        0.000000
  0
LINE
  8
LVL0000
 10
      144.500244
 20
       97.999685
 30
        0.000000
 11
      142.500244
 21
       97.999685
 31
        0.000000
  0
LINE
  8
LVL0000
 10
      146.500244
 20
      116.099661
 30
        0.000000
 11
      144.500244
 21
      116.099661
 31
        0.000000
  0
LINE
  8
LVL0000
 10
      146.500244
 20
      108.899710
 30
        0.000000
 11
      144.500244
 21
      108.899710
 31
        0.000000
  0
LINE
  8
LVL0000
 10
      142.500244
 20
      116.099661
 30
        0.000000
 11
      140.500244
 21
      116.099661
 31
        0.000000
  0
LINE
  8
LVL0000
 10
      142.500244
 20
      108.899710
 30
        0.000000
 11
      140.500244
 21
      108.899710
 31
        0.000000
  0
LINE
  8
LVL0000
 10
      138.500244
 20
      116.099661
 30
        0.000000
 11
      136.500244
 21
      116.099661
 31
        0.000000
  0
LINE
  8
LVL0000
 10
      138.500244
 20
      108.899710
 30
        0.000000
 11
      136.500244
 21
      108.899710
 31
        0.000000
  0
LINE
  8
LVL0000
 10
      134.500244
 20
      116.099661
 30
        0.000000
 11
      132.500244
 21
      116.099661
 31
        0.000000
  0
LINE
  8
LVL0000
 10
      134.500244
 20
      108.899710
 30
        0.000000
 11
      132.500244
 21
      108.899710
 31
        0.000000
  0
LINE
  8
LVL0000
 10
      130.500244
 20
      116.099661
 30
        0.000000
 11
      128.500244
 21
      116.099661
 31
        0.000000
  0
LINE
  8
LVL0000
 10
      130.500244
 20
      108.899710
 30
        0.000000
 11
      128.500244
 21
      108.899710
 31
        0.000000
  0
LINE
  8
LVL0000
 10
      126.500244
 20
      116.099661
 30
        0.000000
 11
      124.500244
 21
      116.099661
 31
        0.000000
  0
LINE
  8
LVL0000
 10
      126.500244
 20
      108.899710
 30
        0.000000
 11
      124.500244
 21
      108.899710
 31
        0.000000
  0
LINE
  8
LVL0000
 10
      122.500244
 20
      116.099661
 30
        0.000000
 11
      120.500244
 21
      116.099661
 31
        0.000000
  0
LINE
  8
LVL0000
 10
      122.500244
 20
      108.899710
 30
        0.000000
 11
      120.500244
 21
      108.899710
 31
        0.000000
  0
ARC
  8
LVL0000
 10
      106.500244
 20
      112.499685
 30
        0.000000
 40
        1.499973
 50
      109.471585
 51
      250.528418
  0
LINE
  8
LVL0000
 10
      106.500244
 20
      114.099661
 30
        0.000000
 11
      106.000244
 21
      113.913870
 31
        0.000000
  0
LINE
  8
LVL0000
 10
      106.000244
 20
      111.085501
 30
        0.000000
 11
      106.500244
 21
      110.899710
 31
        0.000000
  0
LINE
  8
LVL0000
 10
      114.500244
 20
      109.299673
 30
        0.000000
 11
      112.500244
 21
      109.599661
 31
        0.000000
  0
LINE
  8
LVL0000
 10
      112.500244
 20
      115.399710
 30
        0.000000
 11
      114.500244
 21
      115.699698
 31
        0.000000
  0
LINE
  8
LVL0000
 10
      116.500244
 20
      115.899710
 30
        0.000000
 11
      118.500244
 21
      115.999685
 31
        0.000000
  0
LINE
  8
LVL0000
 10
      118.500244
 20
      108.999685
 30
        0.000000
 11
      116.500244
 21
      109.099661
 31
        0.000000
  0
LINE
  8
LVL0000
 10
      108.500244
 20
      114.549673
 30
        0.000000
 11
      110.500244
 21
      114.999685
 31
        0.000000
  0
LINE
  8
LVL0000
 10
      108.500244
 20
      110.449698
 30
        0.000000
 11
      110.500244
 21
      109.999685
 31
        0.000000
  0
LINE
  8
LVL0000
 10
       67.500244
 20
       95.499685
 30
        0.000000
 11
       67.500244
 21
      129.499685
 31
        0.000000
  0
DIMENSION
  8
LVL0000
 62
  5
  2
BLK0001
 10
      -17.500000
 20
      -79.677315
 11
       -4.000000
 21
      -79.177315
 13
      -17.500000
 23
      -64.500008
 14
       17.500000
 24
      -64.500008
 50
        0.0
 70
  0
  0
DIMENSION
  8
LVL0000
 62
  5
  2
BLK0002
 10
       67.500244
 20
      -79.677315
 11
      108.700226
 21
      -79.177315
 13
       67.500244
 23
       40.499702
 14
      169.900208
 24
       54.999702
 50
        0.0
 70
  0
  0
DIMENSION
  8
LVL0000
 62
  5
  2
BLK0003
 10
       31.932419
 20
       65.000008
 11
       31.432417
 21
       -6.648846
 13
       17.000000
 23
       65.000008
 14
       17.000000
 24
      -64.999992
 50
       90.0
 70
  0
  0
LINE
  8
LVL0000
 10
       67.500244
 20
       40.499702
 30
        0.000000
 11
       69.000244
 21
       38.999702
 31
        0.000000
  0
LINE
  8
LVL0000
 10
       67.500244
 20
       56.999702
 30
        0.000000
 11
       70.500244
 21
       56.999702
 31
        0.000000
  0
LINE
  8
LVL0000
 10
      103.800232
 20
       21.749687
 30
        0.000000
 11
      106.300232
 21
       21.749687
 31
        0.000000
  0
LINE
  8
LVL0000
 10
      103.800232
 20
       40.249702
 30
        0.000000
 11
      106.300232
 21
       40.249702
 31
        0.000000
  0
LINE
  8
LVL0000
 10
      106.300232
 20
       40.249702
 30
        0.000000
 11
      106.300232
 21
       21.749687
 31
        0.000000
  0
LINE
  8
LVL0000
 10
       99.500244
 20
       36.999702
 30
        0.000000
 11
      100.500244
 21
       36.999702
 31
        0.000000
  0
LINE
  8
LVL0000
 10
       99.500244
 20
       24.999702
 30
        0.000000
 11
      100.500244
 21
       24.999702
 31
        0.000000
  0
LINE
  8
LVL0000
 10
      103.800232
 20
       40.249702
 30
        0.000000
 11
      103.800232
 21
       21.749687
 31
        0.000000
  0
LINE
  8
LVL0000
 10
      100.500244
 20
       36.999702
 30
        0.000000
 11
      100.500244
 21
       24.999702
 31
        0.000000
  0
LINE
  8
LVL0000
 10
      108.650208
 20
      -12.650307
 30
        0.000000
 11
      158.950256
 21
      -12.650307
 31
        0.000000
  0
LINE
  8
LVL0000
 10
      108.650208
 20
       12.649681
 30
        0.000000
 11
      108.650208
 21
      -12.650307
 31
        0.000000
  0
LINE
  8
LVL0000
 10
       99.500244
 20
       64.999702
 30
        0.000000
 11
       99.500244
 21
      -65.000298
 31
        0.000000
  0
LINE
  8
LVL0000
 10
       68.000244
 20
       64.999702
 30
        0.000000
 11
      169.900208
 21
       64.999702
 31
        0.000000
  0
LINE
  8
LVL0000
 10
       67.500244
 20
       40.499702
 30
        0.000000
 11
       67.500244
 21
       64.499702
 31
        0.000000
  0
ARC
  8
LVL0000
 10
       68.000244
 20
       64.499702
 30
        0.000000
 40
        0.500000
 50
       90.000000
 51
      179.999995
  0
ARC
  8
LVL0000
 10
       80.552612
 20
      -61.165169
 30
        0.000000
 40
        0.965696
 50
      195.881866
 51
      264.999922
  0
LINE
  8
LVL0000
 10
       81.300018
 20
      -62.200005
 30
        0.000000
 11
       80.468445
 21
      -62.127220
 31
        0.000000
  0
ARC
  8
LVL0000
 10
       80.552612
 20
      -58.034843
 30
        0.000000
 40
        0.965726
 50
       94.999931
 51
      164.118636
  0
LINE
  8
LVL0000
 10
       81.300018
 20
      -57.000008
 30
        0.000000
 11
       80.468445
 21
      -57.072807
 31
        0.000000
  0
ARC
  8
LVL0000
 10
       86.054291
 20
      -59.599998
 30
        0.000000
 40
        6.685709
 50
      164.119373
 51
      195.881046
  0
ARC
  8
LVL0000
 10
       80.552612
 20
       32.034828
 30
        0.000000
 40
        0.965696
 50
      195.881866
 51
      264.999922
  0
ARC
  8
LVL0000
 10
       80.552612
 20
       35.165169
 30
        0.000000
 40
        0.965711
 50
       95.000006
 51
      164.119264
  0
LINE
  8
LVL0000
 10
       81.300018
 20
       30.999992
 30
        0.000000
 11
       80.468445
 21
       31.072777
 31
        0.000000
  0
LINE
  8
LVL0000
 10
       81.300018
 20
       36.199989
 30
        0.000000
 11
       80.468445
 21
       36.127205
 31
        0.000000
  0
ARC
  8
LVL0000
 10
       86.054291
 20
       33.599983
 30
        0.000000
 40
        6.685714
 50
      164.119251
 51
      195.880896
  0
LINE
  8
LVL0000
 10
       81.300018
 20
       36.199989
 30
        0.000000
 11
       81.300018
 21
       30.999992
 31
        0.000000
  0
LINE
  8
LVL0000
 10
       81.300018
 20
      -62.599998
 30
        0.000000
 11
       81.800018
 21
      -62.599998
 31
        0.000000
  0
LINE
  8
LVL0000
 10
       81.300018
 20
       36.599983
 30
        0.000000
 11
       81.800018
 21
       36.599983
 31
        0.000000
  0
LINE
  8
LVL0000
 10
       81.300018
 20
       30.524986
 30
        0.000000
 11
       81.300018
 21
       36.599983
 31
        0.000000
  0
LINE
  8
LVL0000
 10
       81.300018
 20
      -62.599998
 30
        0.000000
 11
       81.300018
 21
      -56.525002
 31
        0.000000
  0
LINE
  8
LVL0000
 10
       72.300018
 20
      -53.425011
 30
        0.000000
 11
       72.300018
 21
       27.424995
 31
        0.000000
  0
LINE
  8
LVL0000
 10
       69.300018
 20
      -53.425011
 30
        0.000000
 11
       72.300018
 21
      -53.425011
 31
        0.000000
  0
LINE
  8
LVL0000
 10
       69.300018
 20
       27.424995
 30
        0.000000
 11
       72.300018
 21
       27.424995
 31
        0.000000
  0
LINE
  8
LVL0000
 10
       69.300018
 20
      -56.525002
 30
        0.000000
 11
       69.300018
 21
       30.524986
 31
        0.000000
  0
LINE
  8
LVL0000
 10
       81.800018
 20
       30.524986
 30
        0.000000
 11
       81.800018
 21
       36.999992
 31
        0.000000
  0
LINE
  8
LVL0000
 10
       81.800018
 20
      -63.000008
 30
        0.000000
 11
       81.800018
 21
      -56.525002
 31
        0.000000
  0
LINE
  8
LVL0000
 10
       69.300018
 20
      -56.525002
 30
        0.000000
 11
       81.800018
 21
      -56.525002
 31
        0.000000
  0
LINE
  8
LVL0000
 10
       69.300018
 20
       30.524986
 30
        0.000000
 11
       81.800018
 21
       30.524986
 31
        0.000000
  0
LINE
  8
LVL0000
 10
       81.800018
 20
      -63.000008
 30
        0.000000
 11
       91.800018
 21
      -63.000008
 31
        0.000000
  0
LINE
  8
LVL0000
 10
       81.800018
 20
       36.999992
 30
        0.000000
 11
       91.800018
 21
       36.999992
 31
        0.000000
  0
LINE
  8
LVL0000
 10
       91.800018
 20
      -63.000008
 30
        0.000000
 11
       91.800018
 21
       36.999992
 31
        0.000000
  0
LINE
  8
LVL0000
 10
       91.800262
 20
      -65.000298
 30
        0.000000
 11
      164.800232
 21
      -65.000298
 31
        0.000000
  0
LINE
  8
LVL0000
 10
       70.500244
 20
       38.999687
 30
        0.000000
 11
       70.500244
 21
       56.999702
 31
        0.000000
  0
LINE
  8
LVL0000
 10
       69.000244
 20
       38.999702
 30
        0.000000
 11
       70.500244
 21
       38.999702
 31
        0.000000
  0
LINE
  8
LVL0000
 10
       70.500244
 20
       38.999687
 30
        0.000000
 11
       91.800262
 21
       38.999687
 31
        0.000000
  0
LINE
  8
LVL0000
 10
       91.800262
 20
       38.999687
 30
        0.000000
 11
       91.800262
 21
      -65.000298
 31
        0.000000
  0
LINE
  8
LVL0000
 10
      169.900208
 20
       56.399696
 30
        0.000000
 11
      174.900208
 21
       56.399696
 31
        0.000000
  0
LINE
  8
LVL0000
 10
      169.900208
 20
       60.399696
 30
        0.000000
 11
      174.900208
 21
       60.399696
 31
        0.000000
  0
ARC
  8
LVL0000
 10
      174.900208
 20
       58.399696
 30
        0.000000
 40
        2.000000
 50
      270.000000
 51
      450.000000
  0
LINE
  8
LVL0000
 10
      171.400208
 20
      -57.500313
 30
        0.000000
 11
      171.400208
 21
      -62.000313
 31
        0.000000
  0
LINE
  8
LVL0000
 10
      168.900208
 20
      -60.000313
 30
        0.000000
 11
      168.900208
 21
      -61.000313
 31
        0.000000
  0
LINE
  8
LVL0000
 10
      167.300232
 20
       54.999702
 30
        0.000000
 11
      167.300232
 21
      -53.500313
 31
        0.000000
  0
LINE
  8
LVL0000
 10
      167.300232
 20
      -53.500313
 30
        0.000000
 11
      166.800232
 21
      -60.000313
 31
        0.000000
  0
LINE
  8
LVL0000
 10
      167.300232
 20
      -53.500313
 30
        0.000000
 11
      171.400208
 21
      -57.500313
 31
        0.000000
  0
LINE
  8
LVL0000
 10
      168.900208
 20
      -61.000313
 30
        0.000000
 11
      170.400208
 21
      -62.000313
 31
        0.000000
  0
LINE
  8
LVL0000
 10
      170.400208
 20
      -62.000313
 30
        0.000000
 11
      171.400208
 21
      -62.000313
 31
        0.000000
  0
LINE
  8
LVL0000
 10
      166.800232
 20
      -60.000313
 30
        0.000000
 11
      164.800232
 21
      -65.000298
 31
        0.000000
  0
LINE
  8
LVL0000
 10
      166.800232
 20
      -60.000313
 30
        0.000000
 11
      168.900208
 21
      -60.000313
 31
        0.000000
  0
LINE
  8
LVL0000
 10
      158.950256
 20
       12.649681
 30
        0.000000
 11
      158.950256
 21
      -12.650307
 31
        0.000000
  0
LINE
  8
LVL0000
 10
      108.650208
 20
       12.649681
 30
        0.000000
 11
      158.950256
 21
       12.649681
 31
        0.000000
  0
LINE
  8
LVL0000
 10
      167.300232
 20
       54.999702
 30
        0.000000
 11
      169.900208
 21
       54.999702
 31
        0.000000
  0
LINE
  8
LVL0000
 10
      169.900208
 20
       64.999702
 30
        0.000000
 11
      169.900208
 21
       54.999702
 31
        0.000000
  0
LINE
  8
LVL0000
 10
      103.800232
 20
      -32.750313
 30
        0.000000
 11
      106.300232
 21
      -32.750313
 31
        0.000000
  0
LINE
  8
LVL0000
 10
       99.500244
 20
      -36.000313
 30
        0.000000
 11
      100.500244
 21
      -36.000313
 31
        0.000000
  0
LINE
  8
LVL0000
 10
      103.800232
 20
      -51.250313
 30
        0.000000
 11
      106.300232
 21
      -51.250313
 31
        0.000000
  0
LINE
  8
LVL0000
 10
      106.300232
 20
      -32.750313
 30
        0.000000
 11
      106.300232
 21
      -51.250313
 31
        0.000000
  0
LINE
  8
LVL0000
 10
       99.500244
 20
      -48.000313
 30
        0.000000
 11
      100.500244
 21
      -48.000313
 31
        0.000000
  0
LINE
  8
LVL0000
 10
      103.800232
 20
      -32.750313
 30
        0.000000
 11
      103.800232
 21
      -51.250313
 31
        0.000000
  0
LINE
  8
LVL0000
 10
      100.500244
 20
      -36.000313
 30
        0.000000
 11
      100.500244
 21
      -48.000313
 31
        0.000000
  0
TEXT
  8
LVL0000
 62
  2
 10
      -14.284082
 20
      127.249199
 30
        0.000000
 40
        5.000000
  1
ＪＷ２１１ＮＡ
 50
        0.000000
 41
        0.835000
 51
        0.000000
  7
BIGFONT
  0
TEXT
  8
LVL0000
 62
  2
 10
      -14.284082
 20
      120.249199
 30
        0.000000
 40
        5.000000
  1
ＪＷ２１２ＮＡ
 50
        0.000000
 41
        0.835000
 51
        0.000000
  7
BIGFONT
  0
TEXT
  8
LVL0000
 62
  2
 10
      -14.284082
 20
      113.249199
 30
        0.000000
 40
        5.000000
  1
ＪＷ２１４ＮＡ
 50
        0.000000
 41
        0.835000
 51
        0.000000
  7
BIGFONT
  0
TEXT
  8
LVL0000
 62
  2
 10
      -14.284082
 20
      106.249199
 30
        0.000000
 40
        5.000000
  1
ＪＷ２１２ＳＡ
 50
        0.000000
 41
        0.835000
 51
        0.000000
  7
BIGFONT
  0
TEXT
  8
LVL0000
 62
  2
 10
      -14.284082
 20
       99.249199
 30
        0.000000
 40
        5.000000
  1
ＪＷ２１３ＳＡ
 50
        0.000000
 41
        0.835000
 51
        0.000000
  7
BIGFONT
  0
TEXT
  8
LVL0000
 62
  2
 10
      -14.284082
 20
       92.249199
 30
        0.000000
 40
        5.000000
  1
ＪＷ２１４ＳＡ
 50
        0.000000
 41
        0.835000
 51
        0.000000
  7
BIGFONT
  0
LINE
  8
LVL0000
  6
CENTER
 10
        0.000000
 20
      -75.090590
 30
        0.000000
 11
        0.000000
 21
       72.289983
 31
        0.000000
  0
LINE
  8
LVL0000
 10
       11.790161
 20
      -58.954918
 30
        0.000000
 11
       11.145081
 21
      -58.309837
 31
        0.000000
  0
LINE
  8
LVL0000
 10
       17.000000
 20
       65.000008
 30
        0.000000
 11
      -17.000000
 21
       65.000008
 31
        0.000000
  0
LINE
  8
LVL0000
 10
      -17.500000
 20
       64.500008
 30
        0.000000
 11
      -17.500000
 21
      -64.500008
 31
        0.000000
  0
ARC
  8
LVL0000
 10
      -17.000000
 20
       64.500008
 30
        0.000000
 40
        0.500000
 50
       90.000000
 51
      180.000010
  0
LINE
  8
LVL0000
 10
      -16.099976
 20
       63.500008
 30
        0.000000
 11
      -16.099976
 21
       58.000008
 31
        0.000000
  0
LINE
  8
LVL0000
 10
      -16.099976
 20
       58.000008
 30
        0.000000
 11
       16.099976
 21
       58.000008
 31
        0.000000
  0
LINE
  8
LVL0000
 10
      -16.099976
 20
       63.500008
 30
        0.000000
 11
       16.099976
 21
       63.500008
 31
        0.000000
  0
LINE
  8
LVL0000
 10
      -11.249695
 20
       52.600021
 30
        0.000000
 11
      -11.249695
 21
       54.600021
 31
        0.000000
  0
LINE
  8
LVL0000
 10
       -9.649719
 20
       52.600021
 30
        0.000000
 11
       -9.649719
 21
       54.600021
 31
        0.000000
  0
LINE
  8
LVL0000
 10
       -8.549683
 20
       52.600021
 30
        0.000000
 11
       -8.549683
 21
       54.600021
 31
        0.000000
  0
LINE
  8
LVL0000
 10
       -6.949707
 20
       52.600021
 30
        0.000000
 11
       -6.949707
 21
       54.600021
 31
        0.000000
  0
LINE
  8
LVL0000
 10
       -5.849701
 20
       52.600021
 30
        0.000000
 11
       -5.849701
 21
       54.600021
 31
        0.000000
  0
LINE
  8
LVL0000
 10
       -4.249725
 20
       52.600021
 30
        0.000000
 11
       -4.249725
 21
       54.600021
 31
        0.000000
  0
LINE
  8
LVL0000
 10
       -3.149689
 20
       52.600021
 30
        0.000000
 11
       -3.149689
 21
       54.600021
 31
        0.000000
  0
LINE
  8
LVL0000
 10
       -1.549713
 20
       52.600021
 30
        0.000000
 11
       -1.549713
 21
       54.600021
 31
        0.000000
  0
LINE
  8
LVL0000
 10
       -0.449707
 20
       52.600021
 30
        0.000000
 11
       -0.449707
 21
       54.600021
 31
        0.000000
  0
LINE
  8
LVL0000
 10
        1.150269
 20
       52.600021
 30
        0.000000
 11
        1.150269
 21
       54.600021
 31
        0.000000
  0
LINE
  8
LVL0000
 10
        2.250305
 20
       52.600021
 30
        0.000000
 11
        2.250305
 21
       54.600021
 31
        0.000000
  0
LINE
  8
LVL0000
 10
        3.850281
 20
       52.600021
 30
        0.000000
 11
        3.850281
 21
       54.600021
 31
        0.000000
  0
LINE
  8
LVL0000
 10
        4.950317
 20
       52.600021
 30
        0.000000
 11
        4.950317
 21
       54.600021
 31
        0.000000
  0
LINE
  8
LVL0000
 10
        6.550293
 20
       52.600021
 30
        0.000000
 11
        6.550293
 21
       54.600021
 31
        0.000000
  0
LINE
  8
LVL0000
 10
        7.650299
 20
       52.600021
 30
        0.000000
 11
        7.650299
 21
       54.600021
 31
        0.000000
  0
LINE
  8
LVL0000
 10
        9.250275
 20
       52.600021
 30
        0.000000
 11
        9.250275
 21
       54.600021
 31
        0.000000
  0
LINE
  8
LVL0000
 10
        9.250275
 20
       54.600021
 30
        0.000000
 11
        7.650299
 21
       54.600021
 31
        0.000000
  0
LINE
  8
LVL0000
 10
        9.250275
 20
       52.600021
 30
        0.000000
 11
        7.650299
 21
       52.600021
 31
        0.000000
  0
LINE
  8
LVL0000
 10
        6.550293
 20
       54.600021
 30
        0.000000
 11
        4.950317
 21
       54.600021
 31
        0.000000
  0
LINE
  8
LVL0000
 10
        6.550293
 20
       52.600021
 30
        0.000000
 11
        4.950317
 21
       52.600021
 31
        0.000000
  0
LINE
  8
LVL0000
 10
        3.850281
 20
       54.600021
 30
        0.000000
 11
        2.250305
 21
       54.600021
 31
        0.000000
  0
LINE
  8
LVL0000
 10
        3.850281
 20
       52.600021
 30
        0.000000
 11
        2.250305
 21
       52.600021
 31
        0.000000
  0
LINE
  8
LVL0000
 10
        1.150269
 20
       54.600021
 30
        0.000000
 11
       -0.449707
 21
       54.600021
 31
        0.000000
  0
LINE
  8
LVL0000
 10
        1.150269
 20
       52.600021
 30
        0.000000
 11
       -0.449707
 21
       52.600021
 31
        0.000000
  0
LINE
  8
LVL0000
 10
       -1.549713
 20
       54.600021
 30
        0.000000
 11
       -3.149689
 21
       54.600021
 31
        0.000000
  0
LINE
  8
LVL0000
 10
       -1.549713
 20
       52.600021
 30
        0.000000
 11
       -3.149689
 21
       52.600021
 31
        0.000000
  0
LINE
  8
LVL0000
 10
       -4.249725
 20
       54.600021
 30
        0.000000
 11
       -5.849701
 21
       54.600021
 31
        0.000000
  0
LINE
  8
LVL0000
 10
       -4.249725
 20
       52.600021
 30
        0.000000
 11
       -5.849701
 21
       52.600021
 31
        0.000000
  0
LINE
  8
LVL0000
 10
       -6.949707
 20
       54.600021
 30
        0.000000
 11
       -8.549683
 21
       54.600021
 31
        0.000000
  0
LINE
  8
LVL0000
 10
       -6.949707
 20
       52.600021
 30
        0.000000
 11
       -8.549683
 21
       52.600021
 31
        0.000000
  0
LINE
  8
LVL0000
 10
       -9.649719
 20
       54.600021
 30
        0.000000
 11
      -11.249695
 21
       54.600021
 31
        0.000000
  0
LINE
  8
LVL0000
 10
       -9.649719
 20
       52.600021
 30
        0.000000
 11
      -11.249695
 21
       52.600021
 31
        0.000000
  0
LINE
  8
LVL0000
 10
       17.500000
 20
       57.000008
 30
        0.000000
 11
      -17.500000
 21
       57.000008
 31
        0.000000
  0
LINE
  8
LVL0000
 10
      -16.500000
 20
       27.100014
 30
        0.000000
 11
       -2.600006
 21
       27.100014
 31
        0.000000
  0
LINE
  8
LVL0000
 10
      -16.500000
 20
      -54.599998
 30
        0.000000
 11
       -2.600006
 21
      -54.599998
 31
        0.000000
  0
LINE
  8
LVL0000
 10
       16.600006
 20
       19.525002
 30
        0.000000
 11
       16.600006
 21
       26.724983
 31
        0.000000
  0
LINE
  8
LVL0000
 10
       16.600006
 20
      -52.724998
 30
        0.000000
 11
       16.600006
 21
      -49.775002
 31
        0.000000
  0
LINE
  8
LVL0000
 10
       -2.600006
 20
      -52.724998
 30
        0.000000
 11
       17.500000
 21
      -52.724998
 31
        0.000000
  0
LINE
  8
LVL0000
 10
       -2.600006
 20
      -53.425011
 30
        0.000000
 11
       17.500000
 21
      -53.425011
 31
        0.000000
  0
LINE
  8
LVL0000
 10
        3.850281
 20
       47.600021
 30
        0.000000
 11
        2.250305
 21
       47.600021
 31
        0.000000
  0
LINE
  8
LVL0000
 10
        3.850281
 20
       45.600021
 30
        0.000000
 11
        2.250305
 21
       45.600021
 31
        0.000000
  0
LINE
  8
LVL0000
 10
        1.150269
 20
       47.600021
 30
        0.000000
 11
       -0.449707
 21
       47.600021
 31
        0.000000
  0
LINE
  8
LVL0000
 10
        1.150269
 20
       45.600021
 30
        0.000000
 11
       -0.449707
 21
       45.600021
 31
        0.000000
  0
LINE
  8
LVL0000
 10
       -1.549713
 20
       47.600021
 30
        0.000000
 11
       -3.149689
 21
       47.600021
 31
        0.000000
  0
LINE
  8
LVL0000
 10
       -1.549713
 20
       45.600021
 30
        0.000000
 11
       -3.149689
 21
       45.600021
 31
        0.000000
  0
LINE
  8
LVL0000
 10
       -4.249725
 20
       47.600021
 30
        0.000000
 11
       -5.849701
 21
       47.600021
 31
        0.000000
  0
LINE
  8
LVL0000
 10
       -4.249725
 20
       45.600021
 30
        0.000000
 11
       -5.849701
 21
       45.600021
 31
        0.000000
  0
LINE
  8
LVL0000
 10
       -6.949707
 20
       47.600021
 30
        0.000000
 11
       -8.549683
 21
       47.600021
 31
        0.000000
  0
LINE
  8
LVL0000
 10
       -6.949707
 20
       45.600021
 30
        0.000000
 11
       -8.549683
 21
       45.600021
 31
        0.000000
  0
LINE
  8
LVL0000
 10
       -9.649719
 20
       47.600021
 30
        0.000000
 11
      -11.249695
 21
       47.600021
 31
        0.000000
  0
LINE
  8
LVL0000
 10
       -9.649719
 20
       45.600021
 30
        0.000000
 11
      -11.249695
 21
       45.600021
 31
        0.000000
  0
LINE
  8
LVL0000
 10
      -11.249695
 20
       45.600021
 30
        0.000000
 11
      -11.249695
 21
       47.600021
 31
        0.000000
  0
LINE
  8
LVL0000
 10
       -9.649719
 20
       45.600021
 30
        0.000000
 11
       -9.649719
 21
       47.600021
 31
        0.000000
  0
LINE
  8
LVL0000
 10
       -8.549683
 20
       45.600021
 30
        0.000000
 11
       -8.549683
 21
       47.600021
 31
        0.000000
  0
LINE
  8
LVL0000
 10
       -6.949707
 20
       45.600021
 30
        0.000000
 11
       -6.949707
 21
       47.600021
 31
        0.000000
  0
LINE
  8
LVL0000
 10
       -5.849701
 20
       45.600021
 30
        0.000000
 11
       -5.849701
 21
       47.600021
 31
        0.000000
  0
LINE
  8
LVL0000
 10
       -4.249725
 20
       45.600021
 30
        0.000000
 11
       -4.249725
 21
       47.600021
 31
        0.000000
  0
LINE
  8
LVL0000
 10
       -3.149689
 20
       45.600021
 30
        0.000000
 11
       -3.149689
 21
       47.600021
 31
        0.000000
  0
LINE
  8
LVL0000
 10
       -1.549713
 20
       45.600021
 30
        0.000000
 11
       -1.549713
 21
       47.600021
 31
        0.000000
  0
LINE
  8
LVL0000
 10
       -0.449707
 20
       45.600021
 30
        0.000000
 11
       -0.449707
 21
       47.600021
 31
        0.000000
  0
LINE
  8
LVL0000
 10
        1.150269
 20
       45.600021
 30
        0.000000
 11
        1.150269
 21
       47.600021
 31
        0.000000
  0
LINE
  8
LVL0000
 10
        2.250305
 20
       45.600021
 30
        0.000000
 11
        2.250305
 21
       47.600021
 31
        0.000000
  0
LINE
  8
LVL0000
 10
        3.850281
 20
       45.600021
 30
        0.000000
 11
        3.850281
 21
       47.600021
 31
        0.000000
  0
LINE
  8
LVL0000
 10
        4.950317
 20
       45.600021
 30
        0.000000
 11
        4.950317
 21
       47.600021
 31
        0.000000
  0
LINE
  8
LVL0000
 10
        6.550293
 20
       45.600021
 30
        0.000000
 11
        6.550293
 21
       47.600021
 31
        0.000000
  0
LINE
  8
LVL0000
 10
        7.650299
 20
       45.600021
 30
        0.000000
 11
        7.650299
 21
       47.600021
 31
        0.000000
  0
LINE
  8
LVL0000
 10
        9.250275
 20
       45.600021
 30
        0.000000
 11
        9.250275
 21
       47.600021
 31
        0.000000
  0
LINE
  8
LVL0000
 10
        9.250275
 20
       47.600021
 30
        0.000000
 11
        7.650299
 21
       47.600021
 31
        0.000000
  0
LINE
  8
LVL0000
 10
        9.250275
 20
       45.600021
 30
        0.000000
 11
        7.650299
 21
       45.600021
 31
        0.000000
  0
LINE
  8
LVL0000
 10
        6.550293
 20
       47.600021
 30
        0.000000
 11
        4.950317
 21
       47.600021
 31
        0.000000
  0
LINE
  8
LVL0000
 10
        6.550293
 20
       45.600021
 30
        0.000000
 11
        4.950317
 21
       45.600021
 31
        0.000000
  0
CIRCLE
  8
LVL0000
 10
        3.399994
 20
      -49.125008
 30
        0.000000
 40
        2.850006
  0
LINE
  8
LVL0000
 10
        4.858551
 20
      -51.573509
 30
        0.000000
 11
        3.399994
 21
      -50.114952
 31
        0.000000
  0
LINE
  8
LVL0000
 10
        2.410065
 20
      -49.125008
 30
        0.000000
 11
        0.951508
 21
      -47.666466
 31
        0.000000
  0
LINE
  8
LVL0000
 10
        5.848511
 20
      -50.583549
 30
        0.000000
 11
        4.389954
 21
      -49.125008
 31
        0.000000
  0
LINE
  8
LVL0000
 10
        3.399994
 20
      -48.135063
 30
        0.000000
 11
        1.941437
 21
      -46.676506
 31
        0.000000
  0
LINE
  8
LVL0000
 10
        4.389954
 20
      -49.125008
 30
        0.000000
 11
        5.132416
 21
      -48.099693
 31
        0.000000
  0
LINE
  8
LVL0000
 10
        3.399994
 20
      -48.135063
 30
        0.000000
 11
        4.425323
 21
      -47.392601
 31
        0.000000
  0
LINE
  8
LVL0000
 10
        2.410065
 20
      -49.125008
 30
        0.000000
 11
        1.667603
 21
      -50.150322
 31
        0.000000
  0
LINE
  8
LVL0000
 10
        3.399994
 20
      -50.114952
 30
        0.000000
 11
        2.374695
 21
      -50.857414
 31
        0.000000
  0
LINE
  8
LVL0000
 10
        5.132416
 20
      -48.099693
 30
        0.000000
 11
        4.425323
 21
      -47.392601
 31
        0.000000
  0
LINE
  8
LVL0000
 10
        2.374695
 20
      -50.857414
 30
        0.000000
 11
        1.667603
 21
      -50.150322
 31
        0.000000
  0
LINE
  8
LVL0000
 10
        1.985779
 20
      -48.417900
 30
        0.000000
 11
        2.410065
 21
      -49.125008
 31
        0.000000
  0
LINE
  8
LVL0000
 10
        2.692902
 20
      -47.710793
 30
        0.000000
 11
        3.399994
 21
      -48.135063
 31
        0.000000
  0
LINE
  8
LVL0000
 10
        4.814209
 20
      -49.832115
 30
        0.000000
 11
        4.389954
 21
      -49.125008
 31
        0.000000
  0
LINE
  8
LVL0000
 10
        4.107117
 20
      -50.539223
 30
        0.000000
 11
        3.399994
 21
      -50.114952
 31
        0.000000
  0
LINE
  8
LVL0000
 10
        1.985779
 20
      -48.417900
 30
        0.000000
 11
        2.692902
 21
      -47.710793
 31
        0.000000
  0
LINE
  8
LVL0000
 10
        4.107117
 20
      -50.539223
 30
        0.000000
 11
        4.814209
 21
      -49.832115
 31
        0.000000
  0
CIRCLE
  8
LVL0000
 10
        3.399994
 20
      -40.625008
 30
        0.000000
 40
        2.850006
  0
LINE
  8
LVL0000
 10
        4.858551
 20
      -43.073509
 30
        0.000000
 11
        3.399994
 21
      -41.614952
 31
        0.000000
  0
LINE
  8
LVL0000
 10
        2.410065
 20
      -40.625008
 30
        0.000000
 11
        0.951508
 21
      -39.166466
 31
        0.000000
  0
LINE
  8
LVL0000
 10
        5.848511
 20
      -42.083549
 30
        0.000000
 11
        4.389954
 21
      -40.625008
 31
        0.000000
  0
LINE
  8
LVL0000
 10
        3.399994
 20
      -39.635063
 30
        0.000000
 11
        1.941437
 21
      -38.176506
 31
        0.000000
  0
LINE
  8
LVL0000
 10
        4.389954
 20
      -40.625008
 30
        0.000000
 11
        5.132416
 21
      -39.599693
 31
        0.000000
  0
LINE
  8
LVL0000
 10
        3.399994
 20
      -39.635063
 30
        0.000000
 11
        4.425323
 21
      -38.892601
 31
        0.000000
  0
LINE
  8
LVL0000
 10
        2.410065
 20
      -40.625008
 30
        0.000000
 11
        1.667603
 21
      -41.650322
 31
        0.000000
  0
LINE
  8
LVL0000
 10
        3.399994
 20
      -41.614952
 30
        0.000000
 11
        2.374695
 21
      -42.357414
 31
        0.000000
  0
LINE
  8
LVL0000
 10
        5.132416
 20
      -39.599693
 30
        0.000000
 11
        4.425323
 21
      -38.892601
 31
        0.000000
  0
LINE
  8
LVL0000
 10
        2.374695
 20
      -42.357414
 30
        0.000000
 11
        1.667603
 21
      -41.650322
 31
        0.000000
  0
LINE
  8
LVL0000
 10
        1.985779
 20
      -39.917900
 30
        0.000000
 11
        2.410065
 21
      -40.625008
 31
        0.000000
  0
LINE
  8
LVL0000
 10
        2.692902
 20
      -39.210793
 30
        0.000000
 11
        3.399994
 21
      -39.635063
 31
        0.000000
  0
LINE
  8
LVL0000
 10
        4.814209
 20
      -41.332115
 30
        0.000000
 11
        4.389954
 21
      -40.625008
 31
        0.000000
  0
LINE
  8
LVL0000
 10
        4.107117
 20
      -42.039223
 30
        0.000000
 11
        3.399994
 21
      -41.614952
 31
        0.000000
  0
LINE
  8
LVL0000
 10
        1.985779
 20
      -39.917900
 30
        0.000000
 11
        2.692902
 21
      -39.210793
 31
        0.000000
  0
LINE
  8
LVL0000
 10
        4.107117
 20
      -42.039223
 30
        0.000000
 11
        4.814209
 21
      -41.332115
 31
        0.000000
  0
CIRCLE
  8
LVL0000
 10
        3.399994
 20
      -32.125008
 30
        0.000000
 40
        2.850006
  0
LINE
  8
LVL0000
 10
        4.858551
 20
      -34.573509
 30
        0.000000
 11
        3.399994
 21
      -33.114952
 31
        0.000000
  0
LINE
  8
LVL0000
 10
        2.410065
 20
      -32.125008
 30
        0.000000
 11
        0.951508
 21
      -30.666466
 31
        0.000000
  0
LINE
  8
LVL0000
 10
        5.848511
 20
      -33.583549
 30
        0.000000
 11
        4.389954
 21
      -32.125008
 31
        0.000000
  0
LINE
  8
LVL0000
 10
        3.399994
 20
      -31.135063
 30
        0.000000
 11
        1.941437
 21
      -29.676506
 31
        0.000000
  0
LINE
  8
LVL0000
 10
        4.389954
 20
      -32.125008
 30
        0.000000
 11
        5.132416
 21
      -31.099693
 31
        0.000000
  0
LINE
  8
LVL0000
 10
        3.399994
 20
      -31.135063
 30
        0.000000
 11
        4.425323
 21
      -30.392601
 31
        0.000000
  0
LINE
  8
LVL0000
 10
        2.410065
 20
      -32.125008
 30
        0.000000
 11
        1.667603
 21
      -33.150322
 31
        0.000000
  0
LINE
  8
LVL0000
 10
        3.399994
 20
      -33.114952
 30
        0.000000
 11
        2.374695
 21
      -33.857414
 31
        0.000000
  0
LINE
  8
LVL0000
 10
        5.132416
 20
      -31.099693
 30
        0.000000
 11
        4.425323
 21
      -30.392601
 31
        0.000000
  0
LINE
  8
LVL0000
 10
        2.374695
 20
      -33.857414
 30
        0.000000
 11
        1.667603
 21
      -33.150322
 31
        0.000000
  0
LINE
  8
LVL0000
 10
        1.985779
 20
      -31.417900
 30
        0.000000
 11
        2.410065
 21
      -32.125008
 31
        0.000000
  0
LINE
  8
LVL0000
 10
        2.692902
 20
      -30.710793
 30
        0.000000
 11
        3.399994
 21
      -31.135063
 31
        0.000000
  0
LINE
  8
LVL0000
 10
        4.814209
 20
      -32.832115
 30
        0.000000
 11
        4.389954
 21
      -32.125008
 31
        0.000000
  0
LINE
  8
LVL0000
 10
        4.107117
 20
      -33.539223
 30
        0.000000
 11
        3.399994
 21
      -33.114952
 31
        0.000000
  0
LINE
  8
LVL0000
 10
        1.985779
 20
      -31.417900
 30
        0.000000
 11
        2.692902
 21
      -30.710793
 31
        0.000000
  0
LINE
  8
LVL0000
 10
        4.107117
 20
      -33.539223
 30
        0.000000
 11
        4.814209
 21
      -32.832115
 31
        0.000000
  0
CIRCLE
  8
LVL0000
 10
        3.399994
 20
      -23.625008
 30
        0.000000
 40
        2.850006
  0
LINE
  8
LVL0000
 10
        4.858551
 20
      -26.073509
 30
        0.000000
 11
        3.399994
 21
      -24.614952
 31
        0.000000
  0
LINE
  8
LVL0000
 10
        2.410065
 20
      -23.625008
 30
        0.000000
 11
        0.951508
 21
      -22.166466
 31
        0.000000
  0
LINE
  8
LVL0000
 10
        5.848511
 20
      -25.083549
 30
        0.000000
 11
        4.389954
 21
      -23.625008
 31
        0.000000
  0
LINE
  8
LVL0000
 10
        3.399994
 20
      -22.635063
 30
        0.000000
 11
        1.941437
 21
      -21.176506
 31
        0.000000
  0
LINE
  8
LVL0000
 10
        4.389954
 20
      -23.625008
 30
        0.000000
 11
        5.132416
 21
      -22.599693
 31
        0.000000
  0
LINE
  8
LVL0000
 10
        3.399994
 20
      -22.635063
 30
        0.000000
 11
        4.425323
 21
      -21.892601
 31
        0.000000
  0
LINE
  8
LVL0000
 10
        2.410065
 20
      -23.625008
 30
        0.000000
 11
        1.667603
 21
      -24.650322
 31
        0.000000
  0
LINE
  8
LVL0000
 10
        3.399994
 20
      -24.614952
 30
        0.000000
 11
        2.374695
 21
      -25.357414
 31
        0.000000
  0
LINE
  8
LVL0000
 10
        5.132416
 20
      -22.599693
 30
        0.000000
 11
        4.425323
 21
      -21.892601
 31
        0.000000
  0
LINE
  8
LVL0000
 10
        2.374695
 20
      -25.357414
 30
        0.000000
 11
        1.667603
 21
      -24.650322
 31
        0.000000
  0
LINE
  8
LVL0000
 10
        1.985779
 20
      -22.917900
 30
        0.000000
 11
        2.410065
 21
      -23.625008
 31
        0.000000
  0
LINE
  8
LVL0000
 10
        2.692902
 20
      -22.210793
 30
        0.000000
 11
        3.399994
 21
      -22.635063
 31
        0.000000
  0
LINE
  8
LVL0000
 10
        4.814209
 20
      -24.332115
 30
        0.000000
 11
        4.389954
 21
      -23.625008
 31
        0.000000
  0
LINE
  8
LVL0000
 10
        4.107117
 20
      -25.039223
 30
        0.000000
 11
        3.399994
 21
      -24.614952
 31
        0.000000
  0
LINE
  8
LVL0000
 10
        1.985779
 20
      -22.917900
 30
        0.000000
 11
        2.692902
 21
      -22.210793
 31
        0.000000
  0
LINE
  8
LVL0000
 10
        4.107117
 20
      -25.039223
 30
        0.000000
 11
        4.814209
 21
      -24.332115
 31
        0.000000
  0
CIRCLE
  8
LVL0000
 10
        3.399994
 20
      -15.125008
 30
        0.000000
 40
        2.850006
  0
LINE
  8
LVL0000
 10
        4.858551
 20
      -17.573509
 30
        0.000000
 11
        3.399994
 21
      -16.114952
 31
        0.000000
  0
LINE
  8
LVL0000
 10
        2.410065
 20
      -15.125008
 30
        0.000000
 11
        0.951508
 21
      -13.666466
 31
        0.000000
  0
LINE
  8
LVL0000
 10
        5.848511
 20
      -16.583549
 30
        0.000000
 11
        4.389954
 21
      -15.125008
 31
        0.000000
  0
LINE
  8
LVL0000
 10
        3.399994
 20
      -14.135063
 30
        0.000000
 11
        1.941437
 21
      -12.676506
 31
        0.000000
  0
LINE
  8
LVL0000
 10
        4.389954
 20
      -15.125008
 30
        0.000000
 11
        5.132416
 21
      -14.099693
 31
        0.000000
  0
LINE
  8
LVL0000
 10
        3.399994
 20
      -14.135063
 30
        0.000000
 11
        4.425323
 21
      -13.392601
 31
        0.000000
  0
LINE
  8
LVL0000
 10
        2.410065
 20
      -15.125008
 30
        0.000000
 11
        1.667603
 21
      -16.150322
 31
        0.000000
  0
LINE
  8
LVL0000
 10
        3.399994
 20
      -16.114952
 30
        0.000000
 11
        2.374695
 21
      -16.857414
 31
        0.000000
  0
LINE
  8
LVL0000
 10
        5.132416
 20
      -14.099693
 30
        0.000000
 11
        4.425323
 21
      -13.392601
 31
        0.000000
  0
LINE
  8
LVL0000
 10
        2.374695
 20
      -16.857414
 30
        0.000000
 11
        1.667603
 21
      -16.150322
 31
        0.000000
  0
LINE
  8
LVL0000
 10
        1.985779
 20
      -14.417900
 30
        0.000000
 11
        2.410065
 21
      -15.125008
 31
        0.000000
  0
LINE
  8
LVL0000
 10
        2.692902
 20
      -13.710793
 30
        0.000000
 11
        3.399994
 21
      -14.135063
 31
        0.000000
  0
LINE
  8
LVL0000
 10
        4.814209
 20
      -15.832115
 30
        0.000000
 11
        4.389954
 21
      -15.125008
 31
        0.000000
  0
LINE
  8
LVL0000
 10
        4.107117
 20
      -16.539223
 30
        0.000000
 11
        3.399994
 21
      -16.114952
 31
        0.000000
  0
LINE
  8
LVL0000
 10
        1.985779
 20
      -14.417900
 30
        0.000000
 11
        2.692902
 21
      -13.710793
 31
        0.000000
  0
LINE
  8
LVL0000
 10
        4.107117
 20
      -16.539223
 30
        0.000000
 11
        4.814209
 21
      -15.832115
 31
        0.000000
  0
CIRCLE
  8
LVL0000
 10
        3.399994
 20
       -6.625008
 30
        0.000000
 40
        2.850006
  0
LINE
  8
LVL0000
 10
        4.858551
 20
       -9.073509
 30
        0.000000
 11
        3.399994
 21
       -7.614952
 31
        0.000000
  0
LINE
  8
LVL0000
 10
        2.410065
 20
       -6.625008
 30
        0.000000
 11
        0.951508
 21
       -5.166466
 31
        0.000000
  0
LINE
  8
LVL0000
 10
        5.848511
 20
       -8.083549
 30
        0.000000
 11
        4.389954
 21
       -6.625008
 31
        0.000000
  0
LINE
  8
LVL0000
 10
        3.399994
 20
       -5.635063
 30
        0.000000
 11
        1.941437
 21
       -4.176506
 31
        0.000000
  0
LINE
  8
LVL0000
 10
        4.389954
 20
       -6.625008
 30
        0.000000
 11
        5.132416
 21
       -5.599693
 31
        0.000000
  0
LINE
  8
LVL0000
 10
        3.399994
 20
       -5.635063
 30
        0.000000
 11
        4.425323
 21
       -4.892601
 31
        0.000000
  0
LINE
  8
LVL0000
 10
        2.410065
 20
       -6.625008
 30
        0.000000
 11
        1.667603
 21
       -7.650322
 31
        0.000000
  0
LINE
  8
LVL0000
 10
        3.399994
 20
       -7.614952
 30
        0.000000
 11
        2.374695
 21
       -8.357414
 31
        0.000000
  0
LINE
  8
LVL0000
 10
        5.132416
 20
       -5.599693
 30
        0.000000
 11
        4.425323
 21
       -4.892601
 31
        0.000000
  0
LINE
  8
LVL0000
 10
        2.374695
 20
       -8.357414
 30
        0.000000
 11
        1.667603
 21
       -7.650322
 31
        0.000000
  0
LINE
  8
LVL0000
 10
        1.985779
 20
       -5.917900
 30
        0.000000
 11
        2.410065
 21
       -6.625008
 31
        0.000000
  0
LINE
  8
LVL0000
 10
        2.692902
 20
       -5.210793
 30
        0.000000
 11
        3.399994
 21
       -5.635063
 31
        0.000000
  0
LINE
  8
LVL0000
 10
        4.814209
 20
       -7.332115
 30
        0.000000
 11
        4.389954
 21
       -6.625008
 31
        0.000000
  0
LINE
  8
LVL0000
 10
        4.107117
 20
       -8.039223
 30
        0.000000
 11
        3.399994
 21
       -7.614952
 31
        0.000000
  0
LINE
  8
LVL0000
 10
        1.985779
 20
       -5.917900
 30
        0.000000
 11
        2.692902
 21
       -5.210793
 31
        0.000000
  0
LINE
  8
LVL0000
 10
        4.107117
 20
       -8.039223
 30
        0.000000
 11
        4.814209
 21
       -7.332115
 31
        0.000000
  0
CIRCLE
  8
LVL0000
 10
        3.399994
 20
        1.874992
 30
        0.000000
 40
        2.850006
  0
LINE
  8
LVL0000
 10
        4.858551
 20
       -0.573509
 30
        0.000000
 11
        3.399994
 21
        0.885048
 31
        0.000000
  0
LINE
  8
LVL0000
 10
        2.410065
 20
        1.874992
 30
        0.000000
 11
        0.951508
 21
        3.333534
 31
        0.000000
  0
LINE
  8
LVL0000
 10
        5.848511
 20
        0.416451
 30
        0.000000
 11
        4.389954
 21
        1.874992
 31
        0.000000
  0
LINE
  8
LVL0000
 10
        3.399994
 20
        2.864937
 30
        0.000000
 11
        1.941437
 21
        4.323494
 31
        0.000000
  0
LINE
  8
LVL0000
 10
        4.389954
 20
        1.874992
 30
        0.000000
 11
        5.132416
 21
        2.900307
 31
        0.000000
  0
LINE
  8
LVL0000
 10
        3.399994
 20
        2.864937
 30
        0.000000
 11
        4.425323
 21
        3.607399
 31
        0.000000
  0
LINE
  8
LVL0000
 10
        2.410065
 20
        1.874992
 30
        0.000000
 11
        1.667603
 21
        0.849678
 31
        0.000000
  0
LINE
  8
LVL0000
 10
        3.399994
 20
        0.885048
 30
        0.000000
 11
        2.374695
 21
        0.142586
 31
        0.000000
  0
LINE
  8
LVL0000
 10
        5.132416
 20
        2.900307
 30
        0.000000
 11
        4.425323
 21
        3.607399
 31
        0.000000
  0
LINE
  8
LVL0000
 10
        2.374695
 20
        0.142586
 30
        0.000000
 11
        1.667603
 21
        0.849678
 31
        0.000000
  0
LINE
  8
LVL0000
 10
        1.985779
 20
        2.582100
 30
        0.000000
 11
        2.410065
 21
        1.874992
 31
        0.000000
  0
LINE
  8
LVL0000
 10
        2.692902
 20
        3.289207
 30
        0.000000
 11
        3.399994
 21
        2.864937
 31
        0.000000
  0
LINE
  8
LVL0000
 10
        4.814209
 20
        1.167885
 30
        0.000000
 11
        4.389954
 21
        1.874992
 31
        0.000000
  0
LINE
  8
LVL0000
 10
        4.107117
 20
        0.460777
 30
        0.000000
 11
        3.399994
 21
        0.885048
 31
        0.000000
  0
LINE
  8
LVL0000
 10
        1.985779
 20
        2.582100
 30
        0.000000
 11
        2.692902
 21
        3.289207
 31
        0.000000
  0
LINE
  8
LVL0000
 10
        4.107117
 20
        0.460777
 30
        0.000000
 11
        4.814209
 21
        1.167885
 31
        0.000000
  0
CIRCLE
  8
LVL0000
 10
        3.399994
 20
       10.374992
 30
        0.000000
 40
        2.850006
  0
LINE
  8
LVL0000
 10
        4.858551
 20
        7.926491
 30
        0.000000
 11
        3.399994
 21
        9.385048
 31
        0.000000
  0
LINE
  8
LVL0000
 10
        2.410065
 20
       10.374992
 30
        0.000000
 11
        0.951508
 21
       11.833534
 31
        0.000000
  0
LINE
  8
LVL0000
 10
        5.848511
 20
        8.916451
 30
        0.000000
 11
        4.389954
 21
       10.374992
 31
        0.000000
  0
LINE
  8
LVL0000
 10
        3.399994
 20
       11.364937
 30
        0.000000
 11
        1.941437
 21
       12.823494
 31
        0.000000
  0
LINE
  8
LVL0000
 10
        4.389954
 20
       10.374992
 30
        0.000000
 11
        5.132416
 21
       11.400307
 31
        0.000000
  0
LINE
  8
LVL0000
 10
        3.399994
 20
       11.364937
 30
        0.000000
 11
        4.425323
 21
       12.107399
 31
        0.000000
  0
LINE
  8
LVL0000
 10
        2.410065
 20
       10.374992
 30
        0.000000
 11
        1.667603
 21
        9.349678
 31
        0.000000
  0
LINE
  8
LVL0000
 10
        3.399994
 20
        9.385048
 30
        0.000000
 11
        2.374695
 21
        8.642586
 31
        0.000000
  0
LINE
  8
LVL0000
 10
        5.132416
 20
       11.400307
 30
        0.000000
 11
        4.425323
 21
       12.107399
 31
        0.000000
  0
LINE
  8
LVL0000
 10
        2.374695
 20
        8.642586
 30
        0.000000
 11
        1.667603
 21
        9.349678
 31
        0.000000
  0
LINE
  8
LVL0000
 10
        1.985779
 20
       11.082100
 30
        0.000000
 11
        2.410065
 21
       10.374992
 31
        0.000000
  0
LINE
  8
LVL0000
 10
        2.692902
 20
       11.789207
 30
        0.000000
 11
        3.399994
 21
       11.364937
 31
        0.000000
  0
LINE
  8
LVL0000
 10
        4.814209
 20
        9.667885
 30
        0.000000
 11
        4.389954
 21
       10.374992
 31
        0.000000
  0
LINE
  8
LVL0000
 10
        4.107117
 20
        8.960777
 30
        0.000000
 11
        3.399994
 21
        9.385048
 31
        0.000000
  0
LINE
  8
LVL0000
 10
        1.985779
 20
       11.082100
 30
        0.000000
 11
        2.692902
 21
       11.789207
 31
        0.000000
  0
LINE
  8
LVL0000
 10
        4.107117
 20
        8.960777
 30
        0.000000
 11
        4.814209
 21
        9.667885
 31
        0.000000
  0
CIRCLE
  8
LVL0000
 10
        3.399994
 20
       18.874992
 30
        0.000000
 40
        2.850006
  0
LINE
  8
LVL0000
 10
        4.858551
 20
       16.426491
 30
        0.000000
 11
        3.399994
 21
       17.885048
 31
        0.000000
  0
LINE
  8
LVL0000
 10
        2.410065
 20
       18.874992
 30
        0.000000
 11
        0.951508
 21
       20.333534
 31
        0.000000
  0
LINE
  8
LVL0000
 10
        5.848511
 20
       17.416451
 30
        0.000000
 11
        4.389954
 21
       18.874992
 31
        0.000000
  0
LINE
  8
LVL0000
 10
        3.399994
 20
       19.864937
 30
        0.000000
 11
        1.941437
 21
       21.323494
 31
        0.000000
  0
LINE
  8
LVL0000
 10
        4.389954
 20
       18.874992
 30
        0.000000
 11
        5.132416
 21
       19.900307
 31
        0.000000
  0
LINE
  8
LVL0000
 10
        3.399994
 20
       19.864937
 30
        0.000000
 11
        4.425323
 21
       20.607399
 31
        0.000000
  0
LINE
  8
LVL0000
 10
        2.410065
 20
       18.874992
 30
        0.000000
 11
        1.667603
 21
       17.849678
 31
        0.000000
  0
LINE
  8
LVL0000
 10
        3.399994
 20
       17.885048
 30
        0.000000
 11
        2.374695
 21
       17.142586
 31
        0.000000
  0
LINE
  8
LVL0000
 10
        5.132416
 20
       19.900307
 30
        0.000000
 11
        4.425323
 21
       20.607399
 31
        0.000000
  0
LINE
  8
LVL0000
 10
        2.374695
 20
       17.142586
 30
        0.000000
 11
        1.667603
 21
       17.849678
 31
        0.000000
  0
LINE
  8
LVL0000
 10
        1.985779
 20
       19.582100
 30
        0.000000
 11
        2.410065
 21
       18.874992
 31
        0.000000
  0
LINE
  8
LVL0000
 10
        2.692902
 20
       20.289207
 30
        0.000000
 11
        3.399994
 21
       19.864937
 31
        0.000000
  0
LINE
  8
LVL0000
 10
        4.814209
 20
       18.167885
 30
        0.000000
 11
        4.389954
 21
       18.874992
 31
        0.000000
  0
LINE
  8
LVL0000
 10
        4.107117
 20
       17.460777
 30
        0.000000
 11
        3.399994
 21
       17.885048
 31
        0.000000
  0
LINE
  8
LVL0000
 10
        1.985779
 20
       19.582100
 30
        0.000000
 11
        2.692902
 21
       20.289207
 31
        0.000000
  0
LINE
  8
LVL0000
 10
        4.107117
 20
       17.460777
 30
        0.000000
 11
        4.814209
 21
       18.167885
 31
        0.000000
  0
CIRCLE
  8
LVL0000
 10
       13.000000
 20
      -44.874992
 30
        0.000000
 40
        2.850006
  0
LINE
  8
LVL0000
 10
       14.458557
 20
      -47.323509
 30
        0.000000
 11
       13.000000
 21
      -45.864952
 31
        0.000000
  0
LINE
  8
LVL0000
 10
       12.010071
 20
      -44.875008
 30
        0.000000
 11
       10.551514
 21
      -43.416451
 31
        0.000000
  0
LINE
  8
LVL0000
 10
       15.448517
 20
      -46.333549
 30
        0.000000
 11
       13.989960
 21
      -44.875008
 31
        0.000000
  0
LINE
  8
LVL0000
 10
       13.000000
 20
      -43.885063
 30
        0.000000
 11
       11.541443
 21
      -42.426506
 31
        0.000000
  0
LINE
  8
LVL0000
 10
       13.989960
 20
      -44.875008
 30
        0.000000
 11
       14.732422
 21
      -43.849693
 31
        0.000000
  0
LINE
  8
LVL0000
 10
       13.000000
 20
      -43.885063
 30
        0.000000
 11
       14.025330
 21
      -43.142601
 31
        0.000000
  0
LINE
  8
LVL0000
 10
       12.010071
 20
      -44.875008
 30
        0.000000
 11
       11.267609
 21
      -45.900322
 31
        0.000000
  0
LINE
  8
LVL0000
 10
       13.000000
 20
      -45.864952
 30
        0.000000
 11
       11.974701
 21
      -46.607414
 31
        0.000000
  0
LINE
  8
LVL0000
 10
       14.732422
 20
      -43.849693
 30
        0.000000
 11
       14.025330
 21
      -43.142601
 31
        0.000000
  0
LINE
  8
LVL0000
 10
       11.974701
 20
      -46.607414
 30
        0.000000
 11
       11.267609
 21
      -45.900322
 31
        0.000000
  0
LINE
  8
LVL0000
 10
       11.585785
 20
      -44.167900
 30
        0.000000
 11
       12.010071
 21
      -44.875008
 31
        0.000000
  0
LINE
  8
LVL0000
 10
       12.292908
 20
      -43.460793
 30
        0.000000
 11
       13.000000
 21
      -43.885063
 31
        0.000000
  0
LINE
  8
LVL0000
 10
       14.414215
 20
      -45.582115
 30
        0.000000
 11
       13.989960
 21
      -44.875008
 31
        0.000000
  0
LINE
  8
LVL0000
 10
       13.707123
 20
      -46.289207
 30
        0.000000
 11
       13.000000
 21
      -45.864952
 31
        0.000000
  0
LINE
  8
LVL0000
 10
       11.585785
 20
      -44.167900
 30
        0.000000
 11
       12.292908
 21
      -43.460793
 31
        0.000000
  0
LINE
  8
LVL0000
 10
       13.707123
 20
      -46.289207
 30
        0.000000
 11
       14.414215
 21
      -45.582115
 31
        0.000000
  0
CIRCLE
  8
LVL0000
 10
       13.000000
 20
      -36.374992
 30
        0.000000
 40
        2.850006
  0
LINE
  8
LVL0000
 10
       14.458557
 20
      -38.823509
 30
        0.000000
 11
       13.000000
 21
      -37.364952
 31
        0.000000
  0
LINE
  8
LVL0000
 10
       12.010071
 20
      -36.375008
 30
        0.000000
 11
       10.551514
 21
      -34.916451
 31
        0.000000
  0
LINE
  8
LVL0000
 10
       15.448517
 20
      -37.833549
 30
        0.000000
 11
       13.989960
 21
      -36.375008
 31
        0.000000
  0
LINE
  8
LVL0000
 10
       13.000000
 20
      -35.385063
 30
        0.000000
 11
       11.541443
 21
      -33.926506
 31
        0.000000
  0
LINE
  8
LVL0000
 10
       13.989960
 20
      -36.375008
 30
        0.000000
 11
       14.732422
 21
      -35.349693
 31
        0.000000
  0
LINE
  8
LVL0000
 10
       13.000000
 20
      -35.385063
 30
        0.000000
 11
       14.025330
 21
      -34.642601
 31
        0.000000
  0
LINE
  8
LVL0000
 10
       12.010071
 20
      -36.375008
 30
        0.000000
 11
       11.267609
 21
      -37.400322
 31
        0.000000
  0
LINE
  8
LVL0000
 10
       13.000000
 20
      -37.364952
 30
        0.000000
 11
       11.974701
 21
      -38.107414
 31
        0.000000
  0
LINE
  8
LVL0000
 10
       14.732422
 20
      -35.349693
 30
        0.000000
 11
       14.025330
 21
      -34.642601
 31
        0.000000
  0
LINE
  8
LVL0000
 10
       11.974701
 20
      -38.107414
 30
        0.000000
 11
       11.267609
 21
      -37.400322
 31
        0.000000
  0
LINE
  8
LVL0000
 10
       11.585785
 20
      -35.667900
 30
        0.000000
 11
       12.010071
 21
      -36.375008
 31
        0.000000
  0
LINE
  8
LVL0000
 10
       12.292908
 20
      -34.960793
 30
        0.000000
 11
       13.000000
 21
      -35.385063
 31
        0.000000
  0
LINE
  8
LVL0000
 10
       14.414215
 20
      -37.082115
 30
        0.000000
 11
       13.989960
 21
      -36.375008
 31
        0.000000
  0
LINE
  8
LVL0000
 10
       13.707123
 20
      -37.789207
 30
        0.000000
 11
       13.000000
 21
      -37.364952
 31
        0.000000
  0
LINE
  8
LVL0000
 10
       11.585785
 20
      -35.667900
 30
        0.000000
 11
       12.292908
 21
      -34.960793
 31
        0.000000
  0
LINE
  8
LVL0000
 10
       13.707123
 20
      -37.789207
 30
        0.000000
 11
       14.414215
 21
      -37.082115
 31
        0.000000
  0
CIRCLE
  8
LVL0000
 10
       13.000000
 20
      -27.874992
 30
        0.000000
 40
        2.850006
  0
LINE
  8
LVL0000
 10
       14.458557
 20
      -30.323509
 30
        0.000000
 11
       13.000000
 21
      -28.864952
 31
        0.000000
  0
LINE
  8
LVL0000
 10
       12.010071
 20
      -27.875008
 30
        0.000000
 11
       10.551514
 21
      -26.416451
 31
        0.000000
  0
LINE
  8
LVL0000
 10
       15.448517
 20
      -29.333549
 30
        0.000000
 11
       13.989960
 21
      -27.875008
 31
        0.000000
  0
LINE
  8
LVL0000
 10
       13.000000
 20
      -26.885063
 30
        0.000000
 11
       11.541443
 21
      -25.426506
 31
        0.000000
  0
LINE
  8
LVL0000
 10
       13.989960
 20
      -27.875008
 30
        0.000000
 11
       14.732422
 21
      -26.849693
 31
        0.000000
  0
LINE
  8
LVL0000
 10
       13.000000
 20
      -26.885063
 30
        0.000000
 11
       14.025330
 21
      -26.142601
 31
        0.000000
  0
LINE
  8
LVL0000
 10
       12.010071
 20
      -27.875008
 30
        0.000000
 11
       11.267609
 21
      -28.900322
 31
        0.000000
  0
LINE
  8
LVL0000
 10
       13.000000
 20
      -28.864952
 30
        0.000000
 11
       11.974701
 21
      -29.607414
 31
        0.000000
  0
LINE
  8
LVL0000
 10
       14.732422
 20
      -26.849693
 30
        0.000000
 11
       14.025330
 21
      -26.142601
 31
        0.000000
  0
LINE
  8
LVL0000
 10
       11.974701
 20
      -29.607414
 30
        0.000000
 11
       11.267609
 21
      -28.900322
 31
        0.000000
  0
LINE
  8
LVL0000
 10
       11.585785
 20
      -27.167900
 30
        0.000000
 11
       12.010071
 21
      -27.875008
 31
        0.000000
  0
LINE
  8
LVL0000
 10
       12.292908
 20
      -26.460793
 30
        0.000000
 11
       13.000000
 21
      -26.885063
 31
        0.000000
  0
LINE
  8
LVL0000
 10
       14.414215
 20
      -28.582115
 30
        0.000000
 11
       13.989960
 21
      -27.875008
 31
        0.000000
  0
LINE
  8
LVL0000
 10
       13.707123
 20
      -29.289207
 30
        0.000000
 11
       13.000000
 21
      -28.864952
 31
        0.000000
  0
LINE
  8
LVL0000
 10
       11.585785
 20
      -27.167900
 30
        0.000000
 11
       12.292908
 21
      -26.460793
 31
        0.000000
  0
LINE
  8
LVL0000
 10
       13.707123
 20
      -29.289207
 30
        0.000000
 11
       14.414215
 21
      -28.582115
 31
        0.000000
  0
CIRCLE
  8
LVL0000
 10
       13.000000
 20
      -19.374992
 30
        0.000000
 40
        2.850006
  0
LINE
  8
LVL0000
 10
       14.458557
 20
      -21.823509
 30
        0.000000
 11
       13.000000
 21
      -20.364952
 31
        0.000000
  0
LINE
  8
LVL0000
 10
       12.010071
 20
      -19.375008
 30
        0.000000
 11
       10.551514
 21
      -17.916451
 31
        0.000000
  0
LINE
  8
LVL0000
 10
       15.448517
 20
      -20.833549
 30
        0.000000
 11
       13.989960
 21
      -19.375008
 31
        0.000000
  0
LINE
  8
LVL0000
 10
       13.000000
 20
      -18.385063
 30
        0.000000
 11
       11.541443
 21
      -16.926506
 31
        0.000000
  0
LINE
  8
LVL0000
 10
       13.989960
 20
      -19.375008
 30
        0.000000
 11
       14.732422
 21
      -18.349693
 31
        0.000000
  0
LINE
  8
LVL0000
 10
       13.000000
 20
      -18.385063
 30
        0.000000
 11
       14.025330
 21
      -17.642601
 31
        0.000000
  0
LINE
  8
LVL0000
 10
       12.010071
 20
      -19.375008
 30
        0.000000
 11
       11.267609
 21
      -20.400322
 31
        0.000000
  0
LINE
  8
LVL0000
 10
       13.000000
 20
      -20.364952
 30
        0.000000
 11
       11.974701
 21
      -21.107414
 31
        0.000000
  0
LINE
  8
LVL0000
 10
       14.732422
 20
      -18.349693
 30
        0.000000
 11
       14.025330
 21
      -17.642601
 31
        0.000000
  0
LINE
  8
LVL0000
 10
       11.974701
 20
      -21.107414
 30
        0.000000
 11
       11.267609
 21
      -20.400322
 31
        0.000000
  0
LINE
  8
LVL0000
 10
       11.585785
 20
      -18.667900
 30
        0.000000
 11
       12.010071
 21
      -19.375008
 31
        0.000000
  0
LINE
  8
LVL0000
 10
       12.292908
 20
      -17.960793
 30
        0.000000
 11
       13.000000
 21
      -18.385063
 31
        0.000000
  0
LINE
  8
LVL0000
 10
       14.414215
 20
      -20.082115
 30
        0.000000
 11
       13.989960
 21
      -19.375008
 31
        0.000000
  0
LINE
  8
LVL0000
 10
       13.707123
 20
      -20.789207
 30
        0.000000
 11
       13.000000
 21
      -20.364952
 31
        0.000000
  0
LINE
  8
LVL0000
 10
       11.585785
 20
      -18.667900
 30
        0.000000
 11
       12.292908
 21
      -17.960793
 31
        0.000000
  0
LINE
  8
LVL0000
 10
       13.707123
 20
      -20.789207
 30
        0.000000
 11
       14.414215
 21
      -20.082115
 31
        0.000000
  0
CIRCLE
  8
LVL0000
 10
       13.000000
 20
      -10.874992
 30
        0.000000
 40
        2.850006
  0
LINE
  8
LVL0000
 10
       14.458557
 20
      -13.323509
 30
        0.000000
 11
       13.000000
 21
      -11.864952
 31
        0.000000
  0
LINE
  8
LVL0000
 10
       12.010071
 20
      -10.875008
 30
        0.000000
 11
       10.551514
 21
       -9.416451
 31
        0.000000
  0
LINE
  8
LVL0000
 10
       15.448517
 20
      -12.333549
 30
        0.000000
 11
       13.989960
 21
      -10.875008
 31
        0.000000
  0
LINE
  8
LVL0000
 10
       13.000000
 20
       -9.885063
 30
        0.000000
 11
       11.541443
 21
       -8.426506
 31
        0.000000
  0
LINE
  8
LVL0000
 10
       13.989960
 20
      -10.875008
 30
        0.000000
 11
       14.732422
 21
       -9.849693
 31
        0.000000
  0
LINE
  8
LVL0000
 10
       13.000000
 20
       -9.885063
 30
        0.000000
 11
       14.025330
 21
       -9.142601
 31
        0.000000
  0
LINE
  8
LVL0000
 10
       12.010071
 20
      -10.875008
 30
        0.000000
 11
       11.267609
 21
      -11.900322
 31
        0.000000
  0
LINE
  8
LVL0000
 10
       13.000000
 20
      -11.864952
 30
        0.000000
 11
       11.974701
 21
      -12.607414
 31
        0.000000
  0
LINE
  8
LVL0000
 10
       14.732422
 20
       -9.849693
 30
        0.000000
 11
       14.025330
 21
       -9.142601
 31
        0.000000
  0
LINE
  8
LVL0000
 10
       11.974701
 20
      -12.607414
 30
        0.000000
 11
       11.267609
 21
      -11.900322
 31
        0.000000
  0
LINE
  8
LVL0000
 10
       11.585785
 20
      -10.167900
 30
        0.000000
 11
       12.010071
 21
      -10.875008
 31
        0.000000
  0
LINE
  8
LVL0000
 10
       12.292908
 20
       -9.460793
 30
        0.000000
 11
       13.000000
 21
       -9.885063
 31
        0.000000
  0
LINE
  8
LVL0000
 10
       14.414215
 20
      -11.582115
 30
        0.000000
 11
       13.989960
 21
      -10.875008
 31
        0.000000
  0
LINE
  8
LVL0000
 10
       13.707123
 20
      -12.289207
 30
        0.000000
 11
       13.000000
 21
      -11.864952
 31
        0.000000
  0
LINE
  8
LVL0000
 10
       11.585785
 20
      -10.167900
 30
        0.000000
 11
       12.292908
 21
       -9.460793
 31
        0.000000
  0
LINE
  8
LVL0000
 10
       13.707123
 20
      -12.289207
 30
        0.000000
 11
       14.414215
 21
      -11.582115
 31
        0.000000
  0
CIRCLE
  8
LVL0000
 10
       13.000000
 20
       -2.374992
 30
        0.000000
 40
        2.850006
  0
LINE
  8
LVL0000
 10
       14.458557
 20
       -4.823509
 30
        0.000000
 11
       13.000000
 21
       -3.364952
 31
        0.000000
  0
LINE
  8
LVL0000
 10
       12.010071
 20
       -2.375008
 30
        0.000000
 11
       10.551514
 21
       -0.916451
 31
        0.000000
  0
LINE
  8
LVL0000
 10
       15.448517
 20
       -3.833549
 30
        0.000000
 11
       13.989960
 21
       -2.375008
 31
        0.000000
  0
LINE
  8
LVL0000
 10
       13.000000
 20
       -1.385063
 30
        0.000000
 11
       11.541443
 21
        0.073494
 31
        0.000000
  0
LINE
  8
LVL0000
 10
       13.989960
 20
       -2.375008
 30
        0.000000
 11
       14.732422
 21
       -1.349693
 31
        0.000000
  0
LINE
  8
LVL0000
 10
       13.000000
 20
       -1.385063
 30
        0.000000
 11
       14.025330
 21
       -0.642601
 31
        0.000000
  0
LINE
  8
LVL0000
 10
       12.010071
 20
       -2.375008
 30
        0.000000
 11
       11.267609
 21
       -3.400322
 31
        0.000000
  0
LINE
  8
LVL0000
 10
       13.000000
 20
       -3.364952
 30
        0.000000
 11
       11.974701
 21
       -4.107414
 31
        0.000000
  0
LINE
  8
LVL0000
 10
       14.732422
 20
       -1.349693
 30
        0.000000
 11
       14.025330
 21
       -0.642601
 31
        0.000000
  0
LINE
  8
LVL0000
 10
       11.974701
 20
       -4.107414
 30
        0.000000
 11
       11.267609
 21
       -3.400322
 31
        0.000000
  0
LINE
  8
LVL0000
 10
       11.585785
 20
       -1.667900
 30
        0.000000
 11
       12.010071
 21
       -2.375008
 31
        0.000000
  0
LINE
  8
LVL0000
 10
       12.292908
 20
       -0.960793
 30
        0.000000
 11
       13.000000
 21
       -1.385063
 31
        0.000000
  0
LINE
  8
LVL0000
 10
       14.414215
 20
       -3.082115
 30
        0.000000
 11
       13.989960
 21
       -2.375008
 31
        0.000000
  0
LINE
  8
LVL0000
 10
       13.707123
 20
       -3.789207
 30
        0.000000
 11
       13.000000
 21
       -3.364952
 31
        0.000000
  0
LINE
  8
LVL0000
 10
       11.585785
 20
       -1.667900
 30
        0.000000
 11
       12.292908
 21
       -0.960793
 31
        0.000000
  0
LINE
  8
LVL0000
 10
       13.707123
 20
       -3.789207
 30
        0.000000
 11
       14.414215
 21
       -3.082115
 31
        0.000000
  0
CIRCLE
  8
LVL0000
 10
       13.000000
 20
        6.125008
 30
        0.000000
 40
        2.850006
  0
LINE
  8
LVL0000
 10
       14.458557
 20
        3.676491
 30
        0.000000
 11
       13.000000
 21
        5.135048
 31
        0.000000
  0
LINE
  8
LVL0000
 10
       12.010071
 20
        6.124992
 30
        0.000000
 11
       10.551514
 21
        7.583549
 31
        0.000000
  0
LINE
  8
LVL0000
 10
       15.448517
 20
        4.666451
 30
        0.000000
 11
       13.989960
 21
        6.124992
 31
        0.000000
  0
LINE
  8
LVL0000
 10
       13.000000
 20
        7.114937
 30
        0.000000
 11
       11.541443
 21
        8.573494
 31
        0.000000
  0
LINE
  8
LVL0000
 10
       13.989960
 20
        6.124992
 30
        0.000000
 11
       14.732422
 21
        7.150307
 31
        0.000000
  0
LINE
  8
LVL0000
 10
       13.000000
 20
        7.114937
 30
        0.000000
 11
       14.025330
 21
        7.857399
 31
        0.000000
  0
LINE
  8
LVL0000
 10
       12.010071
 20
        6.124992
 30
        0.000000
 11
       11.267609
 21
        5.099678
 31
        0.000000
  0
LINE
  8
LVL0000
 10
       13.000000
 20
        5.135048
 30
        0.000000
 11
       11.974701
 21
        4.392586
 31
        0.000000
  0
LINE
  8
LVL0000
 10
       14.732422
 20
        7.150307
 30
        0.000000
 11
       14.025330
 21
        7.857399
 31
        0.000000
  0
LINE
  8
LVL0000
 10
       11.974701
 20
        4.392586
 30
        0.000000
 11
       11.267609
 21
        5.099678
 31
        0.000000
  0
LINE
  8
LVL0000
 10
       11.585785
 20
        6.832100
 30
        0.000000
 11
       12.010071
 21
        6.124992
 31
        0.000000
  0
LINE
  8
LVL0000
 10
       12.292908
 20
        7.539207
 30
        0.000000
 11
       13.000000
 21
        7.114937
 31
        0.000000
  0
LINE
  8
LVL0000
 10
       14.414215
 20
        5.417885
 30
        0.000000
 11
       13.989960
 21
        6.124992
 31
        0.000000
  0
LINE
  8
LVL0000
 10
       13.707123
 20
        4.710793
 30
        0.000000
 11
       13.000000
 21
        5.135048
 31
        0.000000
  0
LINE
  8
LVL0000
 10
       11.585785
 20
        6.832100
 30
        0.000000
 11
       12.292908
 21
        7.539207
 31
        0.000000
  0
LINE
  8
LVL0000
 10
       13.707123
 20
        4.710793
 30
        0.000000
 11
       14.414215
 21
        5.417885
 31
        0.000000
  0
CIRCLE
  8
LVL0000
 10
       13.000000
 20
       14.625008
 30
        0.000000
 40
        2.850006
  0
LINE
  8
LVL0000
 10
       14.458557
 20
       12.176491
 30
        0.000000
 11
       13.000000
 21
       13.635048
 31
        0.000000
  0
LINE
  8
LVL0000
 10
       12.010071
 20
       14.624992
 30
        0.000000
 11
       10.551514
 21
       16.083549
 31
        0.000000
  0
LINE
  8
LVL0000
 10
       15.448517
 20
       13.166451
 30
        0.000000
 11
       13.989960
 21
       14.624992
 31
        0.000000
  0
LINE
  8
LVL0000
 10
       13.000000
 20
       15.614937
 30
        0.000000
 11
       11.541443
 21
       17.073494
 31
        0.000000
  0
LINE
  8
LVL0000
 10
       13.989960
 20
       14.624992
 30
        0.000000
 11
       14.732422
 21
       15.650307
 31
        0.000000
  0
LINE
  8
LVL0000
 10
       13.000000
 20
       15.614937
 30
        0.000000
 11
       14.025330
 21
       16.357399
 31
        0.000000
  0
LINE
  8
LVL0000
 10
       12.010071
 20
       14.624992
 30
        0.000000
 11
       11.267609
 21
       13.599678
 31
        0.000000
  0
LINE
  8
LVL0000
 10
       13.000000
 20
       13.635048
 30
        0.000000
 11
       11.974701
 21
       12.892586
 31
        0.000000
  0
LINE
  8
LVL0000
 10
       14.732422
 20
       15.650307
 30
        0.000000
 11
       14.025330
 21
       16.357399
 31
        0.000000
  0
LINE
  8
LVL0000
 10
       11.974701
 20
       12.892586
 30
        0.000000
 11
       11.267609
 21
       13.599678
 31
        0.000000
  0
LINE
  8
LVL0000
 10
       11.585785
 20
       15.332100
 30
        0.000000
 11
       12.010071
 21
       14.624992
 31
        0.000000
  0
LINE
  8
LVL0000
 10
       12.292908
 20
       16.039207
 30
        0.000000
 11
       13.000000
 21
       15.614937
 31
        0.000000
  0
LINE
  8
LVL0000
 10
       14.414215
 20
       13.917885
 30
        0.000000
 11
       13.989960
 21
       14.624992
 31
        0.000000
  0
LINE
  8
LVL0000
 10
       13.707123
 20
       13.210793
 30
        0.000000
 11
       13.000000
 21
       13.635048
 31
        0.000000
  0
LINE
  8
LVL0000
 10
       11.585785
 20
       15.332100
 30
        0.000000
 11
       12.292908
 21
       16.039207
 31
        0.000000
  0
LINE
  8
LVL0000
 10
       13.707123
 20
       13.210793
 30
        0.000000
 11
       14.414215
 21
       13.917885
 31
        0.000000
  0
CIRCLE
  8
LVL0000
 10
       13.000000
 20
       23.125008
 30
        0.000000
 40
        2.850006
  0
LINE
  8
LVL0000
 10
       14.458557
 20
       20.676491
 30
        0.000000
 11
       13.000000
 21
       22.135048
 31
        0.000000
  0
LINE
  8
LVL0000
 10
       12.010071
 20
       23.124992
 30
        0.000000
 11
       10.551514
 21
       24.583549
 31
        0.000000
  0
LINE
  8
LVL0000
 10
       15.448517
 20
       21.666451
 30
        0.000000
 11
       13.989960
 21
       23.124992
 31
        0.000000
  0
LINE
  8
LVL0000
 10
       13.000000
 20
       24.114937
 30
        0.000000
 11
       11.541443
 21
       25.573494
 31
        0.000000
  0
LINE
  8
LVL0000
 10
       13.989960
 20
       23.124992
 30
        0.000000
 11
       14.732422
 21
       24.150307
 31
        0.000000
  0
LINE
  8
LVL0000
 10
       13.000000
 20
       24.114937
 30
        0.000000
 11
       14.025330
 21
       24.857399
 31
        0.000000
  0
LINE
  8
LVL0000
 10
       12.010071
 20
       23.124992
 30
        0.000000
 11
       11.267609
 21
       22.099678
 31
        0.000000
  0
LINE
  8
LVL0000
 10
       13.000000
 20
       22.135048
 30
        0.000000
 11
       11.974701
 21
       21.392586
 31
        0.000000
  0
LINE
  8
LVL0000
 10
       14.732422
 20
       24.150307
 30
        0.000000
 11
       14.025330
 21
       24.857399
 31
        0.000000
  0
LINE
  8
LVL0000
 10
       11.974701
 20
       21.392586
 30
        0.000000
 11
       11.267609
 21
       22.099678
 31
        0.000000
  0
LINE
  8
LVL0000
 10
       11.585785
 20
       23.832100
 30
        0.000000
 11
       12.010071
 21
       23.124992
 31
        0.000000
  0
LINE
  8
LVL0000
 10
       12.292908
 20
       24.539207
 30
        0.000000
 11
       13.000000
 21
       24.114937
 31
        0.000000
  0
LINE
  8
LVL0000
 10
       14.414215
 20
       22.417885
 30
        0.000000
 11
       13.989960
 21
       23.124992
 31
        0.000000
  0
LINE
  8
LVL0000
 10
       13.707123
 20
       21.710793
 30
        0.000000
 11
       13.000000
 21
       22.135048
 31
        0.000000
  0
ENDSEC
  0
EOF
