  0
SECTION
  2
HEADER
  9
$ACADVER
  1
AC1006
  9
$INSBASE
 10
0.0
 20
0.0
 30
0.0
  9
$EXTMIN
 10
     -135.250000
 20
      -70.484238
  9
$EXTMAX
 10
      194.649994
 20
      155.500000
  9
$LIMMIN
 10
     -135.250000
 20
      -70.484238
  9
$LIMMAX
 10
      194.649994
 20
      155.500000
  9
$VIEWCTR
 10
       29.699997
 20
       29.699997
  9
$ORTHOMODE
 70
     0
  9
$ANGBASE
 50
0.0
  9
$ANGDIR
 70
     0
  9
$SPLINETYPE
 70
     6
  9
$SPLINESEGS
 70
     8
9
$DIMASZ
 40
        3.000000
9
$DIMEXE
 40
        0.500000
9
$DIMEXO
 40
        1.000000
9
$DIMTXT
 40
        4.000000
9
$DIMGAP
 40
        0.500000
9
$DIMTAD
 70
1
9
$DIMTIH
 70
0
9
$DIMTOH
 70
0
  0
ENDSEC
  0
SECTION
  2
TABLES
  0
TABLE
  2
LTYPE
 70
     5
  0
LTYPE
  2
CONTINUOUS
 70
    64
  3
SOLID LINE
 72
    65
 73
     0
 40
0.0
  0
LTYPE
  2
DASHED
 70
    64
  3
-- -- -- -- -- --
 72
    65
 73
     2
 40
  0.75  
 49
  0.50  
 49
 -0.25  
  0
LTYPE
  2
DOT
 70
    64
  3
....................
 72
    65
 73
     2
 40
  0.25  
 49
  0.02  
 49
 -0.23  
  0
LTYPE
  2
CENTER
 70
    64
  3
-- . -- . -- . -- .
 72
    65
 73
    4
 40
  2.00  
 49
  1.25  
 49
 -0.25  
 49
  0.25  
 49
 -0.25  
  0
LTYPE
  2
PHANTOM
 70
    64
  3
-- .. -- .. -- ..
 72
    65
 73
    6
 40
  2.50  
 49
  1.25  
 49
 -0.25  
 49
  0.25  
 49
 -0.25  
 49
  0.25  
 49
 -0.25  
  0
ENDTAB
  0
TABLE
  2
LAYER
 70
     1
  0
LAYER
  2
LVL0000
 70
    64
 62
     3
  6
CONTINUOUS
  0
ENDTAB
  0
TABLE
  2
STYLE
 70
     2
  0
STYLE
  2
STANDARD
 70
    64
 40
0.0
 41
1.0
 50
0.0
 71
     0
 42
5.0
  3
ROMANS
  4
BIGFONT
  0
STYLE
  2
BIGFONT
 70
    64
 40
0.0
 41
1.0
 50
0.0
 71
     0
 42
5.0
  3
ROMANS
  4
BIGFONT
  0
ENDTAB
  0
TABLE
  2
VIEW
 70
     0
  0
ENDTAB
  0
TABLE
  2
UCS
 70
     0
  0
ENDTAB
  0
TABLE
  2
DWGMGR
 70
     0
  0
ENDTAB
  0
ENDSEC
  0
SECTION
  2
BLOCKS
  0
BLOCK
  8
0
  2
BLK0001
 70
    64
 10
        0.000000
 20
        0.000000
  0
TEXT
  8
LVL0000
 62
  2
 10
       51.990704
 20
       -6.000000
 30
        0.000000
 40
        4.000000
  1
１３０
 50
       90.000000
 41
        0.835000
 51
        0.000000
  7
BIGFONT
  0
LINE
  8
LVL0000
 62
  2
 10
       35.750000
 20
       65.000000
 30
        0.000000
 11
       52.990704
 21
       65.000000
 31
        0.000000
  0
LINE
  8
LVL0000
 62
  2
 10
       35.750000
 20
      -65.000000
 30
        0.000000
 11
       52.990704
 21
      -65.000000
 31
        0.000000
  0
LINE
  8
LVL0000
 62
  2
 10
       53.276104
 20
       62.000000
 30
        0.000000
 11
       52.490704
 21
       65.000000
 31
        0.000000
  0
LINE
  8
LVL0000
 62
  2
 10
       52.490704
 20
       65.000000
 30
        0.000000
 11
       51.705303
 21
       62.000000
 31
        0.000000
  0
LINE
  8
LVL0000
 62
  2
 10
       51.705303
 20
      -62.000000
 30
        0.000000
 11
       52.490704
 21
      -65.000000
 31
        0.000000
  0
LINE
  8
LVL0000
 62
  2
 10
       52.490704
 20
      -65.000000
 30
        0.000000
 11
       53.276100
 21
      -62.000000
 31
        0.000000
  0
LINE
  8
LVL0000
 62
  2
 10
       52.490704
 20
       65.000000
 30
        0.000000
 11
       52.490704
 21
      -65.000000
 31
        0.000000
  0
ENDBLK
  0
BLOCK
  8
0
  2
BLK0002
 70
    64
 10
        0.000000
 20
        0.000000
  0
TEXT
  8
LVL0000
 62
  2
 10
       -7.706673
 20
      -81.560158
 30
        0.000000
 40
        4.000000
  1
７０．５
 50
        0.000000
 41
        0.835000
 51
        0.000000
  7
BIGFONT
  0
LINE
  8
LVL0000
 62
  2
 10
      -35.250000
 20
      -65.500000
 30
        0.000000
 11
      -35.250000
 21
      -82.560158
 31
        0.000000
  0
LINE
  8
LVL0000
 62
  2
 10
       35.250000
 20
      -65.500000
 30
        0.000000
 11
       35.250000
 21
      -82.560158
 31
        0.000000
  0
LINE
  8
LVL0000
 62
  2
 10
      -32.250000
 20
      -81.274757
 30
        0.000000
 11
      -35.250000
 21
      -82.060158
 31
        0.000000
  0
LINE
  8
LVL0000
 62
  2
 10
      -35.250000
 20
      -82.060158
 30
        0.000000
 11
      -32.250000
 21
      -82.845558
 31
        0.000000
  0
LINE
  8
LVL0000
 62
  2
 10
       32.250000
 20
      -82.845558
 30
        0.000000
 11
       35.250000
 21
      -82.060158
 31
        0.000000
  0
LINE
  8
LVL0000
 62
  2
 10
       35.250000
 20
      -82.060158
 30
        0.000000
 11
       32.250000
 21
      -81.274757
 31
        0.000000
  0
LINE
  8
LVL0000
 62
  2
 10
      -35.250000
 20
      -82.060158
 30
        0.000000
 11
       35.250000
 21
      -82.060158
 31
        0.000000
  0
ENDBLK
  0
BLOCK
  8
0
  2
BLK0003
 70
    64
 10
        0.000000
 20
        0.000000
  0
TEXT
  8
LVL0000
 62
  2
 10
      127.514061
 20
      -80.640816
 30
        0.000000
 40
        4.000000
  1
１０２．４
 50
        0.000000
 41
        0.835000
 51
        0.000000
  7
BIGFONT
  0
LINE
  8
LVL0000
 62
  2
 10
      187.649994
 20
       54.500275
 30
        0.000000
 11
      187.649994
 21
      -81.640808
 31
        0.000000
  0
LINE
  8
LVL0000
 62
  2
 10
       85.250000
 20
      -65.000000
 30
        0.000000
 11
       85.250000
 21
      -81.640816
 31
        0.000000
  0
LINE
  8
LVL0000
 62
  2
 10
      184.649994
 20
      -81.926208
 30
        0.000000
 11
      187.649994
 21
      -81.140808
 31
        0.000000
  0
LINE
  8
LVL0000
 62
  2
 10
      187.649994
 20
      -81.140808
 30
        0.000000
 11
      184.649994
 21
      -80.355408
 31
        0.000000
  0
LINE
  8
LVL0000
 62
  2
 10
       88.250000
 20
      -80.355415
 30
        0.000000
 11
       85.250000
 21
      -81.140816
 31
        0.000000
  0
LINE
  8
LVL0000
 62
  2
 10
       85.250000
 20
      -81.140816
 30
        0.000000
 11
       88.250000
 21
      -81.926216
 31
        0.000000
  0
LINE
  8
LVL0000
 62
  2
 10
      187.649994
 20
      -81.140808
 30
        0.000000
 11
       85.250000
 21
      -81.140816
 31
        0.000000
  0
ENDBLK
  0
ENDSEC
  0
SECTION
  2
ENTITIES
  0
LINE
  8
LVL0000
 10
      -67.400000
 20
      -61.549988
 30
        0.000000
 11
      -98.250000
 21
      -61.549988
 31
        0.000000
  0
LINE
  8
LVL0000
 10
      -85.750000
 20
      -62.800000
 30
        0.000000
 11
      -85.750000
 21
      -65.000000
 31
        0.000000
  0
LINE
  8
LVL0000
 10
      -69.750000
 20
        1.000000
 30
        0.000000
 11
      -69.750000
 21
      -59.500000
 31
        0.000000
  0
CIRCLE
  8
LVL0000
 10
      -76.050000
 20
       -7.300000
 30
        0.000000
 40
        3.500000
  0
LINE
  8
LVL0000
 10
      -80.100000
 20
      -22.250000
 30
        0.000000
 11
      -80.100000
 21
      -30.350000
 31
        0.000000
  0
LINE
  8
LVL0000
 10
      -72.000000
 20
      -22.250000
 30
        0.000000
 11
      -72.000000
 21
      -30.350000
 31
        0.000000
  0
LINE
  8
LVL0000
 10
      -80.100000
 20
      -12.750000
 30
        0.000000
 11
      -80.100000
 21
      -20.850000
 31
        0.000000
  0
LINE
  8
LVL0000
 10
      -72.000000
 20
      -12.750000
 30
        0.000000
 11
      -72.000000
 21
      -20.850000
 31
        0.000000
  0
LINE
  8
LVL0000
 10
      -72.000000
 20
       -3.250000
 30
        0.000000
 11
      -72.000000
 21
      -11.350000
 31
        0.000000
  0
LINE
  8
LVL0000
 10
      -80.100000
 20
       -3.250000
 30
        0.000000
 11
      -80.100000
 21
      -11.350000
 31
        0.000000
  0
CIRCLE
  8
LVL0000
 10
      -76.050000
 20
      -26.300000
 30
        0.000000
 40
        3.500000
  0
CIRCLE
  8
LVL0000
 10
      -76.050000
 20
      -16.800000
 30
        0.000000
 40
        3.500000
  0
LINE
  8
LVL0000
 10
      -84.550000
 20
      -20.850000
 30
        0.000000
 11
      -69.750000
 21
      -20.850000
 31
        0.000000
  0
LINE
  8
LVL0000
 10
      -84.550000
 20
      -22.250000
 30
        0.000000
 11
      -69.750000
 21
      -22.250000
 31
        0.000000
  0
LINE
  8
LVL0000
 10
      -84.550000
 20
       -3.250000
 30
        0.000000
 11
      -69.750000
 21
       -3.250000
 31
        0.000000
  0
LINE
  8
LVL0000
 10
      -84.550000
 20
      -11.350000
 30
        0.000000
 11
      -69.750000
 21
      -11.350000
 31
        0.000000
  0
LINE
  8
LVL0000
 10
      -84.550000
 20
      -12.750000
 30
        0.000000
 11
      -69.750000
 21
      -12.750000
 31
        0.000000
  0
LINE
  8
LVL0000
 10
      -84.550000
 20
       -0.550000
 30
        0.000000
 11
      -84.550000
 21
      -61.550000
 31
        0.000000
  0
LINE
  8
LVL0000
 10
      -72.763782
 20
       -6.095521
 30
        0.000000
 11
      -75.230385
 21
       -7.519615
 31
        0.000000
  0
LINE
  8
LVL0000
 10
      -75.230385
 20
       -7.519615
 30
        0.000000
 11
      -74.505385
 21
       -8.775351
 31
        0.000000
  0
LINE
  8
LVL0000
 10
      -75.544616
 20
       -9.375351
 30
        0.000000
 11
      -74.505385
 21
       -8.775351
 31
        0.000000
  0
LINE
  8
LVL0000
 10
      -76.269615
 20
       -8.119615
 30
        0.000000
 11
      -75.544616
 21
       -9.375351
 31
        0.000000
  0
LINE
  8
LVL0000
 10
      -76.269615
 20
       -8.119615
 30
        0.000000
 11
      -78.736218
 21
       -9.543709
 31
        0.000000
  0
LINE
  8
LVL0000
 10
      -76.869615
 20
       -7.080385
 30
        0.000000
 11
      -79.336218
 21
       -8.504479
 31
        0.000000
  0
LINE
  8
LVL0000
 10
      -77.594615
 20
       -5.824649
 30
        0.000000
 11
      -76.869615
 21
       -7.080385
 31
        0.000000
  0
LINE
  8
LVL0000
 10
      -77.594615
 20
       -5.824649
 30
        0.000000
 11
      -76.555384
 21
       -5.224649
 31
        0.000000
  0
LINE
  8
LVL0000
 10
      -76.555384
 20
       -5.224649
 30
        0.000000
 11
      -75.830385
 21
       -6.480385
 31
        0.000000
  0
LINE
  8
LVL0000
 10
      -73.363782
 20
       -5.056291
 30
        0.000000
 11
      -75.830385
 21
       -6.480385
 31
        0.000000
  0
LINE
  8
LVL0000
 10
      -75.544616
 20
      -18.875351
 30
        0.000000
 11
      -74.505385
 21
      -18.275351
 31
        0.000000
  0
LINE
  8
LVL0000
 10
      -75.230385
 20
      -17.019615
 30
        0.000000
 11
      -74.505385
 21
      -18.275351
 31
        0.000000
  0
LINE
  8
LVL0000
 10
      -72.763782
 20
      -15.595521
 30
        0.000000
 11
      -75.230385
 21
      -17.019615
 31
        0.000000
  0
LINE
  8
LVL0000
 10
      -73.363782
 20
      -14.556291
 30
        0.000000
 11
      -75.830385
 21
      -15.980385
 31
        0.000000
  0
LINE
  8
LVL0000
 10
      -76.555384
 20
      -14.724649
 30
        0.000000
 11
      -75.830385
 21
      -15.980385
 31
        0.000000
  0
LINE
  8
LVL0000
 10
      -77.594615
 20
      -15.324649
 30
        0.000000
 11
      -76.555384
 21
      -14.724649
 31
        0.000000
  0
LINE
  8
LVL0000
 10
      -77.594615
 20
      -15.324649
 30
        0.000000
 11
      -76.869615
 21
      -16.580385
 31
        0.000000
  0
LINE
  8
LVL0000
 10
      -76.869615
 20
      -16.580385
 30
        0.000000
 11
      -79.336218
 21
      -18.004479
 31
        0.000000
  0
LINE
  8
LVL0000
 10
      -76.269615
 20
      -17.619615
 30
        0.000000
 11
      -78.736218
 21
      -19.043709
 31
        0.000000
  0
LINE
  8
LVL0000
 10
      -76.269615
 20
      -17.619615
 30
        0.000000
 11
      -75.544616
 21
      -18.875351
 31
        0.000000
  0
LINE
  8
LVL0000
 10
      -84.550000
 20
       -0.950000
 30
        0.000000
 11
      -69.750000
 21
       -0.950000
 31
        0.000000
  0
LINE
  8
LVL0000
 10
      -69.750000
 20
       -1.850000
 30
        0.000000
 11
      -84.550000
 21
       -1.850000
 31
        0.000000
  0
ARC
  8
LVL0000
 10
      -85.450000
 20
      -62.800000
 30
        0.000000
 40
        0.300000
 50
       90.000000
 51
      179.999995
  0
LINE
  8
LVL0000
 10
      -67.400000
 20
      -62.500000
 30
        0.000000
 11
      -85.450000
 21
      -62.500000
 31
        0.000000
  0
LINE
  8
LVL0000
 10
      -70.250000
 20
      -63.700000
 30
        0.000000
 11
      -70.250000
 21
      -65.000000
 31
        0.000000
  0
LINE
  8
LVL0000
 10
      -70.250000
 20
      -63.700000
 30
        0.000000
 11
      -80.250000
 21
      -63.700000
 31
        0.000000
  0
LINE
  8
LVL0000
 10
      -80.250000
 20
      -63.700000
 30
        0.000000
 11
      -80.250000
 21
      -65.000000
 31
        0.000000
  0
LINE
  8
LVL0000
 10
      -67.750000
 20
      -62.900000
 30
        0.000000
 11
      -71.250000
 21
      -62.900000
 31
        0.000000
  0
LINE
  8
LVL0000
 10
      -80.750000
 20
      -62.500000
 30
        0.000000
 11
      -80.750000
 21
      -62.900000
 31
        0.000000
  0
LINE
  8
LVL0000
 10
      -67.750000
 20
      -62.500000
 30
        0.000000
 11
      -67.750000
 21
      -62.900000
 31
        0.000000
  0
LINE
  8
LVL0000
 10
      -71.250000
 20
      -62.500000
 30
        0.000000
 11
      -71.250000
 21
      -62.900000
 31
        0.000000
  0
LINE
  8
LVL0000
 10
      -80.750000
 20
      -62.900000
 30
        0.000000
 11
      -84.250000
 21
      -62.900000
 31
        0.000000
  0
LINE
  8
LVL0000
 10
      -84.250000
 20
      -62.500000
 30
        0.000000
 11
      -84.250000
 21
      -62.900000
 31
        0.000000
  0
LINE
  8
LVL0000
 10
      -80.100000
 20
      -50.750000
 30
        0.000000
 11
      -80.100000
 21
      -58.850000
 31
        0.000000
  0
LINE
  8
LVL0000
 10
      -80.100000
 20
      -41.250000
 30
        0.000000
 11
      -80.100000
 21
      -49.350000
 31
        0.000000
  0
LINE
  8
LVL0000
 10
      -72.000000
 20
      -50.750000
 30
        0.000000
 11
      -72.000000
 21
      -58.850000
 31
        0.000000
  0
LINE
  8
LVL0000
 10
      -72.000000
 20
      -41.250000
 30
        0.000000
 11
      -72.000000
 21
      -49.350000
 31
        0.000000
  0
LINE
  8
LVL0000
 10
      -80.100000
 20
      -31.750000
 30
        0.000000
 11
      -80.100000
 21
      -39.850000
 31
        0.000000
  0
LINE
  8
LVL0000
 10
      -72.000000
 20
      -31.750000
 30
        0.000000
 11
      -72.000000
 21
      -39.850000
 31
        0.000000
  0
CIRCLE
  8
LVL0000
 10
      -76.050000
 20
      -54.800000
 30
        0.000000
 40
        3.500000
  0
CIRCLE
  8
LVL0000
 10
      -76.050000
 20
      -45.300000
 30
        0.000000
 40
        3.500000
  0
CIRCLE
  8
LVL0000
 10
      -76.050000
 20
      -35.800000
 30
        0.000000
 40
        3.500000
  0
LINE
  8
LVL0000
 10
      -84.550000
 20
      -58.850000
 30
        0.000000
 11
      -69.750000
 21
      -58.850000
 31
        0.000000
  0
LINE
  8
LVL0000
 10
      -84.550000
 20
      -30.350000
 30
        0.000000
 11
      -69.750000
 21
      -30.350000
 31
        0.000000
  0
LINE
  8
LVL0000
 10
      -84.550000
 20
      -31.750000
 30
        0.000000
 11
      -69.750000
 21
      -31.750000
 31
        0.000000
  0
LINE
  8
LVL0000
 10
      -84.550000
 20
      -39.850000
 30
        0.000000
 11
      -69.750000
 21
      -39.850000
 31
        0.000000
  0
LINE
  8
LVL0000
 10
      -84.550000
 20
      -41.250000
 30
        0.000000
 11
      -69.750000
 21
      -41.250000
 31
        0.000000
  0
LINE
  8
LVL0000
 10
      -84.550000
 20
      -49.350000
 30
        0.000000
 11
      -69.750000
 21
      -49.350000
 31
        0.000000
  0
LINE
  8
LVL0000
 10
      -84.550000
 20
      -50.750000
 30
        0.000000
 11
      -69.750000
 21
      -50.750000
 31
        0.000000
  0
LINE
  8
LVL0000
 10
      -69.411438
 20
      -60.250000
 30
        0.000000
 11
      -84.550000
 21
      -60.250000
 31
        0.000000
  0
LINE
  8
LVL0000
 10
      -67.550000
 20
      -60.500000
 30
        0.000000
 11
      -67.550000
 21
      -61.150000
 31
        0.000000
  0
LINE
  8
LVL0000
 10
      -67.400000
 20
      -60.500000
 30
        0.000000
 11
      -67.400000
 21
      -62.500000
 31
        0.000000
  0
LINE
  8
LVL0000
 10
      -64.750000
 20
      -60.500000
 30
        0.000000
 11
      -68.750000
 21
      -60.500000
 31
        0.000000
  0
ARC
  8
LVL0000
 10
      -68.750000
 20
      -59.500000
 30
        0.000000
 40
        1.000000
 50
      179.999995
 51
      270.000000
  0
LINE
  8
LVL0000
 10
      -75.544616
 20
      -28.375351
 30
        0.000000
 11
      -74.505385
 21
      -27.775351
 31
        0.000000
  0
LINE
  8
LVL0000
 10
      -75.544616
 20
      -37.875351
 30
        0.000000
 11
      -74.505385
 21
      -37.275351
 31
        0.000000
  0
LINE
  8
LVL0000
 10
      -75.544616
 20
      -47.375351
 30
        0.000000
 11
      -74.505385
 21
      -46.775351
 31
        0.000000
  0
LINE
  8
LVL0000
 10
      -75.544616
 20
      -56.875351
 30
        0.000000
 11
      -74.505385
 21
      -56.275351
 31
        0.000000
  0
LINE
  8
LVL0000
 10
      -75.230385
 20
      -26.519615
 30
        0.000000
 11
      -74.505385
 21
      -27.775351
 31
        0.000000
  0
LINE
  8
LVL0000
 10
      -75.230385
 20
      -36.019615
 30
        0.000000
 11
      -74.505385
 21
      -37.275351
 31
        0.000000
  0
LINE
  8
LVL0000
 10
      -75.230385
 20
      -45.519615
 30
        0.000000
 11
      -74.505385
 21
      -46.775351
 31
        0.000000
  0
LINE
  8
LVL0000
 10
      -75.230385
 20
      -55.019615
 30
        0.000000
 11
      -74.505385
 21
      -56.275351
 31
        0.000000
  0
LINE
  8
LVL0000
 10
      -72.763782
 20
      -25.095521
 30
        0.000000
 11
      -75.230385
 21
      -26.519615
 31
        0.000000
  0
LINE
  8
LVL0000
 10
      -72.763782
 20
      -34.595521
 30
        0.000000
 11
      -75.230385
 21
      -36.019615
 31
        0.000000
  0
LINE
  8
LVL0000
 10
      -72.763782
 20
      -44.095521
 30
        0.000000
 11
      -75.230385
 21
      -45.519615
 31
        0.000000
  0
LINE
  8
LVL0000
 10
      -72.763782
 20
      -53.595521
 30
        0.000000
 11
      -75.230385
 21
      -55.019615
 31
        0.000000
  0
LINE
  8
LVL0000
 10
      -73.363782
 20
      -24.056291
 30
        0.000000
 11
      -75.830385
 21
      -25.480385
 31
        0.000000
  0
LINE
  8
LVL0000
 10
      -73.363782
 20
      -33.556291
 30
        0.000000
 11
      -75.830385
 21
      -34.980385
 31
        0.000000
  0
LINE
  8
LVL0000
 10
      -73.363782
 20
      -43.056291
 30
        0.000000
 11
      -75.830385
 21
      -44.480385
 31
        0.000000
  0
LINE
  8
LVL0000
 10
      -73.363782
 20
      -52.556291
 30
        0.000000
 11
      -75.830385
 21
      -53.980385
 31
        0.000000
  0
LINE
  8
LVL0000
 10
      -76.555384
 20
      -24.224649
 30
        0.000000
 11
      -75.830385
 21
      -25.480385
 31
        0.000000
  0
LINE
  8
LVL0000
 10
      -76.555384
 20
      -33.724649
 30
        0.000000
 11
      -75.830385
 21
      -34.980385
 31
        0.000000
  0
LINE
  8
LVL0000
 10
      -76.555384
 20
      -43.224649
 30
        0.000000
 11
      -75.830385
 21
      -44.480385
 31
        0.000000
  0
LINE
  8
LVL0000
 10
      -76.555384
 20
      -52.724649
 30
        0.000000
 11
      -75.830385
 21
      -53.980385
 31
        0.000000
  0
LINE
  8
LVL0000
 10
      -77.594615
 20
      -24.824649
 30
        0.000000
 11
      -76.555384
 21
      -24.224649
 31
        0.000000
  0
LINE
  8
LVL0000
 10
      -77.594615
 20
      -34.324649
 30
        0.000000
 11
      -76.555384
 21
      -33.724649
 31
        0.000000
  0
LINE
  8
LVL0000
 10
      -77.594615
 20
      -43.824649
 30
        0.000000
 11
      -76.555384
 21
      -43.224649
 31
        0.000000
  0
LINE
  8
LVL0000
 10
      -77.594615
 20
      -53.324649
 30
        0.000000
 11
      -76.555384
 21
      -52.724649
 31
        0.000000
  0
LINE
  8
LVL0000
 10
      -77.594615
 20
      -24.824649
 30
        0.000000
 11
      -76.869615
 21
      -26.080385
 31
        0.000000
  0
LINE
  8
LVL0000
 10
      -77.594615
 20
      -34.324649
 30
        0.000000
 11
      -76.869615
 21
      -35.580385
 31
        0.000000
  0
LINE
  8
LVL0000
 10
      -77.594615
 20
      -43.824649
 30
        0.000000
 11
      -76.869615
 21
      -45.080385
 31
        0.000000
  0
LINE
  8
LVL0000
 10
      -77.594615
 20
      -53.324649
 30
        0.000000
 11
      -76.869615
 21
      -54.580385
 31
        0.000000
  0
LINE
  8
LVL0000
 10
      -76.869615
 20
      -26.080385
 30
        0.000000
 11
      -79.336218
 21
      -27.504479
 31
        0.000000
  0
LINE
  8
LVL0000
 10
      -76.869615
 20
      -35.580385
 30
        0.000000
 11
      -79.336218
 21
      -37.004479
 31
        0.000000
  0
LINE
  8
LVL0000
 10
      -76.869615
 20
      -45.080385
 30
        0.000000
 11
      -79.336218
 21
      -46.504479
 31
        0.000000
  0
LINE
  8
LVL0000
 10
      -76.869615
 20
      -54.580385
 30
        0.000000
 11
      -79.336218
 21
      -56.004479
 31
        0.000000
  0
LINE
  8
LVL0000
 10
      -76.269615
 20
      -27.119615
 30
        0.000000
 11
      -78.736218
 21
      -28.543709
 31
        0.000000
  0
LINE
  8
LVL0000
 10
      -76.269615
 20
      -36.619615
 30
        0.000000
 11
      -78.736218
 21
      -38.043709
 31
        0.000000
  0
LINE
  8
LVL0000
 10
      -76.269615
 20
      -46.119615
 30
        0.000000
 11
      -78.736218
 21
      -47.543709
 31
        0.000000
  0
LINE
  8
LVL0000
 10
      -76.269615
 20
      -55.619615
 30
        0.000000
 11
      -78.736218
 21
      -57.043709
 31
        0.000000
  0
LINE
  8
LVL0000
 10
      -76.269615
 20
      -27.119615
 30
        0.000000
 11
      -75.544616
 21
      -28.375351
 31
        0.000000
  0
LINE
  8
LVL0000
 10
      -76.269615
 20
      -36.619615
 30
        0.000000
 11
      -75.544616
 21
      -37.875351
 31
        0.000000
  0
LINE
  8
LVL0000
 10
      -76.269615
 20
      -46.119615
 30
        0.000000
 11
      -75.544616
 21
      -47.375351
 31
        0.000000
  0
LINE
  8
LVL0000
 10
      -76.269615
 20
      -55.619615
 30
        0.000000
 11
      -75.544616
 21
      -56.875351
 31
        0.000000
  0
LINE
  8
LVL0000
 10
      -80.250000
 20
      -61.550000
 30
        0.000000
 11
      -80.250000
 21
      -62.500000
 31
        0.000000
  0
LINE
  8
LVL0000
 10
      -79.250000
 20
      -61.550000
 30
        0.000000
 11
      -79.250000
 21
      -62.500000
 31
        0.000000
  0
LINE
  8
LVL0000
 10
      -84.550000
 20
      -61.150000
 30
        0.000000
 11
      -67.550000
 21
      -61.150000
 31
        0.000000
  0
LINE
  8
LVL0000
 10
      -69.750000
 20
       -0.549988
 30
        0.000000
 11
      -98.250000
 21
       -0.549988
 31
        0.000000
  0
LINE
  8
LVL0000
 10
      -89.149658
 20
       21.999176
 30
        0.000000
 11
      -89.149658
 21
       21.499176
 31
        0.000000
  0
LINE
  8
LVL0000
 10
      -88.149658
 20
       22.499176
 30
        0.000000
 11
      -89.149658
 21
       21.499176
 31
        0.000000
  0
LINE
  8
LVL0000
 10
      -88.149658
 20
       22.499176
 30
        0.000000
 11
      -89.149658
 21
       23.499176
 31
        0.000000
  0
LINE
  8
LVL0000
 10
      -89.149658
 20
       23.499176
 30
        0.000000
 11
      -89.149658
 21
       22.999176
 31
        0.000000
  0
LINE
  8
LVL0000
 10
      -91.149658
 20
       22.999176
 30
        0.000000
 11
      -91.149658
 21
       21.999176
 31
        0.000000
  0
LINE
  8
LVL0000
 10
      -89.149658
 20
       21.999176
 30
        0.000000
 11
      -91.149658
 21
       21.999176
 31
        0.000000
  0
LINE
  8
LVL0000
 10
      -89.149658
 20
       22.999176
 30
        0.000000
 11
      -91.149658
 21
       22.999176
 31
        0.000000
  0
CIRCLE
  8
LVL0000
 10
      -89.649658
 20
       22.499664
 30
        0.000000
 40
        2.000000
  0
LINE
  8
LVL0000
 10
      -99.750000
 20
       39.000015
 30
        0.000000
 11
      -64.750000
 21
       39.000015
 31
        0.000000
  0
LINE
  8
LVL0000
 10
      -64.750000
 20
       57.000015
 30
        0.000000
 11
      -99.750000
 21
       57.000015
 31
        0.000000
  0
LINE
  8
LVL0000
 10
      -99.750000
 20
       38.000015
 30
        0.000000
 11
      -64.750000
 21
       38.000015
 31
        0.000000
  0
LINE
  8
LVL0000
 10
      -99.750000
 20
       30.000015
 30
        0.000000
 11
      -64.750000
 21
       30.000015
 31
        0.000000
  0
LINE
  8
LVL0000
 10
      -66.150024
 20
       63.500015
 30
        0.000000
 11
      -66.150024
 21
       58.000015
 31
        0.000000
  0
LINE
  8
LVL0000
 10
      -98.349976
 20
       63.500015
 30
        0.000000
 11
      -98.349976
 21
       58.000015
 31
        0.000000
  0
LINE
  8
LVL0000
 10
      -98.349976
 20
       58.000015
 30
        0.000000
 11
      -66.150024
 21
       58.000015
 31
        0.000000
  0
LINE
  8
LVL0000
 10
      -98.349976
 20
       63.500015
 30
        0.000000
 11
      -66.150024
 21
       63.500015
 31
        0.000000
  0
LINE
  8
LVL0000
 10
      -98.250000
 20
       -0.549988
 30
        0.000000
 11
      -98.250000
 21
      -61.549988
 31
        0.000000
  0
LINE
  8
LVL0000
 10
      -74.850403
 20
       54.400406
 30
        0.000000
 11
      -73.250427
 21
       54.400406
 31
        0.000000
  0
LINE
  8
LVL0000
 10
      -74.850403
 20
       44.500504
 30
        0.000000
 11
      -73.250427
 21
       44.500504
 31
        0.000000
  0
LINE
  8
LVL0000
 10
      -74.850403
 20
       47.700455
 30
        0.000000
 11
      -73.250427
 21
       47.700455
 31
        0.000000
  0
LINE
  8
LVL0000
 10
      -74.850403
 20
       51.200455
 30
        0.000000
 11
      -73.250427
 21
       51.200455
 31
        0.000000
  0
LINE
  8
LVL0000
 10
      -73.250427
 20
       54.400406
 30
        0.000000
 11
      -73.250427
 21
       51.200455
 31
        0.000000
  0
LINE
  8
LVL0000
 10
      -73.250427
 20
       47.700455
 30
        0.000000
 11
      -73.250427
 21
       44.500504
 31
        0.000000
  0
LINE
  8
LVL0000
 10
      -74.850403
 20
       54.400406
 30
        0.000000
 11
      -74.850403
 21
       51.200455
 31
        0.000000
  0
LINE
  8
LVL0000
 10
      -74.850403
 20
       47.700455
 30
        0.000000
 11
      -74.850403
 21
       44.500504
 31
        0.000000
  0
LINE
  8
LVL0000
 10
      -77.550354
 20
       54.400406
 30
        0.000000
 11
      -75.950500
 21
       54.400406
 31
        0.000000
  0
LINE
  8
LVL0000
 10
      -77.550354
 20
       44.500504
 30
        0.000000
 11
      -75.950500
 21
       44.500504
 31
        0.000000
  0
LINE
  8
LVL0000
 10
      -77.550354
 20
       47.700455
 30
        0.000000
 11
      -75.950500
 21
       47.700455
 31
        0.000000
  0
LINE
  8
LVL0000
 10
      -77.550354
 20
       51.200455
 30
        0.000000
 11
      -75.950500
 21
       51.200455
 31
        0.000000
  0
LINE
  8
LVL0000
 10
      -75.950500
 20
       54.400406
 30
        0.000000
 11
      -75.950500
 21
       51.200455
 31
        0.000000
  0
LINE
  8
LVL0000
 10
      -75.950500
 20
       47.700455
 30
        0.000000
 11
      -75.950500
 21
       44.500504
 31
        0.000000
  0
LINE
  8
LVL0000
 10
      -77.550354
 20
       54.400406
 30
        0.000000
 11
      -77.550354
 21
       51.200455
 31
        0.000000
  0
LINE
  8
LVL0000
 10
      -77.550354
 20
       47.700455
 30
        0.000000
 11
      -77.550354
 21
       44.500504
 31
        0.000000
  0
LINE
  8
LVL0000
 10
      -80.250427
 20
       54.400406
 30
        0.000000
 11
      -78.650452
 21
       54.400406
 31
        0.000000
  0
LINE
  8
LVL0000
 10
      -80.250427
 20
       44.500504
 30
        0.000000
 11
      -78.650452
 21
       44.500504
 31
        0.000000
  0
LINE
  8
LVL0000
 10
      -80.250427
 20
       47.700455
 30
        0.000000
 11
      -78.650452
 21
       47.700455
 31
        0.000000
  0
LINE
  8
LVL0000
 10
      -80.250427
 20
       51.200455
 30
        0.000000
 11
      -78.650452
 21
       51.200455
 31
        0.000000
  0
LINE
  8
LVL0000
 10
      -78.650452
 20
       54.400406
 30
        0.000000
 11
      -78.650452
 21
       51.200455
 31
        0.000000
  0
LINE
  8
LVL0000
 10
      -78.650452
 20
       47.700455
 30
        0.000000
 11
      -78.650452
 21
       44.500504
 31
        0.000000
  0
LINE
  8
LVL0000
 10
      -80.250427
 20
       54.400406
 30
        0.000000
 11
      -80.250427
 21
       51.200455
 31
        0.000000
  0
LINE
  8
LVL0000
 10
      -80.250427
 20
       47.700455
 30
        0.000000
 11
      -80.250427
 21
       44.500504
 31
        0.000000
  0
LINE
  8
LVL0000
 10
      -82.950378
 20
       54.400406
 30
        0.000000
 11
      -81.350403
 21
       54.400406
 31
        0.000000
  0
LINE
  8
LVL0000
 10
      -82.950378
 20
       44.500504
 30
        0.000000
 11
      -81.350403
 21
       44.500504
 31
        0.000000
  0
LINE
  8
LVL0000
 10
      -82.950378
 20
       47.700455
 30
        0.000000
 11
      -81.350403
 21
       47.700455
 31
        0.000000
  0
LINE
  8
LVL0000
 10
      -82.950378
 20
       51.200455
 30
        0.000000
 11
      -81.350403
 21
       51.200455
 31
        0.000000
  0
LINE
  8
LVL0000
 10
      -81.350403
 20
       54.400406
 30
        0.000000
 11
      -81.350403
 21
       51.200455
 31
        0.000000
  0
LINE
  8
LVL0000
 10
      -81.350403
 20
       47.700455
 30
        0.000000
 11
      -81.350403
 21
       44.500504
 31
        0.000000
  0
LINE
  8
LVL0000
 10
      -82.950378
 20
       54.400406
 30
        0.000000
 11
      -82.950378
 21
       51.200455
 31
        0.000000
  0
LINE
  8
LVL0000
 10
      -82.950378
 20
       47.700455
 30
        0.000000
 11
      -82.950378
 21
       44.500504
 31
        0.000000
  0
LINE
  8
LVL0000
 10
      -85.650452
 20
       54.400406
 30
        0.000000
 11
      -84.050354
 21
       54.400406
 31
        0.000000
  0
LINE
  8
LVL0000
 10
      -85.650452
 20
       44.500504
 30
        0.000000
 11
      -84.050354
 21
       44.500504
 31
        0.000000
  0
LINE
  8
LVL0000
 10
      -85.650452
 20
       47.700455
 30
        0.000000
 11
      -84.050354
 21
       47.700455
 31
        0.000000
  0
LINE
  8
LVL0000
 10
      -85.650452
 20
       51.200455
 30
        0.000000
 11
      -84.050354
 21
       51.200455
 31
        0.000000
  0
LINE
  8
LVL0000
 10
      -84.050354
 20
       54.400406
 30
        0.000000
 11
      -84.050354
 21
       51.200455
 31
        0.000000
  0
LINE
  8
LVL0000
 10
      -84.050354
 20
       47.700455
 30
        0.000000
 11
      -84.050354
 21
       44.500504
 31
        0.000000
  0
LINE
  8
LVL0000
 10
      -85.650452
 20
       54.400406
 30
        0.000000
 11
      -85.650452
 21
       51.200455
 31
        0.000000
  0
LINE
  8
LVL0000
 10
      -85.650452
 20
       47.700455
 30
        0.000000
 11
      -85.650452
 21
       44.500504
 31
        0.000000
  0
LINE
  8
LVL0000
 10
      -88.350403
 20
       54.400406
 30
        0.000000
 11
      -86.750427
 21
       54.400406
 31
        0.000000
  0
LINE
  8
LVL0000
 10
      -88.350403
 20
       44.500504
 30
        0.000000
 11
      -86.750427
 21
       44.500504
 31
        0.000000
  0
LINE
  8
LVL0000
 10
      -88.350403
 20
       47.700455
 30
        0.000000
 11
      -86.750427
 21
       47.700455
 31
        0.000000
  0
LINE
  8
LVL0000
 10
      -88.350403
 20
       51.200455
 30
        0.000000
 11
      -86.750427
 21
       51.200455
 31
        0.000000
  0
LINE
  8
LVL0000
 10
      -86.750427
 20
       54.400406
 30
        0.000000
 11
      -86.750427
 21
       51.200455
 31
        0.000000
  0
LINE
  8
LVL0000
 10
      -86.750427
 20
       47.700455
 30
        0.000000
 11
      -86.750427
 21
       44.500504
 31
        0.000000
  0
LINE
  8
LVL0000
 10
      -88.350403
 20
       54.400406
 30
        0.000000
 11
      -88.350403
 21
       51.200455
 31
        0.000000
  0
LINE
  8
LVL0000
 10
      -88.350403
 20
       47.700455
 30
        0.000000
 11
      -88.350403
 21
       44.500504
 31
        0.000000
  0
LINE
  8
LVL0000
 10
      -91.050354
 20
       54.400406
 30
        0.000000
 11
      -89.450500
 21
       54.400406
 31
        0.000000
  0
LINE
  8
LVL0000
 10
      -91.050354
 20
       44.500504
 30
        0.000000
 11
      -89.450500
 21
       44.500504
 31
        0.000000
  0
LINE
  8
LVL0000
 10
      -91.050354
 20
       47.700455
 30
        0.000000
 11
      -89.450500
 21
       47.700455
 31
        0.000000
  0
LINE
  8
LVL0000
 10
      -91.050354
 20
       51.200455
 30
        0.000000
 11
      -89.450500
 21
       51.200455
 31
        0.000000
  0
LINE
  8
LVL0000
 10
      -89.450500
 20
       54.400406
 30
        0.000000
 11
      -89.450500
 21
       51.200455
 31
        0.000000
  0
LINE
  8
LVL0000
 10
      -89.450500
 20
       47.700455
 30
        0.000000
 11
      -89.450500
 21
       44.500504
 31
        0.000000
  0
LINE
  8
LVL0000
 10
      -91.050354
 20
       54.400406
 30
        0.000000
 11
      -91.050354
 21
       51.200455
 31
        0.000000
  0
LINE
  8
LVL0000
 10
      -91.050354
 20
       47.700455
 30
        0.000000
 11
      -91.050354
 21
       44.500504
 31
        0.000000
  0
LINE
  8
LVL0000
 10
      -93.750427
 20
       54.400406
 30
        0.000000
 11
      -92.150452
 21
       54.400406
 31
        0.000000
  0
LINE
  8
LVL0000
 10
      -93.750427
 20
       44.500504
 30
        0.000000
 11
      -92.150452
 21
       44.500504
 31
        0.000000
  0
LINE
  8
LVL0000
 10
      -93.750427
 20
       47.700455
 30
        0.000000
 11
      -92.150452
 21
       47.700455
 31
        0.000000
  0
LINE
  8
LVL0000
 10
      -93.750427
 20
       51.200455
 30
        0.000000
 11
      -92.150452
 21
       51.200455
 31
        0.000000
  0
LINE
  8
LVL0000
 10
      -92.150452
 20
       54.400406
 30
        0.000000
 11
      -92.150452
 21
       51.200455
 31
        0.000000
  0
LINE
  8
LVL0000
 10
      -92.150452
 20
       47.700455
 30
        0.000000
 11
      -92.150452
 21
       44.500504
 31
        0.000000
  0
LINE
  8
LVL0000
 10
      -93.750427
 20
       54.400406
 30
        0.000000
 11
      -93.750427
 21
       51.200455
 31
        0.000000
  0
LINE
  8
LVL0000
 10
      -93.750427
 20
       47.700455
 30
        0.000000
 11
      -93.750427
 21
       44.500504
 31
        0.000000
  0
CIRCLE
  8
LVL0000
 10
      -89.649658
 20
       22.499664
 30
        0.000000
 40
        5.000000
  0
LINE
  8
LVL0000
 10
      -99.750000
 20
        4.000000
 30
        0.000000
 11
      -64.750000
 21
        4.000000
 31
        0.000000
  0
LINE
  8
LVL0000
 10
      -85.250000
 20
       28.500015
 30
        0.000000
 11
      -79.250000
 21
       28.500015
 31
        0.000000
  0
LINE
  8
LVL0000
 10
      -79.250000
 20
       30.000015
 30
        0.000000
 11
      -79.250000
 21
       28.500015
 31
        0.000000
  0
LINE
  8
LVL0000
 10
      -85.250000
 20
       30.000015
 30
        0.000000
 11
      -85.250000
 21
       28.500015
 31
        0.000000
  0
ARC
  8
LVL0000
 10
      -87.573529
 20
        8.704204
 30
        0.000000
 40
        0.500000
 50
      270.000000
 51
      360.000000
  0
LINE
  8
LVL0000
 10
      -87.573529
 20
        8.204204
 30
        0.000000
 11
      -92.573529
 21
        8.204204
 31
        0.000000
  0
ARC
  8
LVL0000
 10
      -92.573529
 20
        8.704204
 30
        0.000000
 40
        0.500000
 50
      179.999995
 51
      270.000000
  0
LINE
  8
LVL0000
 10
      -93.073529
 20
       14.704204
 30
        0.000000
 11
      -93.073529
 21
        8.704204
 31
        0.000000
  0
ARC
  8
LVL0000
 10
      -92.573529
 20
       14.704204
 30
        0.000000
 40
        0.500000
 50
       90.000000
 51
      179.999995
  0
LINE
  8
LVL0000
 10
      -87.073529
 20
       14.704204
 30
        0.000000
 11
      -87.073529
 21
        8.704204
 31
        0.000000
  0
LINE
  8
LVL0000
 10
      -87.573529
 20
       15.204204
 30
        0.000000
 11
      -92.573529
 21
       15.204204
 31
        0.000000
  0
ARC
  8
LVL0000
 10
      -87.573529
 20
       14.704204
 30
        0.000000
 40
        0.500000
 50
        0.000000
 51
       90.000000
  0
LINE
  8
LVL0000
 10
      -64.750000
 20
       40.499710
 30
        0.000000
 11
      -99.750000
 21
       40.499710
 31
        0.000000
  0
LINE
  8
LVL0000
 10
      -99.750000
 20
       57.000015
 30
        0.000000
 11
      -99.750000
 21
       38.000015
 31
        0.000000
  0
LINE
  8
LVL0000
 10
      -99.750000
 20
       30.000015
 30
        0.000000
 11
      -99.750000
 21
        4.000000
 31
        0.000000
  0
LINE
  8
LVL0000
 10
      -64.750000
 20
        1.000000
 30
        0.000000
 11
     -135.250000
 21
        1.000000
 31
        0.000000
  0
LINE
  8
LVL0000
 10
     -100.450000
 20
        1.700000
 30
        0.000000
 11
     -134.550000
 21
        1.700000
 31
        0.000000
  0
LINE
  8
LVL0000
 10
     -134.550000
 20
        1.700000
 30
        0.000000
 11
     -134.550000
 21
       64.300000
 31
        0.000000
  0
LINE
  8
LVL0000
 10
     -134.550000
 20
       64.300000
 30
        0.000000
 11
     -100.450000
 21
       64.300000
 31
        0.000000
  0
LINE
  8
LVL0000
 10
     -100.450000
 20
       64.300000
 30
        0.000000
 11
     -100.450000
 21
        1.700000
 31
        0.000000
  0
LINE
  8
LVL0000
  6
CENTER
 10
     -100.000000
 20
       74.460789
 30
        0.000000
 11
     -100.000000
 21
      -70.484236
 31
        0.000000
  0
LINE
  8
LVL0000
  6
CENTER
 10
     -149.372998
 20
        0.000000
 30
        0.000000
 11
      -56.286542
 21
        0.000000
 31
        0.000000
  0
ARC
  8
LVL0000
 10
      -65.250000
 20
      -64.500000
 30
        0.000000
 40
        0.500000
 50
      270.000000
 51
      360.000000
  0
ARC
  8
LVL0000
 10
     -134.750000
 20
      -64.500000
 30
        0.000000
 40
        0.500000
 50
      180.000010
 51
      270.000000
  0
LINE
  8
LVL0000
 10
      -65.250000
 20
      -65.000000
 30
        0.000000
 11
     -134.750000
 21
      -65.000000
 31
        0.000000
  0
LINE
  8
LVL0000
 10
     -135.250000
 20
      -64.500000
 30
        0.000000
 11
     -135.250000
 21
       64.500000
 31
        0.000000
  0
ARC
  8
LVL0000
 10
     -134.750000
 20
       64.500000
 30
        0.000000
 40
        0.500000
 50
       90.000000
 51
      180.000010
  0
LINE
  8
LVL0000
 10
      -64.750000
 20
      -64.500000
 30
        0.000000
 11
      -64.750000
 21
       64.500000
 31
        0.000000
  0
ARC
  8
LVL0000
 10
      -65.250000
 20
       64.500000
 30
        0.000000
 40
        0.500000
 50
        0.000000
 51
       90.000000
  0
LINE
  8
LVL0000
 10
      -65.250000
 20
       65.000000
 30
        0.000000
 11
     -134.750000
 21
       65.000000
 31
        0.000000
  0
LINE
  8
LVL0000
 10
      -64.750000
 20
       39.000000
 30
        0.000000
 11
      -64.750000
 21
       57.000000
 31
        0.000000
  0
DIMENSION
  8
LVL0000
 62
  5
  2
BLK0001
 10
       52.490704
 20
       65.000000
 11
       51.990704
 21
       -6.000000
 13
       34.750000
 23
       65.000000
 14
       34.750000
 24
      -65.000000
 50
       90.0
 70
  0
  0
DIMENSION
  8
LVL0000
 62
  5
  2
BLK0002
 10
      -35.250000
 20
      -82.060158
 11
       -7.706673
 21
      -81.560158
 13
      -35.250000
 23
      -64.500000
 14
       35.250000
 24
      -64.500000
 50
        0.0
 70
  0
  0
DIMENSION
  8
LVL0000
 62
  5
  2
BLK0003
 10
      187.649994
 20
      -81.140808
 11
      127.514061
 21
      -80.640816
 13
      187.649994
 23
       55.500275
 14
       85.250000
 24
      -64.000000
 50
        0.0
 70
  0
  0
LINE
  8
LVL0000
 10
      176.299964
 20
       12.250287
 30
        0.000000
 11
      126.799964
 21
       12.250287
 31
        0.000000
  0
LINE
  8
LVL0000
 10
       35.250000
 20
       39.000000
 30
        0.000000
 11
       35.250000
 21
       57.000000
 31
        0.000000
  0
LINE
  8
LVL0000
 10
       34.750000
 20
       65.000000
 30
        0.000000
 11
      -34.750000
 21
       65.000000
 31
        0.000000
  0
ARC
  8
LVL0000
 10
       34.750000
 20
       64.500000
 30
        0.000000
 40
        0.500000
 50
        0.000000
 51
       90.000000
  0
LINE
  8
LVL0000
 10
       35.250000
 20
      -64.500000
 30
        0.000000
 11
       35.250000
 21
       64.500000
 31
        0.000000
  0
ARC
  8
LVL0000
 10
      -34.750000
 20
       64.500000
 30
        0.000000
 40
        0.500000
 50
       90.000000
 51
      180.000010
  0
LINE
  8
LVL0000
 10
      -35.250000
 20
      -64.500000
 30
        0.000000
 11
      -35.250000
 21
       64.500000
 31
        0.000000
  0
LINE
  8
LVL0000
 10
       34.750000
 20
      -65.000000
 30
        0.000000
 11
      -34.750000
 21
      -65.000000
 31
        0.000000
  0
ARC
  8
LVL0000
 10
      -34.750000
 20
      -64.500000
 30
        0.000000
 40
        0.500000
 50
      180.000010
 51
      270.000000
  0
ARC
  8
LVL0000
 10
       34.750000
 20
      -64.500000
 30
        0.000000
 40
        0.500000
 50
      270.000000
 51
      360.000000
  0
LINE
  8
LVL0000
  6
CENTER
 10
      -49.372998
 20
        0.000000
 30
        0.000000
 11
       43.713458
 21
        0.000000
 31
        0.000000
  0
LINE
  8
LVL0000
  6
CENTER
 10
        0.000000
 20
       74.460789
 30
        0.000000
 11
        0.000000
 21
      -70.484236
 31
        0.000000
  0
LINE
  8
LVL0000
 10
      117.250000
 20
       84.999992
 30
        0.000000
 11
      117.249992
 21
      155.499992
 31
        0.000000
  0
LINE
  8
LVL0000
 10
      117.250000
 20
       84.999992
 30
        0.000000
 11
       85.749985
 21
       84.999992
 31
        0.000000
  0
LINE
  8
LVL0000
 10
       -0.450000
 20
       64.300000
 30
        0.000000
 11
       -0.450000
 21
        1.700000
 31
        0.000000
  0
LINE
  8
LVL0000
 10
      -34.550000
 20
       64.300000
 30
        0.000000
 11
       -0.450000
 21
       64.300000
 31
        0.000000
  0
LINE
  8
LVL0000
 10
      -34.550000
 20
        1.700000
 30
        0.000000
 11
      -34.550000
 21
       64.300000
 31
        0.000000
  0
LINE
  8
LVL0000
 10
       -0.450000
 20
        1.700000
 30
        0.000000
 11
      -34.550000
 21
        1.700000
 31
        0.000000
  0
LINE
  8
LVL0000
 10
       35.250000
 20
        1.000000
 30
        0.000000
 11
      -35.250000
 21
        1.000000
 31
        0.000000
  0
LINE
  8
LVL0000
 10
        0.250000
 20
       30.000015
 30
        0.000000
 11
        0.250000
 21
        4.000000
 31
        0.000000
  0
LINE
  8
LVL0000
 10
        0.250000
 20
       57.000015
 30
        0.000000
 11
        0.250000
 21
       38.000015
 31
        0.000000
  0
LINE
  8
LVL0000
 10
       35.250000
 20
       40.499710
 30
        0.000000
 11
        0.250000
 21
       40.499710
 31
        0.000000
  0
ARC
  8
LVL0000
 10
       12.426471
 20
       14.704204
 30
        0.000000
 40
        0.500000
 50
        0.000000
 51
       90.000000
  0
LINE
  8
LVL0000
 10
       12.426471
 20
       15.204204
 30
        0.000000
 11
        7.426471
 21
       15.204204
 31
        0.000000
  0
LINE
  8
LVL0000
 10
       12.926471
 20
       14.704204
 30
        0.000000
 11
       12.926471
 21
        8.704204
 31
        0.000000
  0
ARC
  8
LVL0000
 10
        7.426471
 20
       14.704204
 30
        0.000000
 40
        0.500000
 50
       90.000000
 51
      179.999995
  0
LINE
  8
LVL0000
 10
        6.926471
 20
       14.704204
 30
        0.000000
 11
        6.926471
 21
        8.704204
 31
        0.000000
  0
ARC
  8
LVL0000
 10
        7.426471
 20
        8.704204
 30
        0.000000
 40
        0.500000
 50
      179.999995
 51
      270.000000
  0
LINE
  8
LVL0000
 10
       12.426471
 20
        8.204204
 30
        0.000000
 11
        7.426471
 21
        8.204204
 31
        0.000000
  0
ARC
  8
LVL0000
 10
       12.426471
 20
        8.704204
 30
        0.000000
 40
        0.500000
 50
      270.000000
 51
      360.000000
  0
LINE
  8
LVL0000
 10
       14.750000
 20
       30.000015
 30
        0.000000
 11
       14.750000
 21
       28.500015
 31
        0.000000
  0
LINE
  8
LVL0000
 10
       20.750000
 20
       30.000015
 30
        0.000000
 11
       20.750000
 21
       28.500015
 31
        0.000000
  0
LINE
  8
LVL0000
 10
       14.750000
 20
       28.500015
 30
        0.000000
 11
       20.750000
 21
       28.500015
 31
        0.000000
  0
LINE
  8
LVL0000
 10
        0.250000
 20
        4.000000
 30
        0.000000
 11
       35.250000
 21
        4.000000
 31
        0.000000
  0
CIRCLE
  8
LVL0000
 10
       10.350342
 20
       22.499664
 30
        0.000000
 40
        5.000000
  0
LINE
  8
LVL0000
 10
        6.249573
 20
       47.700455
 30
        0.000000
 11
        6.249573
 21
       44.500504
 31
        0.000000
  0
LINE
  8
LVL0000
 10
        6.249573
 20
       54.400406
 30
        0.000000
 11
        6.249573
 21
       51.200455
 31
        0.000000
  0
LINE
  8
LVL0000
 10
        7.849548
 20
       47.700455
 30
        0.000000
 11
        7.849548
 21
       44.500504
 31
        0.000000
  0
LINE
  8
LVL0000
 10
        7.849548
 20
       54.400406
 30
        0.000000
 11
        7.849548
 21
       51.200455
 31
        0.000000
  0
LINE
  8
LVL0000
 10
        6.249573
 20
       51.200455
 30
        0.000000
 11
        7.849548
 21
       51.200455
 31
        0.000000
  0
LINE
  8
LVL0000
 10
        6.249573
 20
       47.700455
 30
        0.000000
 11
        7.849548
 21
       47.700455
 31
        0.000000
  0
LINE
  8
LVL0000
 10
        6.249573
 20
       44.500504
 30
        0.000000
 11
        7.849548
 21
       44.500504
 31
        0.000000
  0
LINE
  8
LVL0000
 10
        6.249573
 20
       54.400406
 30
        0.000000
 11
        7.849548
 21
       54.400406
 31
        0.000000
  0
LINE
  8
LVL0000
 10
        8.949646
 20
       47.700455
 30
        0.000000
 11
        8.949646
 21
       44.500504
 31
        0.000000
  0
LINE
  8
LVL0000
 10
        8.949646
 20
       54.400406
 30
        0.000000
 11
        8.949646
 21
       51.200455
 31
        0.000000
  0
LINE
  8
LVL0000
 10
       10.549500
 20
       47.700455
 30
        0.000000
 11
       10.549500
 21
       44.500504
 31
        0.000000
  0
LINE
  8
LVL0000
 10
       10.549500
 20
       54.400406
 30
        0.000000
 11
       10.549500
 21
       51.200455
 31
        0.000000
  0
LINE
  8
LVL0000
 10
        8.949646
 20
       51.200455
 30
        0.000000
 11
       10.549500
 21
       51.200455
 31
        0.000000
  0
LINE
  8
LVL0000
 10
        8.949646
 20
       47.700455
 30
        0.000000
 11
       10.549500
 21
       47.700455
 31
        0.000000
  0
LINE
  8
LVL0000
 10
        8.949646
 20
       44.500504
 30
        0.000000
 11
       10.549500
 21
       44.500504
 31
        0.000000
  0
LINE
  8
LVL0000
 10
        8.949646
 20
       54.400406
 30
        0.000000
 11
       10.549500
 21
       54.400406
 31
        0.000000
  0
LINE
  8
LVL0000
 10
       11.649597
 20
       47.700455
 30
        0.000000
 11
       11.649597
 21
       44.500504
 31
        0.000000
  0
LINE
  8
LVL0000
 10
       11.649597
 20
       54.400406
 30
        0.000000
 11
       11.649597
 21
       51.200455
 31
        0.000000
  0
LINE
  8
LVL0000
 10
       13.249573
 20
       47.700455
 30
        0.000000
 11
       13.249573
 21
       44.500504
 31
        0.000000
  0
LINE
  8
LVL0000
 10
       13.249573
 20
       54.400406
 30
        0.000000
 11
       13.249573
 21
       51.200455
 31
        0.000000
  0
LINE
  8
LVL0000
 10
       11.649597
 20
       51.200455
 30
        0.000000
 11
       13.249573
 21
       51.200455
 31
        0.000000
  0
LINE
  8
LVL0000
 10
       11.649597
 20
       47.700455
 30
        0.000000
 11
       13.249573
 21
       47.700455
 31
        0.000000
  0
LINE
  8
LVL0000
 10
       11.649597
 20
       44.500504
 30
        0.000000
 11
       13.249573
 21
       44.500504
 31
        0.000000
  0
LINE
  8
LVL0000
 10
       11.649597
 20
       54.400406
 30
        0.000000
 11
       13.249573
 21
       54.400406
 31
        0.000000
  0
LINE
  8
LVL0000
 10
       14.349548
 20
       47.700455
 30
        0.000000
 11
       14.349548
 21
       44.500504
 31
        0.000000
  0
LINE
  8
LVL0000
 10
       14.349548
 20
       54.400406
 30
        0.000000
 11
       14.349548
 21
       51.200455
 31
        0.000000
  0
LINE
  8
LVL0000
 10
       15.949646
 20
       47.700455
 30
        0.000000
 11
       15.949646
 21
       44.500504
 31
        0.000000
  0
LINE
  8
LVL0000
 10
       15.949646
 20
       54.400406
 30
        0.000000
 11
       15.949646
 21
       51.200455
 31
        0.000000
  0
LINE
  8
LVL0000
 10
       14.349548
 20
       51.200455
 30
        0.000000
 11
       15.949646
 21
       51.200455
 31
        0.000000
  0
LINE
  8
LVL0000
 10
       14.349548
 20
       47.700455
 30
        0.000000
 11
       15.949646
 21
       47.700455
 31
        0.000000
  0
LINE
  8
LVL0000
 10
       14.349548
 20
       44.500504
 30
        0.000000
 11
       15.949646
 21
       44.500504
 31
        0.000000
  0
LINE
  8
LVL0000
 10
       14.349548
 20
       54.400406
 30
        0.000000
 11
       15.949646
 21
       54.400406
 31
        0.000000
  0
LINE
  8
LVL0000
 10
       17.049622
 20
       47.700455
 30
        0.000000
 11
       17.049622
 21
       44.500504
 31
        0.000000
  0
LINE
  8
LVL0000
 10
       17.049622
 20
       54.400406
 30
        0.000000
 11
       17.049622
 21
       51.200455
 31
        0.000000
  0
LINE
  8
LVL0000
 10
       18.649597
 20
       47.700455
 30
        0.000000
 11
       18.649597
 21
       44.500504
 31
        0.000000
  0
LINE
  8
LVL0000
 10
       18.649597
 20
       54.400406
 30
        0.000000
 11
       18.649597
 21
       51.200455
 31
        0.000000
  0
LINE
  8
LVL0000
 10
       17.049622
 20
       51.200455
 30
        0.000000
 11
       18.649597
 21
       51.200455
 31
        0.000000
  0
LINE
  8
LVL0000
 10
       17.049622
 20
       47.700455
 30
        0.000000
 11
       18.649597
 21
       47.700455
 31
        0.000000
  0
LINE
  8
LVL0000
 10
       17.049622
 20
       44.500504
 30
        0.000000
 11
       18.649597
 21
       44.500504
 31
        0.000000
  0
LINE
  8
LVL0000
 10
       17.049622
 20
       54.400406
 30
        0.000000
 11
       18.649597
 21
       54.400406
 31
        0.000000
  0
LINE
  8
LVL0000
 10
       19.749573
 20
       47.700455
 30
        0.000000
 11
       19.749573
 21
       44.500504
 31
        0.000000
  0
LINE
  8
LVL0000
 10
       19.749573
 20
       54.400406
 30
        0.000000
 11
       19.749573
 21
       51.200455
 31
        0.000000
  0
LINE
  8
LVL0000
 10
       21.349548
 20
       47.700455
 30
        0.000000
 11
       21.349548
 21
       44.500504
 31
        0.000000
  0
LINE
  8
LVL0000
 10
       21.349548
 20
       54.400406
 30
        0.000000
 11
       21.349548
 21
       51.200455
 31
        0.000000
  0
LINE
  8
LVL0000
 10
       19.749573
 20
       51.200455
 30
        0.000000
 11
       21.349548
 21
       51.200455
 31
        0.000000
  0
LINE
  8
LVL0000
 10
       19.749573
 20
       47.700455
 30
        0.000000
 11
       21.349548
 21
       47.700455
 31
        0.000000
  0
LINE
  8
LVL0000
 10
       19.749573
 20
       44.500504
 30
        0.000000
 11
       21.349548
 21
       44.500504
 31
        0.000000
  0
LINE
  8
LVL0000
 10
       19.749573
 20
       54.400406
 30
        0.000000
 11
       21.349548
 21
       54.400406
 31
        0.000000
  0
LINE
  8
LVL0000
 10
       22.449646
 20
       47.700455
 30
        0.000000
 11
       22.449646
 21
       44.500504
 31
        0.000000
  0
LINE
  8
LVL0000
 10
       22.449646
 20
       54.400406
 30
        0.000000
 11
       22.449646
 21
       51.200455
 31
        0.000000
  0
LINE
  8
LVL0000
 10
       24.049500
 20
       47.700455
 30
        0.000000
 11
       24.049500
 21
       44.500504
 31
        0.000000
  0
LINE
  8
LVL0000
 10
       24.049500
 20
       54.400406
 30
        0.000000
 11
       24.049500
 21
       51.200455
 31
        0.000000
  0
LINE
  8
LVL0000
 10
       22.449646
 20
       51.200455
 30
        0.000000
 11
       24.049500
 21
       51.200455
 31
        0.000000
  0
LINE
  8
LVL0000
 10
       22.449646
 20
       47.700455
 30
        0.000000
 11
       24.049500
 21
       47.700455
 31
        0.000000
  0
LINE
  8
LVL0000
 10
       22.449646
 20
       44.500504
 30
        0.000000
 11
       24.049500
 21
       44.500504
 31
        0.000000
  0
LINE
  8
LVL0000
 10
       22.449646
 20
       54.400406
 30
        0.000000
 11
       24.049500
 21
       54.400406
 31
        0.000000
  0
LINE
  8
LVL0000
 10
       25.149597
 20
       47.700455
 30
        0.000000
 11
       25.149597
 21
       44.500504
 31
        0.000000
  0
LINE
  8
LVL0000
 10
       25.149597
 20
       54.400406
 30
        0.000000
 11
       25.149597
 21
       51.200455
 31
        0.000000
  0
LINE
  8
LVL0000
 10
       26.749573
 20
       47.700455
 30
        0.000000
 11
       26.749573
 21
       44.500504
 31
        0.000000
  0
LINE
  8
LVL0000
 10
       26.749573
 20
       54.400406
 30
        0.000000
 11
       26.749573
 21
       51.200455
 31
        0.000000
  0
LINE
  8
LVL0000
 10
       25.149597
 20
       51.200455
 30
        0.000000
 11
       26.749573
 21
       51.200455
 31
        0.000000
  0
LINE
  8
LVL0000
 10
       25.149597
 20
       47.700455
 30
        0.000000
 11
       26.749573
 21
       47.700455
 31
        0.000000
  0
LINE
  8
LVL0000
 10
       25.149597
 20
       44.500504
 30
        0.000000
 11
       26.749573
 21
       44.500504
 31
        0.000000
  0
LINE
  8
LVL0000
 10
       25.149597
 20
       54.400406
 30
        0.000000
 11
       26.749573
 21
       54.400406
 31
        0.000000
  0
LINE
  8
LVL0000
 10
        1.750000
 20
       -0.549988
 30
        0.000000
 11
        1.750000
 21
      -61.549988
 31
        0.000000
  0
LINE
  8
LVL0000
 10
       14.250000
 20
      -61.549988
 30
        0.000000
 11
        1.750000
 21
      -61.549988
 31
        0.000000
  0
LINE
  8
LVL0000
 10
       14.250000
 20
       -0.549988
 30
        0.000000
 11
        1.750000
 21
       -0.549988
 31
        0.000000
  0
LINE
  8
LVL0000
 10
        1.650024
 20
       63.500015
 30
        0.000000
 11
       33.849976
 21
       63.500015
 31
        0.000000
  0
LINE
  8
LVL0000
 10
        1.650024
 20
       58.000015
 30
        0.000000
 11
       33.849976
 21
       58.000015
 31
        0.000000
  0
LINE
  8
LVL0000
 10
        1.650024
 20
       63.500015
 30
        0.000000
 11
        1.650024
 21
       58.000015
 31
        0.000000
  0
LINE
  8
LVL0000
 10
       33.849976
 20
       63.500015
 30
        0.000000
 11
       33.849976
 21
       58.000015
 31
        0.000000
  0
LINE
  8
LVL0000
 10
       14.250000
 20
        1.000000
 30
        0.000000
 11
       14.250000
 21
      -65.000000
 31
        0.000000
  0
LINE
  8
LVL0000
 10
        0.250000
 20
       30.000015
 30
        0.000000
 11
       35.250000
 21
       30.000015
 31
        0.000000
  0
LINE
  8
LVL0000
 10
        0.250000
 20
       38.000015
 30
        0.000000
 11
       35.250000
 21
       38.000015
 31
        0.000000
  0
LINE
  8
LVL0000
 10
       35.250000
 20
       57.000015
 30
        0.000000
 11
        0.250000
 21
       57.000015
 31
        0.000000
  0
LINE
  8
LVL0000
 10
        0.250000
 20
       39.000015
 30
        0.000000
 11
       35.250000
 21
       39.000015
 31
        0.000000
  0
ARC
  8
LVL0000
 10
       85.750000
 20
      -64.500000
 30
        0.000000
 40
        0.500000
 50
      179.999995
 51
      270.000000
  0
LINE
  8
LVL0000
 10
      182.550000
 20
      -65.000000
 30
        0.000000
 11
       85.750000
 21
      -65.000000
 31
        0.000000
  0
LINE
  8
LVL0000
 10
       85.250000
 20
      -64.500000
 30
        0.000000
 11
       85.250000
 21
       37.500000
 31
        0.000000
  0
ARC
  8
LVL0000
 10
       85.750000
 20
       64.504011
 30
        0.000000
 40
        0.500000
 50
       90.000000
 51
      179.999995
  0
LINE
  8
LVL0000
 10
       85.250000
 20
       57.000000
 30
        0.000000
 11
       85.250000
 21
       64.504011
 31
        0.000000
  0
LINE
  8
LVL0000
 10
       85.750020
 20
       65.004011
 30
        0.000000
 11
      187.650000
 21
       64.999895
 31
        0.000000
  0
ARC
  8
LVL0000
 10
       85.749985
 20
       85.499992
 30
        0.000000
 40
        0.500000
 50
      180.000006
 51
      270.000000
  0
LINE
  8
LVL0000
 10
       85.749985
 20
      155.499992
 30
        0.000000
 11
      117.249992
 21
      155.499992
 31
        0.000000
  0
LINE
  8
LVL0000
 10
       85.249985
 20
       85.499992
 30
        0.000000
 11
       85.249985
 21
      154.999992
 31
        0.000000
  0
ARC
  8
LVL0000
 10
       85.749985
 20
      154.999992
 30
        0.000000
 40
        0.500000
 50
       90.000000
 51
      180.000006
  0
LINE
  8
LVL0000
 10
      128.250000
 20
       84.999994
 30
        0.000000
 11
      128.249992
 21
      155.499994
 31
        0.000000
  0
LINE
  8
LVL0000
 10
      130.250000
 20
       84.999994
 30
        0.000000
 11
      130.249992
 21
      155.499994
 31
        0.000000
  0
LINE
  8
LVL0000
 10
      187.650000
 20
       85.000000
 30
        0.000000
 11
      187.649992
 21
      155.500000
 31
        0.000000
  0
LINE
  8
LVL0000
 10
      117.250000
 20
       84.999992
 30
        0.000000
 11
      187.650000
 21
       85.000000
 31
        0.000000
  0
LINE
  8
LVL0000
 10
      117.249992
 20
      155.499992
 30
        0.000000
 11
      187.649992
 21
      155.500000
 31
        0.000000
  0
LINE
  8
LVL0000
 10
      124.249999
 20
       94.699993
 30
        0.000000
 11
      126.249999
 21
       94.699993
 31
        0.000000
  0
LINE
  8
LVL0000
 10
      128.249999
 20
       94.699994
 30
        0.000000
 11
      130.249999
 21
       94.699994
 31
        0.000000
  0
LINE
  8
LVL0000
 10
      124.249999
 20
       90.699993
 30
        0.000000
 11
      126.249999
 21
       90.699993
 31
        0.000000
  0
LINE
  8
LVL0000
 10
      128.249999
 20
       90.699994
 30
        0.000000
 11
      130.249999
 21
       90.699994
 31
        0.000000
  0
LINE
  8
LVL0000
 10
      124.250000
 20
       87.499993
 30
        0.000000
 11
      126.250000
 21
       87.499993
 31
        0.000000
  0
LINE
  8
LVL0000
 10
      128.250000
 20
       87.499994
 30
        0.000000
 11
      130.250000
 21
       87.499994
 31
        0.000000
  0
LINE
  8
LVL0000
 10
      124.249993
 20
      152.999993
 30
        0.000000
 11
      126.249993
 21
      152.999993
 31
        0.000000
  0
LINE
  8
LVL0000
 10
      128.249993
 20
      152.999994
 30
        0.000000
 11
      130.249993
 21
      152.999994
 31
        0.000000
  0
LINE
  8
LVL0000
 10
      128.249999
 20
      111.799994
 30
        0.000000
 11
      130.249999
 21
      111.799994
 31
        0.000000
  0
LINE
  8
LVL0000
 10
      128.249999
 20
      115.799994
 30
        0.000000
 11
      130.249999
 21
      115.799994
 31
        0.000000
  0
LINE
  8
LVL0000
 10
      124.249999
 20
      115.799993
 30
        0.000000
 11
      126.249999
 21
      115.799993
 31
        0.000000
  0
LINE
  8
LVL0000
 10
      124.249999
 20
      111.799993
 30
        0.000000
 11
      126.249999
 21
      111.799993
 31
        0.000000
  0
LINE
  8
LVL0000
 10
      124.249999
 20
      151.299993
 30
        0.000000
 11
      126.249999
 21
      151.299993
 31
        0.000000
  0
LINE
  8
LVL0000
 10
      128.249999
 20
      151.299994
 30
        0.000000
 11
      130.249999
 21
      151.299994
 31
        0.000000
  0
LINE
  8
LVL0000
 10
      128.249999
 20
      147.299994
 30
        0.000000
 11
      130.249999
 21
      147.299994
 31
        0.000000
  0
LINE
  8
LVL0000
 10
      124.249999
 20
      147.299993
 30
        0.000000
 11
      126.249999
 21
      147.299993
 31
        0.000000
  0
LINE
  8
LVL0000
 10
      124.249999
 20
      126.199993
 30
        0.000000
 11
      126.249999
 21
      126.199993
 31
        0.000000
  0
LINE
  8
LVL0000
 10
      124.249999
 20
      130.199993
 30
        0.000000
 11
      126.249999
 21
      130.199993
 31
        0.000000
  0
LINE
  8
LVL0000
 10
      128.249999
 20
      130.199994
 30
        0.000000
 11
      130.249999
 21
      130.199994
 31
        0.000000
  0
LINE
  8
LVL0000
 10
      128.249999
 20
      126.199994
 30
        0.000000
 11
      130.249999
 21
      126.199994
 31
        0.000000
  0
LINE
  8
LVL0000
 10
      132.249999
 20
      126.199994
 30
        0.000000
 11
      134.249999
 21
      126.199994
 31
        0.000000
  0
LINE
  8
LVL0000
 10
      136.249999
 20
      126.199994
 30
        0.000000
 11
      138.249999
 21
      126.199994
 31
        0.000000
  0
LINE
  8
LVL0000
 10
      140.249999
 20
      126.199994
 30
        0.000000
 11
      142.249999
 21
      126.199994
 31
        0.000000
  0
LINE
  8
LVL0000
 10
      144.249999
 20
      126.199994
 30
        0.000000
 11
      146.249999
 21
      126.199994
 31
        0.000000
  0
LINE
  8
LVL0000
 10
      148.249999
 20
      126.199994
 30
        0.000000
 11
      150.249999
 21
      126.199994
 31
        0.000000
  0
LINE
  8
LVL0000
 10
      152.249999
 20
      126.199994
 30
        0.000000
 11
      154.249999
 21
      126.199994
 31
        0.000000
  0
LINE
  8
LVL0000
 10
      156.249999
 20
      126.199994
 30
        0.000000
 11
      158.249999
 21
      126.199994
 31
        0.000000
  0
LINE
  8
LVL0000
 10
      160.249999
 20
      126.199994
 30
        0.000000
 11
      162.249999
 21
      126.199994
 31
        0.000000
  0
LINE
  8
LVL0000
 10
      164.249999
 20
      126.199994
 30
        0.000000
 11
      166.249999
 21
      126.199994
 31
        0.000000
  0
LINE
  8
LVL0000
 10
      168.249999
 20
      126.199994
 30
        0.000000
 11
      170.249999
 21
      126.199994
 31
        0.000000
  0
LINE
  8
LVL0000
 10
      172.249999
 20
      126.199994
 30
        0.000000
 11
      174.249999
 21
      126.199994
 31
        0.000000
  0
LINE
  8
LVL0000
 10
      176.249999
 20
      126.199994
 30
        0.000000
 11
      178.249999
 21
      126.199994
 31
        0.000000
  0
LINE
  8
LVL0000
 10
      132.249999
 20
      130.199994
 30
        0.000000
 11
      134.249999
 21
      130.199994
 31
        0.000000
  0
LINE
  8
LVL0000
 10
      136.249999
 20
      130.199994
 30
        0.000000
 11
      138.249999
 21
      130.199994
 31
        0.000000
  0
LINE
  8
LVL0000
 10
      140.249999
 20
      130.199994
 30
        0.000000
 11
      142.249999
 21
      130.199994
 31
        0.000000
  0
LINE
  8
LVL0000
 10
      144.249999
 20
      130.199994
 30
        0.000000
 11
      146.249999
 21
      130.199994
 31
        0.000000
  0
LINE
  8
LVL0000
 10
      148.249999
 20
      130.199994
 30
        0.000000
 11
      150.249999
 21
      130.199994
 31
        0.000000
  0
LINE
  8
LVL0000
 10
      152.249999
 20
      130.199994
 30
        0.000000
 11
      154.249999
 21
      130.199994
 31
        0.000000
  0
LINE
  8
LVL0000
 10
      156.249999
 20
      130.199994
 30
        0.000000
 11
      158.249999
 21
      130.199994
 31
        0.000000
  0
LINE
  8
LVL0000
 10
      160.249999
 20
      130.199994
 30
        0.000000
 11
      162.249999
 21
      130.199994
 31
        0.000000
  0
LINE
  8
LVL0000
 10
      164.249999
 20
      130.199994
 30
        0.000000
 11
      166.249999
 21
      130.199994
 31
        0.000000
  0
LINE
  8
LVL0000
 10
      168.249999
 20
      130.199994
 30
        0.000000
 11
      170.249999
 21
      130.199994
 31
        0.000000
  0
LINE
  8
LVL0000
 10
      172.249999
 20
      130.199994
 30
        0.000000
 11
      174.249999
 21
      130.199994
 31
        0.000000
  0
LINE
  8
LVL0000
 10
      176.249999
 20
      130.199994
 30
        0.000000
 11
      178.249999
 21
      130.199994
 31
        0.000000
  0
LINE
  8
LVL0000
 10
      132.249999
 20
      147.299994
 30
        0.000000
 11
      134.249999
 21
      147.299994
 31
        0.000000
  0
LINE
  8
LVL0000
 10
      136.249999
 20
      147.299994
 30
        0.000000
 11
      138.249999
 21
      147.299994
 31
        0.000000
  0
LINE
  8
LVL0000
 10
      140.249999
 20
      147.299994
 30
        0.000000
 11
      142.249999
 21
      147.299994
 31
        0.000000
  0
LINE
  8
LVL0000
 10
      144.249999
 20
      147.299994
 30
        0.000000
 11
      146.249999
 21
      147.299994
 31
        0.000000
  0
LINE
  8
LVL0000
 10
      148.249999
 20
      147.299994
 30
        0.000000
 11
      150.249999
 21
      147.299994
 31
        0.000000
  0
LINE
  8
LVL0000
 10
      152.249999
 20
      147.299994
 30
        0.000000
 11
      154.249999
 21
      147.299994
 31
        0.000000
  0
LINE
  8
LVL0000
 10
      156.249999
 20
      147.299994
 30
        0.000000
 11
      158.249999
 21
      147.299994
 31
        0.000000
  0
LINE
  8
LVL0000
 10
      160.249999
 20
      147.299994
 30
        0.000000
 11
      162.249999
 21
      147.299994
 31
        0.000000
  0
LINE
  8
LVL0000
 10
      164.249999
 20
      147.299994
 30
        0.000000
 11
      166.249999
 21
      147.299994
 31
        0.000000
  0
LINE
  8
LVL0000
 10
      168.249999
 20
      147.299994
 30
        0.000000
 11
      170.249999
 21
      147.299994
 31
        0.000000
  0
LINE
  8
LVL0000
 10
      172.249999
 20
      147.299994
 30
        0.000000
 11
      174.249999
 21
      147.299994
 31
        0.000000
  0
LINE
  8
LVL0000
 10
      176.249999
 20
      147.299994
 30
        0.000000
 11
      178.249999
 21
      147.299994
 31
        0.000000
  0
LINE
  8
LVL0000
 10
      132.249999
 20
      151.299994
 30
        0.000000
 11
      134.249999
 21
      151.299994
 31
        0.000000
  0
LINE
  8
LVL0000
 10
      136.249999
 20
      151.299994
 30
        0.000000
 11
      138.249999
 21
      151.299994
 31
        0.000000
  0
LINE
  8
LVL0000
 10
      140.249999
 20
      151.299994
 30
        0.000000
 11
      142.249999
 21
      151.299994
 31
        0.000000
  0
LINE
  8
LVL0000
 10
      144.249999
 20
      151.299994
 30
        0.000000
 11
      146.249999
 21
      151.299994
 31
        0.000000
  0
LINE
  8
LVL0000
 10
      148.249999
 20
      151.299994
 30
        0.000000
 11
      150.249999
 21
      151.299994
 31
        0.000000
  0
LINE
  8
LVL0000
 10
      152.249999
 20
      151.299994
 30
        0.000000
 11
      154.249999
 21
      151.299994
 31
        0.000000
  0
LINE
  8
LVL0000
 10
      156.249999
 20
      151.299994
 30
        0.000000
 11
      158.249999
 21
      151.299994
 31
        0.000000
  0
LINE
  8
LVL0000
 10
      160.249999
 20
      151.299994
 30
        0.000000
 11
      162.249999
 21
      151.299994
 31
        0.000000
  0
LINE
  8
LVL0000
 10
      164.249999
 20
      151.299994
 30
        0.000000
 11
      166.249999
 21
      151.299994
 31
        0.000000
  0
LINE
  8
LVL0000
 10
      168.249999
 20
      151.299994
 30
        0.000000
 11
      170.249999
 21
      151.299994
 31
        0.000000
  0
LINE
  8
LVL0000
 10
      172.249999
 20
      151.299994
 30
        0.000000
 11
      174.249999
 21
      151.299994
 31
        0.000000
  0
LINE
  8
LVL0000
 10
      176.249999
 20
      151.299994
 30
        0.000000
 11
      178.249999
 21
      151.299994
 31
        0.000000
  0
LINE
  8
LVL0000
 10
      132.249999
 20
      115.799994
 30
        0.000000
 11
      134.249999
 21
      115.799994
 31
        0.000000
  0
LINE
  8
LVL0000
 10
      136.249999
 20
      115.799994
 30
        0.000000
 11
      138.249999
 21
      115.799994
 31
        0.000000
  0
LINE
  8
LVL0000
 10
      140.249999
 20
      115.799994
 30
        0.000000
 11
      142.249999
 21
      115.799994
 31
        0.000000
  0
LINE
  8
LVL0000
 10
      144.249999
 20
      115.799994
 30
        0.000000
 11
      146.249999
 21
      115.799994
 31
        0.000000
  0
LINE
  8
LVL0000
 10
      148.249999
 20
      115.799994
 30
        0.000000
 11
      150.249999
 21
      115.799994
 31
        0.000000
  0
LINE
  8
LVL0000
 10
      152.249999
 20
      115.799994
 30
        0.000000
 11
      154.249999
 21
      115.799994
 31
        0.000000
  0
LINE
  8
LVL0000
 10
      156.249999
 20
      115.799994
 30
        0.000000
 11
      158.249999
 21
      115.799994
 31
        0.000000
  0
LINE
  8
LVL0000
 10
      160.249999
 20
      115.799994
 30
        0.000000
 11
      162.249999
 21
      115.799994
 31
        0.000000
  0
LINE
  8
LVL0000
 10
      164.249999
 20
      115.799994
 30
        0.000000
 11
      166.249999
 21
      115.799994
 31
        0.000000
  0
LINE
  8
LVL0000
 10
      168.249999
 20
      115.799994
 30
        0.000000
 11
      170.249999
 21
      115.799994
 31
        0.000000
  0
LINE
  8
LVL0000
 10
      172.249999
 20
      115.799994
 30
        0.000000
 11
      174.249999
 21
      115.799994
 31
        0.000000
  0
LINE
  8
LVL0000
 10
      176.249999
 20
      115.799994
 30
        0.000000
 11
      178.249999
 21
      115.799994
 31
        0.000000
  0
LINE
  8
LVL0000
 10
      132.249993
 20
      152.999994
 30
        0.000000
 11
      134.249993
 21
      152.999994
 31
        0.000000
  0
LINE
  8
LVL0000
 10
      136.249993
 20
      152.999994
 30
        0.000000
 11
      138.249993
 21
      152.999994
 31
        0.000000
  0
LINE
  8
LVL0000
 10
      140.249993
 20
      152.999994
 30
        0.000000
 11
      142.249993
 21
      152.999994
 31
        0.000000
  0
LINE
  8
LVL0000
 10
      144.249993
 20
      152.999994
 30
        0.000000
 11
      146.249993
 21
      152.999994
 31
        0.000000
  0
LINE
  8
LVL0000
 10
      148.249993
 20
      152.999994
 30
        0.000000
 11
      150.249993
 21
      152.999994
 31
        0.000000
  0
LINE
  8
LVL0000
 10
      152.249993
 20
      152.999994
 30
        0.000000
 11
      154.249993
 21
      152.999994
 31
        0.000000
  0
LINE
  8
LVL0000
 10
      156.249993
 20
      152.999994
 30
        0.000000
 11
      158.249993
 21
      152.999994
 31
        0.000000
  0
LINE
  8
LVL0000
 10
      160.249993
 20
      152.999994
 30
        0.000000
 11
      162.249993
 21
      152.999994
 31
        0.000000
  0
LINE
  8
LVL0000
 10
      164.249993
 20
      152.999994
 30
        0.000000
 11
      166.249993
 21
      152.999994
 31
        0.000000
  0
LINE
  8
LVL0000
 10
      168.249993
 20
      152.999994
 30
        0.000000
 11
      170.249993
 21
      152.999994
 31
        0.000000
  0
LINE
  8
LVL0000
 10
      172.249993
 20
      152.999994
 30
        0.000000
 11
      174.249993
 21
      152.999994
 31
        0.000000
  0
LINE
  8
LVL0000
 10
      176.249993
 20
      152.999994
 30
        0.000000
 11
      178.249993
 21
      152.999994
 31
        0.000000
  0
LINE
  8
LVL0000
 10
      132.249999
 20
      111.799994
 30
        0.000000
 11
      134.249999
 21
      111.799994
 31
        0.000000
  0
LINE
  8
LVL0000
 10
      136.249999
 20
      111.799994
 30
        0.000000
 11
      138.249999
 21
      111.799994
 31
        0.000000
  0
LINE
  8
LVL0000
 10
      140.249999
 20
      111.799994
 30
        0.000000
 11
      142.249999
 21
      111.799994
 31
        0.000000
  0
LINE
  8
LVL0000
 10
      144.249999
 20
      111.799994
 30
        0.000000
 11
      146.249999
 21
      111.799994
 31
        0.000000
  0
LINE
  8
LVL0000
 10
      148.249999
 20
      111.799994
 30
        0.000000
 11
      150.249999
 21
      111.799994
 31
        0.000000
  0
LINE
  8
LVL0000
 10
      152.249999
 20
      111.799994
 30
        0.000000
 11
      154.249999
 21
      111.799994
 31
        0.000000
  0
LINE
  8
LVL0000
 10
      156.249999
 20
      111.799994
 30
        0.000000
 11
      158.249999
 21
      111.799994
 31
        0.000000
  0
LINE
  8
LVL0000
 10
      160.249999
 20
      111.799994
 30
        0.000000
 11
      162.249999
 21
      111.799994
 31
        0.000000
  0
LINE
  8
LVL0000
 10
      164.249999
 20
      111.799994
 30
        0.000000
 11
      166.249999
 21
      111.799994
 31
        0.000000
  0
LINE
  8
LVL0000
 10
      168.249999
 20
      111.799994
 30
        0.000000
 11
      170.249999
 21
      111.799994
 31
        0.000000
  0
LINE
  8
LVL0000
 10
      172.249999
 20
      111.799994
 30
        0.000000
 11
      174.249999
 21
      111.799994
 31
        0.000000
  0
LINE
  8
LVL0000
 10
      176.249999
 20
      111.799994
 30
        0.000000
 11
      178.249999
 21
      111.799994
 31
        0.000000
  0
LINE
  8
LVL0000
 10
      132.249999
 20
       94.699994
 30
        0.000000
 11
      134.249999
 21
       94.699994
 31
        0.000000
  0
LINE
  8
LVL0000
 10
      136.249999
 20
       94.699994
 30
        0.000000
 11
      138.249999
 21
       94.699994
 31
        0.000000
  0
LINE
  8
LVL0000
 10
      140.249999
 20
       94.699994
 30
        0.000000
 11
      142.249999
 21
       94.699994
 31
        0.000000
  0
LINE
  8
LVL0000
 10
      144.249999
 20
       94.699994
 30
        0.000000
 11
      146.249999
 21
       94.699994
 31
        0.000000
  0
LINE
  8
LVL0000
 10
      148.249999
 20
       94.699994
 30
        0.000000
 11
      150.249999
 21
       94.699994
 31
        0.000000
  0
LINE
  8
LVL0000
 10
      152.249999
 20
       94.699994
 30
        0.000000
 11
      154.249999
 21
       94.699994
 31
        0.000000
  0
LINE
  8
LVL0000
 10
      156.249999
 20
       94.699994
 30
        0.000000
 11
      158.249999
 21
       94.699994
 31
        0.000000
  0
LINE
  8
LVL0000
 10
      160.249999
 20
       94.699994
 30
        0.000000
 11
      162.249999
 21
       94.699994
 31
        0.000000
  0
LINE
  8
LVL0000
 10
      164.249999
 20
       94.699994
 30
        0.000000
 11
      166.249999
 21
       94.699994
 31
        0.000000
  0
LINE
  8
LVL0000
 10
      168.249999
 20
       94.699994
 30
        0.000000
 11
      170.249999
 21
       94.699994
 31
        0.000000
  0
LINE
  8
LVL0000
 10
      172.249999
 20
       94.699994
 30
        0.000000
 11
      174.249999
 21
       94.699994
 31
        0.000000
  0
LINE
  8
LVL0000
 10
      176.249999
 20
       94.699994
 30
        0.000000
 11
      178.249999
 21
       94.699994
 31
        0.000000
  0
LINE
  8
LVL0000
 10
      132.250000
 20
       87.499994
 30
        0.000000
 11
      134.250000
 21
       87.499994
 31
        0.000000
  0
LINE
  8
LVL0000
 10
      136.250000
 20
       87.499994
 30
        0.000000
 11
      138.250000
 21
       87.499994
 31
        0.000000
  0
LINE
  8
LVL0000
 10
      140.250000
 20
       87.499994
 30
        0.000000
 11
      142.250000
 21
       87.499994
 31
        0.000000
  0
LINE
  8
LVL0000
 10
      144.250000
 20
       87.499994
 30
        0.000000
 11
      146.250000
 21
       87.499994
 31
        0.000000
  0
LINE
  8
LVL0000
 10
      148.250000
 20
       87.499994
 30
        0.000000
 11
      150.250000
 21
       87.499994
 31
        0.000000
  0
LINE
  8
LVL0000
 10
      152.250000
 20
       87.499994
 30
        0.000000
 11
      154.250000
 21
       87.499994
 31
        0.000000
  0
LINE
  8
LVL0000
 10
      156.250000
 20
       87.499994
 30
        0.000000
 11
      158.250000
 21
       87.499994
 31
        0.000000
  0
LINE
  8
LVL0000
 10
      160.250000
 20
       87.499994
 30
        0.000000
 11
      162.250000
 21
       87.499994
 31
        0.000000
  0
LINE
  8
LVL0000
 10
      164.250000
 20
       87.499994
 30
        0.000000
 11
      166.250000
 21
       87.499994
 31
        0.000000
  0
LINE
  8
LVL0000
 10
      168.250000
 20
       87.499994
 30
        0.000000
 11
      170.250000
 21
       87.499994
 31
        0.000000
  0
LINE
  8
LVL0000
 10
      172.250000
 20
       87.499994
 30
        0.000000
 11
      174.250000
 21
       87.499994
 31
        0.000000
  0
LINE
  8
LVL0000
 10
      176.250000
 20
       87.499994
 30
        0.000000
 11
      178.250000
 21
       87.499994
 31
        0.000000
  0
LINE
  8
LVL0000
 10
      132.249999
 20
       90.699994
 30
        0.000000
 11
      134.249999
 21
       90.699994
 31
        0.000000
  0
LINE
  8
LVL0000
 10
      136.249999
 20
       90.699994
 30
        0.000000
 11
      138.249999
 21
       90.699994
 31
        0.000000
  0
LINE
  8
LVL0000
 10
      140.249999
 20
       90.699994
 30
        0.000000
 11
      142.249999
 21
       90.699994
 31
        0.000000
  0
LINE
  8
LVL0000
 10
      144.249999
 20
       90.699994
 30
        0.000000
 11
      146.249999
 21
       90.699994
 31
        0.000000
  0
LINE
  8
LVL0000
 10
      148.249999
 20
       90.699994
 30
        0.000000
 11
      150.249999
 21
       90.699994
 31
        0.000000
  0
LINE
  8
LVL0000
 10
      152.249999
 20
       90.699994
 30
        0.000000
 11
      154.249999
 21
       90.699994
 31
        0.000000
  0
LINE
  8
LVL0000
 10
      156.249999
 20
       90.699994
 30
        0.000000
 11
      158.249999
 21
       90.699994
 31
        0.000000
  0
LINE
  8
LVL0000
 10
      160.249999
 20
       90.699994
 30
        0.000000
 11
      162.249999
 21
       90.699994
 31
        0.000000
  0
LINE
  8
LVL0000
 10
      164.249999
 20
       90.699994
 30
        0.000000
 11
      166.249999
 21
       90.699994
 31
        0.000000
  0
LINE
  8
LVL0000
 10
      168.249999
 20
       90.699994
 30
        0.000000
 11
      170.249999
 21
       90.699994
 31
        0.000000
  0
LINE
  8
LVL0000
 10
      172.249999
 20
       90.699994
 30
        0.000000
 11
      174.249999
 21
       90.699994
 31
        0.000000
  0
LINE
  8
LVL0000
 10
      176.249999
 20
       90.699994
 30
        0.000000
 11
      178.249999
 21
       90.699994
 31
        0.000000
  0
LINE
  8
LVL0000
 10
      134.250000
 20
       84.999994
 30
        0.000000
 11
      134.249992
 21
      155.499994
 31
        0.000000
  0
LINE
  8
LVL0000
 10
      138.250000
 20
       84.999994
 30
        0.000000
 11
      138.249992
 21
      155.499994
 31
        0.000000
  0
LINE
  8
LVL0000
 10
      142.250000
 20
       84.999994
 30
        0.000000
 11
      142.249992
 21
      155.499994
 31
        0.000000
  0
LINE
  8
LVL0000
 10
      146.250000
 20
       84.999994
 30
        0.000000
 11
      146.249992
 21
      155.499994
 31
        0.000000
  0
LINE
  8
LVL0000
 10
      150.250000
 20
       84.999994
 30
        0.000000
 11
      150.249992
 21
      155.499994
 31
        0.000000
  0
LINE
  8
LVL0000
 10
      154.250000
 20
       84.999994
 30
        0.000000
 11
      154.249992
 21
      155.499994
 31
        0.000000
  0
LINE
  8
LVL0000
 10
      158.250000
 20
       84.999994
 30
        0.000000
 11
      158.249992
 21
      155.499994
 31
        0.000000
  0
LINE
  8
LVL0000
 10
      162.250000
 20
       84.999994
 30
        0.000000
 11
      162.249992
 21
      155.499994
 31
        0.000000
  0
LINE
  8
LVL0000
 10
      166.250000
 20
       84.999994
 30
        0.000000
 11
      166.249992
 21
      155.499994
 31
        0.000000
  0
LINE
  8
LVL0000
 10
      170.250000
 20
       84.999994
 30
        0.000000
 11
      170.249992
 21
      155.499994
 31
        0.000000
  0
LINE
  8
LVL0000
 10
      174.250000
 20
       84.999994
 30
        0.000000
 11
      174.249992
 21
      155.499994
 31
        0.000000
  0
LINE
  8
LVL0000
 10
      178.250000
 20
       84.999994
 30
        0.000000
 11
      178.249992
 21
      155.499994
 31
        0.000000
  0
LINE
  8
LVL0000
 10
      132.250000
 20
       84.999994
 30
        0.000000
 11
      132.249992
 21
      155.499994
 31
        0.000000
  0
LINE
  8
LVL0000
 10
      136.250000
 20
       84.999994
 30
        0.000000
 11
      136.249992
 21
      155.499994
 31
        0.000000
  0
LINE
  8
LVL0000
 10
      140.250000
 20
       84.999994
 30
        0.000000
 11
      140.249992
 21
      155.499994
 31
        0.000000
  0
LINE
  8
LVL0000
 10
      144.250000
 20
       84.999994
 30
        0.000000
 11
      144.249992
 21
      155.499994
 31
        0.000000
  0
LINE
  8
LVL0000
 10
      148.250000
 20
       84.999994
 30
        0.000000
 11
      148.249992
 21
      155.499994
 31
        0.000000
  0
LINE
  8
LVL0000
 10
      152.250000
 20
       84.999994
 30
        0.000000
 11
      152.249992
 21
      155.499994
 31
        0.000000
  0
LINE
  8
LVL0000
 10
      156.250000
 20
       84.999994
 30
        0.000000
 11
      156.249992
 21
      155.499994
 31
        0.000000
  0
LINE
  8
LVL0000
 10
      160.250000
 20
       84.999994
 30
        0.000000
 11
      160.249992
 21
      155.499994
 31
        0.000000
  0
LINE
  8
LVL0000
 10
      164.250000
 20
       84.999994
 30
        0.000000
 11
      164.249992
 21
      155.499994
 31
        0.000000
  0
LINE
  8
LVL0000
 10
      168.250000
 20
       84.999994
 30
        0.000000
 11
      168.249992
 21
      155.499994
 31
        0.000000
  0
LINE
  8
LVL0000
 10
      172.250000
 20
       84.999994
 30
        0.000000
 11
      172.249992
 21
      155.499994
 31
        0.000000
  0
LINE
  8
LVL0000
 10
      176.250000
 20
       84.999994
 30
        0.000000
 11
      176.249992
 21
      155.499994
 31
        0.000000
  0
LINE
  8
LVL0000
 10
      180.249993
 20
      152.999994
 30
        0.000000
 11
      182.249993
 21
      152.999994
 31
        0.000000
  0
LINE
  8
LVL0000
 10
      180.250000
 20
       87.499994
 30
        0.000000
 11
      182.250000
 21
       87.499994
 31
        0.000000
  0
LINE
  8
LVL0000
 10
      180.250000
 20
       84.999994
 30
        0.000000
 11
      180.249992
 21
      155.499994
 31
        0.000000
  0
LINE
  8
LVL0000
 10
      182.250000
 20
       84.999994
 30
        0.000000
 11
      182.249992
 21
      155.499994
 31
        0.000000
  0
ARC
  8
LVL0000
 10
      124.249998
 20
      102.499993
 30
        0.000000
 40
        1.500000
 50
       90.000000
 51
      270.000000
  0
LINE
  8
LVL0000
 10
      146.249998
 20
       98.899996
 30
        0.000000
 11
      148.249998
 21
       98.899996
 31
        0.000000
  0
LINE
  8
LVL0000
 10
      146.249998
 20
      106.099996
 30
        0.000000
 11
      148.249998
 21
      106.099996
 31
        0.000000
  0
LINE
  8
LVL0000
 10
      150.249998
 20
       98.899996
 30
        0.000000
 11
      152.249998
 21
       98.899996
 31
        0.000000
  0
LINE
  8
LVL0000
 10
      150.249998
 20
      106.099996
 30
        0.000000
 11
      152.249998
 21
      106.099996
 31
        0.000000
  0
LINE
  8
LVL0000
 10
      154.249998
 20
      106.099996
 30
        0.000000
 11
      156.249998
 21
      106.099997
 31
        0.000000
  0
LINE
  8
LVL0000
 10
      154.249998
 20
       98.899996
 30
        0.000000
 11
      156.249998
 21
       98.899997
 31
        0.000000
  0
LINE
  8
LVL0000
 10
      158.249998
 20
      106.099997
 30
        0.000000
 11
      160.249998
 21
      106.099997
 31
        0.000000
  0
LINE
  8
LVL0000
 10
      158.249998
 20
       98.899997
 30
        0.000000
 11
      160.249998
 21
       98.899997
 31
        0.000000
  0
LINE
  8
LVL0000
 10
      162.249998
 20
       98.899997
 30
        0.000000
 11
      164.249998
 21
       98.899997
 31
        0.000000
  0
LINE
  8
LVL0000
 10
      162.249998
 20
      106.099997
 30
        0.000000
 11
      164.249998
 21
      106.099997
 31
        0.000000
  0
LINE
  8
LVL0000
 10
      166.249998
 20
      106.099998
 30
        0.000000
 11
      168.249998
 21
      106.099998
 31
        0.000000
  0
LINE
  8
LVL0000
 10
      166.249998
 20
       98.899998
 30
        0.000000
 11
      168.249998
 21
       98.899998
 31
        0.000000
  0
LINE
  8
LVL0000
 10
      170.249998
 20
       98.899998
 30
        0.000000
 11
      172.249998
 21
       98.899998
 31
        0.000000
  0
LINE
  8
LVL0000
 10
      170.249998
 20
      106.099998
 30
        0.000000
 11
      172.249998
 21
      106.099998
 31
        0.000000
  0
LINE
  8
LVL0000
 10
      174.249998
 20
      106.099999
 30
        0.000000
 11
      176.249998
 21
      106.099999
 31
        0.000000
  0
LINE
  8
LVL0000
 10
      174.249998
 20
       98.899999
 30
        0.000000
 11
      176.249998
 21
       98.899999
 31
        0.000000
  0
ARC
  8
LVL0000
 10
      143.250007
 20
       19.335709
 30
        0.000000
 40
       86.770048
 50
       99.954774
 51
      101.298484
  0
ARC
  8
LVL0000
 10
      153.664911
 20
     -108.788240
 30
        0.000000
 40
      215.094384
 50
       95.713862
 51
       96.249531
  0
ARC
  8
LVL0000
 10
      153.664911
 20
     -108.788240
 30
        0.000000
 40
      215.094384
 50
       94.643979
 51
       95.178694
  0
ARC
  8
LVL0000
 10
      153.664911
 20
     -108.788240
 30
        0.000000
 40
      215.094384
 50
       93.575716
 51
       94.109669
  0
ARC
  8
LVL0000
 10
      153.664911
 20
     -108.788240
 30
        0.000000
 40
      215.094384
 50
       92.508697
 51
       93.042075
  0
ARC
  8
LVL0000
 10
      153.664865
 20
      313.788232
 30
        0.000000
 40
      215.094384
 50
      266.957938
 51
      267.491315
  0
ARC
  8
LVL0000
 10
      153.664865
 20
      313.788232
 30
        0.000000
 40
      215.094384
 50
      265.890344
 51
      266.424296
  0
ARC
  8
LVL0000
 10
      153.664865
 20
      313.788232
 30
        0.000000
 40
      215.094384
 50
      264.821318
 51
      265.356033
  0
ARC
  8
LVL0000
 10
      153.664865
 20
      313.788232
 30
        0.000000
 40
      215.094384
 50
      263.750482
 51
      264.286150
  0
ARC
  8
LVL0000
 10
      143.249989
 20
      185.664281
 30
        0.000000
 40
       86.770048
 50
      258.701528
 51
      260.045239
  0
ARC
  8
LVL0000
 10
      124.249998
 20
      137.999993
 30
        0.000000
 40
        1.500000
 50
       90.000000
 51
      270.000000
  0
ARC
  8
LVL0000
 10
      143.249989
 20
      221.164281
 30
        0.000000
 40
       86.770048
 50
      258.701528
 51
      260.045239
  0
ARC
  8
LVL0000
 10
      143.250007
 20
       54.835709
 30
        0.000000
 40
       86.770048
 50
       99.954774
 51
      101.298484
  0
ARC
  8
LVL0000
 10
      153.664865
 20
      349.288232
 30
        0.000000
 40
      215.094384
 50
      263.750482
 51
      264.286150
  0
ARC
  8
LVL0000
 10
      153.664911
 20
      -73.288240
 30
        0.000000
 40
      215.094384
 50
       95.713862
 51
       96.249531
  0
ARC
  8
LVL0000
 10
      153.664865
 20
      349.288232
 30
        0.000000
 40
      215.094384
 50
      264.821318
 51
      265.356033
  0
ARC
  8
LVL0000
 10
      153.664911
 20
      -73.288240
 30
        0.000000
 40
      215.094384
 50
       94.643979
 51
       95.178694
  0
ARC
  8
LVL0000
 10
      153.664865
 20
      349.288232
 30
        0.000000
 40
      215.094384
 50
      265.890344
 51
      266.424296
  0
ARC
  8
LVL0000
 10
      153.664911
 20
      -73.288240
 30
        0.000000
 40
      215.094384
 50
       93.575716
 51
       94.109669
  0
ARC
  8
LVL0000
 10
      153.664865
 20
      349.288232
 30
        0.000000
 40
      215.094384
 50
      266.957938
 51
      267.491315
  0
ARC
  8
LVL0000
 10
      153.664911
 20
      -73.288240
 30
        0.000000
 40
      215.094384
 50
       92.508697
 51
       93.042075
  0
LINE
  8
LVL0000
 10
      146.249998
 20
      141.599996
 30
        0.000000
 11
      148.249998
 21
      141.599996
 31
        0.000000
  0
LINE
  8
LVL0000
 10
      146.249998
 20
      134.399996
 30
        0.000000
 11
      148.249998
 21
      134.399996
 31
        0.000000
  0
LINE
  8
LVL0000
 10
      150.249998
 20
      141.599996
 30
        0.000000
 11
      152.249998
 21
      141.599996
 31
        0.000000
  0
LINE
  8
LVL0000
 10
      150.249998
 20
      134.399996
 30
        0.000000
 11
      152.249998
 21
      134.399996
 31
        0.000000
  0
LINE
  8
LVL0000
 10
      154.249998
 20
      134.399996
 30
        0.000000
 11
      156.249998
 21
      134.399997
 31
        0.000000
  0
LINE
  8
LVL0000
 10
      154.249998
 20
      141.599996
 30
        0.000000
 11
      156.249998
 21
      141.599997
 31
        0.000000
  0
LINE
  8
LVL0000
 10
      158.249998
 20
      134.399997
 30
        0.000000
 11
      160.249998
 21
      134.399997
 31
        0.000000
  0
LINE
  8
LVL0000
 10
      158.249998
 20
      141.599997
 30
        0.000000
 11
      160.249998
 21
      141.599997
 31
        0.000000
  0
LINE
  8
LVL0000
 10
      162.249998
 20
      141.599997
 30
        0.000000
 11
      164.249998
 21
      141.599997
 31
        0.000000
  0
LINE
  8
LVL0000
 10
      162.249998
 20
      134.399997
 30
        0.000000
 11
      164.249998
 21
      134.399997
 31
        0.000000
  0
LINE
  8
LVL0000
 10
      166.249998
 20
      134.399998
 30
        0.000000
 11
      168.249998
 21
      134.399998
 31
        0.000000
  0
LINE
  8
LVL0000
 10
      166.249998
 20
      141.599998
 30
        0.000000
 11
      168.249998
 21
      141.599998
 31
        0.000000
  0
LINE
  8
LVL0000
 10
      170.249998
 20
      141.599998
 30
        0.000000
 11
      172.249998
 21
      141.599998
 31
        0.000000
  0
LINE
  8
LVL0000
 10
      170.249998
 20
      134.399998
 30
        0.000000
 11
      172.249998
 21
      134.399998
 31
        0.000000
  0
LINE
  8
LVL0000
 10
      174.249998
 20
      134.399999
 30
        0.000000
 11
      176.249998
 21
      134.399999
 31
        0.000000
  0
LINE
  8
LVL0000
 10
      174.249998
 20
      141.599999
 30
        0.000000
 11
      176.249998
 21
      141.599999
 31
        0.000000
  0
CIRCLE
  8
LVL0000
 10
      122.249996
 20
      120.999993
 30
        0.000000
 40
        2.650000
  0
LINE
  8
LVL0000
 10
      126.250000
 20
       84.999993
 30
        0.000000
 11
      126.249997
 21
      115.799993
 31
        0.000000
  0
LINE
  8
LVL0000
 10
      126.249996
 20
      126.199993
 30
        0.000000
 11
      126.249992
 21
      155.499993
 31
        0.000000
  0
LINE
  8
LVL0000
 10
      124.250000
 20
       84.999993
 30
        0.000000
 11
      124.249997
 21
      115.799993
 31
        0.000000
  0
LINE
  8
LVL0000
 10
      124.249996
 20
      126.199993
 30
        0.000000
 11
      124.249992
 21
      155.499993
 31
        0.000000
  0
ARC
  8
LVL0000
 10
      192.649999
 20
       91.500001
 30
        0.000000
 40
        2.000000
 50
      270.000000
 51
      450.000000
  0
LINE
  8
LVL0000
 10
      187.650000
 20
       89.500000
 30
        0.000000
 11
      192.650000
 21
       89.500001
 31
        0.000000
  0
LINE
  8
LVL0000
 10
      187.649999
 20
       93.500000
 30
        0.000000
 11
      192.649999
 21
       93.500001
 31
        0.000000
  0
LINE
  8
LVL0000
 10
      187.649999
 20
      129.000000
 30
        0.000000
 11
      192.649999
 21
      129.000001
 31
        0.000000
  0
LINE
  8
LVL0000
 10
      187.650000
 20
      125.000000
 30
        0.000000
 11
      192.650000
 21
      125.000001
 31
        0.000000
  0
ARC
  8
LVL0000
 10
      192.649999
 20
      127.000001
 30
        0.000000
 40
        2.000000
 50
      270.000000
 51
      450.000000
  0
LINE
  8
LVL0000
 10
      121.260047
 20
      121.989942
 30
        0.000000
 11
      123.239946
 21
      120.010043
 31
        0.000000
  0
LINE
  8
LVL0000
 10
      123.239946
 20
      121.989942
 30
        0.000000
 11
      121.260047
 21
      120.010043
 31
        0.000000
  0
LINE
  8
LVL0000
 10
      185.050000
 20
       55.500275
 30
        0.000000
 11
      187.650000
 21
       55.500275
 31
        0.000000
  0
ARC
  8
LVL0000
 10
      192.650000
 20
       58.400275
 30
        0.000000
 40
        2.000000
 50
      270.000000
 51
      450.000000
  0
LINE
  8
LVL0000
 10
      187.650000
 20
       56.400275
 30
        0.000000
 11
      192.650000
 21
       56.400275
 31
        0.000000
  0
LINE
  8
LVL0000
 10
      187.650000
 20
       60.400275
 30
        0.000000
 11
      192.650000
 21
       60.400275
 31
        0.000000
  0
LINE
  8
LVL0000
 10
      185.050000
 20
      -53.499725
 30
        0.000000
 11
      185.050000
 21
       55.500275
 31
        0.000000
  0
LINE
  8
LVL0000
 10
      187.650000
 20
       55.500275
 30
        0.000000
 11
      187.650000
 21
       64.999895
 31
        0.000000
  0
LINE
  8
LVL0000
 10
      118.250156
 20
       38.000275
 30
        0.000000
 11
      118.250156
 21
       24.000275
 31
        0.000000
  0
LINE
  8
LVL0000
 10
      117.250156
 20
       38.000275
 30
        0.000000
 11
      118.250156
 21
       38.000275
 31
        0.000000
  0
LINE
  8
LVL0000
 10
      117.250156
 20
       24.000275
 30
        0.000000
 11
      118.250156
 21
       24.000275
 31
        0.000000
  0
LINE
  8
LVL0000
 10
      121.550156
 20
       40.500275
 30
        0.000000
 11
      124.050156
 21
       40.500275
 31
        0.000000
  0
LINE
  8
LVL0000
 10
      121.550156
 20
       21.500275
 30
        0.000000
 11
      124.050156
 21
       21.500275
 31
        0.000000
  0
LINE
  8
LVL0000
 10
      121.550156
 20
       40.500275
 30
        0.000000
 11
      121.550156
 21
       21.500275
 31
        0.000000
  0
LINE
  8
LVL0000
 10
      124.050156
 20
       40.500275
 30
        0.000000
 11
      124.050156
 21
       21.500275
 31
        0.000000
  0
LINE
  8
LVL0000
 10
       85.250000
 20
       40.500000
 30
        0.000000
 11
       86.750000
 21
       39.000000
 31
        0.000000
  0
LINE
  8
LVL0000
 10
       85.250000
 20
       40.500000
 30
        0.000000
 11
       85.250000
 21
       57.000000
 31
        0.000000
  0
LINE
  8
LVL0000
 10
       88.250000
 20
       39.000000
 30
        0.000000
 11
       86.750000
 21
       39.000000
 31
        0.000000
  0
LINE
  8
LVL0000
 10
       87.250000
 20
       38.000000
 30
        0.000000
 11
       87.250000
 21
       39.000000
 31
        0.000000
  0
LINE
  8
LVL0000
 10
      117.250156
 20
       65.000275
 30
        0.000000
 11
      117.250156
 21
      -64.999725
 31
        0.000000
  0
ARC
  8
LVL0000
 10
       85.750000
 20
       37.500000
 30
        0.000000
 40
        0.500000
 50
       90.000000
 51
      180.000010
  0
LINE
  8
LVL0000
 10
       88.250000
 20
       38.000000
 30
        0.000000
 11
       85.750000
 21
       38.000000
 31
        0.000000
  0
LINE
  8
LVL0000
 10
       88.250000
 20
       38.000000
 30
        0.000000
 11
       88.250000
 21
       57.000000
 31
        0.000000
  0
LINE
  8
LVL0000
 10
       88.250000
 20
       57.000000
 30
        0.000000
 11
       85.250000
 21
       57.000000
 31
        0.000000
  0
LINE
  8
LVL0000
 10
      117.250000
 20
      -65.000000
 30
        0.000000
 11
      117.250000
 21
       65.000000
 31
        0.000000
  0
LINE
  8
LVL0000
 10
      187.650000
 20
      -60.999725
 30
        0.000000
 11
      189.150000
 21
      -61.999725
 31
        0.000000
  0
LINE
  8
LVL0000
 10
      189.150000
 20
      -61.999725
 30
        0.000000
 11
      190.150000
 21
      -61.999725
 31
        0.000000
  0
LINE
  8
LVL0000
 10
      185.050000
 20
      -53.499725
 30
        0.000000
 11
      190.150000
 21
      -57.499725
 31
        0.000000
  0
LINE
  8
LVL0000
 10
      190.150000
 20
      -61.999725
 30
        0.000000
 11
      190.150000
 21
      -57.499725
 31
        0.000000
  0
LINE
  8
LVL0000
 10
      187.650000
 20
      -60.999725
 30
        0.000000
 11
      187.650000
 21
      -59.999725
 31
        0.000000
  0
LINE
  8
LVL0000
 10
      185.050000
 20
      -53.499725
 30
        0.000000
 11
      184.550000
 21
      -59.999725
 31
        0.000000
  0
LINE
  8
LVL0000
 10
      184.550000
 20
      -59.999725
 30
        0.000000
 11
      182.550000
 21
      -65.000000
 31
        0.000000
  0
LINE
  8
LVL0000
 10
      184.550000
 20
      -59.999725
 30
        0.000000
 11
      187.650000
 21
      -59.999725
 31
        0.000000
  0
LINE
  8
LVL0000
 10
      118.250156
 20
      -34.999725
 30
        0.000000
 11
      118.250156
 21
      -48.999725
 31
        0.000000
  0
LINE
  8
LVL0000
 10
      117.250156
 20
      -34.999725
 30
        0.000000
 11
      118.250156
 21
      -34.999725
 31
        0.000000
  0
LINE
  8
LVL0000
 10
      117.250156
 20
      -48.999725
 30
        0.000000
 11
      118.250156
 21
      -48.999725
 31
        0.000000
  0
LINE
  8
LVL0000
 10
      121.550156
 20
      -51.499725
 30
        0.000000
 11
      124.050156
 21
      -51.499725
 31
        0.000000
  0
LINE
  8
LVL0000
 10
      121.550156
 20
      -32.499725
 30
        0.000000
 11
      124.050156
 21
      -32.499725
 31
        0.000000
  0
LINE
  8
LVL0000
 10
      121.550156
 20
      -32.499725
 30
        0.000000
 11
      121.550156
 21
      -51.499725
 31
        0.000000
  0
LINE
  8
LVL0000
 10
      124.050156
 20
      -32.499725
 30
        0.000000
 11
      124.050156
 21
      -51.499725
 31
        0.000000
  0
LINE
  8
LVL0000
 10
      117.250156
 20
      -12.716034
 30
        0.000000
 11
      117.250156
 21
      -13.532928
 31
        0.000000
  0
LINE
  8
LVL0000
 10
      117.250156
 20
      -12.716034
 30
        0.000000
 11
      117.250156
 21
      -13.532928
 31
        0.000000
  0
LINE
  8
LVL0000
 10
      126.799964
 20
      -12.249713
 30
        0.000000
 11
      176.299964
 21
      -12.249713
 31
        0.000000
  0
LINE
  8
LVL0000
 10
      126.799964
 20
       12.250287
 30
        0.000000
 11
      126.799964
 21
      -12.249713
 31
        0.000000
  0
LINE
  8
LVL0000
 10
      176.299964
 20
      -12.249713
 30
        0.000000
 11
      176.299964
 21
       12.250287
 31
        0.000000
  0
CIRCLE
  8
LVL0000
 10
       10.350342
 20
       22.499664
 30
        0.000000
 40
        2.000000
  0
LINE
  8
LVL0000
 10
       10.850342
 20
       22.999176
 30
        0.000000
 11
        8.850342
 21
       22.999176
 31
        0.000000
  0
LINE
  8
LVL0000
 10
       10.850342
 20
       21.999176
 30
        0.000000
 11
        8.850342
 21
       21.999176
 31
        0.000000
  0
LINE
  8
LVL0000
 10
        8.850342
 20
       22.999176
 30
        0.000000
 11
        8.850342
 21
       21.999176
 31
        0.000000
  0
LINE
  8
LVL0000
 10
       10.850342
 20
       23.499176
 30
        0.000000
 11
       10.850342
 21
       22.999176
 31
        0.000000
  0
LINE
  8
LVL0000
 10
       11.850342
 20
       22.499176
 30
        0.000000
 11
       10.850342
 21
       23.499176
 31
        0.000000
  0
LINE
  8
LVL0000
 10
       11.850342
 20
       22.499176
 30
        0.000000
 11
       10.850342
 21
       21.499176
 31
        0.000000
  0
LINE
  8
LVL0000
 10
       10.850342
 20
       21.999176
 30
        0.000000
 11
       10.850342
 21
       21.499176
 31
        0.000000
  0
TEXT
  8
LVL0000
 62
  2
 10
       -5.855044
 20
      140.213052
 30
        0.000000
 40
        5.000000
  1
ＪＷ２１ＲＳ
 50
        0.000000
 41
        0.835000
 51
        0.000000
  7
BIGFONT
  0
ENDSEC
  0
EOF
