  0
SECTION
  2
HEADER
  9
$ACADVER
  1
AC1006
  9
$INSBASE
 10
0.0
 20
0.0
 30
0.0
  9
$EXTMIN
 10
      -65.000023
 20
      -65.000023
  9
$EXTMAX
 10
      176.100220
 20
      120.000008
  9
$LIMMIN
 10
      -65.000023
 20
      -65.000023
  9
$LIMMAX
 10
      176.100220
 20
      120.000008
  9
$VIEWCTR
 10
       55.550098
 20
       55.550098
  9
$ORTHOMODE
 70
     0
  9
$ANGBASE
 50
0.0
  9
$ANGDIR
 70
     0
  9
$SPLINETYPE
 70
     6
  9
$SPLINESEGS
 70
     8
9
$DIMASZ
 40
        3.500000
9
$DIMEXE
 40
        0.933333
9
$DIMEXO
 40
        1.333333
9
$DIMTXT
 40
        4.000000
9
$DIMGAP
 40
        0.933333
9
$DIMTAD
 70
1
9
$DIMTIH
 70
0
9
$DIMTOH
 70
0
  0
ENDSEC
  0
SECTION
  2
TABLES
  0
TABLE
  2
LTYPE
 70
     5
  0
LTYPE
  2
CONTINUOUS
 70
    64
  3
SOLID LINE
 72
    65
 73
     0
 40
0.0
  0
LTYPE
  2
DASHED
 70
    64
  3
-- -- -- -- -- --
 72
    65
 73
     2
 40
  0.75  
 49
  0.50  
 49
 -0.25  
  0
LTYPE
  2
DOT
 70
    64
  3
....................
 72
    65
 73
     2
 40
  0.25  
 49
  0.02  
 49
 -0.23  
  0
LTYPE
  2
CENTER
 70
    64
  3
-- . -- . -- . -- .
 72
    65
 73
    4
 40
  2.00  
 49
  1.25  
 49
 -0.25  
 49
  0.25  
 49
 -0.25  
  0
LTYPE
  2
PHANTOM
 70
    64
  3
-- .. -- .. -- ..
 72
    65
 73
    6
 40
  2.50  
 49
  1.25  
 49
 -0.25  
 49
  0.25  
 49
 -0.25  
 49
  0.25  
 49
 -0.25  
  0
ENDTAB
  0
TABLE
  2
LAYER
 70
     1
  0
LAYER
  2
LVL0000
 70
    64
 62
     3
  6
CONTINUOUS
  0
ENDTAB
  0
TABLE
  2
STYLE
 70
     2
  0
STYLE
  2
STANDARD
 70
    64
 40
0.0
 41
1.0
 50
0.0
 71
     0
 42
5.0
  3
ROMANS
  4
BIGFONT
  0
STYLE
  2
BIGFONT
 70
    64
 40
0.0
 41
1.0
 50
0.0
 71
     0
 42
5.0
  3
ROMANS
  4
BIGFONT
  0
ENDTAB
  0
TABLE
  2
VIEW
 70
     0
  0
ENDTAB
  0
TABLE
  2
UCS
 70
     0
  0
ENDTAB
  0
TABLE
  2
DWGMGR
 70
     0
  0
ENDTAB
  0
ENDSEC
  0
SECTION
  2
BLOCKS
  0
BLOCK
  8
0
  2
BLK0001
 70
    64
 10
        0.000000
 20
        0.000000
  0
TEXT
  8
LVL0000
 62
  2
 10
      108.884544
 20
      -78.477081
 30
        0.000000
 40
        4.000000
  1
１０２．４
 50
        0.000000
 41
        0.835000
 51
        0.000000
  7
BIGFONT
  0
LINE
  8
LVL0000
 62
  2
 10
       66.699585
 20
      -65.333328
 30
        0.000000
 11
       66.699585
 21
      -80.343750
 31
        0.000000
  0
LINE
  8
LVL0000
 62
  2
 10
      169.099731
 20
       54.166676
 30
        0.000000
 11
      169.099731
 21
      -80.343742
 31
        0.000000
  0
LINE
  8
LVL0000
 62
  2
 10
       70.199585
 20
      -78.494118
 30
        0.000000
 11
       66.699585
 21
      -79.410416
 31
        0.000000
  0
LINE
  8
LVL0000
 62
  2
 10
       66.699585
 20
      -79.410416
 30
        0.000000
 11
       70.199585
 21
      -80.326714
 31
        0.000000
  0
LINE
  8
LVL0000
 62
  2
 10
      165.599731
 20
      -80.326706
 30
        0.000000
 11
      169.099731
 21
      -79.410408
 31
        0.000000
  0
LINE
  8
LVL0000
 62
  2
 10
      169.099731
 20
      -79.410408
 30
        0.000000
 11
      165.599731
 21
      -78.494110
 31
        0.000000
  0
LINE
  8
LVL0000
 62
  2
 10
       66.699585
 20
      -79.410416
 30
        0.000000
 11
      169.099731
 21
      -79.410408
 31
        0.000000
  0
ENDBLK
  0
BLOCK
  8
0
  2
BLK0002
 70
    64
 10
        0.000000
 20
        0.000000
  0
TEXT
  8
LVL0000
 62
  2
 10
       -3.909056
 20
      -82.371956
 30
        0.000000
 40
        4.000000
  1
３５
 50
        0.000000
 41
        0.835000
 51
        0.000000
  7
BIGFONT
  0
LINE
  8
LVL0000
 62
  2
 10
      -17.500000
 20
      -65.833344
 30
        0.000000
 11
      -17.500000
 21
      -84.238625
 31
        0.000000
  0
LINE
  8
LVL0000
 62
  2
 10
       17.500000
 20
      -65.833344
 30
        0.000000
 11
       17.500000
 21
      -84.238625
 31
        0.000000
  0
LINE
  8
LVL0000
 62
  2
 10
      -13.900000
 20
      -82.739807
 30
        0.000000
 11
      -17.500000
 21
      -83.305290
 31
        0.000000
  0
LINE
  8
LVL0000
 62
  2
 10
      -17.500000
 20
      -83.305290
 30
        0.000000
 11
      -13.900000
 21
      -83.870773
 31
        0.000000
  0
LINE
  8
LVL0000
 62
  2
 10
       13.900000
 20
      -83.870773
 30
        0.000000
 11
       17.500000
 21
      -83.305290
 31
        0.000000
  0
LINE
  8
LVL0000
 62
  2
 10
       17.500000
 20
      -83.305290
 30
        0.000000
 11
       13.900000
 21
      -82.739807
 31
        0.000000
  0
LINE
  8
LVL0000
 62
  2
 10
      -17.500000
 20
      -83.305290
 30
        0.000000
 11
       17.500000
 21
      -83.305290
 31
        0.000000
  0
ENDBLK
  0
BLOCK
  8
0
  2
BLK0003
 70
    64
 10
        0.000000
 20
        0.000000
  0
TEXT
  8
LVL0000
 62
  2
 10
       33.175964
 20
       -5.912260
 30
        0.000000
 40
        4.000000
  1
１３０
 50
       90.000000
 41
        0.835000
 51
        0.000000
  7
BIGFONT
  0
LINE
  8
LVL0000
 62
  2
 10
       18.333334
 20
       65.000008
 30
        0.000000
 11
       35.042629
 21
       65.000008
 31
        0.000000
  0
LINE
  8
LVL0000
 62
  2
 10
       18.333334
 20
      -64.999992
 30
        0.000000
 11
       35.042629
 21
      -64.999992
 31
        0.000000
  0
LINE
  8
LVL0000
 62
  2
 10
       34.894695
 20
       62.000008
 30
        0.000000
 11
       34.109295
 21
       65.000008
 31
        0.000000
  0
LINE
  8
LVL0000
 62
  2
 10
       34.109295
 20
       65.000008
 30
        0.000000
 11
       33.323895
 21
       62.000008
 31
        0.000000
  0
LINE
  8
LVL0000
 62
  2
 10
       33.323895
 20
      -61.999992
 30
        0.000000
 11
       34.109295
 21
      -64.999992
 31
        0.000000
  0
LINE
  8
LVL0000
 62
  2
 10
       34.109295
 20
      -64.999992
 30
        0.000000
 11
       34.894691
 21
      -61.999992
 31
        0.000000
  0
LINE
  8
LVL0000
 62
  2
 10
       34.109295
 20
       65.000008
 30
        0.000000
 11
       34.109295
 21
      -64.999992
 31
        0.000000
  0
ENDBLK
  0
ENDSEC
  0
SECTION
  2
ENTITIES
  0
LINE
  8
LVL0000
 10
       66.699585
 20
       40.499992
 30
        0.000000
 11
       66.699585
 21
       57.000008
 31
        0.000000
  0
LINE
  8
LVL0000
 10
       68.199585
 20
       39.000008
 30
        0.000000
 11
       69.699585
 21
       39.000008
 31
        0.000000
  0
LINE
  8
LVL0000
 10
       68.199585
 20
       39.000008
 30
        0.000000
 11
       66.699585
 21
       40.499992
 31
        0.000000
  0
LINE
  8
LVL0000
 10
       66.699585
 20
       57.000008
 30
        0.000000
 11
       69.699585
 21
       57.000008
 31
        0.000000
  0
LINE
  8
LVL0000
 10
       67.199585
 20
       37.999641
 30
        0.000000
 11
       69.699585
 21
       37.999641
 31
        0.000000
  0
LINE
  8
LVL0000
 10
       69.699585
 20
       37.999641
 30
        0.000000
 11
       69.699585
 21
       57.000008
 31
        0.000000
  0
LINE
  8
LVL0000
 10
       68.699585
 20
       57.000008
 30
        0.000000
 11
       69.699585
 21
       57.000008
 31
        0.000000
  0
LINE
  8
LVL0000
 10
       66.699585
 20
       57.000008
 30
        0.000000
 11
       69.699585
 21
       57.000008
 31
        0.000000
  0
LINE
  8
LVL0000
 10
       98.699585
 20
      -65.000023
 30
        0.000000
 11
       98.699585
 21
       65.000008
 31
        0.000000
  0
LINE
  8
LVL0000
 10
       98.699585
 20
      -65.000023
 30
        0.000000
 11
       98.699585
 21
       65.000008
 31
        0.000000
  0
ARC
  8
LVL0000
 10
       67.699585
 20
      -63.999992
 30
        0.000000
 40
        1.000000
 50
      180.000010
 51
      270.000000
  0
LINE
  8
LVL0000
 10
       98.699585
 20
       40.000008
 30
        0.000000
 11
       98.699585
 21
       65.000008
 31
        0.000000
  0
LINE
  8
LVL0000
 10
       98.699585
 20
       15.000008
 30
        0.000000
 11
       98.699585
 21
       22.000008
 31
        0.000000
  0
LINE
  8
LVL0000
 10
       98.699585
 20
      -32.999992
 30
        0.000000
 11
       98.699585
 21
      -24.999992
 31
        0.000000
  0
LINE
  8
LVL0000
 10
       98.699585
 20
      -14.999992
 30
        0.000000
 11
       98.699585
 21
        5.000008
 31
        0.000000
  0
LINE
  8
LVL0000
 10
       98.699585
 20
      -64.999992
 30
        0.000000
 11
       98.699585
 21
      -50.999992
 31
        0.000000
  0
ARC
  8
LVL0000
 10
       67.199585
 20
       37.499641
 30
        0.000000
 40
        0.500000
 50
       90.000000
 51
      180.000010
  0
LINE
  8
LVL0000
 10
       66.699585
 20
      -63.999992
 30
        0.000000
 11
       66.699585
 21
       37.499641
 31
        0.000000
  0
LINE
  8
LVL0000
 10
      169.099731
 20
       65.000008
 30
        0.000000
 11
      169.099731
 21
       55.500008
 31
        0.000000
  0
LINE
  8
LVL0000
 10
      166.499634
 20
       55.500008
 30
        0.000000
 11
      169.099731
 21
       55.500008
 31
        0.000000
  0
LINE
  8
LVL0000
 10
      166.499634
 20
      -60.000023
 30
        0.000000
 11
      166.499634
 21
       65.000008
 31
        0.000000
  0
LINE
  8
LVL0000
 10
      107.799683
 20
       12.700005
 30
        0.000000
 11
      158.199585
 21
       12.700005
 31
        0.000000
  0
LINE
  8
LVL0000
 10
      107.799683
 20
      -12.699989
 30
        0.000000
 11
      107.799683
 21
       12.700005
 31
        0.000000
  0
LINE
  8
LVL0000
 10
      158.199585
 20
      -12.699989
 30
        0.000000
 11
      158.199585
 21
       12.700005
 31
        0.000000
  0
LINE
  8
LVL0000
 10
      107.799683
 20
      -12.699989
 30
        0.000000
 11
      158.199585
 21
      -12.699989
 31
        0.000000
  0
LINE
  8
LVL0000
 10
      169.099731
 20
       61.499977
 30
        0.000000
 11
      174.099365
 21
       61.499977
 31
        0.000000
  0
ARC
  8
LVL0000
 10
      174.099365
 20
       59.499977
 30
        0.000000
 40
        2.000000
 50
        0.000000
 51
       90.000000
  0
LINE
  8
LVL0000
 10
      169.099731
 20
       57.499977
 30
        0.000000
 11
      174.099365
 21
       57.499977
 31
        0.000000
  0
ARC
  8
LVL0000
 10
      174.099365
 20
       59.499977
 30
        0.000000
 40
        2.000000
 50
      270.000000
 51
      360.000000
  0
LINE
  8
LVL0000
 10
       98.699585
 20
       38.000008
 30
        0.000000
 11
       99.699585
 21
       38.000008
 31
        0.000000
  0
LINE
  8
LVL0000
 10
       98.699585
 20
       24.000008
 30
        0.000000
 11
       99.699585
 21
       24.000008
 31
        0.000000
  0
LINE
  8
LVL0000
 10
       98.699585
 20
      -34.999992
 30
        0.000000
 11
       99.699585
 21
      -34.999992
 31
        0.000000
  0
LINE
  8
LVL0000
 10
       98.699585
 20
      -48.999992
 30
        0.000000
 11
       99.699585
 21
      -48.999992
 31
        0.000000
  0
LINE
  8
LVL0000
 10
       99.699585
 20
      -48.999992
 30
        0.000000
 11
       99.699585
 21
      -34.999992
 31
        0.000000
  0
LINE
  8
LVL0000
 10
       99.699585
 20
       24.000008
 30
        0.000000
 11
       99.699585
 21
       38.000008
 31
        0.000000
  0
LINE
  8
LVL0000
 10
      102.999634
 20
       40.500008
 30
        0.000000
 11
      105.499634
 21
       40.500008
 31
        0.000000
  0
LINE
  8
LVL0000
 10
      102.999634
 20
       21.500008
 30
        0.000000
 11
      105.499634
 21
       21.500008
 31
        0.000000
  0
LINE
  8
LVL0000
 10
      102.999634
 20
      -32.499992
 30
        0.000000
 11
      105.499634
 21
      -32.499992
 31
        0.000000
  0
LINE
  8
LVL0000
 10
      102.999634
 20
      -51.499992
 30
        0.000000
 11
      105.499634
 21
      -51.499992
 31
        0.000000
  0
LINE
  8
LVL0000
 10
      102.999634
 20
      -51.499992
 30
        0.000000
 11
      102.999634
 21
      -32.499992
 31
        0.000000
  0
LINE
  8
LVL0000
 10
      102.999634
 20
       21.500008
 30
        0.000000
 11
      102.999634
 21
       40.500008
 31
        0.000000
  0
LINE
  8
LVL0000
 10
      105.499634
 20
      -51.499992
 30
        0.000000
 11
      105.499634
 21
      -32.499992
 31
        0.000000
  0
LINE
  8
LVL0000
 10
      105.499634
 20
       21.500008
 30
        0.000000
 11
      105.499634
 21
       40.500008
 31
        0.000000
  0
LINE
  8
LVL0000
 10
      163.999634
 20
      -65.000023
 30
        0.000000
 11
      166.066284
 21
      -60.000023
 31
        0.000000
  0
LINE
  8
LVL0000
 10
      166.499390
 20
      -53.500023
 30
        0.000000
 11
      166.066284
 21
      -60.000069
 31
        0.000000
  0
LINE
  8
LVL0000
 10
      171.499634
 20
      -62.000023
 30
        0.000000
 11
      171.499634
 21
      -57.500023
 31
        0.000000
  0
LINE
  8
LVL0000
 10
      168.999634
 20
      -61.000023
 30
        0.000000
 11
      168.999634
 21
      -60.000023
 31
        0.000000
  0
LINE
  8
LVL0000
 10
      170.499634
 20
      -62.000023
 30
        0.000000
 11
      168.999634
 21
      -61.000023
 31
        0.000000
  0
LINE
  8
LVL0000
 10
      170.499634
 20
      -62.000023
 30
        0.000000
 11
      171.499634
 21
      -62.000023
 31
        0.000000
  0
LINE
  8
LVL0000
 10
      166.066284
 20
      -60.000023
 30
        0.000000
 11
      168.999634
 21
      -60.000023
 31
        0.000000
  0
LINE
  8
LVL0000
 10
      166.499390
 20
      -53.500023
 30
        0.000000
 11
      171.499634
 21
      -57.500023
 31
        0.000000
  0
LINE
  8
LVL0000
 10
       67.199585
 20
       65.000008
 30
        0.000000
 11
      169.099731
 21
       65.000008
 31
        0.000000
  0
LINE
  8
LVL0000
 10
       66.699585
 20
       57.000008
 30
        0.000000
 11
       66.699585
 21
       64.500008
 31
        0.000000
  0
ARC
  8
LVL0000
 10
       67.199585
 20
       64.500008
 30
        0.000000
 40
        0.500000
 50
       90.000000
 51
      179.999995
  0
LINE
  8
LVL0000
 10
       67.699585
 20
      -65.000023
 30
        0.000000
 11
      163.999634
 21
      -65.000023
 31
        0.000000
  0
DIMENSION
  8
LVL0000
 62
  5
  2
BLK0001
 10
       66.699585
 20
      -79.410416
 11
      108.884544
 21
      -78.477081
 13
       66.699585
 23
      -63.999992
 14
      169.099731
 24
       55.500008
 50
        0.0
 70
  0
  0
DIMENSION
  8
LVL0000
 62
  5
  2
BLK0002
 10
      -17.500000
 20
      -83.305290
 11
       -3.909056
 21
      -82.371956
 13
      -17.500000
 23
      -64.500008
 14
       17.500000
 24
      -64.500008
 50
        0.0
 70
  0
  0
DIMENSION
  8
LVL0000
 62
  5
  2
BLK0003
 10
       34.109295
 20
       65.000008
 11
       33.175964
 21
       -5.912260
 13
       17.000000
 23
       65.000008
 14
       17.000000
 24
      -64.999992
 50
       90.0
 70
  0
  0
TEXT
  8
LVL0000
 62
  2
 10
       -8.733621
 20
      105.008280
 30
        0.000000
 40
        5.000000
  1
ＪＷ２１ＳＵ
 50
        0.000000
 41
        0.835000
 51
        0.000000
  7
BIGFONT
  0
LINE
  8
LVL0000
 10
       66.699768
 20
       85.499991
 30
        0.000000
 11
       66.699768
 21
      119.499991
 31
        0.000000
  0
LINE
  8
LVL0000
 10
       82.699768
 20
       85.000006
 30
        0.000000
 11
       82.699768
 21
      120.000006
 31
        0.000000
  0
LINE
  8
LVL0000
 10
       80.699768
 20
       85.000006
 30
        0.000000
 11
       80.699768
 21
      120.000006
 31
        0.000000
  0
LINE
  8
LVL0000
 10
       82.699768
 20
       86.600012
 30
        0.000000
 11
       80.699768
 21
       86.600012
 31
        0.000000
  0
LINE
  8
LVL0000
 10
       82.699768
 20
      118.000006
 30
        0.000000
 11
       80.699768
 21
      118.000006
 31
        0.000000
  0
LINE
  8
LVL0000
 10
       86.699768
 20
       85.000006
 30
        0.000000
 11
       86.699768
 21
      120.000006
 31
        0.000000
  0
LINE
  8
LVL0000
 10
       84.699768
 20
       85.000006
 30
        0.000000
 11
       84.699768
 21
      120.000006
 31
        0.000000
  0
LINE
  8
LVL0000
 10
       86.699768
 20
       86.600012
 30
        0.000000
 11
       84.699768
 21
       86.600012
 31
        0.000000
  0
LINE
  8
LVL0000
 10
       86.699768
 20
      118.000006
 30
        0.000000
 11
       84.699768
 21
      118.000006
 31
        0.000000
  0
LINE
  8
LVL0000
 10
       90.699768
 20
       85.000006
 30
        0.000000
 11
       90.699768
 21
      120.000006
 31
        0.000000
  0
LINE
  8
LVL0000
 10
       88.699768
 20
       85.000006
 30
        0.000000
 11
       88.699768
 21
      120.000006
 31
        0.000000
  0
LINE
  8
LVL0000
 10
       90.699768
 20
       86.600012
 30
        0.000000
 11
       88.699768
 21
       86.600012
 31
        0.000000
  0
LINE
  8
LVL0000
 10
       90.699768
 20
      118.000006
 30
        0.000000
 11
       88.699768
 21
      118.000006
 31
        0.000000
  0
LINE
  8
LVL0000
 10
       94.699768
 20
       85.000006
 30
        0.000000
 11
       94.699768
 21
      120.000006
 31
        0.000000
  0
LINE
  8
LVL0000
 10
       92.699768
 20
       85.000006
 30
        0.000000
 11
       92.699768
 21
      120.000006
 31
        0.000000
  0
LINE
  8
LVL0000
 10
       94.699768
 20
       86.600012
 30
        0.000000
 11
       92.699768
 21
       86.600012
 31
        0.000000
  0
LINE
  8
LVL0000
 10
       94.699768
 20
      118.000006
 30
        0.000000
 11
       92.699768
 21
      118.000006
 31
        0.000000
  0
LINE
  8
LVL0000
 10
      107.699768
 20
      100.450003
 30
        0.000000
 11
      109.699768
 21
       99.999991
 31
        0.000000
  0
LINE
  8
LVL0000
 10
      107.699768
 20
      104.549978
 30
        0.000000
 11
      109.699768
 21
      104.999991
 31
        0.000000
  0
LINE
  8
LVL0000
 10
      117.699768
 20
       98.999991
 30
        0.000000
 11
      115.699768
 21
       99.099966
 31
        0.000000
  0
LINE
  8
LVL0000
 10
      115.699768
 20
      105.900015
 30
        0.000000
 11
      117.699768
 21
      105.999991
 31
        0.000000
  0
LINE
  8
LVL0000
 10
      111.699768
 20
      105.400015
 30
        0.000000
 11
      113.699768
 21
      105.700003
 31
        0.000000
  0
LINE
  8
LVL0000
 10
      113.699768
 20
       99.299978
 30
        0.000000
 11
      111.699768
 21
       99.599966
 31
        0.000000
  0
LINE
  8
LVL0000
 10
      105.199768
 20
      101.085806
 30
        0.000000
 11
      105.699768
 21
      100.900015
 31
        0.000000
  0
LINE
  8
LVL0000
 10
      105.699768
 20
      104.099966
 30
        0.000000
 11
      105.199768
 21
      103.914175
 31
        0.000000
  0
ARC
  8
LVL0000
 10
      105.699768
 20
      102.499991
 30
        0.000000
 40
        1.499973
 50
      109.471585
 51
      250.528418
  0
LINE
  8
LVL0000
 10
      121.699768
 20
       98.900015
 30
        0.000000
 11
      119.699768
 21
       98.900015
 31
        0.000000
  0
LINE
  8
LVL0000
 10
      121.699768
 20
      106.099966
 30
        0.000000
 11
      119.699768
 21
      106.099966
 31
        0.000000
  0
LINE
  8
LVL0000
 10
      125.699768
 20
       98.900015
 30
        0.000000
 11
      123.699768
 21
       98.900015
 31
        0.000000
  0
LINE
  8
LVL0000
 10
      125.699768
 20
      106.099966
 30
        0.000000
 11
      123.699768
 21
      106.099966
 31
        0.000000
  0
LINE
  8
LVL0000
 10
      129.699768
 20
       98.900015
 30
        0.000000
 11
      127.699768
 21
       98.900015
 31
        0.000000
  0
LINE
  8
LVL0000
 10
      129.699768
 20
      106.099966
 30
        0.000000
 11
      127.699768
 21
      106.099966
 31
        0.000000
  0
LINE
  8
LVL0000
 10
      133.699768
 20
       98.900015
 30
        0.000000
 11
      131.699768
 21
       98.900015
 31
        0.000000
  0
LINE
  8
LVL0000
 10
      133.699768
 20
      106.099966
 30
        0.000000
 11
      131.699768
 21
      106.099966
 31
        0.000000
  0
LINE
  8
LVL0000
 10
      137.699768
 20
       98.900015
 30
        0.000000
 11
      135.699768
 21
       98.900015
 31
        0.000000
  0
LINE
  8
LVL0000
 10
      137.699768
 20
      106.099966
 30
        0.000000
 11
      135.699768
 21
      106.099966
 31
        0.000000
  0
LINE
  8
LVL0000
 10
      141.699768
 20
       98.900015
 30
        0.000000
 11
      139.699768
 21
       98.900015
 31
        0.000000
  0
LINE
  8
LVL0000
 10
      141.699768
 20
      106.099966
 30
        0.000000
 11
      139.699768
 21
      106.099966
 31
        0.000000
  0
LINE
  8
LVL0000
 10
      145.699768
 20
       98.900015
 30
        0.000000
 11
      143.699768
 21
       98.900015
 31
        0.000000
  0
LINE
  8
LVL0000
 10
      145.699768
 20
      106.099966
 30
        0.000000
 11
      143.699768
 21
      106.099966
 31
        0.000000
  0
LINE
  8
LVL0000
 10
      143.699768
 20
       87.999991
 30
        0.000000
 11
      141.699768
 21
       87.999991
 31
        0.000000
  0
LINE
  8
LVL0000
 10
      143.699768
 20
      116.999991
 30
        0.000000
 11
      141.699768
 21
      116.999991
 31
        0.000000
  0
LINE
  8
LVL0000
 10
      143.699768
 20
       84.999991
 30
        0.000000
 11
      143.699768
 21
      119.999991
 31
        0.000000
  0
LINE
  8
LVL0000
 10
      141.699768
 20
       84.999991
 30
        0.000000
 11
      141.699768
 21
      119.999991
 31
        0.000000
  0
LINE
  8
LVL0000
 10
      139.699768
 20
       87.999991
 30
        0.000000
 11
      137.699768
 21
       87.999991
 31
        0.000000
  0
LINE
  8
LVL0000
 10
      139.699768
 20
      116.999991
 30
        0.000000
 11
      137.699768
 21
      116.999991
 31
        0.000000
  0
LINE
  8
LVL0000
 10
      139.699768
 20
       84.999991
 30
        0.000000
 11
      139.699768
 21
      119.999991
 31
        0.000000
  0
LINE
  8
LVL0000
 10
      137.699768
 20
       84.999991
 30
        0.000000
 11
      137.699768
 21
      119.999991
 31
        0.000000
  0
LINE
  8
LVL0000
 10
      135.699768
 20
       87.999991
 30
        0.000000
 11
      133.699768
 21
       87.999991
 31
        0.000000
  0
LINE
  8
LVL0000
 10
      135.699768
 20
      116.999991
 30
        0.000000
 11
      133.699768
 21
      116.999991
 31
        0.000000
  0
LINE
  8
LVL0000
 10
      135.699768
 20
       84.999991
 30
        0.000000
 11
      135.699768
 21
      119.999991
 31
        0.000000
  0
LINE
  8
LVL0000
 10
      133.699768
 20
       84.999991
 30
        0.000000
 11
      133.699768
 21
      119.999991
 31
        0.000000
  0
LINE
  8
LVL0000
 10
      131.699768
 20
       87.999991
 30
        0.000000
 11
      129.699768
 21
       87.999991
 31
        0.000000
  0
LINE
  8
LVL0000
 10
      131.699768
 20
      116.999991
 30
        0.000000
 11
      129.699768
 21
      116.999991
 31
        0.000000
  0
LINE
  8
LVL0000
 10
      131.699768
 20
       84.999991
 30
        0.000000
 11
      131.699768
 21
      119.999991
 31
        0.000000
  0
LINE
  8
LVL0000
 10
      129.699768
 20
       84.999991
 30
        0.000000
 11
      129.699768
 21
      119.999991
 31
        0.000000
  0
LINE
  8
LVL0000
 10
      127.699768
 20
       87.999991
 30
        0.000000
 11
      125.699768
 21
       87.999991
 31
        0.000000
  0
LINE
  8
LVL0000
 10
      127.699768
 20
      116.999991
 30
        0.000000
 11
      125.699768
 21
      116.999991
 31
        0.000000
  0
LINE
  8
LVL0000
 10
      127.699768
 20
       84.999991
 30
        0.000000
 11
      127.699768
 21
      119.999991
 31
        0.000000
  0
LINE
  8
LVL0000
 10
      125.699768
 20
       84.999991
 30
        0.000000
 11
      125.699768
 21
      119.999991
 31
        0.000000
  0
LINE
  8
LVL0000
 10
      123.699768
 20
       87.999991
 30
        0.000000
 11
      121.699768
 21
       87.999991
 31
        0.000000
  0
LINE
  8
LVL0000
 10
      123.699768
 20
      116.999991
 30
        0.000000
 11
      121.699768
 21
      116.999991
 31
        0.000000
  0
LINE
  8
LVL0000
 10
      123.699768
 20
       84.999991
 30
        0.000000
 11
      123.699768
 21
      119.999991
 31
        0.000000
  0
LINE
  8
LVL0000
 10
      121.699768
 20
       84.999991
 30
        0.000000
 11
      121.699768
 21
      119.999991
 31
        0.000000
  0
LINE
  8
LVL0000
 10
      119.699768
 20
       87.999991
 30
        0.000000
 11
      117.699768
 21
       87.999991
 31
        0.000000
  0
LINE
  8
LVL0000
 10
      119.699768
 20
      116.999991
 30
        0.000000
 11
      117.699768
 21
      116.999991
 31
        0.000000
  0
LINE
  8
LVL0000
 10
      119.699768
 20
       84.999991
 30
        0.000000
 11
      119.699768
 21
      119.999991
 31
        0.000000
  0
LINE
  8
LVL0000
 10
      117.699768
 20
       84.999991
 30
        0.000000
 11
      117.699768
 21
      119.999991
 31
        0.000000
  0
LINE
  8
LVL0000
 10
      115.699768
 20
       87.999991
 30
        0.000000
 11
      113.699768
 21
       87.999991
 31
        0.000000
  0
LINE
  8
LVL0000
 10
      115.699768
 20
      116.999991
 30
        0.000000
 11
      113.699768
 21
      116.999991
 31
        0.000000
  0
LINE
  8
LVL0000
 10
      115.699768
 20
       84.999991
 30
        0.000000
 11
      115.699768
 21
      119.999991
 31
        0.000000
  0
LINE
  8
LVL0000
 10
      113.699768
 20
       84.999991
 30
        0.000000
 11
      113.699768
 21
      119.999991
 31
        0.000000
  0
LINE
  8
LVL0000
 10
      111.699768
 20
       87.999991
 30
        0.000000
 11
      109.699768
 21
       87.999991
 31
        0.000000
  0
LINE
  8
LVL0000
 10
      111.699768
 20
      116.999991
 30
        0.000000
 11
      109.699768
 21
      116.999991
 31
        0.000000
  0
LINE
  8
LVL0000
 10
      111.699768
 20
       84.999991
 30
        0.000000
 11
      111.699768
 21
      119.999991
 31
        0.000000
  0
LINE
  8
LVL0000
 10
      109.699768
 20
       84.999991
 30
        0.000000
 11
      109.699768
 21
      119.999991
 31
        0.000000
  0
LINE
  8
LVL0000
 10
      107.699768
 20
       87.999991
 30
        0.000000
 11
      105.699768
 21
       87.999991
 31
        0.000000
  0
LINE
  8
LVL0000
 10
      107.699768
 20
      116.999991
 30
        0.000000
 11
      105.699768
 21
      116.999991
 31
        0.000000
  0
LINE
  8
LVL0000
 10
      107.699768
 20
       84.999991
 30
        0.000000
 11
      107.699768
 21
      119.999991
 31
        0.000000
  0
LINE
  8
LVL0000
 10
      105.699768
 20
       84.999991
 30
        0.000000
 11
      105.699768
 21
      119.999991
 31
        0.000000
  0
LINE
  8
LVL0000
 10
       98.699768
 20
       84.999991
 30
        0.000000
 11
       98.699768
 21
      119.999991
 31
        0.000000
  0
ARC
  8
LVL0000
 10
       67.199768
 20
      119.499991
 30
        0.000000
 40
        0.500015
 50
       90.000000
 51
      179.999995
  0
LINE
  8
LVL0000
 10
      169.099792
 20
      119.999991
 30
        0.000000
 11
       67.199768
 21
      120.000006
 31
        0.000000
  0
LINE
  8
LVL0000
 10
      169.099792
 20
      119.999991
 30
        0.000000
 11
      169.099792
 21
       84.999991
 31
        0.000000
  0
LINE
  8
LVL0000
 10
      159.699768
 20
      119.999991
 30
        0.000000
 11
      159.699768
 21
       84.999991
 31
        0.000000
  0
LINE
  8
LVL0000
 10
      159.699768
 20
      105.999991
 30
        0.000000
 11
      158.499756
 21
      105.999991
 31
        0.000000
  0
ARC
  8
LVL0000
 10
      158.499756
 20
      104.499991
 30
        0.000000
 40
        1.500000
 50
       90.000000
 51
      180.000010
  0
ARC
  8
LVL0000
 10
      158.499756
 20
      100.499991
 30
        0.000000
 40
        1.500000
 50
      180.000010
 51
      270.000000
  0
LINE
  8
LVL0000
 10
      159.699768
 20
       98.999991
 30
        0.000000
 11
      158.499756
 21
       98.999991
 31
        0.000000
  0
LINE
  8
LVL0000
 10
      156.999756
 20
      104.499991
 30
        0.000000
 11
      156.999756
 21
      100.499991
 31
        0.000000
  0
LINE
  8
LVL0000
 10
      145.699768
 20
       84.999991
 30
        0.000000
 11
      145.699768
 21
      119.999991
 31
        0.000000
  0
LINE
  8
LVL0000
 10
      147.699768
 20
       84.999991
 30
        0.000000
 11
      147.699768
 21
      119.999991
 31
        0.000000
  0
LINE
  8
LVL0000
 10
      147.699768
 20
      116.999991
 30
        0.000000
 11
      145.699768
 21
      116.999991
 31
        0.000000
  0
LINE
  8
LVL0000
 10
      147.699768
 20
       87.999991
 30
        0.000000
 11
      145.699768
 21
       87.999991
 31
        0.000000
  0
LINE
  8
LVL0000
 10
      149.699768
 20
       84.999991
 30
        0.000000
 11
      149.699768
 21
      119.999991
 31
        0.000000
  0
LINE
  8
LVL0000
 10
      151.699768
 20
       84.999991
 30
        0.000000
 11
      151.699768
 21
      119.999991
 31
        0.000000
  0
LINE
  8
LVL0000
 10
      151.699768
 20
      116.999991
 30
        0.000000
 11
      149.699768
 21
      116.999991
 31
        0.000000
  0
LINE
  8
LVL0000
 10
      151.699768
 20
       87.999991
 30
        0.000000
 11
      149.699768
 21
       87.999991
 31
        0.000000
  0
LINE
  8
LVL0000
 10
      153.699768
 20
       84.999991
 30
        0.000000
 11
      153.699768
 21
      119.999991
 31
        0.000000
  0
LINE
  8
LVL0000
 10
      155.699768
 20
       84.999991
 30
        0.000000
 11
      155.699768
 21
      119.999991
 31
        0.000000
  0
LINE
  8
LVL0000
 10
      155.699768
 20
      116.999991
 30
        0.000000
 11
      153.699768
 21
      116.999991
 31
        0.000000
  0
LINE
  8
LVL0000
 10
      155.699768
 20
       87.999991
 30
        0.000000
 11
      153.699768
 21
       87.999991
 31
        0.000000
  0
LINE
  8
LVL0000
 10
      159.699768
 20
      116.999991
 30
        0.000000
 11
      157.699768
 21
      116.999991
 31
        0.000000
  0
LINE
  8
LVL0000
 10
      159.699768
 20
       87.999991
 30
        0.000000
 11
      157.699768
 21
       87.999991
 31
        0.000000
  0
LINE
  8
LVL0000
 10
      157.699768
 20
      105.768850
 30
        0.000000
 11
      157.699768
 21
      119.999991
 31
        0.000000
  0
LINE
  8
LVL0000
 10
      157.699768
 20
       84.999991
 30
        0.000000
 11
      157.699768
 21
       99.231131
 31
        0.000000
  0
LINE
  8
LVL0000
 10
      157.699768
 20
      106.099966
 30
        0.000000
 11
      155.699768
 21
      106.099966
 31
        0.000000
  0
LINE
  8
LVL0000
 10
      157.699768
 20
       98.900015
 30
        0.000000
 11
      155.699768
 21
       98.900015
 31
        0.000000
  0
LINE
  8
LVL0000
 10
      153.699768
 20
      106.099966
 30
        0.000000
 11
      151.699768
 21
      106.099966
 31
        0.000000
  0
LINE
  8
LVL0000
 10
      153.699768
 20
       98.900015
 30
        0.000000
 11
      151.699768
 21
       98.900015
 31
        0.000000
  0
LINE
  8
LVL0000
 10
      149.699768
 20
      106.099966
 30
        0.000000
 11
      147.699768
 21
      106.099966
 31
        0.000000
  0
LINE
  8
LVL0000
 10
      149.699768
 20
       98.900015
 30
        0.000000
 11
      147.699768
 21
       98.900015
 31
        0.000000
  0
ARC
  8
LVL0000
 10
      174.100220
 20
       91.499502
 30
        0.000000
 40
        2.000000
 50
      270.000000
 51
      450.000000
  0
LINE
  8
LVL0000
 10
      169.100220
 20
       93.499502
 30
        0.000000
 11
      174.100220
 21
       93.499502
 31
        0.000000
  0
LINE
  8
LVL0000
 10
      169.100220
 20
       89.499502
 30
        0.000000
 11
      174.100220
 21
       89.499502
 31
        0.000000
  0
LINE
  8
LVL0000
 10
      170.600220
 20
      114.400000
 30
        0.000000
 11
      169.099792
 21
      114.400000
 31
        0.000000
  0
LINE
  8
LVL0000
 10
      170.600220
 20
      114.400000
 30
        0.000000
 11
      170.600220
 21
       93.499502
 31
        0.000000
  0
ARC
  8
LVL0000
 10
       67.199768
 20
       85.499991
 30
        0.000000
 40
        0.500000
 50
      179.999995
 51
      270.000000
  0
LINE
  8
LVL0000
 10
      169.099792
 20
       84.999991
 30
        0.000000
 11
       67.199768
 21
       85.000006
 31
        0.000000
  0
LINE
  8
LVL0000
  6
CENTER
 10
      -26.775342
 20
        0.000000
 30
        0.000000
 11
       25.692608
 21
        0.000000
 31
        0.000000
  0
LINE
  8
LVL0000
  6
CENTER
 10
        0.000000
 20
      -75.090590
 30
        0.000000
 11
        0.000000
 21
       72.289983
 31
        0.000000
  0
LINE
  8
LVL0000
 10
        9.000000
 20
      -32.499535
 30
        0.000000
 11
        9.000000
 21
       24.500465
 31
        0.000000
  0
LINE
  8
LVL0000
 10
       10.500000
 20
      -32.499535
 30
        0.000000
 11
       10.500000
 21
       24.500465
 31
        0.000000
  0
LINE
  8
LVL0000
 10
       10.599854
 20
      -32.499535
 30
        0.000000
 11
       10.599854
 21
       24.500465
 31
        0.000000
  0
LINE
  8
LVL0000
 10
       17.500000
 20
       57.000008
 30
        0.000000
 11
      -17.500000
 21
       57.000008
 31
        0.000000
  0
LINE
  8
LVL0000
 10
       17.500000
 20
       39.000008
 30
        0.000000
 11
      -17.500000
 21
       39.000008
 31
        0.000000
  0
LINE
  8
LVL0000
 10
       17.500000
 20
       40.500008
 30
        0.000000
 11
      -17.500000
 21
       40.500008
 31
        0.000000
  0
LINE
  8
LVL0000
 10
       17.500000
 20
       39.000008
 30
        0.000000
 11
       17.500000
 21
       57.000008
 31
        0.000000
  0
LINE
  8
LVL0000
 10
      -17.500000
 20
       39.000008
 30
        0.000000
 11
      -17.500000
 21
       57.000008
 31
        0.000000
  0
CIRCLE
  8
LVL0000
 10
        4.000000
 20
       49.500008
 30
        0.000000
 40
        5.000000
  0
LINE
  8
LVL0000
 10
        9.899902
 20
       38.000008
 30
        0.000000
 11
        9.899902
 21
       39.000008
 31
        0.000000
  0
LINE
  8
LVL0000
 10
       16.449951
 20
       38.000008
 30
        0.000000
 11
       16.449951
 21
       39.000008
 31
        0.000000
  0
LINE
  8
LVL0000
 10
      -14.100098
 20
       38.000008
 30
        0.000000
 11
      -14.100098
 21
       39.000008
 31
        0.000000
  0
LINE
  8
LVL0000
 10
       -9.900024
 20
       38.000008
 30
        0.000000
 11
       -9.900024
 21
       39.000008
 31
        0.000000
  0
LINE
  8
LVL0000
 10
      -16.449951
 20
       38.000008
 30
        0.000000
 11
      -16.449951
 21
       39.000008
 31
        0.000000
  0
LINE
  8
LVL0000
 10
       14.099976
 20
       38.000008
 30
        0.000000
 11
       14.099976
 21
       39.000008
 31
        0.000000
  0
LINE
  8
LVL0000
 10
       -2.049713
 20
       51.600021
 30
        0.000000
 11
       -3.649689
 21
       51.600021
 31
        0.000000
  0
LINE
  8
LVL0000
 10
       -2.049713
 20
       53.600021
 30
        0.000000
 11
       -3.649689
 21
       53.600021
 31
        0.000000
  0
LINE
  8
LVL0000
 10
       -2.049713
 20
       51.600021
 30
        0.000000
 11
       -2.049713
 21
       53.600021
 31
        0.000000
  0
LINE
  8
LVL0000
 10
       -3.649689
 20
       51.600021
 30
        0.000000
 11
       -3.649689
 21
       53.600021
 31
        0.000000
  0
LINE
  8
LVL0000
 10
       -7.149689
 20
       51.600021
 30
        0.000000
 11
       -7.149689
 21
       53.600021
 31
        0.000000
  0
LINE
  8
LVL0000
 10
       -5.549713
 20
       51.600021
 30
        0.000000
 11
       -5.549713
 21
       53.600021
 31
        0.000000
  0
LINE
  8
LVL0000
 10
       -5.549713
 20
       53.600021
 30
        0.000000
 11
       -7.149689
 21
       53.600021
 31
        0.000000
  0
LINE
  8
LVL0000
 10
       -5.549713
 20
       51.600021
 30
        0.000000
 11
       -7.149689
 21
       51.600021
 31
        0.000000
  0
LINE
  8
LVL0000
 10
       -9.049713
 20
       51.600021
 30
        0.000000
 11
      -10.649689
 21
       51.600021
 31
        0.000000
  0
LINE
  8
LVL0000
 10
       -9.049713
 20
       53.600021
 30
        0.000000
 11
      -10.649689
 21
       53.600021
 31
        0.000000
  0
LINE
  8
LVL0000
 10
       -9.049713
 20
       51.600021
 30
        0.000000
 11
       -9.049713
 21
       53.600021
 31
        0.000000
  0
LINE
  8
LVL0000
 10
      -10.649689
 20
       51.600021
 30
        0.000000
 11
      -10.649689
 21
       53.600021
 31
        0.000000
  0
LINE
  8
LVL0000
 10
      -14.149689
 20
       51.600021
 30
        0.000000
 11
      -14.149689
 21
       53.600021
 31
        0.000000
  0
LINE
  8
LVL0000
 10
      -12.549713
 20
       51.600021
 30
        0.000000
 11
      -12.549713
 21
       53.600021
 31
        0.000000
  0
LINE
  8
LVL0000
 10
      -12.549713
 20
       53.600021
 30
        0.000000
 11
      -14.149689
 21
       53.600021
 31
        0.000000
  0
LINE
  8
LVL0000
 10
      -12.549713
 20
       51.600021
 30
        0.000000
 11
      -14.149689
 21
       51.600021
 31
        0.000000
  0
LINE
  8
LVL0000
 10
      -12.549713
 20
       45.000014
 30
        0.000000
 11
      -14.149689
 21
       45.000014
 31
        0.000000
  0
LINE
  8
LVL0000
 10
      -12.549713
 20
       47.000014
 30
        0.000000
 11
      -14.149689
 21
       47.000014
 31
        0.000000
  0
LINE
  8
LVL0000
 10
      -12.549713
 20
       45.000014
 30
        0.000000
 11
      -12.549713
 21
       47.000014
 31
        0.000000
  0
LINE
  8
LVL0000
 10
      -14.149689
 20
       45.000014
 30
        0.000000
 11
      -14.149689
 21
       47.000014
 31
        0.000000
  0
LINE
  8
LVL0000
 10
      -10.649689
 20
       45.000014
 30
        0.000000
 11
      -10.649689
 21
       47.000014
 31
        0.000000
  0
LINE
  8
LVL0000
 10
       -9.049713
 20
       45.000014
 30
        0.000000
 11
       -9.049713
 21
       47.000014
 31
        0.000000
  0
LINE
  8
LVL0000
 10
       -9.049713
 20
       47.000014
 30
        0.000000
 11
      -10.649689
 21
       47.000014
 31
        0.000000
  0
LINE
  8
LVL0000
 10
       -9.049713
 20
       45.000014
 30
        0.000000
 11
      -10.649689
 21
       45.000014
 31
        0.000000
  0
LINE
  8
LVL0000
 10
       -3.649689
 20
       45.000014
 30
        0.000000
 11
       -3.649689
 21
       47.000014
 31
        0.000000
  0
LINE
  8
LVL0000
 10
       -2.049713
 20
       45.000014
 30
        0.000000
 11
       -2.049713
 21
       47.000014
 31
        0.000000
  0
LINE
  8
LVL0000
 10
       -2.049713
 20
       47.000014
 30
        0.000000
 11
       -3.649689
 21
       47.000014
 31
        0.000000
  0
LINE
  8
LVL0000
 10
       -2.049713
 20
       45.000014
 30
        0.000000
 11
       -3.649689
 21
       45.000014
 31
        0.000000
  0
LINE
  8
LVL0000
 10
       -1.209961
 20
       13.714638
 30
        0.000000
 11
       -1.209961
 21
      -21.595116
 31
        0.000000
  0
LINE
  8
LVL0000
 10
        6.609863
 20
       12.855659
 30
        0.000000
 11
        6.609863
 21
      -20.755760
 31
        0.000000
  0
ARC
  8
LVL0000
 10
        5.009766
 20
       12.855659
 30
        0.000000
 40
        1.600098
 50
        0.000000
 51
       80.000788
  0
LINE
  8
LVL0000
 10
        0.389893
 20
       15.294991
 30
        0.000000
 11
        5.287598
 21
       14.431343
 31
        0.000000
  0
ARC
  8
LVL0000
 10
        0.389893
 20
       13.694893
 30
        0.000000
 40
        1.599976
 50
       90.000000
 51
      180.000010
  0
LINE
  8
LVL0000
 10
        9.000000
 20
      -30.450096
 30
        0.000000
 11
        9.000000
 21
       22.549995
 31
        0.000000
  0
LINE
  8
LVL0000
 10
       -3.600098
 20
      -30.450096
 30
        0.000000
 11
       -3.600098
 21
       22.549995
 31
        0.000000
  0
LINE
  8
LVL0000
 10
        5.199951
 20
       18.216621
 30
        0.000000
 11
        5.199951
 21
       21.103340
 31
        0.000000
  0
LINE
  8
LVL0000
 10
        2.699951
 20
       16.773140
 30
        0.000000
 11
        5.199951
 21
       18.216621
 31
        0.000000
  0
LINE
  8
LVL0000
 10
        0.199951
 20
       18.216621
 30
        0.000000
 11
        2.699951
 21
       16.773140
 31
        0.000000
  0
LINE
  8
LVL0000
 10
        0.199951
 20
       21.103340
 30
        0.000000
 11
        0.199951
 21
       18.216621
 31
        0.000000
  0
LINE
  8
LVL0000
 10
        2.699951
 20
       22.546700
 30
        0.000000
 11
        0.199951
 21
       21.103340
 31
        0.000000
  0
LINE
  8
LVL0000
 10
        5.199951
 20
       21.103340
 30
        0.000000
 11
        2.699951
 21
       22.546700
 31
        0.000000
  0
CIRCLE
  8
LVL0000
 10
        2.699951
 20
       19.659981
 30
        0.000000
 40
        1.300049
  0
LINE
  8
LVL0000
 10
        9.000000
 20
       22.549995
 30
        0.000000
 11
       -3.600098
 21
       22.549995
 31
        0.000000
  0
LINE
  8
LVL0000
 10
        5.199951
 20
      -29.003441
 30
        0.000000
 11
        5.199951
 21
      -26.116600
 31
        0.000000
  0
LINE
  8
LVL0000
 10
        2.699951
 20
      -30.446800
 30
        0.000000
 11
        5.199951
 21
      -29.003441
 31
        0.000000
  0
LINE
  8
LVL0000
 10
        0.199951
 20
      -29.003441
 30
        0.000000
 11
        2.699951
 21
      -30.446800
 31
        0.000000
  0
LINE
  8
LVL0000
 10
        0.199951
 20
      -26.116600
 30
        0.000000
 11
        0.199951
 21
      -29.003441
 31
        0.000000
  0
LINE
  8
LVL0000
 10
        2.699951
 20
      -24.673241
 30
        0.000000
 11
        0.199951
 21
      -26.116600
 31
        0.000000
  0
LINE
  8
LVL0000
 10
        5.199951
 20
      -26.116600
 30
        0.000000
 11
        2.699951
 21
      -24.673241
 31
        0.000000
  0
CIRCLE
  8
LVL0000
 10
        2.699951
 20
      -27.560081
 30
        0.000000
 40
        1.300049
  0
ARC
  8
LVL0000
 10
        0.389893
 20
      -21.595116
 30
        0.000000
 40
        1.599854
 50
      180.000010
 51
      270.000000
  0
LINE
  8
LVL0000
 10
        0.389893
 20
      -23.195091
 30
        0.000000
 11
        5.287598
 21
      -22.331444
 31
        0.000000
  0
ARC
  8
LVL0000
 10
        5.009766
 20
      -20.755760
 30
        0.000000
 40
        1.599990
 50
      279.999892
 51
      360.000000
  0
LINE
  8
LVL0000
 10
        9.000000
 20
      -30.450096
 30
        0.000000
 11
       -3.600098
 21
      -30.450096
 31
        0.000000
  0
LINE
  8
LVL0000
 10
      -10.000000
 20
       36.750008
 30
        0.000000
 11
      -16.500000
 21
       36.750008
 31
        0.000000
  0
LINE
  8
LVL0000
 10
      -10.000000
 20
       29.250008
 30
        0.000000
 11
      -10.000000
 21
       36.750008
 31
        0.000000
  0
LINE
  8
LVL0000
 10
      -10.000000
 20
       29.250008
 30
        0.000000
 11
      -16.500000
 21
       29.250008
 31
        0.000000
  0
LINE
  8
LVL0000
 10
      -16.500000
 20
       29.250008
 30
        0.000000
 11
      -16.500000
 21
       36.750008
 31
        0.000000
  0
CIRCLE
  8
LVL0000
 10
        1.279785
 20
        4.339973
 30
        0.000000
 40
        0.699951
  0
CIRCLE
  8
LVL0000
 10
        1.279785
 20
        1.579994
 30
        0.000000
 40
        0.699951
  0
CIRCLE
  8
LVL0000
 10
        1.279785
 20
       -1.180016
 30
        0.000000
 40
        0.699951
  0
CIRCLE
  8
LVL0000
 10
        1.279785
 20
       -3.940025
 30
        0.000000
 40
        0.699951
  0
CIRCLE
  8
LVL0000
 10
        1.279785
 20
       -6.700035
 30
        0.000000
 40
        0.699951
  0
CIRCLE
  8
LVL0000
 10
        1.279785
 20
       -9.460045
 30
        0.000000
 40
        0.699951
  0
CIRCLE
  8
LVL0000
 10
        1.279785
 20
      -12.220024
 30
        0.000000
 40
        0.699951
  0
CIRCLE
  8
LVL0000
 10
        1.279785
 20
      -14.980003
 30
        0.000000
 40
        0.699951
  0
CIRCLE
  8
LVL0000
 10
        1.279785
 20
      -17.740013
 30
        0.000000
 40
        0.699951
  0
CIRCLE
  8
LVL0000
 10
        1.279785
 20
      -20.500023
 30
        0.000000
 40
        0.699951
  0
CIRCLE
  8
LVL0000
 10
        4.119873
 20
      -19.120018
 30
        0.000000
 40
        0.699951
  0
CIRCLE
  8
LVL0000
 10
        4.119873
 20
      -16.360039
 30
        0.000000
 40
        0.699951
  0
CIRCLE
  8
LVL0000
 10
        4.119873
 20
      -13.600029
 30
        0.000000
 40
        0.699951
  0
CIRCLE
  8
LVL0000
 10
        4.119873
 20
      -10.840050
 30
        0.000000
 40
        0.699951
  0
CIRCLE
  8
LVL0000
 10
        4.119873
 20
       -8.080040
 30
        0.000000
 40
        0.699951
  0
CIRCLE
  8
LVL0000
 10
        4.119873
 20
       -5.320030
 30
        0.000000
 40
        0.699951
  0
CIRCLE
  8
LVL0000
 10
        4.119873
 20
       -2.560020
 30
        0.000000
 40
        0.699951
  0
CIRCLE
  8
LVL0000
 10
        4.119873
 20
        0.199959
 30
        0.000000
 40
        0.699951
  0
CIRCLE
  8
LVL0000
 10
        4.119873
 20
        2.959969
 30
        0.000000
 40
        0.699951
  0
CIRCLE
  8
LVL0000
 10
        4.119873
 20
        5.719948
 30
        0.000000
 40
        0.699951
  0
CIRCLE
  8
LVL0000
 10
        1.279785
 20
        7.099983
 30
        0.000000
 40
        0.699951
  0
CIRCLE
  8
LVL0000
 10
        4.119873
 20
        8.479958
 30
        0.000000
 40
        0.699951
  0
CIRCLE
  8
LVL0000
 10
        1.279785
 20
        9.859962
 30
        0.000000
 40
        0.699951
  0
CIRCLE
  8
LVL0000
 10
        1.279785
 20
       12.619972
 30
        0.000000
 40
        0.699951
  0
CIRCLE
  8
LVL0000
 10
        4.119873
 20
       11.239967
 30
        0.000000
 40
        0.699951
  0
ARC
  8
LVL0000
 10
       17.000000
 20
      -64.499992
 30
        0.000000
 40
        0.500000
 50
      270.000000
 51
      360.000000
  0
LINE
  8
LVL0000
 10
      -17.000000
 20
      -64.999992
 30
        0.000000
 11
       17.000000
 21
      -64.999992
 31
        0.000000
  0
ARC
  8
LVL0000
 10
      -17.000000
 20
      -64.499992
 30
        0.000000
 40
        0.500000
 50
      180.000010
 51
      270.000000
  0
LINE
  8
LVL0000
 10
      -17.500000
 20
      -64.499992
 30
        0.000000
 11
      -17.500000
 21
       64.500008
 31
        0.000000
  0
ARC
  8
LVL0000
 10
      -17.000000
 20
       64.500008
 30
        0.000000
 40
        0.500000
 50
       90.000000
 51
      180.000010
  0
LINE
  8
LVL0000
 10
      -17.000000
 20
       65.000008
 30
        0.000000
 11
       17.000000
 21
       65.000008
 31
        0.000000
  0
LINE
  8
LVL0000
 10
       17.500000
 20
      -64.499992
 30
        0.000000
 11
       17.500000
 21
       64.500008
 31
        0.000000
  0
ARC
  8
LVL0000
 10
       17.000000
 20
       64.500008
 30
        0.000000
 40
        0.500000
 50
        0.000000
 51
       90.000000
  0
LINE
  8
LVL0000
 10
      -16.100098
 20
       63.500008
 30
        0.000000
 11
       16.099976
 21
       63.500008
 31
        0.000000
  0
LINE
  8
LVL0000
 10
      -16.100098
 20
       58.000008
 30
        0.000000
 11
       16.099976
 21
       58.000008
 31
        0.000000
  0
LINE
  8
LVL0000
 10
       16.099976
 20
       58.000008
 30
        0.000000
 11
       16.099976
 21
       63.500008
 31
        0.000000
  0
LINE
  8
LVL0000
 10
      -16.100098
 20
       58.000008
 30
        0.000000
 11
      -16.100098
 21
       63.500008
 31
        0.000000
  0
CIRCLE
  8
LVL0000
 10
       10.500000
 20
       33.600014
 30
        0.000000
 40
        2.300049
  0
CIRCLE
  8
LVL0000
 10
       10.500000
 20
      -59.599998
 30
        0.000000
 40
        2.300049
  0
LINE
  8
LVL0000
 10
      -17.500000
 20
       57.000008
 30
        0.000000
 11
       17.500000
 21
       57.000008
 31
        0.000000
  0
LINE
  8
LVL0000
 10
       -9.900024
 20
       38.700020
 30
        0.000000
 11
        9.899902
 21
       38.700020
 31
        0.000000
  0
LINE
  8
LVL0000
 10
      -17.500000
 20
       38.000008
 30
        0.000000
 11
       -9.900024
 21
       38.000008
 31
        0.000000
  0
LINE
  8
LVL0000
 10
        9.899902
 20
       38.000008
 30
        0.000000
 11
       17.500000
 21
       38.000008
 31
        0.000000
  0
CIRCLE
  8
LVL0000
 10
       -5.100098
 20
       33.000008
 30
        0.000000
 40
        4.500000
  0
LINE
  8
LVL0000
 10
       -7.299561
 20
       24.500465
 30
        0.000000
 11
       12.700439
 21
       24.500465
 31
        0.000000
  0
LINE
  8
LVL0000
 10
       -7.299561
 20
      -32.499535
 30
        0.000000
 11
       12.700439
 21
      -32.499535
 31
        0.000000
  0
LINE
  8
LVL0000
 10
       12.700439
 20
      -32.499535
 30
        0.000000
 11
       12.700439
 21
       24.500465
 31
        0.000000
  0
LINE
  8
LVL0000
 10
       11.700439
 20
      -32.499535
 30
        0.000000
 11
       11.700439
 21
       24.500465
 31
        0.000000
  0
LINE
  8
LVL0000
 10
       -6.299561
 20
      -32.499535
 30
        0.000000
 11
       -6.299561
 21
       24.500465
 31
        0.000000
  0
LINE
  8
LVL0000
 10
       -7.299561
 20
      -32.499535
 30
        0.000000
 11
       -7.299561
 21
       24.500465
 31
        0.000000
  0
CIRCLE
  8
LVL0000
 10
       -5.100098
 20
       32.999947
 30
        0.000000
 40
        2.000000
  0
LINE
  8
LVL0000
 10
       -4.600098
 20
       33.499458
 30
        0.000000
 11
       -6.600098
 21
       33.499458
 31
        0.000000
  0
LINE
  8
LVL0000
 10
       -4.600098
 20
       32.499458
 30
        0.000000
 11
       -6.600098
 21
       32.499458
 31
        0.000000
  0
LINE
  8
LVL0000
 10
       -6.600098
 20
       33.499458
 30
        0.000000
 11
       -6.600098
 21
       32.499458
 31
        0.000000
  0
LINE
  8
LVL0000
 10
       -4.600098
 20
       33.999458
 30
        0.000000
 11
       -4.600098
 21
       33.499458
 31
        0.000000
  0
LINE
  8
LVL0000
 10
       -3.600098
 20
       32.999458
 30
        0.000000
 11
       -4.600098
 21
       33.999458
 31
        0.000000
  0
LINE
  8
LVL0000
 10
       -3.600098
 20
       32.999458
 30
        0.000000
 11
       -4.600098
 21
       31.999458
 31
        0.000000
  0
LINE
  8
LVL0000
 10
       -4.600098
 20
       32.499458
 30
        0.000000
 11
       -4.600098
 21
       31.999458
 31
        0.000000
  0
CIRCLE
  8
LVL0000
 10
        4.000000
 20
       49.499947
 30
        0.000000
 40
        2.000000
  0
LINE
  8
LVL0000
 10
        4.500000
 20
       49.999458
 30
        0.000000
 11
        2.500000
 21
       49.999458
 31
        0.000000
  0
LINE
  8
LVL0000
 10
        4.500000
 20
       48.999458
 30
        0.000000
 11
        2.500000
 21
       48.999458
 31
        0.000000
  0
LINE
  8
LVL0000
 10
        2.500000
 20
       49.999458
 30
        0.000000
 11
        2.500000
 21
       48.999458
 31
        0.000000
  0
LINE
  8
LVL0000
 10
        4.500000
 20
       50.499458
 30
        0.000000
 11
        4.500000
 21
       49.999458
 31
        0.000000
  0
LINE
  8
LVL0000
 10
        5.500000
 20
       49.499458
 30
        0.000000
 11
        4.500000
 21
       50.499458
 31
        0.000000
  0
LINE
  8
LVL0000
 10
        5.500000
 20
       49.499458
 30
        0.000000
 11
        4.500000
 21
       48.499458
 31
        0.000000
  0
LINE
  8
LVL0000
 10
        4.500000
 20
       48.999458
 30
        0.000000
 11
        4.500000
 21
       48.499458
 31
        0.000000
  0
LINE
  8
LVL0000
 10
       68.699585
 20
       37.999641
 30
        0.000000
 11
       68.699585
 21
       39.000008
 31
        0.000000
  0
LINE
  8
LVL0000
 10
       69.699585
 20
       39.000008
 30
        0.000000
 11
       69.699585
 21
       57.000008
 31
        0.000000
  0
ENDSEC
  0
EOF
