  0
SECTION
  2
HEADER
  9
$ACADVER
  1
AC1006
  9
$INSBASE
 10
0.0
 20
0.0
 30
0.0
  9
$EXTMIN
 10
      -71.122368
 20
      -71.122368
  9
$EXTMAX
 10
      184.649658
 20
      170.500610
  9
$LIMMIN
 10
      -71.122368
 20
      -71.122368
  9
$LIMMAX
 10
      184.649658
 20
      170.500610
  9
$VIEWCTR
 10
       56.763645
 20
       56.763645
  9
$ORTHOMODE
 70
     0
  9
$ANGBASE
 50
0.0
  9
$ANGDIR
 70
     0
  9
$SPLINETYPE
 70
     6
  9
$SPLINESEGS
 70
     8
9
$DIMASZ
 40
        3.500000
9
$DIMEXE
 40
        1.166667
9
$DIMEXO
 40
        2.500000
9
$DIMTXT
 40
        5.000000
9
$DIMGAP
 40
        1.166667
9
$DIMTAD
 70
1
9
$DIMTIH
 70
0
9
$DIMTOH
 70
0
  0
ENDSEC
  0
SECTION
  2
TABLES
  0
TABLE
  2
LTYPE
 70
     5
  0
LTYPE
  2
CONTINUOUS
 70
    64
  3
SOLID LINE
 72
    65
 73
     0
 40
0.0
  0
LTYPE
  2
DASHED
 70
    64
  3
-- -- -- -- -- --
 72
    65
 73
     2
 40
  0.75  
 49
  0.50  
 49
 -0.25  
  0
LTYPE
  2
DOT
 70
    64
  3
....................
 72
    65
 73
     2
 40
  0.25  
 49
  0.02  
 49
 -0.23  
  0
LTYPE
  2
CENTER
 70
    64
  3
-- . -- . -- . -- .
 72
    65
 73
    4
 40
  2.00  
 49
  1.25  
 49
 -0.25  
 49
  0.25  
 49
 -0.25  
  0
LTYPE
  2
PHANTOM
 70
    64
  3
-- .. -- .. -- ..
 72
    65
 73
    6
 40
  2.50  
 49
  1.25  
 49
 -0.25  
 49
  0.25  
 49
 -0.25  
 49
  0.25  
 49
 -0.25  
  0
ENDTAB
  0
TABLE
  2
LAYER
 70
     1
  0
LAYER
  2
LVL0000
 70
    64
 62
     2
  6
CONTINUOUS
  0
ENDTAB
  0
TABLE
  2
STYLE
 70
     2
  0
STYLE
  2
STANDARD
 70
    64
 40
0.0
 41
1.0
 50
0.0
 71
     0
 42
5.0
  3
ROMANS
  4
BIGFONT
  0
STYLE
  2
BIGFONT
 70
    64
 40
0.0
 41
1.0
 50
0.0
 71
     0
 42
5.0
  3
ROMANS
  4
BIGFONT
  0
ENDTAB
  0
TABLE
  2
VIEW
 70
     0
  0
ENDTAB
  0
TABLE
  2
UCS
 70
     0
  0
ENDTAB
  0
TABLE
  2
DWGMGR
 70
     0
  0
ENDTAB
  0
ENDSEC
  0
SECTION
  2
BLOCKS
  0
BLOCK
  8
0
  2
BLK0001
 70
    64
 10
        0.000000
 20
        0.000000
  0
TEXT
  8
LVL0000
 10
       -5.526820
 20
      101.304008
 30
        0.000000
 40
        5.000000
  1
ＪＷ２１ＭＥ
 50
        0.000000
 41
        0.835000
 51
        0.000000
  7
BIGFONT
  0
LINE
  8
LVL0000
 10
       25.639847
 20
      100.137344
 30
        0.000000
 11
       -6.693487
 21
      100.137344
 31
        0.000000
  0
LINE
  8
LVL0000
 10
       -6.693487
 20
      100.137344
 30
        0.000000
 11
      -19.507685
 21
       53.627182
 31
        0.000000
  0
LINE
  8
LVL0000
 10
      -19.461409
 20
       57.244843
 30
        0.000000
 11
      -19.507685
 21
       53.627182
 31
        0.000000
  0
LINE
  8
LVL0000
 10
      -19.507685
 20
       53.627182
 30
        0.000000
 11
      -17.694641
 21
       56.758072
 31
        0.000000
  0
ENDBLK
  0
BLOCK
  8
0
  2
BLK0002
 70
    64
 10
        0.000000
 20
        0.000000
  0
TEXT
  8
LVL0000
 10
       54.607513
 20
       -5.860211
 30
        0.000000
 40
        4.000000
  1
１３０
 50
       90.000000
 41
        0.835000
 51
        0.000000
  7
BIGFONT
  0
LINE
  8
LVL0000
 10
       36.083210
 20
       65.000000
 30
        0.000000
 11
       56.474178
 21
       65.000000
 31
        0.000000
  0
LINE
  8
LVL0000
 10
       36.083210
 20
      -65.000000
 30
        0.000000
 11
       56.474178
 21
      -65.000000
 31
        0.000000
  0
LINE
  8
LVL0000
 10
       56.483322
 20
       59.000000
 30
        0.000000
 11
       55.540844
 21
       65.000000
 31
        0.000000
  0
LINE
  8
LVL0000
 10
       55.540844
 20
       65.000000
 30
        0.000000
 11
       54.598366
 21
       59.000000
 31
        0.000000
  0
LINE
  8
LVL0000
 10
       54.598366
 20
      -59.000000
 30
        0.000000
 11
       55.540844
 21
      -65.000000
 31
        0.000000
  0
LINE
  8
LVL0000
 10
       55.540844
 20
      -65.000000
 30
        0.000000
 11
       56.483322
 21
      -59.000000
 31
        0.000000
  0
LINE
  8
LVL0000
 10
       55.540844
 20
       65.000000
 30
        0.000000
 11
       55.540844
 21
      -65.000000
 31
        0.000000
  0
ENDBLK
  0
BLOCK
  8
0
  2
BLK0003
 70
    64
 10
        0.000000
 20
        0.000000
  0
TEXT
  8
LVL0000
 10
       -8.651083
 20
      -84.109322
 30
        0.000000
 40
        4.000000
  1
７０．５
 50
        0.000000
 41
        0.835000
 51
        0.000000
  7
BIGFONT
  0
LINE
  8
LVL0000
 10
      -35.250000
 20
      -65.833397
 30
        0.000000
 11
      -35.250000
 21
      -85.975990
 31
        0.000000
  0
LINE
  8
LVL0000
 10
       35.250000
 20
      -65.833397
 30
        0.000000
 11
       35.250000
 21
      -85.975990
 31
        0.000000
  0
LINE
  8
LVL0000
 10
      -29.250000
 20
      -84.100182
 30
        0.000000
 11
      -35.250000
 21
      -85.042656
 31
        0.000000
  0
LINE
  8
LVL0000
 10
      -35.250000
 20
      -85.042656
 30
        0.000000
 11
      -29.250000
 21
      -85.985130
 31
        0.000000
  0
LINE
  8
LVL0000
 10
       29.250000
 20
      -85.985130
 30
        0.000000
 11
       35.250000
 21
      -85.042656
 31
        0.000000
  0
LINE
  8
LVL0000
 10
       35.250000
 20
      -85.042656
 30
        0.000000
 11
       29.250000
 21
      -84.100182
 31
        0.000000
  0
LINE
  8
LVL0000
 10
      -35.250000
 20
      -85.042656
 30
        0.000000
 11
       35.250000
 21
      -85.042656
 31
        0.000000
  0
ENDBLK
  0
BLOCK
  8
0
  2
BLK0004
 70
    64
 10
        0.000000
 20
        0.000000
  0
TEXT
  8
LVL0000
 10
      116.005898
 20
      -78.771065
 30
        0.000000
 40
        4.000000
  1
１０２．４
 50
        0.000000
 41
        0.835000
 51
        0.000000
  7
BIGFONT
  0
LINE
  8
LVL0000
 10
       75.249756
 20
      -65.333336
 30
        0.000000
 11
       75.249756
 21
      -80.637733
 31
        0.000000
  0
LINE
  8
LVL0000
 10
      177.649658
 20
       53.666668
 30
        0.000000
 11
      177.649658
 21
      -80.637726
 31
        0.000000
  0
LINE
  8
LVL0000
 10
       78.749756
 20
      -78.788101
 30
        0.000000
 11
       75.249756
 21
      -79.704399
 31
        0.000000
  0
LINE
  8
LVL0000
 10
       75.249756
 20
      -79.704399
 30
        0.000000
 11
       78.749756
 21
      -80.620697
 31
        0.000000
  0
LINE
  8
LVL0000
 10
      174.149658
 20
      -80.620689
 30
        0.000000
 11
      177.649658
 21
      -79.704391
 31
        0.000000
  0
LINE
  8
LVL0000
 10
      177.649658
 20
      -79.704391
 30
        0.000000
 11
      174.149658
 21
      -78.788094
 31
        0.000000
  0
LINE
  8
LVL0000
 10
       75.249756
 20
      -79.704399
 30
        0.000000
 11
      177.649658
 21
      -79.704391
 31
        0.000000
  0
ENDBLK
  0
ENDSEC
  0
SECTION
  2
ENTITIES
  0
INSERT
  8
LVL0000
 62
  5
  2
BLK0001
 10
        0.000000
 20
        0.000000
  0
TEXT
  8
LVL0000
 10
       -5.416234
 20
      107.316646
 30
        0.000000
 40
        5.000000
  1
ＪＷ２１ＭＯ
 50
        0.000000
 41
        0.835000
 51
        0.000000
  7
BIGFONT
  0
TEXT
  8
LVL0000
 10
       -5.416234
 20
      121.316646
 30
        0.000000
 40
        5.000000
  1
ＪＷ２１ＭＡ
 50
        0.000000
 41
        0.835000
 51
        0.000000
  7
BIGFONT
  0
TEXT
  8
LVL0000
 10
       -5.416234
 20
      114.316646
 30
        0.000000
 40
        5.000000
  1
ＪＷ２２ＭＡ
 50
        0.000000
 41
        0.835000
 51
        0.000000
  7
BIGFONT
  0
DIMENSION
  8
LVL0000
 62
  5
  2
BLK0002
 10
       55.540844
 20
       65.000000
 11
       54.607513
 21
       -5.860211
 13
       34.749878
 23
       65.000000
 14
       34.749878
 24
      -65.000000
 50
       90.0
 70
  0
  0
DIMENSION
  8
LVL0000
 62
  5
  2
BLK0003
 10
      -35.250000
 20
      -85.042656
 11
       -8.651083
 21
      -84.109322
 13
      -35.250000
 23
      -64.500061
 14
       35.250000
 24
      -64.500061
 50
        0.0
 70
  0
  0
DIMENSION
  8
LVL0000
 62
  5
  2
BLK0004
 10
       75.249756
 20
      -79.704399
 11
      116.005898
 21
      -78.771065
 13
       75.249756
 23
      -64.000000
 14
      177.649658
 24
       55.000000
 50
        0.0
 70
  0
  0
LINE
  8
LVL0000
  6
CENTER
 62
  3
 10
      -42.553143
 20
        0.000000
 30
        0.000000
 11
       46.556855
 21
        0.000000
 31
        0.000000
  0
LINE
  8
LVL0000
  6
CENTER
 62
  3
 10
        0.000000
 20
       72.648287
 30
        0.000000
 11
        0.000000
 21
      -71.122371
 31
        0.000000
  0
CIRCLE
  8
LVL0000
 62
  3
 10
        6.250122
 20
      -60.000061
 30
        0.000000
 40
        1.500000
  0
CIRCLE
  8
LVL0000
 62
  3
 10
        6.250122
 20
      -60.000061
 30
        0.000000
 40
        2.250000
  0
LINE
  8
LVL0000
 62
  3
 10
       11.250122
 20
       31.500244
 30
        0.000000
 11
       29.250122
 21
       31.500244
 31
        0.000000
  0
LINE
  8
LVL0000
 62
  3
 10
       11.250122
 20
      -11.499817
 30
        0.000000
 11
       29.250122
 21
      -11.499817
 31
        0.000000
  0
LINE
  8
LVL0000
 62
  3
 10
       11.250122
 20
       31.500244
 30
        0.000000
 11
       11.250122
 21
      -11.499817
 31
        0.000000
  0
LINE
  8
LVL0000
 62
  3
 10
      166.699707
 20
       12.649963
 30
        0.000000
 11
      166.699707
 21
      -12.649963
 31
        0.000000
  0
LINE
  8
LVL0000
 62
  3
 10
      174.549805
 20
      -60.000000
 30
        0.000000
 11
      176.649658
 21
      -60.000000
 31
        0.000000
  0
LINE
  8
LVL0000
 62
  3
 10
      174.549805
 20
      -60.000000
 30
        0.000000
 11
      172.549805
 21
      -65.000000
 31
        0.000000
  0
LINE
  8
LVL0000
 62
  3
 10
      178.149658
 20
      -62.000000
 30
        0.000000
 11
      179.149658
 21
      -62.000000
 31
        0.000000
  0
LINE
  8
LVL0000
 62
  3
 10
      176.649658
 20
      -61.000000
 30
        0.000000
 11
      178.149658
 21
      -62.000000
 31
        0.000000
  0
LINE
  8
LVL0000
 62
  3
 10
      175.049805
 20
      -53.500000
 30
        0.000000
 11
      179.149658
 21
      -57.500000
 31
        0.000000
  0
LINE
  8
LVL0000
 62
  3
 10
      175.049805
 20
      -53.500000
 30
        0.000000
 11
      174.549805
 21
      -60.000000
 31
        0.000000
  0
LINE
  8
LVL0000
 62
  3
 10
      175.049805
 20
       55.000000
 30
        0.000000
 11
      175.049805
 21
      -53.500000
 31
        0.000000
  0
LINE
  8
LVL0000
 62
  3
 10
      176.649658
 20
      -60.000000
 30
        0.000000
 11
      176.649658
 21
      -61.000000
 31
        0.000000
  0
LINE
  8
LVL0000
 62
  3
 10
      179.149658
 20
      -57.500000
 30
        0.000000
 11
      179.149658
 21
      -62.000000
 31
        0.000000
  0
ARC
  8
LVL0000
 62
  3
 10
      182.649658
 20
       58.400024
 30
        0.000000
 40
        2.000000
 50
      270.000000
 51
      450.000000
  0
LINE
  8
LVL0000
 62
  3
 10
      177.649658
 20
       60.400024
 30
        0.000000
 11
      182.649658
 21
       60.400024
 31
        0.000000
  0
LINE
  8
LVL0000
 62
  3
 10
      177.649658
 20
       56.400024
 30
        0.000000
 11
      182.649658
 21
       56.400024
 31
        0.000000
  0
ARC
  8
LVL0000
 62
  3
 10
      182.649658
 20
      106.500000
 30
        0.000000
 40
        2.000000
 50
      270.000000
 51
      450.000000
  0
LINE
  8
LVL0000
 62
  3
 10
      177.649658
 20
      108.500000
 30
        0.000000
 11
      182.649658
 21
      108.500000
 31
        0.000000
  0
LINE
  8
LVL0000
 62
  3
 10
      177.649658
 20
      104.500000
 30
        0.000000
 11
      182.649658
 21
      104.500000
 31
        0.000000
  0
LINE
  8
LVL0000
 62
  3
 10
      179.149658
 20
      129.400513
 30
        0.000000
 11
      177.649292
 21
      129.400513
 31
        0.000000
  0
LINE
  8
LVL0000
 62
  3
 10
      179.149658
 20
      129.400513
 30
        0.000000
 11
      179.149658
 21
      108.500000
 31
        0.000000
  0
LINE
  8
LVL0000
 62
  3
 10
      177.650024
 20
      170.500610
 30
        0.000000
 11
      107.750000
 21
      170.500610
 31
        0.000000
  0
LINE
  8
LVL0000
 62
  3
 10
      177.650024
 20
      170.500610
 30
        0.000000
 11
      177.650024
 21
      100.000610
 31
        0.000000
  0
LINE
  8
LVL0000
 62
  3
 10
      107.250000
 20
      100.000610
 30
        0.000000
 11
      107.250000
 21
      170.500610
 31
        0.000000
  0
LINE
  8
LVL0000
 62
  3
 10
      116.250000
 20
      100.000610
 30
        0.000000
 11
      116.250000
 21
      170.500610
 31
        0.000000
  0
LINE
  8
LVL0000
 62
  3
 10
      114.250000
 20
      100.000610
 30
        0.000000
 11
      114.250000
 21
      170.500610
 31
        0.000000
  0
LINE
  8
LVL0000
 62
  3
 10
      116.250000
 20
      167.500610
 30
        0.000000
 11
      114.250000
 21
      167.500610
 31
        0.000000
  0
LINE
  8
LVL0000
 62
  3
 10
      116.250000
 20
      103.000610
 30
        0.000000
 11
      114.250000
 21
      103.000610
 31
        0.000000
  0
LINE
  8
LVL0000
 62
  3
 10
      168.250000
 20
      167.500610
 30
        0.000000
 11
      168.250000
 21
      103.000610
 31
        0.000000
  0
LINE
  8
LVL0000
 62
  3
 10
      168.250000
 20
      170.500610
 30
        0.000000
 11
      168.250000
 21
      100.000610
 31
        0.000000
  0
LINE
  8
LVL0000
 62
  3
 10
      168.250000
 20
      121.000610
 30
        0.000000
 11
      167.050049
 21
      121.000610
 31
        0.000000
  0
ARC
  8
LVL0000
 62
  3
 10
      167.050049
 20
      119.500610
 30
        0.000000
 40
        1.500000
 50
       90.000000
 51
      180.000010
  0
ARC
  8
LVL0000
 62
  3
 10
      167.050049
 20
      115.500610
 30
        0.000000
 40
        1.500000
 50
      180.000010
 51
      270.000000
  0
LINE
  8
LVL0000
 62
  3
 10
      168.250000
 20
      114.000610
 30
        0.000000
 11
      167.050049
 21
      114.000610
 31
        0.000000
  0
LINE
  8
LVL0000
 62
  3
 10
      165.550049
 20
      119.500610
 30
        0.000000
 11
      165.550049
 21
      115.500610
 31
        0.000000
  0
LINE
  8
LVL0000
 62
  3
 10
      168.250000
 20
      156.500610
 30
        0.000000
 11
      167.050049
 21
      156.500610
 31
        0.000000
  0
ARC
  8
LVL0000
 62
  3
 10
      167.050049
 20
      155.000610
 30
        0.000000
 40
        1.500000
 50
       90.000000
 51
      180.000010
  0
ARC
  8
LVL0000
 62
  3
 10
      167.050049
 20
      151.000610
 30
        0.000000
 40
        1.500000
 50
      180.000010
 51
      270.000000
  0
LINE
  8
LVL0000
 62
  3
 10
      168.250000
 20
      149.500610
 30
        0.000000
 11
      167.050049
 21
      149.500610
 31
        0.000000
  0
LINE
  8
LVL0000
 62
  3
 10
      165.550049
 20
      155.000610
 30
        0.000000
 11
      165.550049
 21
      151.000610
 31
        0.000000
  0
LINE
  8
LVL0000
 62
  3
 10
      120.250000
 20
      100.000610
 30
        0.000000
 11
      120.250000
 21
      170.500610
 31
        0.000000
  0
LINE
  8
LVL0000
 62
  3
 10
      118.250000
 20
      100.000610
 30
        0.000000
 11
      118.250000
 21
      170.500610
 31
        0.000000
  0
LINE
  8
LVL0000
 62
  3
 10
      120.250000
 20
      167.500610
 30
        0.000000
 11
      118.250000
 21
      167.500610
 31
        0.000000
  0
LINE
  8
LVL0000
 62
  3
 10
      120.250000
 20
      103.000610
 30
        0.000000
 11
      118.250000
 21
      103.000610
 31
        0.000000
  0
LINE
  8
LVL0000
 62
  3
 10
      124.250000
 20
      100.000610
 30
        0.000000
 11
      124.250000
 21
      170.500610
 31
        0.000000
  0
LINE
  8
LVL0000
 62
  3
 10
      122.250000
 20
      100.000610
 30
        0.000000
 11
      122.250000
 21
      170.500610
 31
        0.000000
  0
LINE
  8
LVL0000
 62
  3
 10
      124.250000
 20
      167.500610
 30
        0.000000
 11
      122.250000
 21
      167.500610
 31
        0.000000
  0
LINE
  8
LVL0000
 62
  3
 10
      124.250000
 20
      103.000610
 30
        0.000000
 11
      122.250000
 21
      103.000610
 31
        0.000000
  0
LINE
  8
LVL0000
 62
  3
 10
      128.250000
 20
      100.000610
 30
        0.000000
 11
      128.250000
 21
      170.500610
 31
        0.000000
  0
LINE
  8
LVL0000
 62
  3
 10
      126.250000
 20
      100.000610
 30
        0.000000
 11
      126.250000
 21
      170.500610
 31
        0.000000
  0
LINE
  8
LVL0000
 62
  3
 10
      128.250000
 20
      167.500610
 30
        0.000000
 11
      126.250000
 21
      167.500610
 31
        0.000000
  0
LINE
  8
LVL0000
 62
  3
 10
      128.250000
 20
      103.000610
 30
        0.000000
 11
      126.250000
 21
      103.000610
 31
        0.000000
  0
LINE
  8
LVL0000
 62
  3
 10
      132.250000
 20
      100.000610
 30
        0.000000
 11
      132.250000
 21
      170.500610
 31
        0.000000
  0
LINE
  8
LVL0000
 62
  3
 10
      130.250000
 20
      100.000610
 30
        0.000000
 11
      130.250000
 21
      170.500610
 31
        0.000000
  0
LINE
  8
LVL0000
 62
  3
 10
      132.250000
 20
      167.500610
 30
        0.000000
 11
      130.250000
 21
      167.500610
 31
        0.000000
  0
LINE
  8
LVL0000
 62
  3
 10
      132.250000
 20
      103.000610
 30
        0.000000
 11
      130.250000
 21
      103.000610
 31
        0.000000
  0
LINE
  8
LVL0000
 62
  3
 10
      136.250000
 20
      100.000610
 30
        0.000000
 11
      136.250000
 21
      170.500610
 31
        0.000000
  0
LINE
  8
LVL0000
 62
  3
 10
      134.250000
 20
      100.000610
 30
        0.000000
 11
      134.250000
 21
      170.500610
 31
        0.000000
  0
LINE
  8
LVL0000
 62
  3
 10
      136.250000
 20
      167.500610
 30
        0.000000
 11
      134.250000
 21
      167.500610
 31
        0.000000
  0
LINE
  8
LVL0000
 62
  3
 10
      136.250000
 20
      103.000610
 30
        0.000000
 11
      134.250000
 21
      103.000610
 31
        0.000000
  0
LINE
  8
LVL0000
 62
  3
 10
      140.250000
 20
      100.000610
 30
        0.000000
 11
      140.250000
 21
      170.500610
 31
        0.000000
  0
LINE
  8
LVL0000
 62
  3
 10
      138.250000
 20
      100.000610
 30
        0.000000
 11
      138.250000
 21
      170.500610
 31
        0.000000
  0
LINE
  8
LVL0000
 62
  3
 10
      140.250000
 20
      167.500610
 30
        0.000000
 11
      138.250000
 21
      167.500610
 31
        0.000000
  0
LINE
  8
LVL0000
 62
  3
 10
      140.250000
 20
      103.000610
 30
        0.000000
 11
      138.250000
 21
      103.000610
 31
        0.000000
  0
LINE
  8
LVL0000
 62
  3
 10
      144.250000
 20
      100.000610
 30
        0.000000
 11
      144.250000
 21
      170.500610
 31
        0.000000
  0
LINE
  8
LVL0000
 62
  3
 10
      142.250000
 20
      100.000610
 30
        0.000000
 11
      142.250000
 21
      170.500610
 31
        0.000000
  0
LINE
  8
LVL0000
 62
  3
 10
      144.250000
 20
      167.500610
 30
        0.000000
 11
      142.250000
 21
      167.500610
 31
        0.000000
  0
LINE
  8
LVL0000
 62
  3
 10
      144.250000
 20
      103.000610
 30
        0.000000
 11
      142.250000
 21
      103.000610
 31
        0.000000
  0
LINE
  8
LVL0000
 62
  3
 10
      148.250000
 20
      100.000610
 30
        0.000000
 11
      148.250000
 21
      170.500610
 31
        0.000000
  0
LINE
  8
LVL0000
 62
  3
 10
      146.250000
 20
      100.000610
 30
        0.000000
 11
      146.250000
 21
      170.500610
 31
        0.000000
  0
LINE
  8
LVL0000
 62
  3
 10
      148.250000
 20
      167.500610
 30
        0.000000
 11
      146.250000
 21
      167.500610
 31
        0.000000
  0
LINE
  8
LVL0000
 62
  3
 10
      148.250000
 20
      103.000610
 30
        0.000000
 11
      146.250000
 21
      103.000610
 31
        0.000000
  0
LINE
  8
LVL0000
 62
  3
 10
      152.250000
 20
      100.000610
 30
        0.000000
 11
      152.250000
 21
      170.500610
 31
        0.000000
  0
LINE
  8
LVL0000
 62
  3
 10
      150.250000
 20
      100.000610
 30
        0.000000
 11
      150.250000
 21
      170.500610
 31
        0.000000
  0
LINE
  8
LVL0000
 62
  3
 10
      152.250000
 20
      167.500610
 30
        0.000000
 11
      150.250000
 21
      167.500610
 31
        0.000000
  0
LINE
  8
LVL0000
 62
  3
 10
      152.250000
 20
      103.000610
 30
        0.000000
 11
      150.250000
 21
      103.000610
 31
        0.000000
  0
LINE
  8
LVL0000
 62
  3
 10
      156.250000
 20
      100.000610
 30
        0.000000
 11
      156.250000
 21
      170.500610
 31
        0.000000
  0
LINE
  8
LVL0000
 62
  3
 10
      154.250000
 20
      100.000610
 30
        0.000000
 11
      154.250000
 21
      170.500610
 31
        0.000000
  0
LINE
  8
LVL0000
 62
  3
 10
      156.250000
 20
      167.500610
 30
        0.000000
 11
      154.250000
 21
      167.500610
 31
        0.000000
  0
LINE
  8
LVL0000
 62
  3
 10
      156.250000
 20
      103.000610
 30
        0.000000
 11
      154.250000
 21
      103.000610
 31
        0.000000
  0
LINE
  8
LVL0000
 62
  3
 10
      160.250000
 20
      100.000610
 30
        0.000000
 11
      160.250000
 21
      170.500610
 31
        0.000000
  0
LINE
  8
LVL0000
 62
  3
 10
      158.250000
 20
      100.000610
 30
        0.000000
 11
      158.250000
 21
      170.500610
 31
        0.000000
  0
LINE
  8
LVL0000
 62
  3
 10
      160.250000
 20
      167.500610
 30
        0.000000
 11
      158.250000
 21
      167.500610
 31
        0.000000
  0
LINE
  8
LVL0000
 62
  3
 10
      160.250000
 20
      103.000610
 30
        0.000000
 11
      158.250000
 21
      103.000610
 31
        0.000000
  0
LINE
  8
LVL0000
 62
  3
 10
      164.250000
 20
      100.000610
 30
        0.000000
 11
      164.250000
 21
      170.500610
 31
        0.000000
  0
LINE
  8
LVL0000
 62
  3
 10
      162.250000
 20
      100.000610
 30
        0.000000
 11
      162.250000
 21
      170.500610
 31
        0.000000
  0
LINE
  8
LVL0000
 62
  3
 10
      164.250000
 20
      167.500610
 30
        0.000000
 11
      162.250000
 21
      167.500610
 31
        0.000000
  0
LINE
  8
LVL0000
 62
  3
 10
      164.250000
 20
      103.000610
 30
        0.000000
 11
      162.250000
 21
      103.000610
 31
        0.000000
  0
LINE
  8
LVL0000
 62
  3
 10
      168.250000
 20
      167.500610
 30
        0.000000
 11
      166.250000
 21
      167.500610
 31
        0.000000
  0
LINE
  8
LVL0000
 62
  3
 10
      168.250000
 20
      103.000610
 30
        0.000000
 11
      166.250000
 21
      103.000610
 31
        0.000000
  0
LINE
  8
LVL0000
 62
  3
 10
      166.250000
 20
      100.000610
 30
        0.000000
 11
      166.250000
 21
      114.231750
 31
        0.000000
  0
LINE
  8
LVL0000
 62
  3
 10
      166.250000
 20
      120.769470
 30
        0.000000
 11
      166.250000
 21
      149.731750
 31
        0.000000
  0
LINE
  8
LVL0000
 62
  3
 10
      166.250000
 20
      156.269470
 30
        0.000000
 11
      166.250000
 21
      170.500610
 31
        0.000000
  0
LINE
  8
LVL0000
 62
  3
 10
      166.250000
 20
      156.600616
 30
        0.000000
 11
      164.250000
 21
      156.600616
 31
        0.000000
  0
LINE
  8
LVL0000
 62
  3
 10
      166.250000
 20
      149.400604
 30
        0.000000
 11
      164.250000
 21
      149.400604
 31
        0.000000
  0
LINE
  8
LVL0000
 62
  3
 10
      164.250000
 20
      121.100616
 30
        0.000000
 11
      166.250000
 21
      121.100616
 31
        0.000000
  0
LINE
  8
LVL0000
 62
  3
 10
      164.250000
 20
      113.900604
 30
        0.000000
 11
      166.250000
 21
      113.900604
 31
        0.000000
  0
LINE
  8
LVL0000
 62
  3
 10
      162.250000
 20
      156.600616
 30
        0.000000
 11
      160.250000
 21
      156.600616
 31
        0.000000
  0
LINE
  8
LVL0000
 62
  3
 10
      162.250000
 20
      149.400604
 30
        0.000000
 11
      160.250000
 21
      149.400604
 31
        0.000000
  0
LINE
  8
LVL0000
 62
  3
 10
      160.250000
 20
      121.100616
 30
        0.000000
 11
      162.250000
 21
      121.100616
 31
        0.000000
  0
LINE
  8
LVL0000
 62
  3
 10
      160.250000
 20
      113.900604
 30
        0.000000
 11
      162.250000
 21
      113.900604
 31
        0.000000
  0
LINE
  8
LVL0000
 62
  3
 10
      158.250000
 20
      156.600616
 30
        0.000000
 11
      156.250000
 21
      156.600616
 31
        0.000000
  0
LINE
  8
LVL0000
 62
  3
 10
      158.250000
 20
      149.400604
 30
        0.000000
 11
      156.250000
 21
      149.400604
 31
        0.000000
  0
LINE
  8
LVL0000
 62
  3
 10
      156.250000
 20
      121.100616
 30
        0.000000
 11
      158.250000
 21
      121.100616
 31
        0.000000
  0
LINE
  8
LVL0000
 62
  3
 10
      156.250000
 20
      113.900604
 30
        0.000000
 11
      158.250000
 21
      113.900604
 31
        0.000000
  0
LINE
  8
LVL0000
 62
  3
 10
      154.250000
 20
      156.600616
 30
        0.000000
 11
      152.250000
 21
      156.600616
 31
        0.000000
  0
LINE
  8
LVL0000
 62
  3
 10
      154.250000
 20
      149.400604
 30
        0.000000
 11
      152.250000
 21
      149.400604
 31
        0.000000
  0
LINE
  8
LVL0000
 62
  3
 10
      152.250000
 20
      121.100616
 30
        0.000000
 11
      154.250000
 21
      121.100616
 31
        0.000000
  0
LINE
  8
LVL0000
 62
  3
 10
      152.250000
 20
      113.900604
 30
        0.000000
 11
      154.250000
 21
      113.900604
 31
        0.000000
  0
LINE
  8
LVL0000
 62
  3
 10
      150.250000
 20
      156.600616
 30
        0.000000
 11
      148.250000
 21
      156.600616
 31
        0.000000
  0
LINE
  8
LVL0000
 62
  3
 10
      150.250000
 20
      149.400604
 30
        0.000000
 11
      148.250000
 21
      149.400604
 31
        0.000000
  0
LINE
  8
LVL0000
 62
  3
 10
      148.250000
 20
      121.100616
 30
        0.000000
 11
      150.250000
 21
      121.100616
 31
        0.000000
  0
LINE
  8
LVL0000
 62
  3
 10
      148.250000
 20
      113.900604
 30
        0.000000
 11
      150.250000
 21
      113.900604
 31
        0.000000
  0
LINE
  8
LVL0000
 62
  3
 10
      146.250000
 20
      156.600616
 30
        0.000000
 11
      144.250000
 21
      156.600616
 31
        0.000000
  0
LINE
  8
LVL0000
 62
  3
 10
      146.250000
 20
      149.400604
 30
        0.000000
 11
      144.250000
 21
      149.400604
 31
        0.000000
  0
LINE
  8
LVL0000
 62
  3
 10
      144.250000
 20
      121.100616
 30
        0.000000
 11
      146.250000
 21
      121.100616
 31
        0.000000
  0
LINE
  8
LVL0000
 62
  3
 10
      144.250000
 20
      113.900604
 30
        0.000000
 11
      146.250000
 21
      113.900604
 31
        0.000000
  0
LINE
  8
LVL0000
 62
  3
 10
      142.250000
 20
      156.600616
 30
        0.000000
 11
      140.250000
 21
      156.600616
 31
        0.000000
  0
LINE
  8
LVL0000
 62
  3
 10
      142.250000
 20
      149.400604
 30
        0.000000
 11
      140.250000
 21
      149.400604
 31
        0.000000
  0
LINE
  8
LVL0000
 62
  3
 10
      140.250000
 20
      121.100616
 30
        0.000000
 11
      142.250000
 21
      121.100616
 31
        0.000000
  0
LINE
  8
LVL0000
 62
  3
 10
      140.250000
 20
      113.900604
 30
        0.000000
 11
      142.250000
 21
      113.900604
 31
        0.000000
  0
LINE
  8
LVL0000
 62
  3
 10
      138.250000
 20
      156.600616
 30
        0.000000
 11
      136.250000
 21
      156.600616
 31
        0.000000
  0
LINE
  8
LVL0000
 62
  3
 10
      138.250000
 20
      149.400604
 30
        0.000000
 11
      136.250000
 21
      149.400604
 31
        0.000000
  0
LINE
  8
LVL0000
 62
  3
 10
      136.250000
 20
      121.100616
 30
        0.000000
 11
      138.250000
 21
      121.100616
 31
        0.000000
  0
LINE
  8
LVL0000
 62
  3
 10
      136.250000
 20
      113.900604
 30
        0.000000
 11
      138.250000
 21
      113.900604
 31
        0.000000
  0
LINE
  8
LVL0000
 62
  3
 10
      134.250000
 20
      156.600616
 30
        0.000000
 11
      132.250000
 21
      156.600616
 31
        0.000000
  0
LINE
  8
LVL0000
 62
  3
 10
      134.250000
 20
      149.400604
 30
        0.000000
 11
      132.250000
 21
      149.400604
 31
        0.000000
  0
LINE
  8
LVL0000
 62
  3
 10
      132.250000
 20
      121.100616
 30
        0.000000
 11
      134.250000
 21
      121.100616
 31
        0.000000
  0
LINE
  8
LVL0000
 62
  3
 10
      132.250000
 20
      113.900604
 30
        0.000000
 11
      134.250000
 21
      113.900604
 31
        0.000000
  0
ARC
  8
LVL0000
 62
  3
 10
      114.250000
 20
      153.000610
 30
        0.000000
 40
        1.500001
 50
      109.471195
 51
      250.528828
  0
LINE
  8
LVL0000
 62
  3
 10
      114.250000
 20
      154.600616
 30
        0.000000
 11
      113.750000
 21
      154.414825
 31
        0.000000
  0
LINE
  8
LVL0000
 62
  3
 10
      113.750000
 20
      151.586395
 30
        0.000000
 11
      114.250000
 21
      151.400604
 31
        0.000000
  0
LINE
  8
LVL0000
 62
  3
 10
      116.250000
 20
      155.050598
 30
        0.000000
 11
      118.250000
 21
      155.500610
 31
        0.000000
  0
LINE
  8
LVL0000
 62
  3
 10
      116.250000
 20
      150.950623
 30
        0.000000
 11
      118.250000
 21
      150.500610
 31
        0.000000
  0
LINE
  8
LVL0000
 62
  3
 10
      122.250000
 20
      149.800598
 30
        0.000000
 11
      120.250000
 21
      150.100616
 31
        0.000000
  0
LINE
  8
LVL0000
 62
  3
 10
      120.250000
 20
      155.900604
 30
        0.000000
 11
      122.250000
 21
      156.200623
 31
        0.000000
  0
LINE
  8
LVL0000
 62
  3
 10
      124.250000
 20
      156.400604
 30
        0.000000
 11
      126.250000
 21
      156.500610
 31
        0.000000
  0
LINE
  8
LVL0000
 62
  3
 10
      126.250000
 20
      149.500610
 30
        0.000000
 11
      124.250000
 21
      149.600616
 31
        0.000000
  0
LINE
  8
LVL0000
 62
  3
 10
      130.250000
 20
      156.600616
 30
        0.000000
 11
      128.250000
 21
      156.600616
 31
        0.000000
  0
LINE
  8
LVL0000
 62
  3
 10
      130.250000
 20
      149.400604
 30
        0.000000
 11
      128.250000
 21
      149.400604
 31
        0.000000
  0
ARC
  8
LVL0000
 62
  3
 10
      114.250000
 20
      117.500610
 30
        0.000000
 40
        1.500001
 50
      109.471195
 51
      250.528828
  0
LINE
  8
LVL0000
 62
  3
 10
      114.250000
 20
      119.100616
 30
        0.000000
 11
      113.750000
 21
      118.914825
 31
        0.000000
  0
LINE
  8
LVL0000
 62
  3
 10
      113.750000
 20
      116.086395
 30
        0.000000
 11
      114.250000
 21
      115.900604
 31
        0.000000
  0
LINE
  8
LVL0000
 62
  3
 10
      116.250000
 20
      119.550598
 30
        0.000000
 11
      118.250000
 21
      120.000610
 31
        0.000000
  0
LINE
  8
LVL0000
 62
  3
 10
      116.250000
 20
      115.450623
 30
        0.000000
 11
      118.250000
 21
      115.000610
 31
        0.000000
  0
LINE
  8
LVL0000
 62
  3
 10
      122.250000
 20
      114.300598
 30
        0.000000
 11
      120.250000
 21
      114.600616
 31
        0.000000
  0
LINE
  8
LVL0000
 62
  3
 10
      120.250000
 20
      120.400604
 30
        0.000000
 11
      122.250000
 21
      120.700623
 31
        0.000000
  0
LINE
  8
LVL0000
 62
  3
 10
      124.250000
 20
      120.900604
 30
        0.000000
 11
      126.250000
 21
      121.000610
 31
        0.000000
  0
LINE
  8
LVL0000
 62
  3
 10
      126.250000
 20
      114.000610
 30
        0.000000
 11
      124.250000
 21
      114.100616
 31
        0.000000
  0
LINE
  8
LVL0000
 62
  3
 10
      130.250000
 20
      121.100616
 30
        0.000000
 11
      128.250000
 21
      121.100616
 31
        0.000000
  0
LINE
  8
LVL0000
 62
  3
 10
      130.250000
 20
      113.900604
 30
        0.000000
 11
      128.250000
 21
      113.900604
 31
        0.000000
  0
ARC
  8
LVL0000
 62
  3
 10
      182.649658
 20
      142.000000
 30
        0.000000
 40
        2.000000
 50
      270.000000
 51
      450.000000
  0
LINE
  8
LVL0000
 62
  3
 10
      177.649658
 20
      144.000000
 30
        0.000000
 11
      182.649658
 21
      144.000000
 31
        0.000000
  0
LINE
  8
LVL0000
 62
  3
 10
      177.649658
 20
      140.000000
 30
        0.000000
 11
      182.649658
 21
      140.000000
 31
        0.000000
  0
LINE
  8
LVL0000
 62
  3
 10
      179.149658
 20
      164.900513
 30
        0.000000
 11
      177.649292
 21
      164.900513
 31
        0.000000
  0
LINE
  8
LVL0000
 62
  3
 10
      179.149658
 20
      164.900513
 30
        0.000000
 11
      179.149658
 21
      144.000000
 31
        0.000000
  0
LINE
  8
LVL0000
 62
  3
 10
       75.249756
 20
       38.000000
 30
        0.000000
 11
       78.249756
 21
       38.000000
 31
        0.000000
  0
LINE
  8
LVL0000
 62
  3
 10
       76.749756
 20
       39.000000
 30
        0.000000
 11
       78.249756
 21
       39.000000
 31
        0.000000
  0
LINE
  8
LVL0000
 62
  3
 10
       75.249756
 20
       38.000000
 30
        0.000000
 11
       75.249756
 21
      -64.000000
 31
        0.000000
  0
ARC
  8
LVL0000
 62
  3
 10
       76.249756
 20
      -64.000000
 30
        0.000000
 40
        1.000000
 50
      180.000010
 51
      270.000000
  0
LINE
  8
LVL0000
 62
  3
 10
       76.249756
 20
      -65.000000
 30
        0.000000
 11
      172.549805
 21
      -65.000000
 31
        0.000000
  0
LINE
  8
LVL0000
 62
  3
 10
       75.750000
 20
      100.000610
 30
        0.000000
 11
      177.650024
 21
      100.000610
 31
        0.000000
  0
ARC
  8
LVL0000
 62
  3
 10
       75.750000
 20
      100.500610
 30
        0.000000
 40
        0.500000
 50
      180.000010
 51
      270.000000
  0
LINE
  8
LVL0000
 62
  3
 10
       75.250000
 20
      100.500610
 30
        0.000000
 11
       75.250000
 21
      134.500610
 31
        0.000000
  0
ARC
  8
LVL0000
 62
  3
 10
       75.750000
 20
      134.500610
 30
        0.000000
 40
        0.500000
 50
       90.000000
 51
      180.000010
  0
LINE
  8
LVL0000
 62
  3
 10
       77.750000
 20
      135.000610
 30
        0.000000
 11
       77.750000
 21
      170.000610
 31
        0.000000
  0
LINE
  8
LVL0000
 62
  3
 10
      177.650024
 20
      170.500610
 30
        0.000000
 11
       78.250000
 21
      170.500610
 31
        0.000000
  0
ARC
  8
LVL0000
 62
  3
 10
       78.250000
 20
      170.000610
 30
        0.000000
 40
        0.500000
 50
       90.000000
 51
      180.000010
  0
LINE
  8
LVL0000
 62
  3
 10
       75.750000
 20
      135.000610
 30
        0.000000
 11
       77.750000
 21
      135.000610
 31
        0.000000
  0
LINE
  8
LVL0000
 62
  3
 10
       98.250000
 20
      154.750610
 30
        0.000000
 11
      101.450073
 21
      154.750610
 31
        0.000000
  0
LINE
  8
LVL0000
 62
  3
 10
       98.250000
 20
      146.250610
 30
        0.000000
 11
      101.450073
 21
      146.250610
 31
        0.000000
  0
LINE
  8
LVL0000
 62
  3
 10
       77.750000
 20
      156.000610
 30
        0.000000
 11
       92.250000
 21
      156.000610
 31
        0.000000
  0
LINE
  8
LVL0000
 62
  3
 10
       77.750000
 20
      145.000610
 30
        0.000000
 11
       92.250000
 21
      145.000610
 31
        0.000000
  0
LINE
  8
LVL0000
 62
  3
 10
       77.750000
 20
      160.500610
 30
        0.000000
 11
       89.250000
 21
      160.500610
 31
        0.000000
  0
ARC
  8
LVL0000
 62
  3
 10
       89.250000
 20
      157.500610
 30
        0.000000
 40
        3.000000
 50
        0.000000
 51
       90.000000
  0
LINE
  8
LVL0000
 62
  3
 10
       77.750000
 20
      140.500610
 30
        0.000000
 11
       89.250000
 21
      140.500610
 31
        0.000000
  0
LINE
  8
LVL0000
 62
  3
 10
       92.250000
 20
      143.500610
 30
        0.000000
 11
       92.250000
 21
      157.500610
 31
        0.000000
  0
ARC
  8
LVL0000
 62
  3
 10
       89.250000
 20
      143.500610
 30
        0.000000
 40
        3.000000
 50
      270.000000
 51
      360.000000
  0
LINE
  8
LVL0000
 62
  3
 10
       98.250000
 20
      146.250610
 30
        0.000000
 11
       98.250000
 21
      154.750610
 31
        0.000000
  0
LINE
  8
LVL0000
 62
  3
 10
      101.450073
 20
      146.250610
 30
        0.000000
 11
      101.450073
 21
      154.750610
 31
        0.000000
  0
LINE
  8
LVL0000
 62
  3
 10
       78.249756
 20
       38.000000
 30
        0.000000
 11
       78.249756
 21
       39.000000
 31
        0.000000
  0
LINE
  8
LVL0000
 62
  3
 10
       78.249756
 20
       39.000000
 30
        0.000000
 11
       78.249756
 21
       57.000000
 31
        0.000000
  0
ARC
  8
LVL0000
 62
  3
 10
       84.249756
 20
       66.000000
 30
        0.000000
 40
        1.000000
 50
        0.000000
 51
       90.000000
  0
LINE
  8
LVL0000
 62
  3
 10
       84.249756
 20
       67.000000
 30
        0.000000
 11
       83.749756
 21
       67.000000
 31
        0.000000
  0
ARC
  8
LVL0000
 62
  3
 10
       83.749756
 20
       66.000000
 30
        0.000000
 40
        1.000000
 50
       90.000000
 51
      180.000010
  0
LINE
  8
LVL0000
 62
  3
 10
       82.749756
 20
       66.000000
 30
        0.000000
 11
       82.749756
 21
       65.000000
 31
        0.000000
  0
LINE
  8
LVL0000
 62
  3
 10
       85.249756
 20
       66.000000
 30
        0.000000
 11
       85.249756
 21
       65.000000
 31
        0.000000
  0
LINE
  8
LVL0000
 62
  3
 10
       82.750000
 20
      145.500610
 30
        0.000000
 11
       82.750000
 21
      155.500610
 31
        0.000000
  0
LINE
  8
LVL0000
 62
  3
 10
       85.250000
 20
      145.500610
 30
        0.000000
 11
       85.250000
 21
      155.500610
 31
        0.000000
  0
LINE
  8
LVL0000
 62
  3
 10
       92.250000
 20
      155.500609
 30
        0.000000
 11
       82.750000
 21
      155.500610
 31
        0.000000
  0
LINE
  8
LVL0000
 62
  3
 10
       92.250000
 20
      145.500609
 30
        0.000000
 11
       82.750000
 21
      145.500610
 31
        0.000000
  0
LINE
  8
LVL0000
 62
  3
 10
       78.250000
 20
      170.500610
 30
        0.000000
 11
       75.750000
 21
      170.500610
 31
        0.000000
  0
ARC
  8
LVL0000
 62
  3
 10
       75.750000
 20
      170.000610
 30
        0.000000
 40
        0.500000
 50
       90.000000
 51
      179.999995
  0
LINE
  8
LVL0000
 62
  3
 10
       75.250000
 20
      136.000610
 30
        0.000000
 11
       75.250000
 21
      170.000610
 31
        0.000000
  0
ARC
  8
LVL0000
 62
  3
 10
       75.750000
 20
      136.000610
 30
        0.000000
 40
        0.500000
 50
      179.999995
 51
      270.000000
  0
LINE
  8
LVL0000
 62
  3
 10
       75.750000
 20
      135.500610
 30
        0.000000
 11
       77.750000
 21
      135.500610
 31
        0.000000
  0
LINE
  8
LVL0000
 62
  3
 10
      107.249756
 20
       65.000000
 30
        0.000000
 11
      107.249756
 21
      -65.000000
 31
        0.000000
  0
LINE
  8
LVL0000
 62
  3
 10
      116.399658
 20
       12.649963
 30
        0.000000
 11
      116.399658
 21
      -12.649963
 31
        0.000000
  0
LINE
  8
LVL0000
 62
  3
 10
      116.399658
 20
      -12.649963
 30
        0.000000
 11
      166.699707
 21
      -12.649963
 31
        0.000000
  0
LINE
  8
LVL0000
 62
  3
 10
      108.249756
 20
       37.000000
 30
        0.000000
 11
      108.249756
 21
       25.000000
 31
        0.000000
  0
LINE
  8
LVL0000
 62
  3
 10
      111.549805
 20
       40.250000
 30
        0.000000
 11
      111.549805
 21
       21.750000
 31
        0.000000
  0
LINE
  8
LVL0000
 62
  3
 10
      107.249756
 20
       25.000000
 30
        0.000000
 11
      108.249756
 21
       25.000000
 31
        0.000000
  0
LINE
  8
LVL0000
 62
  3
 10
      107.249756
 20
       37.000000
 30
        0.000000
 11
      108.249756
 21
       37.000000
 31
        0.000000
  0
LINE
  8
LVL0000
 62
  3
 10
      114.049805
 20
       40.250000
 30
        0.000000
 11
      114.049805
 21
       21.750000
 31
        0.000000
  0
LINE
  8
LVL0000
 62
  3
 10
      111.549805
 20
       40.250000
 30
        0.000000
 11
      114.049805
 21
       40.250000
 31
        0.000000
  0
LINE
  8
LVL0000
 62
  3
 10
      111.549805
 20
       21.750000
 30
        0.000000
 11
      114.049805
 21
       21.750000
 31
        0.000000
  0
ARC
  8
LVL0000
 62
  3
 10
       76.249756
 20
       64.000000
 30
        0.000000
 40
        1.000000
 50
       90.000000
 51
      180.000010
  0
LINE
  8
LVL0000
 62
  3
 10
       75.249756
 20
       57.000000
 30
        0.000000
 11
       78.249756
 21
       57.000000
 31
        0.000000
  0
LINE
  8
LVL0000
 62
  3
 10
       75.249756
 20
       40.500000
 30
        0.000000
 11
       76.749756
 21
       39.000000
 31
        0.000000
  0
LINE
  8
LVL0000
 62
  3
 10
       75.249756
 20
       40.500000
 30
        0.000000
 11
       75.249756
 21
       64.000000
 31
        0.000000
  0
LINE
  8
LVL0000
 62
  3
 10
      108.249756
 20
      -36.000000
 30
        0.000000
 11
      108.249756
 21
      -48.000000
 31
        0.000000
  0
LINE
  8
LVL0000
 62
  3
 10
      111.549805
 20
      -32.750000
 30
        0.000000
 11
      111.549805
 21
      -51.250000
 31
        0.000000
  0
LINE
  8
LVL0000
 62
  3
 10
      107.249756
 20
      -48.000000
 30
        0.000000
 11
      108.249756
 21
      -48.000000
 31
        0.000000
  0
LINE
  8
LVL0000
 62
  3
 10
      114.049805
 20
      -32.750000
 30
        0.000000
 11
      114.049805
 21
      -51.250000
 31
        0.000000
  0
LINE
  8
LVL0000
 62
  3
 10
      111.549805
 20
      -51.250000
 30
        0.000000
 11
      114.049805
 21
      -51.250000
 31
        0.000000
  0
LINE
  8
LVL0000
 62
  3
 10
      107.249756
 20
      -36.000000
 30
        0.000000
 11
      108.249756
 21
      -36.000000
 31
        0.000000
  0
LINE
  8
LVL0000
 62
  3
 10
      111.549805
 20
      -32.750000
 30
        0.000000
 11
      114.049805
 21
      -32.750000
 31
        0.000000
  0
LINE
  8
LVL0000
 62
  3
 10
      177.649658
 20
       65.000000
 30
        0.000000
 11
      177.649658
 21
       55.000000
 31
        0.000000
  0
LINE
  8
LVL0000
 62
  3
 10
       76.249756
 20
       65.000000
 30
        0.000000
 11
      177.649658
 21
       65.000000
 31
        0.000000
  0
LINE
  8
LVL0000
 62
  3
 10
      175.049805
 20
       55.000000
 30
        0.000000
 11
      177.649658
 21
       55.000000
 31
        0.000000
  0
LINE
  8
LVL0000
 62
  3
 10
      116.399658
 20
       12.649963
 30
        0.000000
 11
      166.699707
 21
       12.649963
 31
        0.000000
  0
TEXT
  8
LVL0000
 10
      -11.386025
 20
      160.634502
 30
        0.000000
 40
        5.000000
  1
ＪＷ２２ＣＵ
 50
        0.000000
 41
        0.835000
 51
        0.000000
  7
BIGFONT
  0
LINE
  8
LVL0000
 62
  3
 10
       11.250122
 20
      -16.999756
 30
        0.000000
 11
       11.250122
 21
      -59.999817
 31
        0.000000
  0
LINE
  8
LVL0000
 62
  3
 10
       11.250122
 20
      -59.999817
 30
        0.000000
 11
       29.250122
 21
      -59.999817
 31
        0.000000
  0
LINE
  8
LVL0000
 62
  3
 10
       11.250122
 20
      -16.999756
 30
        0.000000
 11
       29.250122
 21
      -16.999756
 31
        0.000000
  0
ARC
  8
LVL0000
 62
  3
 10
       14.950195
 20
      -57.049744
 30
        0.000000
 40
        1.000000
 50
      180.000010
 51
      270.000000
  0
ARC
  8
LVL0000
 62
  3
 10
       25.550049
 20
      -57.049744
 30
        0.000000
 40
        1.000000
 50
      270.000000
 51
      360.000000
  0
ARC
  8
LVL0000
 62
  3
 10
       25.550049
 20
      -19.949768
 30
        0.000000
 40
        1.000000
 50
        0.000000
 51
       90.000000
  0
ARC
  8
LVL0000
 62
  3
 10
       14.950195
 20
      -19.949768
 30
        0.000000
 40
        1.000000
 50
       90.000000
 51
      180.000010
  0
LINE
  8
LVL0000
 62
  3
 10
       22.750122
 20
      -56.603149
 30
        0.000000
 11
       22.750122
 21
      -53.716370
 31
        0.000000
  0
LINE
  8
LVL0000
 62
  3
 10
       20.250122
 20
      -58.046570
 30
        0.000000
 11
       22.750122
 21
      -56.603149
 31
        0.000000
  0
LINE
  8
LVL0000
 62
  3
 10
       17.750122
 20
      -56.603149
 30
        0.000000
 11
       20.250122
 21
      -58.046570
 31
        0.000000
  0
LINE
  8
LVL0000
 62
  3
 10
       17.750122
 20
      -53.716370
 30
        0.000000
 11
       17.750122
 21
      -56.603149
 31
        0.000000
  0
LINE
  8
LVL0000
 62
  3
 10
       20.250122
 20
      -52.273010
 30
        0.000000
 11
       17.750122
 21
      -53.716370
 31
        0.000000
  0
LINE
  8
LVL0000
 62
  3
 10
       22.750122
 20
      -53.716370
 30
        0.000000
 11
       20.250122
 21
      -52.273010
 31
        0.000000
  0
LINE
  8
LVL0000
 62
  3
 10
       22.750122
 20
      -23.283142
 30
        0.000000
 11
       22.750122
 21
      -20.396423
 31
        0.000000
  0
LINE
  8
LVL0000
 62
  3
 10
       20.250122
 20
      -24.726501
 30
        0.000000
 11
       22.750122
 21
      -23.283142
 31
        0.000000
  0
LINE
  8
LVL0000
 62
  3
 10
       17.750122
 20
      -23.283142
 30
        0.000000
 11
       20.250122
 21
      -24.726501
 31
        0.000000
  0
LINE
  8
LVL0000
 62
  3
 10
       17.750122
 20
      -20.396423
 30
        0.000000
 11
       17.750122
 21
      -23.283142
 31
        0.000000
  0
LINE
  8
LVL0000
 62
  3
 10
       20.250122
 20
      -18.953003
 30
        0.000000
 11
       17.750122
 21
      -20.396423
 31
        0.000000
  0
LINE
  8
LVL0000
 62
  3
 10
       22.750122
 20
      -20.396423
 30
        0.000000
 11
       20.250122
 21
      -18.953003
 31
        0.000000
  0
CIRCLE
  8
LVL0000
 62
  3
 10
       20.250122
 20
      -55.159790
 30
        0.000000
 40
        1.299927
  0
CIRCLE
  8
LVL0000
 62
  3
 10
       20.250122
 20
      -21.839783
 30
        0.000000
 40
        1.299927
  0
ARC
  8
LVL0000
 62
  3
 10
       22.560059
 20
      -28.644104
 30
        0.000000
 40
        1.600098
 50
        0.000000
 51
       80.000692
  0
LINE
  8
LVL0000
 62
  3
 10
       17.940186
 20
      -26.204773
 30
        0.000000
 11
       22.837891
 21
      -27.068420
 31
        0.000000
  0
ARC
  8
LVL0000
 62
  3
 10
       17.940186
 20
      -27.804810
 30
        0.000000
 40
        1.599976
 50
       90.000000
 51
      180.000010
  0
LINE
  8
LVL0000
 62
  3
 10
       16.340088
 20
      -27.804810
 30
        0.000000
 11
       16.340088
 21
      -49.194763
 31
        0.000000
  0
ARC
  8
LVL0000
 62
  3
 10
       17.940186
 20
      -49.194763
 30
        0.000000
 40
        1.600098
 50
      180.000010
 51
      270.000000
  0
LINE
  8
LVL0000
 62
  3
 10
       17.940186
 20
      -50.794800
 30
        0.000000
 11
       22.837891
 21
      -49.931152
 31
        0.000000
  0
ARC
  8
LVL0000
 62
  3
 10
       22.560059
 20
      -48.355469
 30
        0.000000
 40
        1.599990
 50
      279.999892
 51
      360.000000
  0
LINE
  8
LVL0000
 62
  3
 10
       24.160156
 20
      -28.644104
 30
        0.000000
 11
       24.160156
 21
      -48.355469
 31
        0.000000
  0
LINE
  8
LVL0000
 62
  3
 10
       25.550049
 20
      -58.049744
 30
        0.000000
 11
       14.950195
 21
      -58.049744
 31
        0.000000
  0
LINE
  8
LVL0000
 62
  3
 10
       25.550049
 20
      -18.949768
 30
        0.000000
 11
       14.950195
 21
      -18.949768
 31
        0.000000
  0
LINE
  8
LVL0000
 62
  3
 10
       13.950195
 20
      -57.049744
 30
        0.000000
 11
       13.950195
 21
      -19.949768
 31
        0.000000
  0
LINE
  8
LVL0000
 62
  3
 10
       26.550049
 20
      -57.049744
 30
        0.000000
 11
       26.550049
 21
      -19.949768
 31
        0.000000
  0
CIRCLE
  8
LVL0000
 62
  3
 10
       21.670105
 20
      -46.729736
 30
        0.000000
 40
        0.500000
  0
CIRCLE
  8
LVL0000
 62
  3
 10
       21.670105
 20
      -43.989746
 30
        0.000000
 40
        0.500000
  0
CIRCLE
  8
LVL0000
 62
  3
 10
       21.670105
 20
      -41.239746
 30
        0.000000
 40
        0.500000
  0
CIRCLE
  8
LVL0000
 62
  3
 10
       21.670105
 20
      -38.499756
 30
        0.000000
 40
        0.500000
  0
CIRCLE
  8
LVL0000
 62
  3
 10
       21.670105
 20
      -35.759766
 30
        0.000000
 40
        0.500000
  0
CIRCLE
  8
LVL0000
 62
  3
 10
       21.670105
 20
      -33.009766
 30
        0.000000
 40
        0.500000
  0
CIRCLE
  8
LVL0000
 62
  3
 10
       18.830139
 20
      -48.099731
 30
        0.000000
 40
        0.500000
  0
CIRCLE
  8
LVL0000
 62
  3
 10
       18.830139
 20
      -45.359741
 30
        0.000000
 40
        0.500000
  0
CIRCLE
  8
LVL0000
 62
  3
 10
       18.830139
 20
      -42.609741
 30
        0.000000
 40
        0.500000
  0
CIRCLE
  8
LVL0000
 62
  3
 10
       18.830139
 20
      -39.869751
 30
        0.000000
 40
        0.500000
  0
CIRCLE
  8
LVL0000
 62
  3
 10
       18.830139
 20
      -37.129761
 30
        0.000000
 40
        0.500000
  0
CIRCLE
  8
LVL0000
 62
  3
 10
       18.830139
 20
      -34.389771
 30
        0.000000
 40
        0.500000
  0
CIRCLE
  8
LVL0000
 62
  3
 10
       18.830139
 20
      -31.639771
 30
        0.000000
 40
        0.500000
  0
CIRCLE
  8
LVL0000
 62
  3
 10
       21.670105
 20
      -30.269775
 30
        0.000000
 40
        0.500000
  0
CIRCLE
  8
LVL0000
 62
  3
 10
       18.830139
 20
      -28.899780
 30
        0.000000
 40
        0.500000
  0
LINE
  8
LVL0000
 62
  3
 10
       29.250122
 20
      -16.999756
 30
        0.000000
 11
       29.250122
 21
      -59.999817
 31
        0.000000
  0
LINE
  8
LVL0000
 62
  3
 10
       29.250122
 20
       31.500244
 30
        0.000000
 11
       29.250122
 21
      -11.499817
 31
        0.000000
  0
LINE
  8
LVL0000
 62
  3
 10
        0.250000
 20
       38.999939
 30
        0.000000
 11
       35.250000
 21
       38.999939
 31
        0.000000
  0
LINE
  8
LVL0000
 62
  3
 10
       35.250000
 20
       56.999939
 30
        0.000000
 11
        0.250000
 21
       56.999939
 31
        0.000000
  0
LINE
  8
LVL0000
 62
  3
 10
       35.250000
 20
       38.999939
 30
        0.000000
 11
        0.250000
 21
       38.999939
 31
        0.000000
  0
LINE
  8
LVL0000
 62
  3
 10
        0.250000
 20
       38.999939
 30
        0.000000
 11
        0.250000
 21
       64.999939
 31
        0.000000
  0
LINE
  8
LVL0000
 62
  3
 10
        0.250000
 20
       64.999939
 30
        0.000000
 11
        0.250000
 21
      -43.500061
 31
        0.000000
  0
LINE
  8
LVL0000
 62
  3
 10
        0.250000
 20
       37.999939
 30
        0.000000
 11
       35.250000
 21
       37.999939
 31
        0.000000
  0
LINE
  8
LVL0000
 62
  3
 10
        2.250000
 20
        0.499939
 30
        0.000000
 11
        2.250000
 21
       -9.500061
 31
        0.000000
  0
LINE
  8
LVL0000
 62
  3
 10
        2.250000
 20
        0.499939
 30
        0.000000
 11
        0.250000
 21
        0.499939
 31
        0.000000
  0
LINE
  8
LVL0000
 62
  3
 10
        2.250000
 20
       -9.500061
 30
        0.000000
 11
        0.250000
 21
       -9.500061
 31
        0.000000
  0
ARC
  8
LVL0000
 62
  3
 10
      -24.250000
 20
      -54.000061
 30
        0.000000
 40
        5.000000
 50
      180.000010
 51
      270.000000
  0
LINE
  8
LVL0000
 62
  3
 10
      -11.250000
 20
      -59.000061
 30
        0.000000
 11
      -24.250000
 21
      -59.000061
 31
        0.000000
  0
ARC
  8
LVL0000
 62
  3
 10
      -11.250000
 20
      -54.000061
 30
        0.000000
 40
        5.000000
 50
      270.000000
 51
      360.000000
  0
ARC
  8
LVL0000
 62
  3
 10
      -34.750000
 20
      -64.500061
 30
        0.000000
 40
        0.500000
 50
      180.000010
 51
      270.000000
  0
LINE
  8
LVL0000
 62
  3
 10
      -35.250000
 20
       64.499939
 30
        0.000000
 11
      -35.250000
 21
      -64.500061
 31
        0.000000
  0
LINE
  8
LVL0000
 62
  3
 10
      -34.750000
 20
       64.999939
 30
        0.000000
 11
       34.750000
 21
       64.999939
 31
        0.000000
  0
ARC
  8
LVL0000
 62
  3
 10
       34.750000
 20
       64.499939
 30
        0.000000
 40
        0.500000
 50
        0.000000
 51
       90.000000
  0
LINE
  8
LVL0000
 62
  3
 10
      -34.750000
 20
      -65.000061
 30
        0.000000
 11
       34.750000
 21
      -65.000061
 31
        0.000000
  0
LINE
  8
LVL0000
 62
  3
 10
       35.250000
 20
       64.499939
 30
        0.000000
 11
       35.250000
 21
      -64.500061
 31
        0.000000
  0
ARC
  8
LVL0000
 62
  3
 10
       34.750000
 20
      -64.500061
 30
        0.000000
 40
        0.500000
 50
      270.000000
 51
      360.000000
  0
CIRCLE
  8
LVL0000
 62
  3
 10
       26.500000
 20
       52.418335
 30
        0.000000
 40
        1.500000
  0
CIRCLE
  8
LVL0000
 62
  3
 10
       26.500000
 20
       47.418335
 30
        0.000000
 40
        1.500000
  0
CIRCLE
  8
LVL0000
 62
  3
 10
       26.500000
 20
       42.418335
 30
        0.000000
 40
        1.500000
  0
LINE
  8
LVL0000
 62
  3
 10
        1.650146
 20
       63.499939
 30
        0.000000
 11
       33.850098
 21
       63.499939
 31
        0.000000
  0
LINE
  8
LVL0000
 62
  3
 10
        1.650146
 20
       57.999939
 30
        0.000000
 11
       33.850098
 21
       57.999939
 31
        0.000000
  0
LINE
  8
LVL0000
 62
  3
 10
        1.650146
 20
       57.999939
 30
        0.000000
 11
        1.650146
 21
       63.499939
 31
        0.000000
  0
LINE
  8
LVL0000
 62
  3
 10
       33.850098
 20
       63.499939
 30
        0.000000
 11
       33.850098
 21
       57.999939
 31
        0.000000
  0
LINE
  8
LVL0000
 62
  3
 10
      -35.250000
 20
      -43.500061
 30
        0.000000
 11
      -29.250000
 21
      -43.500061
 31
        0.000000
  0
LINE
  8
LVL0000
 62
  3
 10
       -6.250000
 20
      -43.500061
 30
        0.000000
 11
        0.250000
 21
      -43.500061
 31
        0.000000
  0
LINE
  8
LVL0000
 62
  3
 10
       -0.549988
 20
      -43.500061
 30
        0.000000
 11
      -34.950012
 21
      -43.500061
 31
        0.000000
  0
LINE
  8
LVL0000
 62
  3
 10
       -0.250000
 20
      -43.200062
 30
        0.000000
 11
       -0.250000
 21
       54.499939
 31
        0.000000
  0
ARC
  8
LVL0000
 62
  3
 10
       -0.549988
 20
      -43.200062
 30
        0.000000
 40
        0.299999
 50
      270.000000
 51
      360.000000
  0
LINE
  8
LVL0000
 62
  3
 10
      -35.250000
 20
       29.999939
 30
        0.000000
 11
      -35.250000
 21
       64.699940
 31
        0.000000
  0
LINE
  8
LVL0000
 62
  3
 10
       -0.250000
 20
       64.999939
 30
        0.000000
 11
      -34.950012
 21
       64.999939
 31
        0.000000
  0
ARC
  8
LVL0000
 62
  3
 10
      -34.950012
 20
       64.699940
 30
        0.000000
 40
        0.299999
 50
       90.000000
 51
      180.000010
  0
LINE
  8
LVL0000
 62
  3
 10
       -0.250000
 20
       56.999939
 30
        0.000000
 11
      -35.250000
 21
       56.999939
 31
        0.000000
  0
LINE
  8
LVL0000
 62
  3
 10
       -0.250000
 20
       37.999939
 30
        0.000000
 11
      -35.250000
 21
       37.999939
 31
        0.000000
  0
LINE
  8
LVL0000
 62
  3
 10
       -0.250000
 20
       29.999939
 30
        0.000000
 11
      -35.250000
 21
       29.999939
 31
        0.000000
  0
LINE
  8
LVL0000
 62
  3
 10
       -0.250000
 20
       37.999939
 30
        0.000000
 11
      -35.250000
 21
       37.999939
 31
        0.000000
  0
LINE
  8
LVL0000
 62
  3
 10
       -0.250000
 20
       56.999939
 30
        0.000000
 11
      -35.250000
 21
       56.999939
 31
        0.000000
  0
LINE
  8
LVL0000
 62
  3
 10
       -0.250000
 20
       29.999939
 30
        0.000000
 11
       -0.250000
 21
       37.999939
 31
        0.000000
  0
ARC
  8
LVL0000
 62
  3
 10
      -19.250000
 20
       65.999939
 30
        0.000000
 40
        1.000000
 50
       90.000000
 51
      180.000010
  0
LINE
  8
LVL0000
 62
  3
 10
      -11.250000
 20
       66.999939
 30
        0.000000
 11
      -19.250000
 21
       66.999939
 31
        0.000000
  0
ARC
  8
LVL0000
 62
  3
 10
      -11.250000
 20
       65.999939
 30
        0.000000
 40
        1.000000
 50
        0.000000
 51
       90.000000
  0
LINE
  8
LVL0000
 62
  3
 10
      -20.250000
 20
       65.999939
 30
        0.000000
 11
      -20.250000
 21
       64.999939
 31
        0.000000
  0
LINE
  8
LVL0000
 62
  3
 10
      -10.250000
 20
       65.999939
 30
        0.000000
 11
      -10.250000
 21
       64.999939
 31
        0.000000
  0
LINE
  8
LVL0000
 62
  3
 10
       -1.650024
 20
       57.999939
 30
        0.000000
 11
      -33.849976
 21
       57.999939
 31
        0.000000
  0
ARC
  8
LVL0000
 62
  3
 10
      -20.750000
 20
      -45.500061
 30
        0.000000
 40
        1.000000
 50
      180.000010
 51
      270.000000
  0
LINE
  8
LVL0000
 62
  3
 10
      -14.750000
 20
      -46.500061
 30
        0.000000
 11
      -20.750000
 21
      -46.500061
 31
        0.000000
  0
ARC
  8
LVL0000
 62
  3
 10
      -14.750000
 20
      -45.500061
 30
        0.000000
 40
        1.000000
 50
      270.000000
 51
      360.000000
  0
LINE
  8
LVL0000
 62
  3
 10
      -21.750000
 20
      -43.500061
 30
        0.000000
 11
      -21.750000
 21
      -45.500061
 31
        0.000000
  0
LINE
  8
LVL0000
 62
  3
 10
      -13.750000
 20
      -43.500061
 30
        0.000000
 11
      -13.750000
 21
      -45.500061
 31
        0.000000
  0
LINE
  8
LVL0000
 62
  3
 10
       -0.250000
 20
      -39.000061
 30
        0.000000
 11
      -35.250000
 21
      -39.000061
 31
        0.000000
  0
LINE
  8
LVL0000
 62
  3
 10
       -0.250000
 20
       29.799939
 30
        0.000000
 11
      -35.250000
 21
       29.799939
 31
        0.000000
  0
LINE
  8
LVL0000
 62
  3
 10
       -0.250000
 20
      -38.800060
 30
        0.000000
 11
      -35.250000
 21
      -38.800060
 31
        0.000000
  0
LINE
  8
LVL0000
 62
  3
 10
       -2.500000
 20
      -36.300060
 30
        0.000000
 11
      -33.000000
 21
      -36.300060
 31
        0.000000
  0
LINE
  8
LVL0000
 62
  3
 10
       -2.500000
 20
       27.299939
 30
        0.000000
 11
      -33.000000
 21
       27.299939
 31
        0.000000
  0
LINE
  8
LVL0000
 62
  3
 10
      -33.000000
 20
      -36.300060
 30
        0.000000
 11
      -33.000000
 21
       27.299939
 31
        0.000000
  0
LINE
  8
LVL0000
 62
  3
 10
       -2.500000
 20
      -36.300060
 30
        0.000000
 11
       -2.500000
 21
       27.299939
 31
        0.000000
  0
LINE
  8
LVL0000
 62
  3
 10
      -35.250000
 20
      -43.200062
 30
        0.000000
 11
      -35.250000
 21
       37.999939
 31
        0.000000
  0
ARC
  8
LVL0000
 62
  3
 10
      -34.950012
 20
      -43.200062
 30
        0.000000
 40
        0.299988
 50
      180.000010
 51
      270.000000
  0
LINE
  8
LVL0000
 62
  3
 10
       -0.250000
 20
       64.699940
 30
        0.000000
 11
       -0.250000
 21
       37.999939
 31
        0.000000
  0
ARC
  8
LVL0000
 62
  3
 10
       -0.549988
 20
       64.699940
 30
        0.000000
 40
        0.299988
 50
        0.000000
 51
       90.000000
  0
LINE
  8
LVL0000
 62
  3
 10
       -6.250000
 20
      -43.500061
 30
        0.000000
 11
       -6.250000
 21
      -54.000061
 31
        0.000000
  0
LINE
  8
LVL0000
 62
  3
 10
      -29.250000
 20
      -43.500061
 30
        0.000000
 11
      -29.250000
 21
      -54.000061
 31
        0.000000
  0
LINE
  8
LVL0000
 62
  3
 10
       -1.650024
 20
       63.499939
 30
        0.000000
 11
       -1.650024
 21
       57.999939
 31
        0.000000
  0
LINE
  8
LVL0000
 62
  3
 10
      -33.849976
 20
       63.499939
 30
        0.000000
 11
      -33.849976
 21
       57.999939
 31
        0.000000
  0
LINE
  8
LVL0000
 62
  3
 10
       -1.650024
 20
       63.499939
 30
        0.000000
 11
      -33.849976
 21
       63.499939
 31
        0.000000
  0
CIRCLE
  8
LVL0000
 62
  3
 10
       18.830139
 20
       19.600220
 30
        0.000000
 40
        0.500000
  0
CIRCLE
  8
LVL0000
 62
  3
 10
       21.670105
 20
       18.230225
 30
        0.000000
 40
        0.500000
  0
CIRCLE
  8
LVL0000
 62
  3
 10
       18.830139
 20
       16.860229
 30
        0.000000
 40
        0.500000
  0
CIRCLE
  8
LVL0000
 62
  3
 10
       18.830139
 20
       14.110229
 30
        0.000000
 40
        0.500000
  0
CIRCLE
  8
LVL0000
 62
  3
 10
       18.830139
 20
       11.370239
 30
        0.000000
 40
        0.500000
  0
CIRCLE
  8
LVL0000
 62
  3
 10
       18.830139
 20
        8.630249
 30
        0.000000
 40
        0.500000
  0
CIRCLE
  8
LVL0000
 62
  3
 10
       18.830139
 20
        5.890259
 30
        0.000000
 40
        0.500000
  0
CIRCLE
  8
LVL0000
 62
  3
 10
       18.830139
 20
        3.140259
 30
        0.000000
 40
        0.500000
  0
CIRCLE
  8
LVL0000
 62
  3
 10
       18.830139
 20
        0.400269
 30
        0.000000
 40
        0.500000
  0
CIRCLE
  8
LVL0000
 62
  3
 10
       21.670105
 20
       15.490234
 30
        0.000000
 40
        0.500000
  0
CIRCLE
  8
LVL0000
 62
  3
 10
       21.670105
 20
       12.740234
 30
        0.000000
 40
        0.500000
  0
CIRCLE
  8
LVL0000
 62
  3
 10
       21.670105
 20
       10.000244
 30
        0.000000
 40
        0.500000
  0
CIRCLE
  8
LVL0000
 62
  3
 10
       21.670105
 20
        7.260254
 30
        0.000000
 40
        0.500000
  0
CIRCLE
  8
LVL0000
 62
  3
 10
       21.670105
 20
        4.510254
 30
        0.000000
 40
        0.500000
  0
CIRCLE
  8
LVL0000
 62
  3
 10
       21.670105
 20
        1.770264
 30
        0.000000
 40
        0.500000
  0
LINE
  8
LVL0000
 62
  3
 10
       26.550049
 20
       -8.549744
 30
        0.000000
 11
       26.550049
 21
       28.550232
 31
        0.000000
  0
LINE
  8
LVL0000
 62
  3
 10
       13.950195
 20
       -8.549744
 30
        0.000000
 11
       13.950195
 21
       28.550232
 31
        0.000000
  0
LINE
  8
LVL0000
 62
  3
 10
       25.550049
 20
       29.550232
 30
        0.000000
 11
       14.950195
 21
       29.550232
 31
        0.000000
  0
LINE
  8
LVL0000
 62
  3
 10
       25.550049
 20
       -9.549744
 30
        0.000000
 11
       14.950195
 21
       -9.549744
 31
        0.000000
  0
LINE
  8
LVL0000
 62
  3
 10
       24.160156
 20
       19.855896
 30
        0.000000
 11
       24.160156
 21
        0.144531
 31
        0.000000
  0
ARC
  8
LVL0000
 62
  3
 10
       22.560059
 20
        0.144531
 30
        0.000000
 40
        1.599990
 50
      279.999892
 51
      360.000000
  0
LINE
  8
LVL0000
 62
  3
 10
       17.940186
 20
       -2.294800
 30
        0.000000
 11
       22.837891
 21
       -1.431152
 31
        0.000000
  0
ARC
  8
LVL0000
 62
  3
 10
       17.940186
 20
       -0.694763
 30
        0.000000
 40
        1.600098
 50
      180.000010
 51
      270.000000
  0
LINE
  8
LVL0000
 62
  3
 10
       16.340088
 20
       20.695190
 30
        0.000000
 11
       16.340088
 21
       -0.694763
 31
        0.000000
  0
ARC
  8
LVL0000
 62
  3
 10
       17.940186
 20
       20.695190
 30
        0.000000
 40
        1.599976
 50
       90.000000
 51
      180.000010
  0
LINE
  8
LVL0000
 62
  3
 10
       17.940186
 20
       22.295227
 30
        0.000000
 11
       22.837891
 21
       21.431580
 31
        0.000000
  0
ARC
  8
LVL0000
 62
  3
 10
       22.560059
 20
       19.855896
 30
        0.000000
 40
        1.600098
 50
        0.000000
 51
       80.000692
  0
CIRCLE
  8
LVL0000
 62
  3
 10
       20.250122
 20
       26.660217
 30
        0.000000
 40
        1.299927
  0
CIRCLE
  8
LVL0000
 62
  3
 10
       20.250122
 20
       -6.659790
 30
        0.000000
 40
        1.299927
  0
LINE
  8
LVL0000
 62
  3
 10
       22.750122
 20
       28.103577
 30
        0.000000
 11
       20.250122
 21
       29.546997
 31
        0.000000
  0
LINE
  8
LVL0000
 62
  3
 10
       20.250122
 20
       29.546997
 30
        0.000000
 11
       17.750122
 21
       28.103577
 31
        0.000000
  0
LINE
  8
LVL0000
 62
  3
 10
       17.750122
 20
       28.103577
 30
        0.000000
 11
       17.750122
 21
       25.216858
 31
        0.000000
  0
LINE
  8
LVL0000
 62
  3
 10
       17.750122
 20
       25.216858
 30
        0.000000
 11
       20.250122
 21
       23.773499
 31
        0.000000
  0
LINE
  8
LVL0000
 62
  3
 10
       20.250122
 20
       23.773499
 30
        0.000000
 11
       22.750122
 21
       25.216858
 31
        0.000000
  0
LINE
  8
LVL0000
 62
  3
 10
       22.750122
 20
       25.216858
 30
        0.000000
 11
       22.750122
 21
       28.103577
 31
        0.000000
  0
LINE
  8
LVL0000
 62
  3
 10
       22.750122
 20
       -5.216370
 30
        0.000000
 11
       20.250122
 21
       -3.773010
 31
        0.000000
  0
LINE
  8
LVL0000
 62
  3
 10
       20.250122
 20
       -3.773010
 30
        0.000000
 11
       17.750122
 21
       -5.216370
 31
        0.000000
  0
LINE
  8
LVL0000
 62
  3
 10
       17.750122
 20
       -5.216370
 30
        0.000000
 11
       17.750122
 21
       -8.103149
 31
        0.000000
  0
LINE
  8
LVL0000
 62
  3
 10
       17.750122
 20
       -8.103149
 30
        0.000000
 11
       20.250122
 21
       -9.546570
 31
        0.000000
  0
LINE
  8
LVL0000
 62
  3
 10
       20.250122
 20
       -9.546570
 30
        0.000000
 11
       22.750122
 21
       -8.103149
 31
        0.000000
  0
LINE
  8
LVL0000
 62
  3
 10
       22.750122
 20
       -8.103149
 30
        0.000000
 11
       22.750122
 21
       -5.216370
 31
        0.000000
  0
ARC
  8
LVL0000
 62
  3
 10
       14.950195
 20
       28.550232
 30
        0.000000
 40
        1.000000
 50
       90.000000
 51
      180.000010
  0
ARC
  8
LVL0000
 62
  3
 10
       25.550049
 20
       28.550232
 30
        0.000000
 40
        1.000000
 50
        0.000000
 51
       90.000000
  0
ARC
  8
LVL0000
 62
  3
 10
       25.550049
 20
       -8.549744
 30
        0.000000
 40
        1.000000
 50
      270.000000
 51
      360.000000
  0
ARC
  8
LVL0000
 62
  3
 10
       14.950195
 20
       -8.549744
 30
        0.000000
 40
        1.000000
 50
      180.000010
 51
      270.000000
  0
ENDSEC
  0
EOF
