  0
SECTION
  2
HEADER
  9
$ACADVER
  1
AC1006
  9
$INSBASE
 10
0.0
 20
0.0
 30
0.0
  9
$EXTMIN
 10
      -64.999992
 20
      -64.999992
  9
$EXTMAX
 10
      167.083862
 20
      135.112335
  9
$LIMMIN
 10
      -64.999992
 20
      -64.999992
  9
$LIMMAX
 10
      167.083862
 20
      135.112335
  9
$VIEWCTR
 10
       51.041935
 20
       51.041935
  9
$ORTHOMODE
 70
     0
  9
$ANGBASE
 50
0.0
  9
$ANGDIR
 70
     0
  9
$SPLINETYPE
 70
     6
  9
$SPLINESEGS
 70
     8
9
$DIMASZ
 40
        3.500000
9
$DIMEXE
 40
        0.933333
9
$DIMEXO
 40
        1.333333
9
$DIMTXT
 40
        4.000000
9
$DIMGAP
 40
        0.933333
9
$DIMTAD
 70
1
9
$DIMTIH
 70
0
9
$DIMTOH
 70
0
  0
ENDSEC
  0
SECTION
  2
TABLES
  0
TABLE
  2
LTYPE
 70
     5
  0
LTYPE
  2
CONTINUOUS
 70
    64
  3
SOLID LINE
 72
    65
 73
     0
 40
0.0
  0
LTYPE
  2
DASHED
 70
    64
  3
-- -- -- -- -- --
 72
    65
 73
     2
 40
  0.75  
 49
  0.50  
 49
 -0.25  
  0
LTYPE
  2
DOT
 70
    64
  3
....................
 72
    65
 73
     2
 40
  0.25  
 49
  0.02  
 49
 -0.23  
  0
LTYPE
  2
CENTER
 70
    64
  3
-- . -- . -- . -- .
 72
    65
 73
    4
 40
  2.00  
 49
  1.25  
 49
 -0.25  
 49
  0.25  
 49
 -0.25  
  0
LTYPE
  2
PHANTOM
 70
    64
  3
-- .. -- .. -- ..
 72
    65
 73
    6
 40
  2.50  
 49
  1.25  
 49
 -0.25  
 49
  0.25  
 49
 -0.25  
 49
  0.25  
 49
 -0.25  
  0
ENDTAB
  0
TABLE
  2
LAYER
 70
     1
  0
LAYER
  2
LVL0000
 70
    64
 62
     2
  6
CONTINUOUS
  0
ENDTAB
  0
TABLE
  2
STYLE
 70
     2
  0
STYLE
  2
STANDARD
 70
    64
 40
0.0
 41
1.0
 50
0.0
 71
     0
 42
5.0
  3
ROMANS
  4
BIGFONT
  0
STYLE
  2
BIGFONT
 70
    64
 40
0.0
 41
1.0
 50
0.0
 71
     0
 42
5.0
  3
ROMANS
  4
BIGFONT
  0
ENDTAB
  0
TABLE
  2
VIEW
 70
     0
  0
ENDTAB
  0
TABLE
  2
UCS
 70
     0
  0
ENDTAB
  0
TABLE
  2
DWGMGR
 70
     0
  0
ENDTAB
  0
ENDSEC
  0
SECTION
  2
BLOCKS
  0
BLOCK
  8
0
  2
BLK0001
 70
    64
 10
        0.000000
 20
        0.000000
  0
TEXT
  8
LVL0000
 10
       96.883423
 20
      -77.197395
 30
        0.000000
 40
        4.000000
  1
１０２．４
 50
        0.000000
 41
        0.835000
 51
        0.000000
  7
BIGFONT
  0
LINE
  8
LVL0000
 10
       57.683472
 20
      -65.833328
 30
        0.000000
 11
       57.683472
 21
      -79.064064
 31
        0.000000
  0
LINE
  8
LVL0000
 10
      160.083374
 20
       53.666676
 30
        0.000000
 11
      160.083374
 21
      -79.064064
 31
        0.000000
  0
LINE
  8
LVL0000
 10
       61.183472
 20
      -77.580948
 30
        0.000000
 11
       57.683472
 21
      -78.130730
 31
        0.000000
  0
LINE
  8
LVL0000
 10
       57.683472
 20
      -78.130730
 30
        0.000000
 11
       61.183472
 21
      -78.680511
 31
        0.000000
  0
LINE
  8
LVL0000
 10
      156.583374
 20
      -78.680511
 30
        0.000000
 11
      160.083374
 21
      -78.130730
 31
        0.000000
  0
LINE
  8
LVL0000
 10
      160.083374
 20
      -78.130730
 30
        0.000000
 11
      156.583374
 21
      -77.580948
 31
        0.000000
  0
LINE
  8
LVL0000
 10
       57.683472
 20
      -78.130730
 30
        0.000000
 11
      160.083374
 21
      -78.130730
 31
        0.000000
  0
ENDBLK
  0
BLOCK
  8
0
  2
BLK0002
 70
    64
 10
        0.000000
 20
        0.000000
  0
TEXT
  8
LVL0000
 10
       -3.756400
 20
      -82.486351
 30
        0.000000
 40
        4.000000
  1
３５
 50
        0.000000
 41
        0.835000
 51
        0.000000
  7
BIGFONT
  0
LINE
  8
LVL0000
 10
      -17.500000
 20
      -65.833328
 30
        0.000000
 11
      -17.500000
 21
      -84.353020
 31
        0.000000
  0
LINE
  8
LVL0000
 10
       17.500000
 20
      -65.833328
 30
        0.000000
 11
       17.500000
 21
      -84.353020
 31
        0.000000
  0
LINE
  8
LVL0000
 10
      -14.000000
 20
      -82.869904
 30
        0.000000
 11
      -17.500000
 21
      -83.419685
 31
        0.000000
  0
LINE
  8
LVL0000
 10
      -17.500000
 20
      -83.419685
 30
        0.000000
 11
      -14.000000
 21
      -83.969467
 31
        0.000000
  0
LINE
  8
LVL0000
 10
       14.000000
 20
      -83.969467
 30
        0.000000
 11
       17.500000
 21
      -83.419685
 31
        0.000000
  0
LINE
  8
LVL0000
 10
       17.500000
 20
      -83.419685
 30
        0.000000
 11
       14.000000
 21
      -82.869904
 31
        0.000000
  0
LINE
  8
LVL0000
 10
      -17.500000
 20
      -83.419685
 30
        0.000000
 11
       17.500000
 21
      -83.419685
 31
        0.000000
  0
ENDBLK
  0
BLOCK
  8
0
  2
BLK0003
 70
    64
 10
        0.000000
 20
        0.000000
  0
TEXT
  8
LVL0000
 10
       31.729027
 20
       -7.278758
 30
        0.000000
 40
        4.000000
  1
１３０
 50
       90.000000
 41
        0.835000
 51
        0.000000
  7
BIGFONT
  0
LINE
  8
LVL0000
 10
       18.333334
 20
      -64.999992
 30
        0.000000
 11
       33.595692
 21
      -64.999992
 31
        0.000000
  0
LINE
  8
LVL0000
 10
       18.333334
 20
       65.000008
 30
        0.000000
 11
       33.595692
 21
       65.000008
 31
        0.000000
  0
LINE
  8
LVL0000
 10
       32.112579
 20
      -61.499992
 30
        0.000000
 11
       32.662357
 21
      -64.999992
 31
        0.000000
  0
LINE
  8
LVL0000
 10
       32.662357
 20
      -64.999992
 30
        0.000000
 11
       33.212135
 21
      -61.499992
 31
        0.000000
  0
LINE
  8
LVL0000
 10
       33.212135
 20
       61.500008
 30
        0.000000
 11
       32.662357
 21
       65.000008
 31
        0.000000
  0
LINE
  8
LVL0000
 10
       32.662357
 20
       65.000008
 30
        0.000000
 11
       32.112579
 21
       61.500008
 31
        0.000000
  0
LINE
  8
LVL0000
 10
       32.662357
 20
      -64.999992
 30
        0.000000
 11
       32.662357
 21
       65.000008
 31
        0.000000
  0
ENDBLK
  0
ENDSEC
  0
SECTION
  2
ENTITIES
  0
DIMENSION
  8
LVL0000
 62
  5
  2
BLK0001
 10
       57.683472
 20
      -78.130730
 11
       96.883423
 21
      -77.197395
 13
       57.683472
 23
      -64.499992
 14
      160.083374
 24
       55.000008
 50
        0.0
 70
  0
  0
DIMENSION
  8
LVL0000
 62
  5
  2
BLK0002
 10
      -17.500000
 20
      -83.419685
 11
       -3.756400
 21
      -82.486351
 13
      -17.500000
 23
      -64.499992
 14
       17.500000
 24
      -64.499992
 50
        0.0
 70
  0
  0
DIMENSION
  8
LVL0000
 62
  5
  2
BLK0003
 10
       32.662357
 20
      -64.999992
 11
       31.729027
 21
       -7.278758
 13
       17.000000
 23
      -64.999992
 14
       17.000000
 24
       65.000008
 50
       90.0
 70
  0
  0
LINE
  8
LVL0000
 62
  3
 10
       59.183472
 20
       23.500008
 30
        0.000000
 11
       60.683472
 21
       23.500008
 31
        0.000000
  0
LINE
  8
LVL0000
 62
  3
 10
       57.683472
 20
       57.000008
 30
        0.000000
 11
       60.683472
 21
       57.000008
 31
        0.000000
  0
LINE
  8
LVL0000
 62
  3
 10
       57.683472
 20
       25.000008
 30
        0.000000
 11
       57.683472
 21
       57.000008
 31
        0.000000
  0
LINE
  8
LVL0000
 62
  3
 10
       59.183472
 20
       23.500008
 30
        0.000000
 11
       57.683472
 21
       25.000008
 31
        0.000000
  0
LINE
  8
LVL0000
 62
  3
 10
       93.983521
 20
      -32.749992
 30
        0.000000
 11
       96.483521
 21
      -32.749992
 31
        0.000000
  0
LINE
  8
LVL0000
 62
  3
 10
       89.683472
 20
      -35.999992
 30
        0.000000
 11
       90.683472
 21
      -35.999992
 31
        0.000000
  0
LINE
  8
LVL0000
 62
  3
 10
       93.983521
 20
      -51.249992
 30
        0.000000
 11
       96.483521
 21
      -51.249992
 31
        0.000000
  0
LINE
  8
LVL0000
 62
  3
 10
       96.483521
 20
      -32.749992
 30
        0.000000
 11
       96.483521
 21
      -51.249992
 31
        0.000000
  0
LINE
  8
LVL0000
 62
  3
 10
       89.683472
 20
      -47.999992
 30
        0.000000
 11
       90.683472
 21
      -47.999992
 31
        0.000000
  0
LINE
  8
LVL0000
 62
  3
 10
       93.983521
 20
      -32.749992
 30
        0.000000
 11
       93.983521
 21
      -51.249992
 31
        0.000000
  0
LINE
  8
LVL0000
 62
  3
 10
       90.683472
 20
      -35.999992
 30
        0.000000
 11
       90.683472
 21
      -47.999992
 31
        0.000000
  0
LINE
  8
LVL0000
 62
  3
 10
       93.983521
 20
       21.750008
 30
        0.000000
 11
       96.483521
 21
       21.750008
 31
        0.000000
  0
LINE
  8
LVL0000
 62
  3
 10
       93.983521
 20
       40.250008
 30
        0.000000
 11
       96.483521
 21
       40.250008
 31
        0.000000
  0
LINE
  8
LVL0000
 62
  3
 10
       96.483521
 20
       40.250008
 30
        0.000000
 11
       96.483521
 21
       21.750008
 31
        0.000000
  0
LINE
  8
LVL0000
 62
  3
 10
       89.683472
 20
       37.000008
 30
        0.000000
 11
       90.683472
 21
       37.000008
 31
        0.000000
  0
LINE
  8
LVL0000
 62
  3
 10
       89.683472
 20
       25.000008
 30
        0.000000
 11
       90.683472
 21
       25.000008
 31
        0.000000
  0
LINE
  8
LVL0000
 62
  3
 10
       93.983521
 20
       40.250008
 30
        0.000000
 11
       93.983521
 21
       21.750008
 31
        0.000000
  0
LINE
  8
LVL0000
 62
  3
 10
       90.683472
 20
       37.000008
 30
        0.000000
 11
       90.683472
 21
       25.000008
 31
        0.000000
  0
LINE
  8
LVL0000
 62
  3
 10
       98.833374
 20
       12.650032
 30
        0.000000
 11
       98.833374
 21
      -12.650017
 31
        0.000000
  0
LINE
  8
LVL0000
 62
  3
 10
      160.083374
 20
       56.400032
 30
        0.000000
 11
      165.083374
 21
       56.400032
 31
        0.000000
  0
LINE
  8
LVL0000
 62
  3
 10
      160.083374
 20
       60.400032
 30
        0.000000
 11
      165.083374
 21
       60.400032
 31
        0.000000
  0
ARC
  8
LVL0000
 62
  3
 10
      165.083374
 20
       58.400032
 30
        0.000000
 40
        2.000000
 50
      270.000000
 51
      450.000000
  0
LINE
  8
LVL0000
 62
  3
 10
      161.583374
 20
      -57.499992
 30
        0.000000
 11
      161.583374
 21
      -61.999992
 31
        0.000000
  0
LINE
  8
LVL0000
 62
  3
 10
      159.083374
 20
      -59.999992
 30
        0.000000
 11
      159.083374
 21
      -60.999992
 31
        0.000000
  0
LINE
  8
LVL0000
 62
  3
 10
      157.483521
 20
       55.000008
 30
        0.000000
 11
      157.483521
 21
      -53.499992
 31
        0.000000
  0
LINE
  8
LVL0000
 62
  3
 10
      157.483521
 20
      -53.499992
 30
        0.000000
 11
      156.983521
 21
      -59.999992
 31
        0.000000
  0
LINE
  8
LVL0000
 62
  3
 10
      157.483521
 20
      -53.499992
 30
        0.000000
 11
      161.583374
 21
      -57.499992
 31
        0.000000
  0
LINE
  8
LVL0000
 62
  3
 10
      159.083374
 20
      -60.999992
 30
        0.000000
 11
      160.583374
 21
      -61.999992
 31
        0.000000
  0
LINE
  8
LVL0000
 62
  3
 10
      160.583374
 20
      -61.999992
 30
        0.000000
 11
      161.583374
 21
      -61.999992
 31
        0.000000
  0
LINE
  8
LVL0000
 62
  3
 10
      156.983521
 20
      -59.999992
 30
        0.000000
 11
      154.983521
 21
      -64.999992
 31
        0.000000
  0
LINE
  8
LVL0000
 62
  3
 10
      156.983521
 20
      -59.999992
 30
        0.000000
 11
      159.083374
 21
      -59.999992
 31
        0.000000
  0
LINE
  8
LVL0000
 62
  3
 10
      149.133423
 20
       12.650032
 30
        0.000000
 11
      149.133423
 21
      -12.650017
 31
        0.000000
  0
LINE
  8
LVL0000
 62
  3
 10
       98.833374
 20
       12.650032
 30
        0.000000
 11
      149.133423
 21
       12.650032
 31
        0.000000
  0
LINE
  8
LVL0000
 62
  3
 10
      157.483521
 20
       55.000008
 30
        0.000000
 11
      160.083374
 21
       55.000008
 31
        0.000000
  0
LINE
  8
LVL0000
 62
  3
 10
      160.083374
 20
       65.000008
 30
        0.000000
 11
      160.083374
 21
       55.000008
 31
        0.000000
  0
LINE
  8
LVL0000
 62
  3
 10
       98.833374
 20
      -12.650017
 30
        0.000000
 11
      149.133423
 21
      -12.650017
 31
        0.000000
  0
LINE
  8
LVL0000
 62
  3
 10
       89.683472
 20
      -64.999992
 30
        0.000000
 11
       89.683472
 21
       65.000008
 31
        0.000000
  0
LINE
  8
LVL0000
 62
  3
 10
       89.683472
 20
      -64.999992
 30
        0.000000
 11
       89.683472
 21
       65.000008
 31
        0.000000
  0
ARC
  8
LVL0000
 62
  3
 10
       58.183472
 20
       22.052406
 30
        0.000000
 40
        0.500000
 50
       90.000000
 51
      180.000010
  0
LINE
  8
LVL0000
 62
  3
 10
       57.683472
 20
       22.052406
 30
        0.000000
 11
       57.683472
 21
      -64.499992
 31
        0.000000
  0
LINE
  8
LVL0000
 62
  3
 10
       58.183472
 20
       22.552406
 30
        0.000000
 11
       60.683472
 21
       22.552406
 31
        0.000000
  0
ARC
  8
LVL0000
 62
  3
 10
       58.183472
 20
      -64.499992
 30
        0.000000
 40
        0.500000
 50
      180.000010
 51
      270.000000
  0
LINE
  8
LVL0000
 62
  3
 10
       60.683472
 20
       22.500008
 30
        0.000000
 11
       60.683472
 21
       57.000008
 31
        0.000000
  0
LINE
  8
LVL0000
 62
  3
 10
       57.683472
 20
       57.000008
 30
        0.000000
 11
       60.683472
 21
       57.000008
 31
        0.000000
  0
LINE
  8
LVL0000
 62
  3
 10
       73.683472
 20
      100.112343
 30
        0.000000
 11
       73.683472
 21
      135.112343
 31
        0.000000
  0
LINE
  8
LVL0000
 62
  3
 10
       71.683472
 20
      100.112343
 30
        0.000000
 11
       71.683472
 21
      135.112343
 31
        0.000000
  0
LINE
  8
LVL0000
 62
  3
 10
       73.683472
 20
      101.712379
 30
        0.000000
 11
       71.683472
 21
      101.712379
 31
        0.000000
  0
LINE
  8
LVL0000
 62
  3
 10
       73.683472
 20
      133.112343
 30
        0.000000
 11
       71.683472
 21
      133.112343
 31
        0.000000
  0
LINE
  8
LVL0000
 62
  3
 10
       77.683472
 20
      100.112343
 30
        0.000000
 11
       77.683472
 21
      135.112343
 31
        0.000000
  0
LINE
  8
LVL0000
 62
  3
 10
       75.683472
 20
      100.112343
 30
        0.000000
 11
       75.683472
 21
      135.112343
 31
        0.000000
  0
LINE
  8
LVL0000
 62
  3
 10
       77.683472
 20
      101.712379
 30
        0.000000
 11
       75.683472
 21
      101.712379
 31
        0.000000
  0
LINE
  8
LVL0000
 62
  3
 10
       77.683472
 20
      133.112343
 30
        0.000000
 11
       75.683472
 21
      133.112343
 31
        0.000000
  0
LINE
  8
LVL0000
 62
  3
 10
       81.683472
 20
      100.112343
 30
        0.000000
 11
       81.683472
 21
      135.112343
 31
        0.000000
  0
LINE
  8
LVL0000
 62
  3
 10
       79.683472
 20
      100.112343
 30
        0.000000
 11
       79.683472
 21
      135.112343
 31
        0.000000
  0
LINE
  8
LVL0000
 62
  3
 10
       81.683472
 20
      101.712379
 30
        0.000000
 11
       79.683472
 21
      101.712379
 31
        0.000000
  0
LINE
  8
LVL0000
 62
  3
 10
       81.683472
 20
      133.112343
 30
        0.000000
 11
       79.683472
 21
      133.112343
 31
        0.000000
  0
LINE
  8
LVL0000
 62
  3
 10
       85.683472
 20
      100.112343
 30
        0.000000
 11
       85.683472
 21
      135.112343
 31
        0.000000
  0
LINE
  8
LVL0000
 62
  3
 10
       83.683472
 20
      100.112343
 30
        0.000000
 11
       83.683472
 21
      135.112343
 31
        0.000000
  0
LINE
  8
LVL0000
 62
  3
 10
       85.683472
 20
      101.712379
 30
        0.000000
 11
       83.683472
 21
      101.712379
 31
        0.000000
  0
LINE
  8
LVL0000
 62
  3
 10
       85.683472
 20
      133.112343
 30
        0.000000
 11
       83.683472
 21
      133.112343
 31
        0.000000
  0
LINE
  8
LVL0000
 62
  3
 10
      161.583862
 20
      129.512367
 30
        0.000000
 11
      161.583862
 21
      108.611855
 31
        0.000000
  0
LINE
  8
LVL0000
 62
  3
 10
      161.583862
 20
      129.512367
 30
        0.000000
 11
      160.083496
 21
      129.512367
 31
        0.000000
  0
LINE
  8
LVL0000
 62
  3
 10
      160.083862
 20
      104.611855
 30
        0.000000
 11
      165.083862
 21
      104.611855
 31
        0.000000
  0
LINE
  8
LVL0000
 62
  3
 10
      160.083862
 20
      108.611855
 30
        0.000000
 11
      165.083862
 21
      108.611855
 31
        0.000000
  0
ARC
  8
LVL0000
 62
  3
 10
      165.083862
 20
      106.611855
 30
        0.000000
 40
        2.000000
 50
      270.000000
 51
      450.000000
  0
LINE
  8
LVL0000
 62
  3
 10
       98.683472
 20
      115.562355
 30
        0.000000
 11
      100.683472
 21
      115.112343
 31
        0.000000
  0
LINE
  8
LVL0000
 62
  3
 10
       98.683472
 20
      119.662331
 30
        0.000000
 11
      100.683472
 21
      120.112343
 31
        0.000000
  0
LINE
  8
LVL0000
 62
  3
 10
      108.683472
 20
      114.112343
 30
        0.000000
 11
      106.683472
 21
      114.212318
 31
        0.000000
  0
LINE
  8
LVL0000
 62
  3
 10
      106.683472
 20
      121.012367
 30
        0.000000
 11
      108.683472
 21
      121.112343
 31
        0.000000
  0
LINE
  8
LVL0000
 62
  3
 10
      102.683472
 20
      120.512367
 30
        0.000000
 11
      104.683472
 21
      120.812355
 31
        0.000000
  0
LINE
  8
LVL0000
 62
  3
 10
      104.683472
 20
      114.412331
 30
        0.000000
 11
      102.683472
 21
      114.712318
 31
        0.000000
  0
LINE
  8
LVL0000
 62
  3
 10
       96.183472
 20
      116.198158
 30
        0.000000
 11
       96.683472
 21
      116.012367
 31
        0.000000
  0
LINE
  8
LVL0000
 62
  3
 10
       96.683472
 20
      119.212318
 30
        0.000000
 11
       96.183472
 21
      119.026527
 31
        0.000000
  0
ARC
  8
LVL0000
 62
  3
 10
       96.683472
 20
      117.612343
 30
        0.000000
 40
        1.499973
 50
      109.471585
 51
      250.528418
  0
LINE
  8
LVL0000
 62
  3
 10
      112.683472
 20
      114.012367
 30
        0.000000
 11
      110.683472
 21
      114.012367
 31
        0.000000
  0
LINE
  8
LVL0000
 62
  3
 10
      112.683472
 20
      121.212318
 30
        0.000000
 11
      110.683472
 21
      121.212318
 31
        0.000000
  0
LINE
  8
LVL0000
 62
  3
 10
      116.683472
 20
      114.012367
 30
        0.000000
 11
      114.683472
 21
      114.012367
 31
        0.000000
  0
LINE
  8
LVL0000
 62
  3
 10
      116.683472
 20
      121.212318
 30
        0.000000
 11
      114.683472
 21
      121.212318
 31
        0.000000
  0
LINE
  8
LVL0000
 62
  3
 10
      120.683472
 20
      114.012367
 30
        0.000000
 11
      118.683472
 21
      114.012367
 31
        0.000000
  0
LINE
  8
LVL0000
 62
  3
 10
      120.683472
 20
      121.212318
 30
        0.000000
 11
      118.683472
 21
      121.212318
 31
        0.000000
  0
LINE
  8
LVL0000
 62
  3
 10
      124.683472
 20
      114.012367
 30
        0.000000
 11
      122.683472
 21
      114.012367
 31
        0.000000
  0
LINE
  8
LVL0000
 62
  3
 10
      124.683472
 20
      121.212318
 30
        0.000000
 11
      122.683472
 21
      121.212318
 31
        0.000000
  0
LINE
  8
LVL0000
 62
  3
 10
      128.683472
 20
      114.012367
 30
        0.000000
 11
      126.683472
 21
      114.012367
 31
        0.000000
  0
LINE
  8
LVL0000
 62
  3
 10
      128.683472
 20
      121.212318
 30
        0.000000
 11
      126.683472
 21
      121.212318
 31
        0.000000
  0
LINE
  8
LVL0000
 62
  3
 10
      132.683472
 20
      114.012367
 30
        0.000000
 11
      130.683472
 21
      114.012367
 31
        0.000000
  0
LINE
  8
LVL0000
 62
  3
 10
      132.683472
 20
      121.212318
 30
        0.000000
 11
      130.683472
 21
      121.212318
 31
        0.000000
  0
LINE
  8
LVL0000
 62
  3
 10
      136.683472
 20
      114.012367
 30
        0.000000
 11
      134.683472
 21
      114.012367
 31
        0.000000
  0
LINE
  8
LVL0000
 62
  3
 10
      136.683472
 20
      121.212318
 30
        0.000000
 11
      134.683472
 21
      121.212318
 31
        0.000000
  0
LINE
  8
LVL0000
 62
  3
 10
      140.683472
 20
      114.012367
 30
        0.000000
 11
      138.683472
 21
      114.012367
 31
        0.000000
  0
LINE
  8
LVL0000
 62
  3
 10
      140.683472
 20
      121.212318
 30
        0.000000
 11
      138.683472
 21
      121.212318
 31
        0.000000
  0
LINE
  8
LVL0000
 62
  3
 10
      144.683472
 20
      114.012367
 30
        0.000000
 11
      142.683472
 21
      114.012367
 31
        0.000000
  0
LINE
  8
LVL0000
 62
  3
 10
      144.683472
 20
      121.212318
 30
        0.000000
 11
      142.683472
 21
      121.212318
 31
        0.000000
  0
LINE
  8
LVL0000
 62
  3
 10
      148.683472
 20
      114.012367
 30
        0.000000
 11
      146.683472
 21
      114.012367
 31
        0.000000
  0
LINE
  8
LVL0000
 62
  3
 10
      148.683472
 20
      121.212318
 30
        0.000000
 11
      146.683472
 21
      121.212318
 31
        0.000000
  0
LINE
  8
LVL0000
 62
  3
 10
      148.683472
 20
      100.112343
 30
        0.000000
 11
      148.683472
 21
      114.343483
 31
        0.000000
  0
LINE
  8
LVL0000
 62
  3
 10
      148.683472
 20
      120.881203
 30
        0.000000
 11
      148.683472
 21
      135.112343
 31
        0.000000
  0
LINE
  8
LVL0000
 62
  3
 10
      150.683472
 20
      103.112343
 30
        0.000000
 11
      148.683472
 21
      103.112343
 31
        0.000000
  0
LINE
  8
LVL0000
 62
  3
 10
      150.683472
 20
      132.112343
 30
        0.000000
 11
      148.683472
 21
      132.112343
 31
        0.000000
  0
LINE
  8
LVL0000
 62
  3
 10
      146.683472
 20
      103.112343
 30
        0.000000
 11
      144.683472
 21
      103.112343
 31
        0.000000
  0
LINE
  8
LVL0000
 62
  3
 10
      146.683472
 20
      132.112343
 30
        0.000000
 11
      144.683472
 21
      132.112343
 31
        0.000000
  0
LINE
  8
LVL0000
 62
  3
 10
      146.683472
 20
      100.112343
 30
        0.000000
 11
      146.683472
 21
      135.112343
 31
        0.000000
  0
LINE
  8
LVL0000
 62
  3
 10
      144.683472
 20
      100.112343
 30
        0.000000
 11
      144.683472
 21
      135.112343
 31
        0.000000
  0
LINE
  8
LVL0000
 62
  3
 10
      142.683472
 20
      103.112343
 30
        0.000000
 11
      140.683472
 21
      103.112343
 31
        0.000000
  0
LINE
  8
LVL0000
 62
  3
 10
      142.683472
 20
      132.112343
 30
        0.000000
 11
      140.683472
 21
      132.112343
 31
        0.000000
  0
LINE
  8
LVL0000
 62
  3
 10
      142.683472
 20
      100.112343
 30
        0.000000
 11
      142.683472
 21
      135.112343
 31
        0.000000
  0
LINE
  8
LVL0000
 62
  3
 10
      140.683472
 20
      100.112343
 30
        0.000000
 11
      140.683472
 21
      135.112343
 31
        0.000000
  0
LINE
  8
LVL0000
 62
  3
 10
      138.683472
 20
      103.112343
 30
        0.000000
 11
      136.683472
 21
      103.112343
 31
        0.000000
  0
LINE
  8
LVL0000
 62
  3
 10
      138.683472
 20
      132.112343
 30
        0.000000
 11
      136.683472
 21
      132.112343
 31
        0.000000
  0
LINE
  8
LVL0000
 62
  3
 10
      138.683472
 20
      100.112343
 30
        0.000000
 11
      138.683472
 21
      135.112343
 31
        0.000000
  0
LINE
  8
LVL0000
 62
  3
 10
      136.683472
 20
      100.112343
 30
        0.000000
 11
      136.683472
 21
      135.112343
 31
        0.000000
  0
LINE
  8
LVL0000
 62
  3
 10
      134.683472
 20
      103.112343
 30
        0.000000
 11
      132.683472
 21
      103.112343
 31
        0.000000
  0
LINE
  8
LVL0000
 62
  3
 10
      134.683472
 20
      132.112343
 30
        0.000000
 11
      132.683472
 21
      132.112343
 31
        0.000000
  0
LINE
  8
LVL0000
 62
  3
 10
      134.683472
 20
      100.112343
 30
        0.000000
 11
      134.683472
 21
      135.112343
 31
        0.000000
  0
LINE
  8
LVL0000
 62
  3
 10
      132.683472
 20
      100.112343
 30
        0.000000
 11
      132.683472
 21
      135.112343
 31
        0.000000
  0
LINE
  8
LVL0000
 62
  3
 10
      130.683472
 20
      103.112343
 30
        0.000000
 11
      128.683472
 21
      103.112343
 31
        0.000000
  0
LINE
  8
LVL0000
 62
  3
 10
      130.683472
 20
      132.112343
 30
        0.000000
 11
      128.683472
 21
      132.112343
 31
        0.000000
  0
LINE
  8
LVL0000
 62
  3
 10
      130.683472
 20
      100.112343
 30
        0.000000
 11
      130.683472
 21
      135.112343
 31
        0.000000
  0
LINE
  8
LVL0000
 62
  3
 10
      128.683472
 20
      100.112343
 30
        0.000000
 11
      128.683472
 21
      135.112343
 31
        0.000000
  0
LINE
  8
LVL0000
 62
  3
 10
      126.683472
 20
      103.112343
 30
        0.000000
 11
      124.683472
 21
      103.112343
 31
        0.000000
  0
LINE
  8
LVL0000
 62
  3
 10
      126.683472
 20
      132.112343
 30
        0.000000
 11
      124.683472
 21
      132.112343
 31
        0.000000
  0
LINE
  8
LVL0000
 62
  3
 10
      126.683472
 20
      100.112343
 30
        0.000000
 11
      126.683472
 21
      135.112343
 31
        0.000000
  0
LINE
  8
LVL0000
 62
  3
 10
      124.683472
 20
      100.112343
 30
        0.000000
 11
      124.683472
 21
      135.112343
 31
        0.000000
  0
LINE
  8
LVL0000
 62
  3
 10
      122.683472
 20
      103.112343
 30
        0.000000
 11
      120.683472
 21
      103.112343
 31
        0.000000
  0
LINE
  8
LVL0000
 62
  3
 10
      122.683472
 20
      132.112343
 30
        0.000000
 11
      120.683472
 21
      132.112343
 31
        0.000000
  0
LINE
  8
LVL0000
 62
  3
 10
      122.683472
 20
      100.112343
 30
        0.000000
 11
      122.683472
 21
      135.112343
 31
        0.000000
  0
LINE
  8
LVL0000
 62
  3
 10
      120.683472
 20
      100.112343
 30
        0.000000
 11
      120.683472
 21
      135.112343
 31
        0.000000
  0
LINE
  8
LVL0000
 62
  3
 10
      118.683472
 20
      103.112343
 30
        0.000000
 11
      116.683472
 21
      103.112343
 31
        0.000000
  0
LINE
  8
LVL0000
 62
  3
 10
      118.683472
 20
      132.112343
 30
        0.000000
 11
      116.683472
 21
      132.112343
 31
        0.000000
  0
LINE
  8
LVL0000
 62
  3
 10
      118.683472
 20
      100.112343
 30
        0.000000
 11
      118.683472
 21
      135.112343
 31
        0.000000
  0
LINE
  8
LVL0000
 62
  3
 10
      116.683472
 20
      100.112343
 30
        0.000000
 11
      116.683472
 21
      135.112343
 31
        0.000000
  0
LINE
  8
LVL0000
 62
  3
 10
      114.683472
 20
      103.112343
 30
        0.000000
 11
      112.683472
 21
      103.112343
 31
        0.000000
  0
LINE
  8
LVL0000
 62
  3
 10
      114.683472
 20
      132.112343
 30
        0.000000
 11
      112.683472
 21
      132.112343
 31
        0.000000
  0
LINE
  8
LVL0000
 62
  3
 10
      114.683472
 20
      100.112343
 30
        0.000000
 11
      114.683472
 21
      135.112343
 31
        0.000000
  0
LINE
  8
LVL0000
 62
  3
 10
      112.683472
 20
      100.112343
 30
        0.000000
 11
      112.683472
 21
      135.112343
 31
        0.000000
  0
LINE
  8
LVL0000
 62
  3
 10
      110.683472
 20
      103.112343
 30
        0.000000
 11
      108.683472
 21
      103.112343
 31
        0.000000
  0
LINE
  8
LVL0000
 62
  3
 10
      110.683472
 20
      132.112343
 30
        0.000000
 11
      108.683472
 21
      132.112343
 31
        0.000000
  0
LINE
  8
LVL0000
 62
  3
 10
      110.683472
 20
      100.112343
 30
        0.000000
 11
      110.683472
 21
      135.112343
 31
        0.000000
  0
LINE
  8
LVL0000
 62
  3
 10
      108.683472
 20
      100.112343
 30
        0.000000
 11
      108.683472
 21
      135.112343
 31
        0.000000
  0
LINE
  8
LVL0000
 62
  3
 10
      106.683472
 20
      103.112343
 30
        0.000000
 11
      104.683472
 21
      103.112343
 31
        0.000000
  0
LINE
  8
LVL0000
 62
  3
 10
      106.683472
 20
      132.112343
 30
        0.000000
 11
      104.683472
 21
      132.112343
 31
        0.000000
  0
LINE
  8
LVL0000
 62
  3
 10
      106.683472
 20
      100.112343
 30
        0.000000
 11
      106.683472
 21
      135.112343
 31
        0.000000
  0
LINE
  8
LVL0000
 62
  3
 10
      104.683472
 20
      100.112343
 30
        0.000000
 11
      104.683472
 21
      135.112343
 31
        0.000000
  0
LINE
  8
LVL0000
 62
  3
 10
      102.683472
 20
      103.112343
 30
        0.000000
 11
      100.683472
 21
      103.112343
 31
        0.000000
  0
LINE
  8
LVL0000
 62
  3
 10
      102.683472
 20
      132.112343
 30
        0.000000
 11
      100.683472
 21
      132.112343
 31
        0.000000
  0
LINE
  8
LVL0000
 62
  3
 10
      102.683472
 20
      100.112343
 30
        0.000000
 11
      102.683472
 21
      135.112343
 31
        0.000000
  0
LINE
  8
LVL0000
 62
  3
 10
      100.683472
 20
      100.112343
 30
        0.000000
 11
      100.683472
 21
      135.112343
 31
        0.000000
  0
LINE
  8
LVL0000
 62
  3
 10
      147.983521
 20
      119.612343
 30
        0.000000
 11
      147.983521
 21
      115.612343
 31
        0.000000
  0
LINE
  8
LVL0000
 62
  3
 10
      150.683472
 20
      114.112343
 30
        0.000000
 11
      149.483521
 21
      114.112343
 31
        0.000000
  0
ARC
  8
LVL0000
 62
  3
 10
      149.483521
 20
      115.612343
 30
        0.000000
 40
        1.500000
 50
      180.000010
 51
      270.000000
  0
ARC
  8
LVL0000
 62
  3
 10
      149.483521
 20
      119.612343
 30
        0.000000
 40
        1.500000
 50
       90.000000
 51
      180.000010
  0
LINE
  8
LVL0000
 62
  3
 10
      150.683472
 20
      121.112343
 30
        0.000000
 11
      149.483521
 21
      121.112343
 31
        0.000000
  0
LINE
  8
LVL0000
 62
  3
 10
      150.683472
 20
      135.112343
 30
        0.000000
 11
      150.683472
 21
      100.112343
 31
        0.000000
  0
LINE
  8
LVL0000
 62
  3
 10
       98.683472
 20
      103.112343
 30
        0.000000
 11
       96.683472
 21
      103.112343
 31
        0.000000
  0
LINE
  8
LVL0000
 62
  3
 10
       98.683472
 20
      132.112343
 30
        0.000000
 11
       96.683472
 21
      132.112343
 31
        0.000000
  0
LINE
  8
LVL0000
 62
  3
 10
       98.683472
 20
      100.112343
 30
        0.000000
 11
       98.683472
 21
      135.112343
 31
        0.000000
  0
LINE
  8
LVL0000
 62
  3
 10
       96.683472
 20
      100.112343
 30
        0.000000
 11
       96.683472
 21
      135.112343
 31
        0.000000
  0
LINE
  8
LVL0000
 62
  3
 10
       89.683472
 20
      100.112343
 30
        0.000000
 11
       89.683472
 21
      135.112343
 31
        0.000000
  0
LINE
  8
LVL0000
 62
  3
 10
      160.083496
 20
      135.112343
 30
        0.000000
 11
      160.083496
 21
      100.112343
 31
        0.000000
  0
LINE
  8
LVL0000
 62
  3
 10
      -11.500488
 20
       33.400444
 30
        0.000000
 11
      -11.500488
 21
       30.200493
 31
        0.000000
  0
LINE
  8
LVL0000
 62
  3
 10
       -9.900391
 20
       33.400444
 30
        0.000000
 11
       -9.900391
 21
       30.200493
 31
        0.000000
  0
LINE
  8
LVL0000
 62
  3
 10
      -11.500488
 20
       33.400444
 30
        0.000000
 11
       -9.900391
 21
       33.400444
 31
        0.000000
  0
LINE
  8
LVL0000
 62
  3
 10
      -11.500488
 20
       30.200493
 30
        0.000000
 11
       -9.900391
 21
       30.200493
 31
        0.000000
  0
LINE
  8
LVL0000
 62
  3
 10
       -8.800293
 20
       33.400444
 30
        0.000000
 11
       -8.800293
 21
       30.200493
 31
        0.000000
  0
LINE
  8
LVL0000
 62
  3
 10
       -7.200439
 20
       33.400444
 30
        0.000000
 11
       -7.200439
 21
       30.200493
 31
        0.000000
  0
LINE
  8
LVL0000
 62
  3
 10
       -8.800293
 20
       33.400444
 30
        0.000000
 11
       -7.200439
 21
       33.400444
 31
        0.000000
  0
LINE
  8
LVL0000
 62
  3
 10
       -8.800293
 20
       30.200493
 30
        0.000000
 11
       -7.200439
 21
       30.200493
 31
        0.000000
  0
LINE
  8
LVL0000
 62
  3
 10
       -6.100342
 20
       33.400444
 30
        0.000000
 11
       -6.100342
 21
       30.200493
 31
        0.000000
  0
LINE
  8
LVL0000
 62
  3
 10
       -4.500488
 20
       33.400444
 30
        0.000000
 11
       -4.500488
 21
       30.200493
 31
        0.000000
  0
LINE
  8
LVL0000
 62
  3
 10
       -6.100342
 20
       33.400444
 30
        0.000000
 11
       -4.500488
 21
       33.400444
 31
        0.000000
  0
LINE
  8
LVL0000
 62
  3
 10
       -6.100342
 20
       30.200493
 30
        0.000000
 11
       -4.500488
 21
       30.200493
 31
        0.000000
  0
LINE
  8
LVL0000
 62
  3
 10
       -3.400391
 20
       33.400444
 30
        0.000000
 11
       -3.400391
 21
       30.200493
 31
        0.000000
  0
LINE
  8
LVL0000
 62
  3
 10
       -1.800293
 20
       33.400444
 30
        0.000000
 11
       -1.800293
 21
       30.200493
 31
        0.000000
  0
LINE
  8
LVL0000
 62
  3
 10
       -3.400391
 20
       33.400444
 30
        0.000000
 11
       -1.800293
 21
       33.400444
 31
        0.000000
  0
LINE
  8
LVL0000
 62
  3
 10
       -3.400391
 20
       30.200493
 30
        0.000000
 11
       -1.800293
 21
       30.200493
 31
        0.000000
  0
LINE
  8
LVL0000
 62
  3
 10
       -0.700439
 20
       33.400444
 30
        0.000000
 11
       -0.700439
 21
       30.200493
 31
        0.000000
  0
LINE
  8
LVL0000
 62
  3
 10
        0.899658
 20
       33.400444
 30
        0.000000
 11
        0.899658
 21
       30.200493
 31
        0.000000
  0
LINE
  8
LVL0000
 62
  3
 10
       -0.700439
 20
       33.400444
 30
        0.000000
 11
        0.899658
 21
       33.400444
 31
        0.000000
  0
LINE
  8
LVL0000
 62
  3
 10
       -0.700439
 20
       30.200493
 30
        0.000000
 11
        0.899658
 21
       30.200493
 31
        0.000000
  0
LINE
  8
LVL0000
 62
  3
 10
        1.999512
 20
       33.400444
 30
        0.000000
 11
        1.999512
 21
       30.200493
 31
        0.000000
  0
LINE
  8
LVL0000
 62
  3
 10
        3.599609
 20
       33.400444
 30
        0.000000
 11
        3.599609
 21
       30.200493
 31
        0.000000
  0
LINE
  8
LVL0000
 62
  3
 10
        1.999512
 20
       33.400444
 30
        0.000000
 11
        3.599609
 21
       33.400444
 31
        0.000000
  0
LINE
  8
LVL0000
 62
  3
 10
        1.999512
 20
       30.200493
 30
        0.000000
 11
        3.599609
 21
       30.200493
 31
        0.000000
  0
LINE
  8
LVL0000
 62
  3
 10
        4.699707
 20
       33.400444
 30
        0.000000
 11
        4.699707
 21
       30.200493
 31
        0.000000
  0
LINE
  8
LVL0000
 62
  3
 10
        6.299561
 20
       33.400444
 30
        0.000000
 11
        6.299561
 21
       30.200493
 31
        0.000000
  0
LINE
  8
LVL0000
 62
  3
 10
        4.699707
 20
       33.400444
 30
        0.000000
 11
        6.299561
 21
       33.400444
 31
        0.000000
  0
LINE
  8
LVL0000
 62
  3
 10
        4.699707
 20
       30.200493
 30
        0.000000
 11
        6.299561
 21
       30.200493
 31
        0.000000
  0
LINE
  8
LVL0000
 62
  3
 10
        7.399658
 20
       33.400444
 30
        0.000000
 11
        7.399658
 21
       30.200493
 31
        0.000000
  0
LINE
  8
LVL0000
 62
  3
 10
        8.999512
 20
       33.400444
 30
        0.000000
 11
        8.999512
 21
       30.200493
 31
        0.000000
  0
LINE
  8
LVL0000
 62
  3
 10
        7.399658
 20
       33.400444
 30
        0.000000
 11
        8.999512
 21
       33.400444
 31
        0.000000
  0
LINE
  8
LVL0000
 62
  3
 10
        7.399658
 20
       30.200493
 30
        0.000000
 11
        8.999512
 21
       30.200493
 31
        0.000000
  0
LINE
  8
LVL0000
 62
  3
 10
      -11.500488
 20
       40.400398
 30
        0.000000
 11
      -11.500488
 21
       37.200447
 31
        0.000000
  0
LINE
  8
LVL0000
 62
  3
 10
       -9.900391
 20
       40.400398
 30
        0.000000
 11
       -9.900391
 21
       37.200447
 31
        0.000000
  0
LINE
  8
LVL0000
 62
  3
 10
      -11.500488
 20
       37.200447
 30
        0.000000
 11
       -9.900391
 21
       37.200447
 31
        0.000000
  0
LINE
  8
LVL0000
 62
  3
 10
      -11.500488
 20
       40.400398
 30
        0.000000
 11
       -9.900391
 21
       40.400398
 31
        0.000000
  0
LINE
  8
LVL0000
 62
  3
 10
       -8.800293
 20
       40.400398
 30
        0.000000
 11
       -8.800293
 21
       37.200447
 31
        0.000000
  0
LINE
  8
LVL0000
 62
  3
 10
       -7.200439
 20
       40.400398
 30
        0.000000
 11
       -7.200439
 21
       37.200447
 31
        0.000000
  0
LINE
  8
LVL0000
 62
  3
 10
       -8.800293
 20
       37.200447
 30
        0.000000
 11
       -7.200439
 21
       37.200447
 31
        0.000000
  0
LINE
  8
LVL0000
 62
  3
 10
       -8.800293
 20
       40.400398
 30
        0.000000
 11
       -7.200439
 21
       40.400398
 31
        0.000000
  0
LINE
  8
LVL0000
 62
  3
 10
       -6.100342
 20
       40.400398
 30
        0.000000
 11
       -6.100342
 21
       37.200447
 31
        0.000000
  0
LINE
  8
LVL0000
 62
  3
 10
       -4.500488
 20
       40.400398
 30
        0.000000
 11
       -4.500488
 21
       37.200447
 31
        0.000000
  0
LINE
  8
LVL0000
 62
  3
 10
       -6.100342
 20
       37.200447
 30
        0.000000
 11
       -4.500488
 21
       37.200447
 31
        0.000000
  0
LINE
  8
LVL0000
 62
  3
 10
       -6.100342
 20
       40.400398
 30
        0.000000
 11
       -4.500488
 21
       40.400398
 31
        0.000000
  0
LINE
  8
LVL0000
 62
  3
 10
       -3.400391
 20
       40.400398
 30
        0.000000
 11
       -3.400391
 21
       37.200447
 31
        0.000000
  0
LINE
  8
LVL0000
 62
  3
 10
       -1.800293
 20
       40.400398
 30
        0.000000
 11
       -1.800293
 21
       37.200447
 31
        0.000000
  0
LINE
  8
LVL0000
 62
  3
 10
       -3.400391
 20
       37.200447
 30
        0.000000
 11
       -1.800293
 21
       37.200447
 31
        0.000000
  0
LINE
  8
LVL0000
 62
  3
 10
       -3.400391
 20
       40.400398
 30
        0.000000
 11
       -1.800293
 21
       40.400398
 31
        0.000000
  0
LINE
  8
LVL0000
 62
  3
 10
       -0.700439
 20
       40.400398
 30
        0.000000
 11
       -0.700439
 21
       37.200447
 31
        0.000000
  0
LINE
  8
LVL0000
 62
  3
 10
        0.899658
 20
       40.400398
 30
        0.000000
 11
        0.899658
 21
       37.200447
 31
        0.000000
  0
LINE
  8
LVL0000
 62
  3
 10
       -0.700439
 20
       37.200447
 30
        0.000000
 11
        0.899658
 21
       37.200447
 31
        0.000000
  0
LINE
  8
LVL0000
 62
  3
 10
       -0.700439
 20
       40.400398
 30
        0.000000
 11
        0.899658
 21
       40.400398
 31
        0.000000
  0
LINE
  8
LVL0000
 62
  3
 10
        1.999512
 20
       40.400398
 30
        0.000000
 11
        1.999512
 21
       37.200447
 31
        0.000000
  0
LINE
  8
LVL0000
 62
  3
 10
        3.599609
 20
       40.400398
 30
        0.000000
 11
        3.599609
 21
       37.200447
 31
        0.000000
  0
LINE
  8
LVL0000
 62
  3
 10
        1.999512
 20
       37.200447
 30
        0.000000
 11
        3.599609
 21
       37.200447
 31
        0.000000
  0
LINE
  8
LVL0000
 62
  3
 10
        1.999512
 20
       40.400398
 30
        0.000000
 11
        3.599609
 21
       40.400398
 31
        0.000000
  0
LINE
  8
LVL0000
 62
  3
 10
        4.699707
 20
       40.400398
 30
        0.000000
 11
        4.699707
 21
       37.200447
 31
        0.000000
  0
LINE
  8
LVL0000
 62
  3
 10
        6.299561
 20
       40.400398
 30
        0.000000
 11
        6.299561
 21
       37.200447
 31
        0.000000
  0
LINE
  8
LVL0000
 62
  3
 10
        4.699707
 20
       37.200447
 30
        0.000000
 11
        6.299561
 21
       37.200447
 31
        0.000000
  0
LINE
  8
LVL0000
 62
  3
 10
        4.699707
 20
       40.400398
 30
        0.000000
 11
        6.299561
 21
       40.400398
 31
        0.000000
  0
LINE
  8
LVL0000
 62
  3
 10
        7.399658
 20
       40.400398
 30
        0.000000
 11
        7.399658
 21
       37.200447
 31
        0.000000
  0
LINE
  8
LVL0000
 62
  3
 10
        8.999512
 20
       40.400398
 30
        0.000000
 11
        8.999512
 21
       37.200447
 31
        0.000000
  0
LINE
  8
LVL0000
 62
  3
 10
        7.399658
 20
       37.200447
 30
        0.000000
 11
        8.999512
 21
       37.200447
 31
        0.000000
  0
LINE
  8
LVL0000
 62
  3
 10
        7.399658
 20
       40.400398
 30
        0.000000
 11
        8.999512
 21
       40.400398
 31
        0.000000
  0
LINE
  8
LVL0000
 62
  3
 10
      -11.500488
 20
       47.400444
 30
        0.000000
 11
      -11.500488
 21
       44.200493
 31
        0.000000
  0
LINE
  8
LVL0000
 62
  3
 10
       -9.900391
 20
       47.400444
 30
        0.000000
 11
       -9.900391
 21
       44.200493
 31
        0.000000
  0
LINE
  8
LVL0000
 62
  3
 10
      -11.500488
 20
       47.400444
 30
        0.000000
 11
       -9.900391
 21
       47.400444
 31
        0.000000
  0
LINE
  8
LVL0000
 62
  3
 10
      -11.500488
 20
       44.200493
 30
        0.000000
 11
       -9.900391
 21
       44.200493
 31
        0.000000
  0
LINE
  8
LVL0000
 62
  3
 10
       -8.800293
 20
       47.400444
 30
        0.000000
 11
       -8.800293
 21
       44.200493
 31
        0.000000
  0
LINE
  8
LVL0000
 62
  3
 10
       -7.200439
 20
       47.400444
 30
        0.000000
 11
       -7.200439
 21
       44.200493
 31
        0.000000
  0
LINE
  8
LVL0000
 62
  3
 10
       -8.800293
 20
       47.400444
 30
        0.000000
 11
       -7.200439
 21
       47.400444
 31
        0.000000
  0
LINE
  8
LVL0000
 62
  3
 10
       -8.800293
 20
       44.200493
 30
        0.000000
 11
       -7.200439
 21
       44.200493
 31
        0.000000
  0
LINE
  8
LVL0000
 62
  3
 10
       -6.100342
 20
       47.400444
 30
        0.000000
 11
       -6.100342
 21
       44.200493
 31
        0.000000
  0
LINE
  8
LVL0000
 62
  3
 10
       -4.500488
 20
       47.400444
 30
        0.000000
 11
       -4.500488
 21
       44.200493
 31
        0.000000
  0
LINE
  8
LVL0000
 62
  3
 10
       -6.100342
 20
       47.400444
 30
        0.000000
 11
       -4.500488
 21
       47.400444
 31
        0.000000
  0
LINE
  8
LVL0000
 62
  3
 10
       -6.100342
 20
       44.200493
 30
        0.000000
 11
       -4.500488
 21
       44.200493
 31
        0.000000
  0
LINE
  8
LVL0000
 62
  3
 10
       -3.400391
 20
       47.400444
 30
        0.000000
 11
       -3.400391
 21
       44.200493
 31
        0.000000
  0
LINE
  8
LVL0000
 62
  3
 10
       -1.800293
 20
       47.400444
 30
        0.000000
 11
       -1.800293
 21
       44.200493
 31
        0.000000
  0
LINE
  8
LVL0000
 62
  3
 10
       -3.400391
 20
       47.400444
 30
        0.000000
 11
       -1.800293
 21
       47.400444
 31
        0.000000
  0
LINE
  8
LVL0000
 62
  3
 10
       -3.400391
 20
       44.200493
 30
        0.000000
 11
       -1.800293
 21
       44.200493
 31
        0.000000
  0
LINE
  8
LVL0000
 62
  3
 10
       -0.700439
 20
       47.400444
 30
        0.000000
 11
       -0.700439
 21
       44.200493
 31
        0.000000
  0
LINE
  8
LVL0000
 62
  3
 10
        0.899658
 20
       47.400444
 30
        0.000000
 11
        0.899658
 21
       44.200493
 31
        0.000000
  0
LINE
  8
LVL0000
 62
  3
 10
       -0.700439
 20
       47.400444
 30
        0.000000
 11
        0.899658
 21
       47.400444
 31
        0.000000
  0
LINE
  8
LVL0000
 62
  3
 10
       -0.700439
 20
       44.200493
 30
        0.000000
 11
        0.899658
 21
       44.200493
 31
        0.000000
  0
LINE
  8
LVL0000
 62
  3
 10
        1.999512
 20
       47.400444
 30
        0.000000
 11
        1.999512
 21
       44.200493
 31
        0.000000
  0
LINE
  8
LVL0000
 62
  3
 10
        3.599609
 20
       47.400444
 30
        0.000000
 11
        3.599609
 21
       44.200493
 31
        0.000000
  0
LINE
  8
LVL0000
 62
  3
 10
        1.999512
 20
       47.400444
 30
        0.000000
 11
        3.599609
 21
       47.400444
 31
        0.000000
  0
LINE
  8
LVL0000
 62
  3
 10
        1.999512
 20
       44.200493
 30
        0.000000
 11
        3.599609
 21
       44.200493
 31
        0.000000
  0
LINE
  8
LVL0000
 62
  3
 10
        4.699707
 20
       47.400444
 30
        0.000000
 11
        4.699707
 21
       44.200493
 31
        0.000000
  0
LINE
  8
LVL0000
 62
  3
 10
        6.299561
 20
       47.400444
 30
        0.000000
 11
        6.299561
 21
       44.200493
 31
        0.000000
  0
LINE
  8
LVL0000
 62
  3
 10
        4.699707
 20
       47.400444
 30
        0.000000
 11
        6.299561
 21
       47.400444
 31
        0.000000
  0
LINE
  8
LVL0000
 62
  3
 10
        4.699707
 20
       44.200493
 30
        0.000000
 11
        6.299561
 21
       44.200493
 31
        0.000000
  0
LINE
  8
LVL0000
 62
  3
 10
        7.399658
 20
       47.400444
 30
        0.000000
 11
        7.399658
 21
       44.200493
 31
        0.000000
  0
LINE
  8
LVL0000
 62
  3
 10
        8.999512
 20
       47.400444
 30
        0.000000
 11
        8.999512
 21
       44.200493
 31
        0.000000
  0
LINE
  8
LVL0000
 62
  3
 10
        7.399658
 20
       47.400444
 30
        0.000000
 11
        8.999512
 21
       47.400444
 31
        0.000000
  0
LINE
  8
LVL0000
 62
  3
 10
        7.399658
 20
       44.200493
 30
        0.000000
 11
        8.999512
 21
       44.200493
 31
        0.000000
  0
LINE
  8
LVL0000
 62
  3
 10
      -11.500488
 20
       54.400398
 30
        0.000000
 11
      -11.500488
 21
       51.200447
 31
        0.000000
  0
LINE
  8
LVL0000
 62
  3
 10
       -9.900391
 20
       54.400398
 30
        0.000000
 11
       -9.900391
 21
       51.200447
 31
        0.000000
  0
LINE
  8
LVL0000
 62
  3
 10
      -11.500488
 20
       51.200447
 30
        0.000000
 11
       -9.900391
 21
       51.200447
 31
        0.000000
  0
LINE
  8
LVL0000
 62
  3
 10
      -11.500488
 20
       54.400398
 30
        0.000000
 11
       -9.900391
 21
       54.400398
 31
        0.000000
  0
LINE
  8
LVL0000
 62
  3
 10
       -8.800293
 20
       54.400398
 30
        0.000000
 11
       -8.800293
 21
       51.200447
 31
        0.000000
  0
LINE
  8
LVL0000
 62
  3
 10
       -7.200439
 20
       54.400398
 30
        0.000000
 11
       -7.200439
 21
       51.200447
 31
        0.000000
  0
LINE
  8
LVL0000
 62
  3
 10
       -8.800293
 20
       51.200447
 30
        0.000000
 11
       -7.200439
 21
       51.200447
 31
        0.000000
  0
LINE
  8
LVL0000
 62
  3
 10
       -8.800293
 20
       54.400398
 30
        0.000000
 11
       -7.200439
 21
       54.400398
 31
        0.000000
  0
LINE
  8
LVL0000
 62
  3
 10
       -6.100342
 20
       54.400398
 30
        0.000000
 11
       -6.100342
 21
       51.200447
 31
        0.000000
  0
LINE
  8
LVL0000
 62
  3
 10
       -4.500488
 20
       54.400398
 30
        0.000000
 11
       -4.500488
 21
       51.200447
 31
        0.000000
  0
LINE
  8
LVL0000
 62
  3
 10
       -6.100342
 20
       51.200447
 30
        0.000000
 11
       -4.500488
 21
       51.200447
 31
        0.000000
  0
LINE
  8
LVL0000
 62
  3
 10
       -6.100342
 20
       54.400398
 30
        0.000000
 11
       -4.500488
 21
       54.400398
 31
        0.000000
  0
LINE
  8
LVL0000
 62
  3
 10
       -3.400391
 20
       54.400398
 30
        0.000000
 11
       -3.400391
 21
       51.200447
 31
        0.000000
  0
LINE
  8
LVL0000
 62
  3
 10
       -1.800293
 20
       54.400398
 30
        0.000000
 11
       -1.800293
 21
       51.200447
 31
        0.000000
  0
LINE
  8
LVL0000
 62
  3
 10
       -3.400391
 20
       51.200447
 30
        0.000000
 11
       -1.800293
 21
       51.200447
 31
        0.000000
  0
LINE
  8
LVL0000
 62
  3
 10
       -3.400391
 20
       54.400398
 30
        0.000000
 11
       -1.800293
 21
       54.400398
 31
        0.000000
  0
LINE
  8
LVL0000
 62
  3
 10
       -0.700439
 20
       54.400398
 30
        0.000000
 11
       -0.700439
 21
       51.200447
 31
        0.000000
  0
LINE
  8
LVL0000
 62
  3
 10
        0.899658
 20
       54.400398
 30
        0.000000
 11
        0.899658
 21
       51.200447
 31
        0.000000
  0
LINE
  8
LVL0000
 62
  3
 10
       -0.700439
 20
       51.200447
 30
        0.000000
 11
        0.899658
 21
       51.200447
 31
        0.000000
  0
LINE
  8
LVL0000
 62
  3
 10
       -0.700439
 20
       54.400398
 30
        0.000000
 11
        0.899658
 21
       54.400398
 31
        0.000000
  0
LINE
  8
LVL0000
 62
  3
 10
        1.999512
 20
       54.400398
 30
        0.000000
 11
        1.999512
 21
       51.200447
 31
        0.000000
  0
LINE
  8
LVL0000
 62
  3
 10
        3.599609
 20
       54.400398
 30
        0.000000
 11
        3.599609
 21
       51.200447
 31
        0.000000
  0
LINE
  8
LVL0000
 62
  3
 10
        1.999512
 20
       51.200447
 30
        0.000000
 11
        3.599609
 21
       51.200447
 31
        0.000000
  0
LINE
  8
LVL0000
 62
  3
 10
        1.999512
 20
       54.400398
 30
        0.000000
 11
        3.599609
 21
       54.400398
 31
        0.000000
  0
LINE
  8
LVL0000
 62
  3
 10
        4.699707
 20
       54.400398
 30
        0.000000
 11
        4.699707
 21
       51.200447
 31
        0.000000
  0
LINE
  8
LVL0000
 62
  3
 10
        6.299561
 20
       54.400398
 30
        0.000000
 11
        6.299561
 21
       51.200447
 31
        0.000000
  0
LINE
  8
LVL0000
 62
  3
 10
        4.699707
 20
       51.200447
 30
        0.000000
 11
        6.299561
 21
       51.200447
 31
        0.000000
  0
LINE
  8
LVL0000
 62
  3
 10
        4.699707
 20
       54.400398
 30
        0.000000
 11
        6.299561
 21
       54.400398
 31
        0.000000
  0
LINE
  8
LVL0000
 62
  3
 10
        7.399658
 20
       54.400398
 30
        0.000000
 11
        7.399658
 21
       51.200447
 31
        0.000000
  0
LINE
  8
LVL0000
 62
  3
 10
        8.999512
 20
       54.400398
 30
        0.000000
 11
        8.999512
 21
       51.200447
 31
        0.000000
  0
LINE
  8
LVL0000
 62
  3
 10
        7.399658
 20
       51.200447
 30
        0.000000
 11
        8.999512
 21
       51.200447
 31
        0.000000
  0
LINE
  8
LVL0000
 62
  3
 10
        7.399658
 20
       54.400398
 30
        0.000000
 11
        8.999512
 21
       54.400398
 31
        0.000000
  0
LINE
  8
LVL0000
 62
  3
 10
        3.804993
 20
      -43.980034
 30
        0.000000
 11
        3.404968
 21
      -43.980034
 31
        0.000000
  0
LINE
  8
LVL0000
 62
  3
 10
        3.804993
 20
      -42.780022
 30
        0.000000
 11
        3.404968
 21
      -42.780022
 31
        0.000000
  0
LINE
  8
LVL0000
 62
  3
 10
        3.404968
 20
      -43.980034
 30
        0.000000
 11
        3.404968
 21
      -42.780022
 31
        0.000000
  0
LINE
  8
LVL0000
 62
  3
 10
        3.804993
 20
      -43.980034
 30
        0.000000
 11
        3.804993
 21
      -42.780022
 31
        0.000000
  0
LINE
  8
LVL0000
 62
  3
 10
        6.345032
 20
      -43.980034
 30
        0.000000
 11
        5.945007
 21
      -43.980034
 31
        0.000000
  0
LINE
  8
LVL0000
 62
  3
 10
        6.345032
 20
      -42.780022
 30
        0.000000
 11
        5.945007
 21
      -42.780022
 31
        0.000000
  0
LINE
  8
LVL0000
 62
  3
 10
        5.945007
 20
      -43.980034
 30
        0.000000
 11
        5.945007
 21
      -42.780022
 31
        0.000000
  0
LINE
  8
LVL0000
 62
  3
 10
        6.345032
 20
      -43.980034
 30
        0.000000
 11
        6.345032
 21
      -42.780022
 31
        0.000000
  0
LINE
  8
LVL0000
 62
  3
 10
        3.804993
 20
      -41.440033
 30
        0.000000
 11
        3.404968
 21
      -41.440033
 31
        0.000000
  0
LINE
  8
LVL0000
 62
  3
 10
        3.804993
 20
      -40.240021
 30
        0.000000
 11
        3.404968
 21
      -40.240021
 31
        0.000000
  0
LINE
  8
LVL0000
 62
  3
 10
        3.404968
 20
      -41.440033
 30
        0.000000
 11
        3.404968
 21
      -40.240021
 31
        0.000000
  0
LINE
  8
LVL0000
 62
  3
 10
        3.804993
 20
      -41.440033
 30
        0.000000
 11
        3.804993
 21
      -40.240021
 31
        0.000000
  0
LINE
  8
LVL0000
 62
  3
 10
        6.345032
 20
      -41.440033
 30
        0.000000
 11
        5.945007
 21
      -41.440033
 31
        0.000000
  0
LINE
  8
LVL0000
 62
  3
 10
        6.345032
 20
      -40.240021
 30
        0.000000
 11
        5.945007
 21
      -40.240021
 31
        0.000000
  0
LINE
  8
LVL0000
 62
  3
 10
        5.945007
 20
      -41.440033
 30
        0.000000
 11
        5.945007
 21
      -40.240021
 31
        0.000000
  0
LINE
  8
LVL0000
 62
  3
 10
        6.345032
 20
      -41.440033
 30
        0.000000
 11
        6.345032
 21
      -40.240021
 31
        0.000000
  0
LINE
  8
LVL0000
 62
  3
 10
        3.804993
 20
      -38.900032
 30
        0.000000
 11
        3.404968
 21
      -38.900032
 31
        0.000000
  0
LINE
  8
LVL0000
 62
  3
 10
        3.804993
 20
      -37.700020
 30
        0.000000
 11
        3.404968
 21
      -37.700020
 31
        0.000000
  0
LINE
  8
LVL0000
 62
  3
 10
        3.404968
 20
      -38.900032
 30
        0.000000
 11
        3.404968
 21
      -37.700020
 31
        0.000000
  0
LINE
  8
LVL0000
 62
  3
 10
        3.804993
 20
      -38.900032
 30
        0.000000
 11
        3.804993
 21
      -37.700020
 31
        0.000000
  0
LINE
  8
LVL0000
 62
  3
 10
        6.345032
 20
      -38.900032
 30
        0.000000
 11
        5.945007
 21
      -38.900032
 31
        0.000000
  0
LINE
  8
LVL0000
 62
  3
 10
        6.345032
 20
      -37.700020
 30
        0.000000
 11
        5.945007
 21
      -37.700020
 31
        0.000000
  0
LINE
  8
LVL0000
 62
  3
 10
        5.945007
 20
      -38.900032
 30
        0.000000
 11
        5.945007
 21
      -37.700020
 31
        0.000000
  0
LINE
  8
LVL0000
 62
  3
 10
        6.345032
 20
      -38.900032
 30
        0.000000
 11
        6.345032
 21
      -37.700020
 31
        0.000000
  0
LINE
  8
LVL0000
 62
  3
 10
        3.804993
 20
      -36.360031
 30
        0.000000
 11
        3.404968
 21
      -36.360031
 31
        0.000000
  0
LINE
  8
LVL0000
 62
  3
 10
        3.804993
 20
      -35.160019
 30
        0.000000
 11
        3.404968
 21
      -35.160019
 31
        0.000000
  0
LINE
  8
LVL0000
 62
  3
 10
        3.404968
 20
      -36.360031
 30
        0.000000
 11
        3.404968
 21
      -35.160019
 31
        0.000000
  0
LINE
  8
LVL0000
 62
  3
 10
        3.804993
 20
      -36.360031
 30
        0.000000
 11
        3.804993
 21
      -35.160019
 31
        0.000000
  0
LINE
  8
LVL0000
 62
  3
 10
        6.345032
 20
      -36.360031
 30
        0.000000
 11
        5.945007
 21
      -36.360031
 31
        0.000000
  0
LINE
  8
LVL0000
 62
  3
 10
        6.345032
 20
      -35.160019
 30
        0.000000
 11
        5.945007
 21
      -35.160019
 31
        0.000000
  0
LINE
  8
LVL0000
 62
  3
 10
        5.945007
 20
      -36.360031
 30
        0.000000
 11
        5.945007
 21
      -35.160019
 31
        0.000000
  0
LINE
  8
LVL0000
 62
  3
 10
        6.345032
 20
      -36.360031
 30
        0.000000
 11
        6.345032
 21
      -35.160019
 31
        0.000000
  0
LINE
  8
LVL0000
 62
  3
 10
        3.804993
 20
      -33.820030
 30
        0.000000
 11
        3.404968
 21
      -33.820030
 31
        0.000000
  0
LINE
  8
LVL0000
 62
  3
 10
        3.804993
 20
      -32.620018
 30
        0.000000
 11
        3.404968
 21
      -32.620018
 31
        0.000000
  0
LINE
  8
LVL0000
 62
  3
 10
        3.404968
 20
      -33.820030
 30
        0.000000
 11
        3.404968
 21
      -32.620018
 31
        0.000000
  0
LINE
  8
LVL0000
 62
  3
 10
        3.804993
 20
      -33.820030
 30
        0.000000
 11
        3.804993
 21
      -32.620018
 31
        0.000000
  0
LINE
  8
LVL0000
 62
  3
 10
        6.345032
 20
      -33.820030
 30
        0.000000
 11
        5.945007
 21
      -33.820030
 31
        0.000000
  0
LINE
  8
LVL0000
 62
  3
 10
        6.345032
 20
      -32.620018
 30
        0.000000
 11
        5.945007
 21
      -32.620018
 31
        0.000000
  0
LINE
  8
LVL0000
 62
  3
 10
        5.945007
 20
      -33.820030
 30
        0.000000
 11
        5.945007
 21
      -32.620018
 31
        0.000000
  0
LINE
  8
LVL0000
 62
  3
 10
        6.345032
 20
      -33.820030
 30
        0.000000
 11
        6.345032
 21
      -32.620018
 31
        0.000000
  0
LINE
  8
LVL0000
 62
  3
 10
        3.804993
 20
      -31.280029
 30
        0.000000
 11
        3.404968
 21
      -31.280029
 31
        0.000000
  0
LINE
  8
LVL0000
 62
  3
 10
        3.804993
 20
      -30.080017
 30
        0.000000
 11
        3.404968
 21
      -30.080017
 31
        0.000000
  0
LINE
  8
LVL0000
 62
  3
 10
        3.404968
 20
      -31.280029
 30
        0.000000
 11
        3.404968
 21
      -30.080017
 31
        0.000000
  0
LINE
  8
LVL0000
 62
  3
 10
        3.804993
 20
      -31.280029
 30
        0.000000
 11
        3.804993
 21
      -30.080017
 31
        0.000000
  0
LINE
  8
LVL0000
 62
  3
 10
        6.345032
 20
      -31.280029
 30
        0.000000
 11
        5.945007
 21
      -31.280029
 31
        0.000000
  0
LINE
  8
LVL0000
 62
  3
 10
        6.345032
 20
      -30.080017
 30
        0.000000
 11
        5.945007
 21
      -30.080017
 31
        0.000000
  0
LINE
  8
LVL0000
 62
  3
 10
        5.945007
 20
      -31.280029
 30
        0.000000
 11
        5.945007
 21
      -30.080017
 31
        0.000000
  0
LINE
  8
LVL0000
 62
  3
 10
        6.345032
 20
      -31.280029
 30
        0.000000
 11
        6.345032
 21
      -30.080017
 31
        0.000000
  0
LINE
  8
LVL0000
 62
  3
 10
        3.804993
 20
      -28.740028
 30
        0.000000
 11
        3.404968
 21
      -28.740028
 31
        0.000000
  0
LINE
  8
LVL0000
 62
  3
 10
        3.804993
 20
      -27.540016
 30
        0.000000
 11
        3.404968
 21
      -27.540016
 31
        0.000000
  0
LINE
  8
LVL0000
 62
  3
 10
        3.404968
 20
      -28.740028
 30
        0.000000
 11
        3.404968
 21
      -27.540016
 31
        0.000000
  0
LINE
  8
LVL0000
 62
  3
 10
        3.804993
 20
      -28.740028
 30
        0.000000
 11
        3.804993
 21
      -27.540016
 31
        0.000000
  0
LINE
  8
LVL0000
 62
  3
 10
        6.345032
 20
      -28.740028
 30
        0.000000
 11
        5.945007
 21
      -28.740028
 31
        0.000000
  0
LINE
  8
LVL0000
 62
  3
 10
        6.345032
 20
      -27.540016
 30
        0.000000
 11
        5.945007
 21
      -27.540016
 31
        0.000000
  0
LINE
  8
LVL0000
 62
  3
 10
        5.945007
 20
      -28.740028
 30
        0.000000
 11
        5.945007
 21
      -27.540016
 31
        0.000000
  0
LINE
  8
LVL0000
 62
  3
 10
        6.345032
 20
      -28.740028
 30
        0.000000
 11
        6.345032
 21
      -27.540016
 31
        0.000000
  0
LINE
  8
LVL0000
 62
  3
 10
        3.804993
 20
      -26.200035
 30
        0.000000
 11
        3.404968
 21
      -26.200035
 31
        0.000000
  0
LINE
  8
LVL0000
 62
  3
 10
        3.804993
 20
      -25.000023
 30
        0.000000
 11
        3.404968
 21
      -25.000023
 31
        0.000000
  0
LINE
  8
LVL0000
 62
  3
 10
        3.404968
 20
      -26.200035
 30
        0.000000
 11
        3.404968
 21
      -25.000023
 31
        0.000000
  0
LINE
  8
LVL0000
 62
  3
 10
        3.804993
 20
      -26.200035
 30
        0.000000
 11
        3.804993
 21
      -25.000023
 31
        0.000000
  0
LINE
  8
LVL0000
 62
  3
 10
        6.345032
 20
      -26.200035
 30
        0.000000
 11
        5.945007
 21
      -26.200035
 31
        0.000000
  0
LINE
  8
LVL0000
 62
  3
 10
        6.345032
 20
      -25.000023
 30
        0.000000
 11
        5.945007
 21
      -25.000023
 31
        0.000000
  0
LINE
  8
LVL0000
 62
  3
 10
        5.945007
 20
      -26.200035
 30
        0.000000
 11
        5.945007
 21
      -25.000023
 31
        0.000000
  0
LINE
  8
LVL0000
 62
  3
 10
        6.345032
 20
      -26.200035
 30
        0.000000
 11
        6.345032
 21
      -25.000023
 31
        0.000000
  0
LINE
  8
LVL0000
 62
  3
 10
        3.804993
 20
      -23.660027
 30
        0.000000
 11
        3.404968
 21
      -23.660027
 31
        0.000000
  0
LINE
  8
LVL0000
 62
  3
 10
        3.804993
 20
      -22.460014
 30
        0.000000
 11
        3.404968
 21
      -22.460014
 31
        0.000000
  0
LINE
  8
LVL0000
 62
  3
 10
        3.404968
 20
      -23.660027
 30
        0.000000
 11
        3.404968
 21
      -22.460014
 31
        0.000000
  0
LINE
  8
LVL0000
 62
  3
 10
        3.804993
 20
      -23.660027
 30
        0.000000
 11
        3.804993
 21
      -22.460014
 31
        0.000000
  0
LINE
  8
LVL0000
 62
  3
 10
        6.345032
 20
      -23.660027
 30
        0.000000
 11
        5.945007
 21
      -23.660027
 31
        0.000000
  0
LINE
  8
LVL0000
 62
  3
 10
        6.345032
 20
      -22.460014
 30
        0.000000
 11
        5.945007
 21
      -22.460014
 31
        0.000000
  0
LINE
  8
LVL0000
 62
  3
 10
        5.945007
 20
      -23.660027
 30
        0.000000
 11
        5.945007
 21
      -22.460014
 31
        0.000000
  0
LINE
  8
LVL0000
 62
  3
 10
        6.345032
 20
      -23.660027
 30
        0.000000
 11
        6.345032
 21
      -22.460014
 31
        0.000000
  0
LINE
  8
LVL0000
 62
  3
 10
        3.804993
 20
      -21.120018
 30
        0.000000
 11
        3.404968
 21
      -21.120018
 31
        0.000000
  0
LINE
  8
LVL0000
 62
  3
 10
        3.804993
 20
      -19.920006
 30
        0.000000
 11
        3.404968
 21
      -19.920006
 31
        0.000000
  0
LINE
  8
LVL0000
 62
  3
 10
        3.404968
 20
      -21.120018
 30
        0.000000
 11
        3.404968
 21
      -19.920006
 31
        0.000000
  0
LINE
  8
LVL0000
 62
  3
 10
        3.804993
 20
      -21.120018
 30
        0.000000
 11
        3.804993
 21
      -19.920006
 31
        0.000000
  0
LINE
  8
LVL0000
 62
  3
 10
        6.345032
 20
      -21.120018
 30
        0.000000
 11
        5.945007
 21
      -21.120018
 31
        0.000000
  0
LINE
  8
LVL0000
 62
  3
 10
        6.345032
 20
      -19.920006
 30
        0.000000
 11
        5.945007
 21
      -19.920006
 31
        0.000000
  0
LINE
  8
LVL0000
 62
  3
 10
        5.945007
 20
      -21.120018
 30
        0.000000
 11
        5.945007
 21
      -19.920006
 31
        0.000000
  0
LINE
  8
LVL0000
 62
  3
 10
        6.345032
 20
      -21.120018
 30
        0.000000
 11
        6.345032
 21
      -19.920006
 31
        0.000000
  0
LINE
  8
LVL0000
 62
  3
 10
        3.804993
 20
      -18.580025
 30
        0.000000
 11
        3.404968
 21
      -18.580025
 31
        0.000000
  0
LINE
  8
LVL0000
 62
  3
 10
        3.804993
 20
      -17.380013
 30
        0.000000
 11
        3.404968
 21
      -17.380013
 31
        0.000000
  0
LINE
  8
LVL0000
 62
  3
 10
        3.404968
 20
      -18.580025
 30
        0.000000
 11
        3.404968
 21
      -17.380013
 31
        0.000000
  0
LINE
  8
LVL0000
 62
  3
 10
        3.804993
 20
      -18.580025
 30
        0.000000
 11
        3.804993
 21
      -17.380013
 31
        0.000000
  0
LINE
  8
LVL0000
 62
  3
 10
        6.345032
 20
      -18.580025
 30
        0.000000
 11
        5.945007
 21
      -18.580025
 31
        0.000000
  0
LINE
  8
LVL0000
 62
  3
 10
        6.345032
 20
      -17.380013
 30
        0.000000
 11
        5.945007
 21
      -17.380013
 31
        0.000000
  0
LINE
  8
LVL0000
 62
  3
 10
        5.945007
 20
      -18.580025
 30
        0.000000
 11
        5.945007
 21
      -17.380013
 31
        0.000000
  0
LINE
  8
LVL0000
 62
  3
 10
        6.345032
 20
      -18.580025
 30
        0.000000
 11
        6.345032
 21
      -17.380013
 31
        0.000000
  0
LINE
  8
LVL0000
 62
  3
 10
        3.804993
 20
      -16.040031
 30
        0.000000
 11
        3.404968
 21
      -16.040031
 31
        0.000000
  0
LINE
  8
LVL0000
 62
  3
 10
        3.804993
 20
      -14.840019
 30
        0.000000
 11
        3.404968
 21
      -14.840019
 31
        0.000000
  0
LINE
  8
LVL0000
 62
  3
 10
        3.404968
 20
      -16.040031
 30
        0.000000
 11
        3.404968
 21
      -14.840019
 31
        0.000000
  0
LINE
  8
LVL0000
 62
  3
 10
        3.804993
 20
      -16.040031
 30
        0.000000
 11
        3.804993
 21
      -14.840019
 31
        0.000000
  0
LINE
  8
LVL0000
 62
  3
 10
        6.345032
 20
      -16.040031
 30
        0.000000
 11
        5.945007
 21
      -16.040031
 31
        0.000000
  0
LINE
  8
LVL0000
 62
  3
 10
        6.345032
 20
      -14.840019
 30
        0.000000
 11
        5.945007
 21
      -14.840019
 31
        0.000000
  0
LINE
  8
LVL0000
 62
  3
 10
        5.945007
 20
      -16.040031
 30
        0.000000
 11
        5.945007
 21
      -14.840019
 31
        0.000000
  0
LINE
  8
LVL0000
 62
  3
 10
        6.345032
 20
      -16.040031
 30
        0.000000
 11
        6.345032
 21
      -14.840019
 31
        0.000000
  0
LINE
  8
LVL0000
 62
  3
 10
        3.804993
 20
      -13.500023
 30
        0.000000
 11
        3.404968
 21
      -13.500023
 31
        0.000000
  0
LINE
  8
LVL0000
 62
  3
 10
        3.804993
 20
      -12.300011
 30
        0.000000
 11
        3.404968
 21
      -12.300011
 31
        0.000000
  0
LINE
  8
LVL0000
 62
  3
 10
        3.404968
 20
      -13.500023
 30
        0.000000
 11
        3.404968
 21
      -12.300011
 31
        0.000000
  0
LINE
  8
LVL0000
 62
  3
 10
        3.804993
 20
      -13.500023
 30
        0.000000
 11
        3.804993
 21
      -12.300011
 31
        0.000000
  0
LINE
  8
LVL0000
 62
  3
 10
        6.345032
 20
      -13.500023
 30
        0.000000
 11
        5.945007
 21
      -13.500023
 31
        0.000000
  0
LINE
  8
LVL0000
 62
  3
 10
        6.345032
 20
      -12.300011
 30
        0.000000
 11
        5.945007
 21
      -12.300011
 31
        0.000000
  0
LINE
  8
LVL0000
 62
  3
 10
        5.945007
 20
      -13.500023
 30
        0.000000
 11
        5.945007
 21
      -12.300011
 31
        0.000000
  0
LINE
  8
LVL0000
 62
  3
 10
        6.345032
 20
      -13.500023
 30
        0.000000
 11
        6.345032
 21
      -12.300011
 31
        0.000000
  0
LINE
  8
LVL0000
 62
  3
 10
        3.804993
 20
      -10.960030
 30
        0.000000
 11
        3.404968
 21
      -10.960030
 31
        0.000000
  0
LINE
  8
LVL0000
 62
  3
 10
        3.804993
 20
       -9.760017
 30
        0.000000
 11
        3.404968
 21
       -9.760017
 31
        0.000000
  0
LINE
  8
LVL0000
 62
  3
 10
        3.404968
 20
      -10.960030
 30
        0.000000
 11
        3.404968
 21
       -9.760017
 31
        0.000000
  0
LINE
  8
LVL0000
 62
  3
 10
        3.804993
 20
      -10.960030
 30
        0.000000
 11
        3.804993
 21
       -9.760017
 31
        0.000000
  0
LINE
  8
LVL0000
 62
  3
 10
        6.345032
 20
      -10.960030
 30
        0.000000
 11
        5.945007
 21
      -10.960030
 31
        0.000000
  0
LINE
  8
LVL0000
 62
  3
 10
        6.345032
 20
       -9.760017
 30
        0.000000
 11
        5.945007
 21
       -9.760017
 31
        0.000000
  0
LINE
  8
LVL0000
 62
  3
 10
        5.945007
 20
      -10.960030
 30
        0.000000
 11
        5.945007
 21
       -9.760017
 31
        0.000000
  0
LINE
  8
LVL0000
 62
  3
 10
        6.345032
 20
      -10.960030
 30
        0.000000
 11
        6.345032
 21
       -9.760017
 31
        0.000000
  0
LINE
  8
LVL0000
 62
  3
 10
        3.804993
 20
       -8.420021
 30
        0.000000
 11
        3.404968
 21
       -8.420021
 31
        0.000000
  0
LINE
  8
LVL0000
 62
  3
 10
        3.804993
 20
       -7.220009
 30
        0.000000
 11
        3.404968
 21
       -7.220009
 31
        0.000000
  0
LINE
  8
LVL0000
 62
  3
 10
        3.404968
 20
       -8.420021
 30
        0.000000
 11
        3.404968
 21
       -7.220009
 31
        0.000000
  0
LINE
  8
LVL0000
 62
  3
 10
        3.804993
 20
       -8.420021
 30
        0.000000
 11
        3.804993
 21
       -7.220009
 31
        0.000000
  0
LINE
  8
LVL0000
 62
  3
 10
        6.345032
 20
       -8.420021
 30
        0.000000
 11
        5.945007
 21
       -8.420021
 31
        0.000000
  0
LINE
  8
LVL0000
 62
  3
 10
        6.345032
 20
       -7.220009
 30
        0.000000
 11
        5.945007
 21
       -7.220009
 31
        0.000000
  0
LINE
  8
LVL0000
 62
  3
 10
        5.945007
 20
       -8.420021
 30
        0.000000
 11
        5.945007
 21
       -7.220009
 31
        0.000000
  0
LINE
  8
LVL0000
 62
  3
 10
        6.345032
 20
       -8.420021
 30
        0.000000
 11
        6.345032
 21
       -7.220009
 31
        0.000000
  0
LINE
  8
LVL0000
 62
  3
 10
        3.804993
 20
       -5.880028
 30
        0.000000
 11
        3.404968
 21
       -5.880028
 31
        0.000000
  0
LINE
  8
LVL0000
 62
  3
 10
        3.804993
 20
       -4.680016
 30
        0.000000
 11
        3.404968
 21
       -4.680016
 31
        0.000000
  0
LINE
  8
LVL0000
 62
  3
 10
        3.404968
 20
       -5.880028
 30
        0.000000
 11
        3.404968
 21
       -4.680016
 31
        0.000000
  0
LINE
  8
LVL0000
 62
  3
 10
        3.804993
 20
       -5.880028
 30
        0.000000
 11
        3.804993
 21
       -4.680016
 31
        0.000000
  0
LINE
  8
LVL0000
 62
  3
 10
        6.345032
 20
       -5.880028
 30
        0.000000
 11
        5.945007
 21
       -5.880028
 31
        0.000000
  0
LINE
  8
LVL0000
 62
  3
 10
        6.345032
 20
       -4.680016
 30
        0.000000
 11
        5.945007
 21
       -4.680016
 31
        0.000000
  0
LINE
  8
LVL0000
 62
  3
 10
        5.945007
 20
       -5.880028
 30
        0.000000
 11
        5.945007
 21
       -4.680016
 31
        0.000000
  0
LINE
  8
LVL0000
 62
  3
 10
        6.345032
 20
       -5.880028
 30
        0.000000
 11
        6.345032
 21
       -4.680016
 31
        0.000000
  0
LINE
  8
LVL0000
 62
  3
 10
        3.804993
 20
       -3.340019
 30
        0.000000
 11
        3.404968
 21
       -3.340019
 31
        0.000000
  0
LINE
  8
LVL0000
 62
  3
 10
        3.804993
 20
       -2.140007
 30
        0.000000
 11
        3.404968
 21
       -2.140007
 31
        0.000000
  0
LINE
  8
LVL0000
 62
  3
 10
        3.404968
 20
       -3.340019
 30
        0.000000
 11
        3.404968
 21
       -2.140007
 31
        0.000000
  0
LINE
  8
LVL0000
 62
  3
 10
        3.804993
 20
       -3.340019
 30
        0.000000
 11
        3.804993
 21
       -2.140007
 31
        0.000000
  0
LINE
  8
LVL0000
 62
  3
 10
        6.345032
 20
       -3.340019
 30
        0.000000
 11
        5.945007
 21
       -3.340019
 31
        0.000000
  0
LINE
  8
LVL0000
 62
  3
 10
        6.345032
 20
       -2.140007
 30
        0.000000
 11
        5.945007
 21
       -2.140007
 31
        0.000000
  0
LINE
  8
LVL0000
 62
  3
 10
        5.945007
 20
       -3.340019
 30
        0.000000
 11
        5.945007
 21
       -2.140007
 31
        0.000000
  0
LINE
  8
LVL0000
 62
  3
 10
        6.345032
 20
       -3.340019
 30
        0.000000
 11
        6.345032
 21
       -2.140007
 31
        0.000000
  0
LINE
  8
LVL0000
 62
  3
 10
        3.804993
 20
       -0.800026
 30
        0.000000
 11
        3.404968
 21
       -0.800026
 31
        0.000000
  0
LINE
  8
LVL0000
 62
  3
 10
        3.804993
 20
        0.399986
 30
        0.000000
 11
        3.404968
 21
        0.399986
 31
        0.000000
  0
LINE
  8
LVL0000
 62
  3
 10
        3.404968
 20
       -0.800026
 30
        0.000000
 11
        3.404968
 21
        0.399986
 31
        0.000000
  0
LINE
  8
LVL0000
 62
  3
 10
        3.804993
 20
       -0.800026
 30
        0.000000
 11
        3.804993
 21
        0.399986
 31
        0.000000
  0
LINE
  8
LVL0000
 62
  3
 10
        6.345032
 20
       -0.800026
 30
        0.000000
 11
        5.945007
 21
       -0.800026
 31
        0.000000
  0
LINE
  8
LVL0000
 62
  3
 10
        6.345032
 20
        0.399986
 30
        0.000000
 11
        5.945007
 21
        0.399986
 31
        0.000000
  0
LINE
  8
LVL0000
 62
  3
 10
        5.945007
 20
       -0.800026
 30
        0.000000
 11
        5.945007
 21
        0.399986
 31
        0.000000
  0
LINE
  8
LVL0000
 62
  3
 10
        6.345032
 20
       -0.800026
 30
        0.000000
 11
        6.345032
 21
        0.399986
 31
        0.000000
  0
LINE
  8
LVL0000
 62
  3
 10
        3.804993
 20
        1.739983
 30
        0.000000
 11
        3.404968
 21
        1.739983
 31
        0.000000
  0
LINE
  8
LVL0000
 62
  3
 10
        3.804993
 20
        2.939995
 30
        0.000000
 11
        3.404968
 21
        2.939995
 31
        0.000000
  0
LINE
  8
LVL0000
 62
  3
 10
        3.404968
 20
        1.739983
 30
        0.000000
 11
        3.404968
 21
        2.939995
 31
        0.000000
  0
LINE
  8
LVL0000
 62
  3
 10
        3.804993
 20
        1.739983
 30
        0.000000
 11
        3.804993
 21
        2.939995
 31
        0.000000
  0
LINE
  8
LVL0000
 62
  3
 10
        6.345032
 20
        1.739983
 30
        0.000000
 11
        5.945007
 21
        1.739983
 31
        0.000000
  0
LINE
  8
LVL0000
 62
  3
 10
        6.345032
 20
        2.939995
 30
        0.000000
 11
        5.945007
 21
        2.939995
 31
        0.000000
  0
LINE
  8
LVL0000
 62
  3
 10
        5.945007
 20
        1.739983
 30
        0.000000
 11
        5.945007
 21
        2.939995
 31
        0.000000
  0
LINE
  8
LVL0000
 62
  3
 10
        6.345032
 20
        1.739983
 30
        0.000000
 11
        6.345032
 21
        2.939995
 31
        0.000000
  0
LINE
  8
LVL0000
 62
  3
 10
        3.804993
 20
        4.279976
 30
        0.000000
 11
        3.404968
 21
        4.279976
 31
        0.000000
  0
LINE
  8
LVL0000
 62
  3
 10
        6.345032
 20
        4.279976
 30
        0.000000
 11
        5.945007
 21
        4.279976
 31
        0.000000
  0
LINE
  8
LVL0000
 62
  3
 10
        3.804993
 20
        5.479988
 30
        0.000000
 11
        3.404968
 21
        5.479988
 31
        0.000000
  0
LINE
  8
LVL0000
 62
  3
 10
        6.345032
 20
        5.479988
 30
        0.000000
 11
        5.945007
 21
        5.479988
 31
        0.000000
  0
LINE
  8
LVL0000
 62
  3
 10
        5.945007
 20
        4.279976
 30
        0.000000
 11
        5.945007
 21
        5.479988
 31
        0.000000
  0
LINE
  8
LVL0000
 62
  3
 10
        6.345032
 20
        4.279976
 30
        0.000000
 11
        6.345032
 21
        5.479988
 31
        0.000000
  0
LINE
  8
LVL0000
 62
  3
 10
        3.404968
 20
        4.279976
 30
        0.000000
 11
        3.404968
 21
        5.479988
 31
        0.000000
  0
LINE
  8
LVL0000
 62
  3
 10
        3.804993
 20
        4.279976
 30
        0.000000
 11
        3.804993
 21
        5.479988
 31
        0.000000
  0
ARC
  8
LVL0000
 62
  3
 10
        2.765015
 20
      -44.994400
 30
        0.000000
 40
        1.000000
 50
      180.000010
 51
      265.266628
  0
LINE
  8
LVL0000
 62
  3
 10
        1.765015
 20
      -44.994400
 30
        0.000000
 11
        1.765015
 21
        6.494347
 31
        0.000000
  0
LINE
  8
LVL0000
 62
  3
 10
        2.682495
 20
      -45.990990
 30
        0.000000
 11
        6.902466
 21
      -46.340393
 31
        0.000000
  0
ARC
  8
LVL0000
 62
  3
 10
        6.984985
 20
      -45.343803
 30
        0.000000
 40
        1.000000
 50
      265.266628
 51
      360.000000
  0
LINE
  8
LVL0000
 62
  3
 10
        7.984985
 20
      -45.343803
 30
        0.000000
 11
        7.984985
 21
        6.843742
 31
        0.000000
  0
ARC
  8
LVL0000
 62
  3
 10
        6.984985
 20
        6.843742
 30
        0.000000
 40
        1.000000
 50
        0.000000
 51
       94.733362
  0
LINE
  8
LVL0000
 62
  3
 10
        6.902466
 20
        7.840340
 30
        0.000000
 11
        2.682495
 21
        7.490944
 31
        0.000000
  0
ARC
  8
LVL0000
 62
  3
 10
        2.765015
 20
        6.494347
 30
        0.000000
 40
        1.000000
 50
       94.733362
 51
      180.000010
  0
LINE
  8
LVL0000
 62
  3
 10
        1.500000
 20
        9.989983
 30
        0.000000
 11
        1.500000
 21
       15.389977
 31
        0.000000
  0
LINE
  8
LVL0000
 62
  3
 10
        1.500000
 20
      -53.890015
 30
        0.000000
 11
        1.500000
 21
      -48.490021
 31
        0.000000
  0
CIRCLE
  8
LVL0000
 62
  3
 10
        5.250000
 20
      -51.190018
 30
        0.000000
 40
        1.000000
  0
CIRCLE
  8
LVL0000
 62
  3
 10
        5.250000
 20
       12.689980
 30
        0.000000
 40
        1.000000
  0
LINE
  8
LVL0000
 62
  3
 10
        9.000000
 20
      -53.890015
 30
        0.000000
 11
        1.500000
 21
      -53.890015
 31
        0.000000
  0
LINE
  8
LVL0000
 62
  3
 10
        9.000000
 20
       15.389977
 30
        0.000000
 11
        1.500000
 21
       15.389977
 31
        0.000000
  0
LINE
  8
LVL0000
 62
  3
 10
       10.599976
 20
      -57.250023
 30
        0.000000
 11
       10.599976
 21
       18.749977
 31
        0.000000
  0
LINE
  8
LVL0000
 62
  3
 10
        9.000000
 20
      -57.250023
 30
        0.000000
 11
        9.000000
 21
       18.749977
 31
        0.000000
  0
LINE
  8
LVL0000
 62
  3
 10
        0.750000
 20
      -48.490021
 30
        0.000000
 11
        0.750000
 21
        9.989983
 31
        0.000000
  0
LINE
  8
LVL0000
 62
  3
 10
        9.000000
 20
      -48.490021
 30
        0.000000
 11
        0.750000
 21
      -48.490021
 31
        0.000000
  0
LINE
  8
LVL0000
 62
  3
 10
        9.000000
 20
        9.989983
 30
        0.000000
 11
        0.750000
 21
        9.989983
 31
        0.000000
  0
LINE
  8
LVL0000
 62
  3
 10
      -14.099976
 20
       22.500008
 30
        0.000000
 11
      -14.099976
 21
       23.500023
 31
        0.000000
  0
LINE
  8
LVL0000
 62
  3
 10
       -9.900024
 20
       22.500008
 30
        0.000000
 11
       -9.900024
 21
       23.500023
 31
        0.000000
  0
LINE
  8
LVL0000
 62
  3
 10
       14.099976
 20
       22.500008
 30
        0.000000
 11
       14.099976
 21
       23.500023
 31
        0.000000
  0
LINE
  8
LVL0000
 62
  3
 10
        9.900024
 20
       22.500008
 30
        0.000000
 11
        9.900024
 21
       23.500023
 31
        0.000000
  0
LINE
  8
LVL0000
 62
  3
 10
       16.549988
 20
       22.500008
 30
        0.000000
 11
       16.549988
 21
       23.500023
 31
        0.000000
  0
LINE
  8
LVL0000
 62
  3
 10
      -16.549988
 20
       22.500008
 30
        0.000000
 11
      -16.549988
 21
       23.500023
 31
        0.000000
  0
LINE
  8
LVL0000
 62
  3
 10
      -17.500000
 20
       23.500023
 30
        0.000000
 11
       17.500000
 21
       23.500023
 31
        0.000000
  0
LINE
  8
LVL0000
 62
  3
 10
      -17.500000
 20
       25.000023
 30
        0.000000
 11
       17.500000
 21
       25.000023
 31
        0.000000
  0
ARC
  8
LVL0000
 62
  3
 10
       17.000000
 20
      -64.499992
 30
        0.000000
 40
        0.500000
 50
      270.000000
 51
      360.000000
  0
LINE
  8
LVL0000
 62
  3
 10
       17.000000
 20
      -64.999992
 30
        0.000000
 11
      -17.000000
 21
      -64.999992
 31
        0.000000
  0
LINE
  8
LVL0000
 62
  3
 10
       17.500000
 20
      -64.499992
 30
        0.000000
 11
       17.500000
 21
       64.500008
 31
        0.000000
  0
ARC
  8
LVL0000
 62
  3
 10
      -17.000000
 20
      -64.499992
 30
        0.000000
 40
        0.500000
 50
      180.000010
 51
      270.000000
  0
LINE
  8
LVL0000
 62
  3
 10
      -17.500000
 20
      -64.499992
 30
        0.000000
 11
      -17.500000
 21
       64.500008
 31
        0.000000
  0
ARC
  8
LVL0000
 62
  3
 10
       17.000000
 20
       64.500008
 30
        0.000000
 40
        0.500000
 50
        0.000000
 51
       90.000000
  0
LINE
  8
LVL0000
 62
  3
 10
      -17.000000
 20
       65.000008
 30
        0.000000
 11
       17.000000
 21
       65.000008
 31
        0.000000
  0
ARC
  8
LVL0000
 62
  3
 10
      -17.000000
 20
       64.500008
 30
        0.000000
 40
        0.500000
 50
       90.000000
 51
      180.000010
  0
LINE
  8
LVL0000
 62
  3
 10
       10.875000
 20
      -57.250023
 30
        0.000000
 11
       10.875000
 21
       18.749977
 31
        0.000000
  0
LINE
  8
LVL0000
 62
  3
 10
       10.875000
 20
       18.749977
 30
        0.000000
 11
       -1.125000
 21
       18.749977
 31
        0.000000
  0
LINE
  8
LVL0000
 62
  3
 10
       -1.125000
 20
      -57.250023
 30
        0.000000
 11
       -1.125000
 21
       18.749977
 31
        0.000000
  0
LINE
  8
LVL0000
 62
  3
 10
       10.875000
 20
      -57.250023
 30
        0.000000
 11
       -1.125000
 21
      -57.250023
 31
        0.000000
  0
LINE
  8
LVL0000
 62
  3
 10
      -17.500000
 20
       22.500008
 30
        0.000000
 11
       17.500000
 21
       22.500008
 31
        0.000000
  0
LINE
  8
LVL0000
 62
  3
 10
      -17.500000
 20
       22.500008
 30
        0.000000
 11
       17.500000
 21
       22.500008
 31
        0.000000
  0
LINE
  8
LVL0000
 62
  3
 10
       16.099976
 20
       58.000008
 30
        0.000000
 11
       16.099976
 21
       63.500008
 31
        0.000000
  0
LINE
  8
LVL0000
 62
  3
 10
      -16.099976
 20
       58.000008
 30
        0.000000
 11
      -16.099976
 21
       63.500008
 31
        0.000000
  0
LINE
  8
LVL0000
 62
  3
 10
      -16.099976
 20
       58.000008
 30
        0.000000
 11
       16.099976
 21
       58.000008
 31
        0.000000
  0
LINE
  8
LVL0000
 62
  3
 10
      -16.099976
 20
       63.500008
 30
        0.000000
 11
       16.099976
 21
       63.500008
 31
        0.000000
  0
LINE
  8
LVL0000
 62
  3
 10
      -17.500000
 20
       57.000008
 30
        0.000000
 11
       17.500000
 21
       57.000008
 31
        0.000000
  0
TEXT
  8
LVL0000
 10
      -13.674811
 20
      123.571129
 30
        0.000000
 40
        5.000000
  1
ＪＷ２３４Ｎ
 50
        0.000000
 41
        0.835000
 51
        0.000000
  7
BIGFONT
  0
TEXT
  8
LVL0000
 10
      -13.674811
 20
      116.571129
 30
        0.000000
 40
        5.000000
  1
ＪＷ２３２Ｓ
 50
        0.000000
 41
        0.835000
 51
        0.000000
  7
BIGFONT
  0
TEXT
  8
LVL0000
 10
      -13.674811
 20
      109.571129
 30
        0.000000
 40
        5.000000
  1
ＪＷ２３２Ｍ
 50
        0.000000
 41
        0.835000
 51
        0.000000
  7
BIGFONT
  0
LINE
  8
LVL0000
  6
CENTER
 62
  3
 10
        0.000000
 20
      -76.755315
 30
        0.000000
 11
        0.000000
 21
       72.289983
 31
        0.000000
  0
LINE
  8
LVL0000
  6
CENTER
 62
  3
 10
      -26.775342
 20
        0.000000
 30
        0.000000
 11
       25.692608
 21
        0.000000
 31
        0.000000
  0
LINE
  8
LVL0000
 62
  3
 10
       58.183472
 20
       65.000008
 30
        0.000000
 11
      160.083374
 21
       65.000008
 31
        0.000000
  0
LINE
  8
LVL0000
 62
  3
 10
       57.683472
 20
       57.000008
 30
        0.000000
 11
       57.683472
 21
       64.500008
 31
        0.000000
  0
ARC
  8
LVL0000
  6
CENTER
 62
  3
 10
       58.183472
 20
       64.500008
 30
        0.000000
 40
        0.500000
 50
       90.000000
 51
      179.999995
  0
LINE
  8
LVL0000
 62
  3
 10
       58.183472
 20
      -64.999992
 30
        0.000000
 11
      154.983521
 21
      -64.999992
 31
        0.000000
  0
LINE
  8
LVL0000
 62
  3
 10
      160.083496
 20
      135.112343
 30
        0.000000
 11
       58.183472
 21
      135.112343
 31
        0.000000
  0
ARC
  8
LVL0000
  6
CENTER
 62
  3
 10
       58.183472
 20
      134.612343
 30
        0.000000
 40
        0.500000
 50
       90.000000
 51
      179.999995
  0
LINE
  8
LVL0000
 62
  3
 10
       57.683472
 20
      100.612343
 30
        0.000000
 11
       57.683472
 21
      134.612343
 31
        0.000000
  0
LINE
  8
LVL0000
 62
  3
 10
      160.083496
 20
      100.112343
 30
        0.000000
 11
       58.183472
 21
      100.112343
 31
        0.000000
  0
ARC
  8
LVL0000
  6
CENTER
 62
  3
 10
       58.183472
 20
      100.612343
 30
        0.000000
 40
        0.500000
 50
      179.999995
 51
      270.000000
  0
ENDSEC
  0
EOF
