  0
SECTION
  2
HEADER
  9
$ACADVER
  1
AC1006
  9
$INSBASE
 10
0.0
 20
0.0
 30
0.0
  9
$EXTMIN
 10
      -64.999992
 20
      -64.999992
  9
$EXTMAX
 10
      166.900436
 20
      133.096191
  9
$LIMMIN
 10
      -64.999992
 20
      -64.999992
  9
$LIMMAX
 10
      166.900436
 20
      133.096191
  9
$VIEWCTR
 10
       50.950222
 20
       50.950222
  9
$ORTHOMODE
 70
     0
  9
$ANGBASE
 50
0.0
  9
$ANGDIR
 70
     0
  9
$SPLINETYPE
 70
     6
  9
$SPLINESEGS
 70
     8
9
$DIMASZ
 40
        2.000000
9
$DIMEXE
 40
        0.700000
9
$DIMEXO
 40
        0.700000
9
$DIMTXT
 40
        3.500000
9
$DIMGAP
 40
        0.700000
9
$DIMTAD
 70
1
9
$DIMTIH
 70
0
9
$DIMTOH
 70
0
  0
ENDSEC
  0
SECTION
  2
TABLES
  0
TABLE
  2
LTYPE
 70
     5
  0
LTYPE
  2
CONTINUOUS
 70
    64
  3
SOLID LINE
 72
    65
 73
     0
 40
0.0
  0
LTYPE
  2
DASHED
 70
    64
  3
-- -- -- -- -- --
 72
    65
 73
     2
 40
  0.75  
 49
  0.50  
 49
 -0.25  
  0
LTYPE
  2
DOT
 70
    64
  3
....................
 72
    65
 73
     2
 40
  0.25  
 49
  0.02  
 49
 -0.23  
  0
LTYPE
  2
CENTER
 70
    64
  3
-- . -- . -- . -- .
 72
    65
 73
    4
 40
  2.00  
 49
  1.25  
 49
 -0.25  
 49
  0.25  
 49
 -0.25  
  0
LTYPE
  2
PHANTOM
 70
    64
  3
-- .. -- .. -- ..
 72
    65
 73
    6
 40
  2.50  
 49
  1.25  
 49
 -0.25  
 49
  0.25  
 49
 -0.25  
 49
  0.25  
 49
 -0.25  
  0
ENDTAB
  0
TABLE
  2
LAYER
 70
    14
  0
LAYER
  2
0
 70
    64
 62
     3
  6
CENTER
  0
LAYER
  2
10
 70
    64
 62
     4
  6
CONTINUOUS
  0
LAYER
  2
11
 70
    64
 62
     2
  6
CONTINUOUS
  0
LAYER
  2
100
 70
    64
 62
     3
  6
CONTINUOUS
  0
LAYER
  2
115
 70
    64
 62
     3
  6
CONTINUOUS
  0
LAYER
  2
121
 70
    64
 62
     5
  6
CONTINUOUS
  0
LAYER
  2
151
 70
    64
 62
     3
  6
CONTINUOUS
  0
LAYER
  2
200
 70
    64
 62
     4
  6
CONTINUOUS
  0
LAYER
  2
226
 70
    64
 62
     1
  6
CONTINUOUS
  0
LAYER
  2
241
 70
    64
 62
     4
  6
CONTINUOUS
  0
LAYER
  2
250
 70
    64
 62
     4
  6
CONTINUOUS
  0
LAYER
  2
251
 70
    64
 62
     4
  6
CONTINUOUS
  0
LAYER
  2
256
 70
    64
 62
     4
  6
CONTINUOUS
  0
LAYER
  2
300
 70
    64
 62
     4
  6
CONTINUOUS
  0
ENDTAB
  0
TABLE
  2
STYLE
 70
     2
  0
STYLE
  2
STANDARD
 70
    64
 40
0.0
 41
1.0
 50
0.0
 71
     0
 42
5.0
  3
ROMANS
  4
BIGFONT
  0
STYLE
  2
BIGFONT
 70
    64
 40
0.0
 41
1.0
 50
0.0
 71
     0
 42
5.0
  3
ROMANS
  4
BIGFONT
  0
ENDTAB
  0
TABLE
  2
VIEW
 70
     0
  0
ENDTAB
  0
TABLE
  2
UCS
 70
     0
  0
ENDTAB
  0
TABLE
  2
DWGMGR
 70
     0
  0
ENDTAB
  0
ENDSEC
  0
SECTION
  2
BLOCKS
  0
BLOCK
  8
0
  2
BLK0001
 70
    64
 10
        0.000000
 20
        0.000000
  0
CIRCLE
  8
0
  6
CONTINUOUS
 62
  5
 10
       -8.400000
 20
      -36.499992
 30
        0.000000
 40
        0.500000
  0
LINE
  8
0
  6
CONTINUOUS
 62
  5
 10
       -6.800000
 20
      -40.999992
 30
        0.000000
 11
       -6.800000
 21
      -31.999992
 31
        0.000000
  0
LINE
  8
0
  6
CONTINUOUS
 62
  5
 10
       -6.300000
 20
      -41.499992
 30
        0.000000
 11
       -6.300000
 21
      -31.499992
 31
        0.000000
  0
CIRCLE
  8
0
  6
CONTINUOUS
 62
  5
 10
       -8.400000
 20
      -33.999992
 30
        0.000000
 40
        0.500000
  0
CIRCLE
  8
0
  6
CONTINUOUS
 62
  5
 10
       -8.400000
 20
      -38.999992
 30
        0.000000
 40
        0.500000
  0
LINE
  8
0
  6
CONTINUOUS
 62
  5
 10
       -6.800000
 20
      -40.999992
 30
        0.000000
 11
      -10.000000
 21
      -40.999992
 31
        0.000000
  0
LINE
  8
0
  6
CONTINUOUS
 62
  5
 10
       -6.300000
 20
      -41.499992
 30
        0.000000
 11
      -10.500000
 21
      -41.499992
 31
        0.000000
  0
LINE
  8
0
  6
CONTINUOUS
 62
  5
 10
      -10.000000
 20
      -40.999992
 30
        0.000000
 11
      -10.000000
 21
      -31.999992
 31
        0.000000
  0
LINE
  8
0
  6
CONTINUOUS
 62
  5
 10
       -6.800000
 20
      -31.999992
 30
        0.000000
 11
      -10.000000
 21
      -31.999992
 31
        0.000000
  0
LINE
  8
0
  6
CONTINUOUS
 62
  5
 10
       -6.300000
 20
      -31.499992
 30
        0.000000
 11
      -10.500000
 21
      -31.499992
 31
        0.000000
  0
LINE
  8
0
  6
CONTINUOUS
 62
  5
 10
      -10.500000
 20
      -41.499992
 30
        0.000000
 11
      -10.500000
 21
      -31.499992
 31
        0.000000
  0
ENDBLK
  0
BLOCK
  8
0
  2
BLK0002
 70
    64
 10
        0.000000
 20
        0.000000
  0
TEXT
  8
11
 10
       95.990753
 20
      -77.372734
 30
        0.000000
 40
        3.500000
  1
１０２．４
 50
        0.000000
 41
        1.000000
 51
        0.000000
  7
BIGFONT
  0
LINE
  8
11
 10
      159.900009
 20
       54.300007
 30
        0.000000
 11
      159.900009
 21
      -78.772736
 31
        0.000000
  0
LINE
  8
11
 10
       57.500000
 20
      -64.699989
 30
        0.000000
 11
       57.500000
 21
      -78.772736
 31
        0.000000
  0
LINE
  8
11
 10
      157.900009
 20
      -78.386894
 30
        0.000000
 11
      159.900009
 21
      -78.072739
 31
        0.000000
  0
LINE
  8
11
 10
      159.900009
 20
      -78.072739
 30
        0.000000
 11
      157.900009
 21
      -77.758583
 31
        0.000000
  0
LINE
  8
11
 10
       59.500000
 20
      -77.758583
 30
        0.000000
 11
       57.500000
 21
      -78.072739
 31
        0.000000
  0
LINE
  8
11
 10
       57.500000
 20
      -78.072739
 30
        0.000000
 11
       59.500000
 21
      -78.386894
 31
        0.000000
  0
LINE
  8
11
 10
      159.900009
 20
      -78.072739
 30
        0.000000
 11
       57.500000
 21
      -78.072739
 31
        0.000000
  0
ENDBLK
  0
BLOCK
  8
0
  2
BLK0003
 70
    64
 10
        0.000000
 20
        0.000000
  0
TEXT
  8
11
 10
       30.495613
 20
       -5.249992
 30
        0.000000
 40
        3.500000
  1
１３０
 50
       90.000000
 41
        1.000000
 51
        0.000000
  7
BIGFONT
  0
LINE
  8
11
 10
       17.700001
 20
      -64.999992
 30
        0.000000
 11
       31.895613
 21
      -64.999992
 31
        0.000000
  0
LINE
  8
11
 10
       17.700001
 20
       65.000008
 30
        0.000000
 11
       31.895613
 21
       65.000008
 31
        0.000000
  0
LINE
  8
11
 10
       30.630125
 20
      -61.399994
 30
        0.000000
 11
       31.195612
 21
      -64.999992
 31
        0.000000
  0
LINE
  8
11
 10
       31.195612
 20
      -64.999992
 30
        0.000000
 11
       31.761099
 21
      -61.399994
 31
        0.000000
  0
LINE
  8
11
 10
       31.761099
 20
       61.400009
 30
        0.000000
 11
       31.195612
 21
       65.000008
 31
        0.000000
  0
LINE
  8
11
 10
       31.195612
 20
       65.000008
 30
        0.000000
 11
       30.630125
 21
       61.400009
 31
        0.000000
  0
LINE
  8
11
 10
       31.195612
 20
      -64.999992
 30
        0.000000
 11
       31.195612
 21
       65.000008
 31
        0.000000
  0
ENDBLK
  0
BLOCK
  8
0
  2
BLK0004
 70
    64
 10
        0.000000
 20
        0.000000
  0
TEXT
  8
11
 10
       -3.500000
 20
      -78.983559
 30
        0.000000
 40
        3.500000
  1
３５
 50
        0.000000
 41
        1.000000
 51
        0.000000
  7
BIGFONT
  0
LINE
  8
11
 10
       17.500000
 20
      -65.199989
 30
        0.000000
 11
       17.500000
 21
      -80.383560
 31
        0.000000
  0
LINE
  8
11
 10
      -17.500000
 20
      -65.199989
 30
        0.000000
 11
      -17.500000
 21
      -80.383560
 31
        0.000000
  0
LINE
  8
11
 10
       13.900000
 20
      -80.249046
 30
        0.000000
 11
       17.500000
 21
      -79.683563
 31
        0.000000
  0
LINE
  8
11
 10
       17.500000
 20
      -79.683563
 30
        0.000000
 11
       13.900000
 21
      -79.118080
 31
        0.000000
  0
LINE
  8
11
 10
      -13.900000
 20
      -79.118080
 30
        0.000000
 11
      -17.500000
 21
      -79.683563
 31
        0.000000
  0
LINE
  8
11
 10
      -17.500000
 20
      -79.683563
 30
        0.000000
 11
      -13.900000
 21
      -80.249046
 31
        0.000000
  0
LINE
  8
11
 10
       17.500000
 20
      -79.683563
 30
        0.000000
 11
      -17.500000
 21
      -79.683563
 31
        0.000000
  0
ENDBLK
  0
ENDSEC
  0
SECTION
  2
ENTITIES
  0
LINE
  8
0
 10
      -26.775342
 20
        0.000000
 30
        0.000000
 11
       25.692608
 21
        0.000000
 31
        0.000000
  0
LINE
  8
300
 10
       51.199952
 20
      -21.050033
 30
        0.000000
 11
       56.699952
 21
      -21.050033
 31
        0.000000
  0
LINE
  8
300
 10
       51.199952
 20
      -21.050033
 30
        0.000000
 11
       51.199951
 21
      -32.950057
 31
        0.000000
  0
LINE
  8
300
 10
       51.199951
 20
      -32.950057
 30
        0.000000
 11
       56.699951
 21
      -32.950058
 31
        0.000000
  0
LINE
  8
300
 10
       51.199951
 20
      -51.950057
 30
        0.000000
 11
       56.699951
 21
      -51.950058
 31
        0.000000
  0
LINE
  8
300
 10
       51.199952
 20
      -40.050033
 30
        0.000000
 11
       51.199951
 21
      -51.950057
 31
        0.000000
  0
LINE
  8
300
 10
       51.199952
 20
      -40.050033
 30
        0.000000
 11
       56.699952
 21
      -40.050033
 31
        0.000000
  0
LINE
  8
10
 10
       51.300033
 20
      113.182935
 30
        0.000000
 11
       57.499978
 21
      113.182935
 31
        0.000000
  0
LINE
  8
10
 10
       51.300033
 20
      110.682935
 30
        0.000000
 11
       57.499978
 21
      110.682935
 31
        0.000000
  0
LINE
  8
10
 10
       51.300033
 20
      108.182935
 30
        0.000000
 11
       57.499978
 21
      108.182935
 31
        0.000000
  0
LINE
  8
10
 10
       51.300033
 20
      106.773023
 30
        0.000000
 11
       57.499978
 21
      106.773023
 31
        0.000000
  0
LINE
  8
10
 10
       51.300033
 20
      114.592847
 30
        0.000000
 11
       57.499978
 21
      114.592847
 31
        0.000000
  0
LINE
  8
10
 10
       51.300033
 20
      106.773023
 30
        0.000000
 11
       51.300033
 21
      114.592847
 31
        0.000000
  0
LINE
  8
10
 10
       51.199952
 20
      105.333218
 30
        0.000000
 11
       51.199952
 21
      117.232998
 31
        0.000000
  0
LINE
  8
10
 10
       51.199952
 20
      117.232998
 30
        0.000000
 11
       56.699952
 21
      117.232998
 31
        0.000000
  0
LINE
  8
10
 10
       51.199952
 20
      105.333218
 30
        0.000000
 11
       56.699952
 21
      105.333218
 31
        0.000000
  0
LINE
  8
10
 10
       56.699952
 20
      104.283108
 30
        0.000000
 11
       57.499978
 21
      104.283108
 31
        0.000000
  0
LINE
  8
10
 10
       56.699952
 20
      118.283108
 30
        0.000000
 11
       57.499978
 21
      118.283108
 31
        0.000000
  0
LINE
  8
10
 10
       56.699952
 20
      104.283108
 30
        0.000000
 11
       56.699952
 21
      106.773023
 31
        0.000000
  0
LINE
  8
10
 10
       56.699952
 20
      114.592847
 30
        0.000000
 11
       56.699952
 21
      118.283108
 31
        0.000000
  0
TEXT
  8
10
 62
  2
 10
      -21.451668
 20
      133.096189
 30
        0.000000
 40
        3.500000
  1
ＪＷ－２３ＤＵ
 50
        0.000000
 41
        1.000000
 51
        0.000000
  7
BIGFONT
  0
LINE
  8
0
 10
        0.000000
 20
      -75.090590
 30
        0.000000
 11
        0.000000
 21
       72.289983
 31
        0.000000
  0
LINE
  8
0
  6
CONTINUOUS
 10
      159.900002
 20
      130.882986
 30
        0.000000
 11
      159.900002
 21
       95.882986
 31
        0.000000
  0
LINE
  8
0
  6
CONTINUOUS
 10
      161.400430
 20
      125.282995
 30
        0.000000
 11
      161.400430
 21
      104.382497
 31
        0.000000
  0
LINE
  8
0
  6
CONTINUOUS
 10
      161.400430
 20
      125.282995
 30
        0.000000
 11
      159.900002
 21
      125.282995
 31
        0.000000
  0
LINE
  8
0
  6
CONTINUOUS
 10
      159.900430
 20
      100.382497
 30
        0.000000
 11
      164.900430
 21
      100.382497
 31
        0.000000
  0
LINE
  8
0
  6
CONTINUOUS
 10
      159.900430
 20
      104.382497
 30
        0.000000
 11
      164.900430
 21
      104.382497
 31
        0.000000
  0
ARC
  8
0
  6
CONTINUOUS
 10
      164.900430
 20
      102.382497
 30
        0.000000
 40
        2.000000
 50
      270.000000
 51
      450.000000
  0
ARC
  8
0
  6
CONTINUOUS
 10
       57.999978
 20
       96.382986
 30
        0.000000
 40
        0.500000
 50
      180.000015
 51
      270.000000
  0
LINE
  8
0
  6
CONTINUOUS
 10
       57.499978
 20
       96.382986
 30
        0.000000
 11
       57.499978
 21
      130.382986
 31
        0.000000
  0
LINE
  8
0
  6
CONTINUOUS
 10
      159.900002
 20
       95.882986
 30
        0.000000
 11
       57.999978
 21
       95.882986
 31
        0.000000
  0
ARC
  8
0
  6
CONTINUOUS
 10
       57.999978
 20
      130.382986
 30
        0.000000
 40
        0.500000
 50
       90.000000
 51
      180.000015
  0
LINE
  8
0
  6
CONTINUOUS
 10
      159.900002
 20
      130.882986
 30
        0.000000
 11
       57.999978
 21
      130.882986
 31
        0.000000
  0
LINE
  8
0
  6
CONTINUOUS
 10
       73.499978
 20
       95.882986
 30
        0.000000
 11
       73.499978
 21
      130.882986
 31
        0.000000
  0
LINE
  8
0
  6
CONTINUOUS
 10
       71.499978
 20
       95.882986
 30
        0.000000
 11
       71.499978
 21
      130.882986
 31
        0.000000
  0
LINE
  8
0
  6
CONTINUOUS
 10
       73.499978
 20
       97.482961
 30
        0.000000
 11
       71.499978
 21
       97.482961
 31
        0.000000
  0
LINE
  8
0
  6
CONTINUOUS
 10
       73.499978
 20
      128.882986
 30
        0.000000
 11
       71.499978
 21
      128.882986
 31
        0.000000
  0
LINE
  8
0
  6
CONTINUOUS
 10
       77.499978
 20
       95.882986
 30
        0.000000
 11
       77.499978
 21
      130.882986
 31
        0.000000
  0
LINE
  8
0
  6
CONTINUOUS
 10
       75.499978
 20
       95.882986
 30
        0.000000
 11
       75.499978
 21
      130.882986
 31
        0.000000
  0
LINE
  8
0
  6
CONTINUOUS
 10
       77.499978
 20
       97.482961
 30
        0.000000
 11
       75.499978
 21
       97.482961
 31
        0.000000
  0
LINE
  8
0
  6
CONTINUOUS
 10
       77.499978
 20
      128.882986
 30
        0.000000
 11
       75.499978
 21
      128.882986
 31
        0.000000
  0
LINE
  8
0
  6
CONTINUOUS
 10
       81.499978
 20
       95.882986
 30
        0.000000
 11
       81.499978
 21
      130.882986
 31
        0.000000
  0
LINE
  8
0
  6
CONTINUOUS
 10
       79.499978
 20
       95.882986
 30
        0.000000
 11
       79.499978
 21
      130.882986
 31
        0.000000
  0
LINE
  8
0
  6
CONTINUOUS
 10
       81.499978
 20
       97.482961
 30
        0.000000
 11
       79.499978
 21
       97.482961
 31
        0.000000
  0
LINE
  8
0
  6
CONTINUOUS
 10
       81.499978
 20
      128.882986
 30
        0.000000
 11
       79.499978
 21
      128.882986
 31
        0.000000
  0
LINE
  8
0
  6
CONTINUOUS
 10
       85.499978
 20
       95.882986
 30
        0.000000
 11
       85.499978
 21
      130.882986
 31
        0.000000
  0
LINE
  8
0
  6
CONTINUOUS
 10
       83.499978
 20
       95.882986
 30
        0.000000
 11
       83.499978
 21
      130.882986
 31
        0.000000
  0
LINE
  8
0
  6
CONTINUOUS
 10
       85.499978
 20
       97.482961
 30
        0.000000
 11
       83.499978
 21
       97.482961
 31
        0.000000
  0
LINE
  8
0
  6
CONTINUOUS
 10
       85.499978
 20
      128.882986
 30
        0.000000
 11
       83.499978
 21
      128.882986
 31
        0.000000
  0
LINE
  8
0
  6
CONTINUOUS
 10
       98.499978
 20
      111.332937
 30
        0.000000
 11
      100.499978
 21
      110.882986
 31
        0.000000
  0
LINE
  8
0
  6
CONTINUOUS
 10
       98.499978
 20
      115.433034
 30
        0.000000
 11
      100.499978
 21
      115.882986
 31
        0.000000
  0
LINE
  8
0
  6
CONTINUOUS
 10
      108.499978
 20
      109.882986
 30
        0.000000
 11
      106.499978
 21
      109.982961
 31
        0.000000
  0
LINE
  8
0
  6
CONTINUOUS
 10
      106.499978
 20
      116.783010
 30
        0.000000
 11
      108.499978
 21
      116.882986
 31
        0.000000
  0
LINE
  8
0
  6
CONTINUOUS
 10
      102.499978
 20
      116.283010
 30
        0.000000
 11
      104.499978
 21
      116.582937
 31
        0.000000
  0
LINE
  8
0
  6
CONTINUOUS
 10
      104.499978
 20
      110.183034
 30
        0.000000
 11
      102.499978
 21
      110.482961
 31
        0.000000
  0
LINE
  8
0
  6
CONTINUOUS
 10
       95.999978
 20
      111.968801
 30
        0.000000
 11
       96.499978
 21
      111.783010
 31
        0.000000
  0
LINE
  8
0
  6
CONTINUOUS
 10
       96.499978
 20
      114.982961
 30
        0.000000
 11
       95.999978
 21
      114.797170
 31
        0.000000
  0
ARC
  8
0
  6
CONTINUOUS
 10
       96.499978
 20
      113.382986
 30
        0.000000
 40
        1.499973
 50
      109.471582
 51
      250.528421
  0
LINE
  8
0
  6
CONTINUOUS
 10
      112.499978
 20
      109.783010
 30
        0.000000
 11
      110.499978
 21
      109.783010
 31
        0.000000
  0
LINE
  8
0
  6
CONTINUOUS
 10
      112.499978
 20
      116.982961
 30
        0.000000
 11
      110.499978
 21
      116.982961
 31
        0.000000
  0
LINE
  8
0
  6
CONTINUOUS
 10
      116.499978
 20
      109.783010
 30
        0.000000
 11
      114.499978
 21
      109.783010
 31
        0.000000
  0
LINE
  8
0
  6
CONTINUOUS
 10
      116.499978
 20
      116.982961
 30
        0.000000
 11
      114.499978
 21
      116.982961
 31
        0.000000
  0
LINE
  8
0
  6
CONTINUOUS
 10
      120.499978
 20
      109.783010
 30
        0.000000
 11
      118.499978
 21
      109.783010
 31
        0.000000
  0
LINE
  8
0
  6
CONTINUOUS
 10
      120.499978
 20
      116.982961
 30
        0.000000
 11
      118.499978
 21
      116.982961
 31
        0.000000
  0
LINE
  8
0
  6
CONTINUOUS
 10
      124.499978
 20
      109.783010
 30
        0.000000
 11
      122.499978
 21
      109.783010
 31
        0.000000
  0
LINE
  8
0
  6
CONTINUOUS
 10
      124.499978
 20
      116.982961
 30
        0.000000
 11
      122.499978
 21
      116.982961
 31
        0.000000
  0
LINE
  8
0
  6
CONTINUOUS
 10
      128.499978
 20
      109.783010
 30
        0.000000
 11
      126.499978
 21
      109.783010
 31
        0.000000
  0
LINE
  8
0
  6
CONTINUOUS
 10
      128.499978
 20
      116.982961
 30
        0.000000
 11
      126.499978
 21
      116.982961
 31
        0.000000
  0
LINE
  8
0
  6
CONTINUOUS
 10
      132.499978
 20
      109.783010
 30
        0.000000
 11
      130.499978
 21
      109.783010
 31
        0.000000
  0
LINE
  8
0
  6
CONTINUOUS
 10
      132.499978
 20
      116.982961
 30
        0.000000
 11
      130.499978
 21
      116.982961
 31
        0.000000
  0
LINE
  8
0
  6
CONTINUOUS
 10
      136.499978
 20
      109.783010
 30
        0.000000
 11
      134.499978
 21
      109.783010
 31
        0.000000
  0
LINE
  8
0
  6
CONTINUOUS
 10
      136.499978
 20
      116.982961
 30
        0.000000
 11
      134.499978
 21
      116.982961
 31
        0.000000
  0
LINE
  8
0
  6
CONTINUOUS
 10
      140.499978
 20
      109.783010
 30
        0.000000
 11
      138.499978
 21
      109.783010
 31
        0.000000
  0
LINE
  8
0
  6
CONTINUOUS
 10
      140.499978
 20
      116.982961
 30
        0.000000
 11
      138.499978
 21
      116.982961
 31
        0.000000
  0
LINE
  8
0
  6
CONTINUOUS
 10
      144.499978
 20
      109.783010
 30
        0.000000
 11
      142.499978
 21
      109.783010
 31
        0.000000
  0
LINE
  8
0
  6
CONTINUOUS
 10
      144.499978
 20
      116.982961
 30
        0.000000
 11
      142.499978
 21
      116.982961
 31
        0.000000
  0
LINE
  8
0
  6
CONTINUOUS
 10
      148.499978
 20
      109.783010
 30
        0.000000
 11
      146.499978
 21
      109.783010
 31
        0.000000
  0
LINE
  8
0
  6
CONTINUOUS
 10
      148.499978
 20
      116.982961
 30
        0.000000
 11
      146.499978
 21
      116.982961
 31
        0.000000
  0
LINE
  8
0
  6
CONTINUOUS
 10
      148.499978
 20
       95.882986
 30
        0.000000
 11
      148.499978
 21
      110.114187
 31
        0.000000
  0
LINE
  8
0
  6
CONTINUOUS
 10
      148.499978
 20
      116.651784
 30
        0.000000
 11
      148.499978
 21
      130.882986
 31
        0.000000
  0
LINE
  8
0
  6
CONTINUOUS
 10
      150.499978
 20
       98.882986
 30
        0.000000
 11
      148.499978
 21
       98.882986
 31
        0.000000
  0
LINE
  8
0
  6
CONTINUOUS
 10
      150.499978
 20
      127.882986
 30
        0.000000
 11
      148.499978
 21
      127.882986
 31
        0.000000
  0
LINE
  8
0
  6
CONTINUOUS
 10
      146.499978
 20
       98.882986
 30
        0.000000
 11
      144.499978
 21
       98.882986
 31
        0.000000
  0
LINE
  8
0
  6
CONTINUOUS
 10
      146.499978
 20
      127.882986
 30
        0.000000
 11
      144.499978
 21
      127.882986
 31
        0.000000
  0
LINE
  8
0
  6
CONTINUOUS
 10
      146.499978
 20
       95.882986
 30
        0.000000
 11
      146.499978
 21
      130.882986
 31
        0.000000
  0
LINE
  8
0
  6
CONTINUOUS
 10
      144.499978
 20
       95.882986
 30
        0.000000
 11
      144.499978
 21
      130.882986
 31
        0.000000
  0
LINE
  8
0
  6
CONTINUOUS
 10
      142.499978
 20
       98.882986
 30
        0.000000
 11
      140.499978
 21
       98.882986
 31
        0.000000
  0
LINE
  8
0
  6
CONTINUOUS
 10
      142.499978
 20
      127.882986
 30
        0.000000
 11
      140.499978
 21
      127.882986
 31
        0.000000
  0
LINE
  8
0
  6
CONTINUOUS
 10
      142.499978
 20
       95.882986
 30
        0.000000
 11
      142.499978
 21
      130.882986
 31
        0.000000
  0
LINE
  8
0
  6
CONTINUOUS
 10
      140.499978
 20
       95.882986
 30
        0.000000
 11
      140.499978
 21
      130.882986
 31
        0.000000
  0
LINE
  8
0
  6
CONTINUOUS
 10
      138.499978
 20
       98.882986
 30
        0.000000
 11
      136.499978
 21
       98.882986
 31
        0.000000
  0
LINE
  8
0
  6
CONTINUOUS
 10
      138.499978
 20
      127.882986
 30
        0.000000
 11
      136.499978
 21
      127.882986
 31
        0.000000
  0
LINE
  8
0
  6
CONTINUOUS
 10
      138.499978
 20
       95.882986
 30
        0.000000
 11
      138.499978
 21
      130.882986
 31
        0.000000
  0
LINE
  8
0
  6
CONTINUOUS
 10
      136.499978
 20
       95.882986
 30
        0.000000
 11
      136.499978
 21
      130.882986
 31
        0.000000
  0
LINE
  8
0
  6
CONTINUOUS
 10
      134.499978
 20
       98.882986
 30
        0.000000
 11
      132.499978
 21
       98.882986
 31
        0.000000
  0
LINE
  8
0
  6
CONTINUOUS
 10
      134.499978
 20
      127.882986
 30
        0.000000
 11
      132.499978
 21
      127.882986
 31
        0.000000
  0
LINE
  8
0
  6
CONTINUOUS
 10
      134.499978
 20
       95.882986
 30
        0.000000
 11
      134.499978
 21
      130.882986
 31
        0.000000
  0
LINE
  8
0
  6
CONTINUOUS
 10
      132.499978
 20
       95.882986
 30
        0.000000
 11
      132.499978
 21
      130.882986
 31
        0.000000
  0
LINE
  8
0
  6
CONTINUOUS
 10
      130.499978
 20
       98.882986
 30
        0.000000
 11
      128.499978
 21
       98.882986
 31
        0.000000
  0
LINE
  8
0
  6
CONTINUOUS
 10
      130.499978
 20
      127.882986
 30
        0.000000
 11
      128.499978
 21
      127.882986
 31
        0.000000
  0
LINE
  8
0
  6
CONTINUOUS
 10
      130.499978
 20
       95.882986
 30
        0.000000
 11
      130.499978
 21
      130.882986
 31
        0.000000
  0
LINE
  8
0
  6
CONTINUOUS
 10
      128.499978
 20
       95.882986
 30
        0.000000
 11
      128.499978
 21
      130.882986
 31
        0.000000
  0
LINE
  8
0
  6
CONTINUOUS
 10
      126.499978
 20
       98.882986
 30
        0.000000
 11
      124.499978
 21
       98.882986
 31
        0.000000
  0
LINE
  8
0
  6
CONTINUOUS
 10
      126.499978
 20
      127.882986
 30
        0.000000
 11
      124.499978
 21
      127.882986
 31
        0.000000
  0
LINE
  8
0
  6
CONTINUOUS
 10
      126.499978
 20
       95.882986
 30
        0.000000
 11
      126.499978
 21
      130.882986
 31
        0.000000
  0
LINE
  8
0
  6
CONTINUOUS
 10
      124.499978
 20
       95.882986
 30
        0.000000
 11
      124.499978
 21
      130.882986
 31
        0.000000
  0
LINE
  8
0
  6
CONTINUOUS
 10
      122.499978
 20
       98.882986
 30
        0.000000
 11
      120.499978
 21
       98.882986
 31
        0.000000
  0
LINE
  8
0
  6
CONTINUOUS
 10
      122.499978
 20
      127.882986
 30
        0.000000
 11
      120.499978
 21
      127.882986
 31
        0.000000
  0
LINE
  8
0
  6
CONTINUOUS
 10
      122.499978
 20
       95.882986
 30
        0.000000
 11
      122.499978
 21
      130.882986
 31
        0.000000
  0
LINE
  8
0
  6
CONTINUOUS
 10
      120.499978
 20
       95.882986
 30
        0.000000
 11
      120.499978
 21
      130.882986
 31
        0.000000
  0
LINE
  8
0
  6
CONTINUOUS
 10
      118.499978
 20
       98.882986
 30
        0.000000
 11
      116.499978
 21
       98.882986
 31
        0.000000
  0
LINE
  8
0
  6
CONTINUOUS
 10
      118.499978
 20
      127.882986
 30
        0.000000
 11
      116.499978
 21
      127.882986
 31
        0.000000
  0
LINE
  8
0
  6
CONTINUOUS
 10
      118.499978
 20
       95.882986
 30
        0.000000
 11
      118.499978
 21
      130.882986
 31
        0.000000
  0
LINE
  8
0
  6
CONTINUOUS
 10
      116.499978
 20
       95.882986
 30
        0.000000
 11
      116.499978
 21
      130.882986
 31
        0.000000
  0
LINE
  8
0
  6
CONTINUOUS
 10
      114.499978
 20
       98.882986
 30
        0.000000
 11
      112.499978
 21
       98.882986
 31
        0.000000
  0
LINE
  8
0
  6
CONTINUOUS
 10
      114.499978
 20
      127.882986
 30
        0.000000
 11
      112.499978
 21
      127.882986
 31
        0.000000
  0
LINE
  8
0
  6
CONTINUOUS
 10
      114.499978
 20
       95.882986
 30
        0.000000
 11
      114.499978
 21
      130.882986
 31
        0.000000
  0
LINE
  8
0
  6
CONTINUOUS
 10
      112.499978
 20
       95.882986
 30
        0.000000
 11
      112.499978
 21
      130.882986
 31
        0.000000
  0
LINE
  8
0
  6
CONTINUOUS
 10
      110.499978
 20
       98.882986
 30
        0.000000
 11
      108.499978
 21
       98.882986
 31
        0.000000
  0
LINE
  8
0
  6
CONTINUOUS
 10
      110.499978
 20
      127.882986
 30
        0.000000
 11
      108.499978
 21
      127.882986
 31
        0.000000
  0
LINE
  8
0
  6
CONTINUOUS
 10
      110.499978
 20
       95.882986
 30
        0.000000
 11
      110.499978
 21
      130.882986
 31
        0.000000
  0
LINE
  8
0
  6
CONTINUOUS
 10
      108.499978
 20
       95.882986
 30
        0.000000
 11
      108.499978
 21
      130.882986
 31
        0.000000
  0
LINE
  8
0
  6
CONTINUOUS
 10
      106.499978
 20
       98.882986
 30
        0.000000
 11
      104.499978
 21
       98.882986
 31
        0.000000
  0
LINE
  8
0
  6
CONTINUOUS
 10
      106.499978
 20
      127.882986
 30
        0.000000
 11
      104.499978
 21
      127.882986
 31
        0.000000
  0
LINE
  8
0
  6
CONTINUOUS
 10
      106.499978
 20
       95.882986
 30
        0.000000
 11
      106.499978
 21
      130.882986
 31
        0.000000
  0
LINE
  8
0
  6
CONTINUOUS
 10
      104.499978
 20
       95.882986
 30
        0.000000
 11
      104.499978
 21
      130.882986
 31
        0.000000
  0
LINE
  8
0
  6
CONTINUOUS
 10
      102.499978
 20
       98.882986
 30
        0.000000
 11
      100.499978
 21
       98.882986
 31
        0.000000
  0
LINE
  8
0
  6
CONTINUOUS
 10
      102.499978
 20
      127.882986
 30
        0.000000
 11
      100.499978
 21
      127.882986
 31
        0.000000
  0
LINE
  8
0
  6
CONTINUOUS
 10
      102.499978
 20
       95.882986
 30
        0.000000
 11
      102.499978
 21
      130.882986
 31
        0.000000
  0
LINE
  8
0
  6
CONTINUOUS
 10
      100.499978
 20
       95.882986
 30
        0.000000
 11
      100.499978
 21
      130.882986
 31
        0.000000
  0
LINE
  8
0
  6
CONTINUOUS
 10
      147.800027
 20
      115.382986
 30
        0.000000
 11
      147.800027
 21
      111.382986
 31
        0.000000
  0
LINE
  8
0
  6
CONTINUOUS
 10
      150.499978
 20
      109.882986
 30
        0.000000
 11
      149.300027
 21
      109.882986
 31
        0.000000
  0
ARC
  8
0
  6
CONTINUOUS
 10
      149.300027
 20
      111.382986
 30
        0.000000
 40
        1.500000
 50
      180.000015
 51
      270.000000
  0
ARC
  8
0
  6
CONTINUOUS
 10
      149.300027
 20
      115.382986
 30
        0.000000
 40
        1.500000
 50
       90.000000
 51
      180.000015
  0
LINE
  8
0
  6
CONTINUOUS
 10
      150.499978
 20
      116.882986
 30
        0.000000
 11
      149.300027
 21
      116.882986
 31
        0.000000
  0
LINE
  8
0
  6
CONTINUOUS
 10
      150.499978
 20
      130.882986
 30
        0.000000
 11
      150.499978
 21
       95.882986
 31
        0.000000
  0
LINE
  8
0
  6
CONTINUOUS
 10
       98.499978
 20
       98.882986
 30
        0.000000
 11
       96.499978
 21
       98.882986
 31
        0.000000
  0
LINE
  8
0
  6
CONTINUOUS
 10
       98.499978
 20
      127.882986
 30
        0.000000
 11
       96.499978
 21
      127.882986
 31
        0.000000
  0
LINE
  8
0
  6
CONTINUOUS
 10
       98.499978
 20
       95.882986
 30
        0.000000
 11
       98.499978
 21
      130.882986
 31
        0.000000
  0
LINE
  8
0
  6
CONTINUOUS
 10
       96.499978
 20
       95.882986
 30
        0.000000
 11
       96.499978
 21
      130.882986
 31
        0.000000
  0
LINE
  8
0
  6
CONTINUOUS
 10
       89.499978
 20
       95.882986
 30
        0.000000
 11
       89.499978
 21
      130.882986
 31
        0.000000
  0
CIRCLE
  8
200
 10
      -13.000000
 20
       53.599984
 30
        0.000000
 40
        1.000000
  0
CIRCLE
  8
200
 10
       -9.500000
 20
       53.599984
 30
        0.000000
 40
        1.000000
  0
CIRCLE
  8
200
 10
       -6.000000
 20
       53.599984
 30
        0.000000
 40
        1.000000
  0
CIRCLE
  8
200
 10
       -2.500000
 20
       53.599984
 30
        0.000000
 40
        1.000000
  0
CIRCLE
  8
200
 10
       -2.500000
 20
       46.599984
 30
        0.000000
 40
        1.000000
  0
CIRCLE
  8
200
 10
       -6.000000
 20
       46.599984
 30
        0.000000
 40
        1.000000
  0
CIRCLE
  8
200
 10
       -9.500000
 20
       46.599984
 30
        0.000000
 40
        1.000000
  0
CIRCLE
  8
200
 10
      -13.000000
 20
       46.599984
 30
        0.000000
 40
        1.000000
  0
LINE
  8
151
 10
      -17.500000
 20
      -64.499992
 30
        0.000000
 11
      -17.500000
 21
       64.500008
 31
        0.000000
  0
LINE
  8
151
 10
      -17.500000
 20
       38.000008
 30
        0.000000
 11
       17.500000
 21
       38.000008
 31
        0.000000
  0
LINE
  8
151
 10
      -17.500000
 20
       38.000008
 30
        0.000000
 11
       17.500000
 21
       38.000008
 31
        0.000000
  0
ARC
  8
100
 10
       58.500000
 20
       64.000008
 30
        0.000000
 40
        1.000000
 50
       90.000000
 51
      180.000010
  0
LINE
  8
100
 10
       57.500000
 20
       57.000008
 30
        0.000000
 11
       60.500000
 21
       57.000008
 31
        0.000000
  0
LINE
  8
100
 10
       57.500000
 20
       40.500008
 30
        0.000000
 11
       59.000000
 21
       39.000008
 31
        0.000000
  0
LINE
  8
100
 10
       57.500000
 20
       40.500008
 30
        0.000000
 11
       57.500000
 21
       64.000008
 31
        0.000000
  0
LINE
  8
100
 10
       60.500000
 20
       38.000008
 30
        0.000000
 11
       60.500000
 21
       57.000008
 31
        0.000000
  0
LINE
  8
100
 10
       57.500000
 20
       38.000008
 30
        0.000000
 11
       60.500000
 21
       38.000008
 31
        0.000000
  0
LINE
  8
100
 10
       60.500000
 20
       38.000008
 30
        0.000000
 11
       57.500000
 21
       38.000008
 31
        0.000000
  0
LINE
  8
100
 10
       60.500000
 20
       39.000008
 30
        0.000000
 11
       59.000000
 21
       39.000008
 31
        0.000000
  0
LINE
  8
100
 10
       57.500000
 20
       38.000008
 30
        0.000000
 11
       57.500000
 21
      -63.999992
 31
        0.000000
  0
LINE
  8
100
 10
       89.500000
 20
      -64.999992
 30
        0.000000
 11
       58.500000
 21
      -64.999992
 31
        0.000000
  0
LINE
  8
100
 10
      161.399902
 20
      -57.500007
 30
        0.000000
 11
      161.399902
 21
      -62.000007
 31
        0.000000
  0
LINE
  8
100
 10
      158.899902
 20
      -60.000007
 30
        0.000000
 11
      158.899902
 21
      -61.000007
 31
        0.000000
  0
LINE
  8
100
 10
      157.299927
 20
      -53.500007
 30
        0.000000
 11
      161.399902
 21
      -57.500007
 31
        0.000000
  0
LINE
  8
100
 10
      158.899902
 20
      -61.000007
 30
        0.000000
 11
      160.399902
 21
      -62.000007
 31
        0.000000
  0
LINE
  8
100
 10
      160.399902
 20
      -62.000007
 30
        0.000000
 11
      161.399902
 21
      -62.000007
 31
        0.000000
  0
LINE
  8
100
 10
      156.799927
 20
      -60.000007
 30
        0.000000
 11
      158.899902
 21
      -60.000007
 31
        0.000000
  0
LINE
  8
100
 10
       89.500000
 20
       65.000008
 30
        0.000000
 11
       89.500000
 21
      -64.999992
 31
        0.000000
  0
LINE
  8
100
 10
       98.649902
 20
       12.649971
 30
        0.000000
 11
       98.649902
 21
      -12.650016
 31
        0.000000
  0
LINE
  8
100
 10
       98.649902
 20
      -12.650016
 30
        0.000000
 11
      148.949951
 21
      -12.650016
 31
        0.000000
  0
LINE
  8
100
 10
       90.500000
 20
       37.000008
 30
        0.000000
 11
       90.500000
 21
       25.000008
 31
        0.000000
  0
LINE
  8
100
 10
       93.800049
 20
       40.250008
 30
        0.000000
 11
       93.800049
 21
       21.750008
 31
        0.000000
  0
LINE
  8
100
 10
       89.500000
 20
       25.000008
 30
        0.000000
 11
       90.500000
 21
       25.000008
 31
        0.000000
  0
LINE
  8
100
 10
       89.500000
 20
       37.000008
 30
        0.000000
 11
       90.500000
 21
       37.000008
 31
        0.000000
  0
LINE
  8
100
 10
       96.300049
 20
       40.250008
 30
        0.000000
 11
       96.300049
 21
       21.750008
 31
        0.000000
  0
LINE
  8
100
 10
       93.800049
 20
       40.250008
 30
        0.000000
 11
       96.300049
 21
       40.250008
 31
        0.000000
  0
LINE
  8
100
 10
       93.800049
 20
       21.750008
 30
        0.000000
 11
       96.300049
 21
       21.750008
 31
        0.000000
  0
LINE
  8
100
 10
       90.500000
 20
      -35.999992
 30
        0.000000
 11
       90.500000
 21
      -47.999992
 31
        0.000000
  0
LINE
  8
100
 10
       93.800049
 20
      -32.749992
 30
        0.000000
 11
       93.800049
 21
      -51.249992
 31
        0.000000
  0
LINE
  8
100
 10
       89.500000
 20
      -47.999992
 30
        0.000000
 11
       90.500000
 21
      -47.999992
 31
        0.000000
  0
LINE
  8
100
 10
       96.300049
 20
      -32.749992
 30
        0.000000
 11
       96.300049
 21
      -51.249992
 31
        0.000000
  0
LINE
  8
100
 10
       93.800049
 20
      -51.249992
 30
        0.000000
 11
       96.300049
 21
      -51.249992
 31
        0.000000
  0
LINE
  8
100
 10
       89.500000
 20
      -35.999992
 30
        0.000000
 11
       90.500000
 21
      -35.999992
 31
        0.000000
  0
LINE
  8
100
 10
       93.800049
 20
      -32.749992
 30
        0.000000
 11
       96.300049
 21
      -32.749992
 31
        0.000000
  0
LINE
  8
100
 10
       98.649902
 20
       12.649971
 30
        0.000000
 11
      148.949951
 21
       12.649971
 31
        0.000000
  0
LINE
  8
100
 10
      148.949951
 20
       12.649971
 30
        0.000000
 11
      148.949951
 21
      -12.650016
 31
        0.000000
  0
LINE
  8
100
 10
      156.800049
 20
      -59.999992
 30
        0.000000
 11
      154.800049
 21
      -64.999992
 31
        0.000000
  0
LINE
  8
100
 10
      157.300049
 20
      -53.499992
 30
        0.000000
 11
      156.800049
 21
      -59.999992
 31
        0.000000
  0
LINE
  8
100
 10
      157.300049
 20
       55.000008
 30
        0.000000
 11
      157.300049
 21
      -53.499992
 31
        0.000000
  0
LINE
  8
100
 10
       89.500000
 20
      -64.999992
 30
        0.000000
 11
      154.800049
 21
      -64.999992
 31
        0.000000
  0
LINE
  8
256
 10
       51.300032
 20
       17.273263
 30
        0.000000
 11
       51.300033
 21
       23.046762
 31
        0.000000
  0
LINE
  8
256
 10
       51.300029
 20
      -16.046744
 30
        0.000000
 11
       51.300030
 21
      -10.273246
 31
        0.000000
  0
LINE
  8
256
 10
       51.300029
 20
      -16.046744
 30
        0.000000
 11
       57.500041
 21
      -16.046745
 31
        0.000000
  0
LINE
  8
256
 10
       51.300029
 20
      -14.603354
 30
        0.000000
 11
       57.500041
 21
      -14.603355
 31
        0.000000
  0
LINE
  8
256
 10
       51.300030
 20
      -11.716605
 30
        0.000000
 11
       57.500042
 21
      -11.716606
 31
        0.000000
  0
LINE
  8
256
 10
       51.300030
 20
      -10.273246
 30
        0.000000
 11
       57.500042
 21
      -10.273246
 31
        0.000000
  0
LINE
  8
256
 10
       51.300032
 20
       17.273263
 30
        0.000000
 11
       57.500045
 21
       17.273262
 31
        0.000000
  0
LINE
  8
256
 10
       51.300032
 20
       18.716622
 30
        0.000000
 11
       57.500045
 21
       18.716622
 31
        0.000000
  0
LINE
  8
256
 10
       51.300033
 20
       21.603372
 30
        0.000000
 11
       57.500045
 21
       21.603371
 31
        0.000000
  0
LINE
  8
256
 10
       51.300033
 20
       23.046762
 30
        0.000000
 11
       57.500045
 21
       23.046761
 31
        0.000000
  0
LINE
  8
256
 10
       51.400005
 20
       -8.794990
 30
        0.000000
 11
       57.500042
 21
       -8.794990
 31
        0.000000
  0
LINE
  8
256
 10
       51.400008
 20
       15.795007
 30
        0.000000
 11
       57.500044
 21
       15.795006
 31
        0.000000
  0
LINE
  8
256
 10
       51.400005
 20
       -8.794990
 30
        0.000000
 11
       51.400008
 21
       15.795007
 31
        0.000000
  0
ARC
  8
0
  6
CONTINUOUS
 10
       58.500000
 20
      -63.999992
 30
        0.000000
 40
        1.000000
 50
      180.000010
 51
      270.000000
  0
LINE
  8
300
 10
       56.699951
 20
      -39.000045
 30
        0.000000
 11
       57.499999
 21
      -39.000045
 31
        0.000000
  0
LINE
  8
300
 10
       56.699949
 20
      -53.000045
 30
        0.000000
 11
       57.499998
 21
      -53.000045
 31
        0.000000
  0
LINE
  8
300
 10
       56.699951
 20
      -39.000045
 30
        0.000000
 11
       56.699949
 21
      -53.000045
 31
        0.000000
  0
LINE
  8
300
 10
       56.699952
 20
      -20.000045
 30
        0.000000
 11
       57.500001
 21
      -20.000045
 31
        0.000000
  0
LINE
  8
300
 10
       56.699951
 20
      -34.000045
 30
        0.000000
 11
       57.500000
 21
      -34.000045
 31
        0.000000
  0
LINE
  8
300
 10
       56.699952
 20
      -20.000045
 30
        0.000000
 11
       56.699951
 21
      -34.000045
 31
        0.000000
  0
CIRCLE
  8
250
 10
        4.119973
 20
       -4.729972
 30
        0.000000
 40
        0.600000
  0
CIRCLE
  8
250
 10
        4.119973
 20
       -1.989982
 30
        0.000000
 40
        0.600000
  0
CIRCLE
  8
250
 10
        4.119973
 20
        0.760018
 30
        0.000000
 40
        0.600000
  0
CIRCLE
  8
250
 10
        4.119973
 20
        3.500008
 30
        0.000000
 40
        0.600000
  0
CIRCLE
  8
250
 10
        1.279885
 20
       -6.099968
 30
        0.000000
 40
        0.600000
  0
CIRCLE
  8
250
 10
        1.279885
 20
       -3.359977
 30
        0.000000
 40
        0.600000
  0
CIRCLE
  8
250
 10
        1.279885
 20
       -0.609977
 30
        0.000000
 40
        0.600000
  0
CIRCLE
  8
250
 10
        1.279885
 20
        2.130013
 30
        0.000000
 40
        0.600000
  0
CIRCLE
  8
250
 10
        1.279885
 20
        4.870003
 30
        0.000000
 40
        0.600000
  0
CIRCLE
  8
250
 10
        1.279885
 20
        7.609993
 30
        0.000000
 40
        0.600000
  0
CIRCLE
  8
250
 10
        4.119973
 20
        6.239998
 30
        0.000000
 40
        0.600000
  0
CIRCLE
  8
250
 10
        4.119973
 20
        8.989998
 30
        0.000000
 40
        0.600000
  0
CIRCLE
  8
250
 10
        1.279885
 20
       10.359993
 30
        0.000000
 40
        0.600000
  0
CIRCLE
  8
250
 10
        4.119973
 20
       11.729988
 30
        0.000000
 40
        0.600000
  0
CIRCLE
  8
250
 10
        1.279885
 20
       13.099984
 30
        0.000000
 40
        0.600000
  0
INSERT
  8
0
  6
CONTINUOUS
  2
BLK0001
 10
        0.000000
 20
        0.000000
  0
LINE
  8
115
 10
       -5.800000
 20
      -41.999992
 30
        0.000000
 11
      -11.000000
 21
      -41.999992
 31
        0.000000
  0
LINE
  8
115
 10
      -11.000000
 20
      -41.999992
 30
        0.000000
 11
      -11.000000
 21
      -30.999992
 31
        0.000000
  0
LINE
  8
115
 10
       -5.800000
 20
      -30.999992
 30
        0.000000
 11
      -11.000000
 21
      -30.999992
 31
        0.000000
  0
LINE
  8
115
 10
       -5.800000
 20
      -41.999992
 30
        0.000000
 11
       -5.800000
 21
      -30.999992
 31
        0.000000
  0
LINE
  8
115
 10
       10.000439
 20
      -17.049980
 30
        0.000000
 11
       10.000439
 21
       24.050057
 31
        0.000000
  0
LINE
  8
115
 10
       10.000439
 20
      -17.049980
 30
        0.000000
 11
       -4.599988
 21
      -17.049980
 31
        0.000000
  0
LINE
  8
115
 10
       10.000439
 20
       24.050057
 30
        0.000000
 11
       -4.599988
 21
       24.050057
 31
        0.000000
  0
LINE
  8
115
 10
       -4.599988
 20
      -17.049980
 30
        0.000000
 11
       -4.599988
 21
       24.050057
 31
        0.000000
  0
CIRCLE
  8
300
 10
        2.099878
 20
      -26.999984
 30
        0.000000
 40
        5.949890
  0
CIRCLE
  8
300
 10
        2.099878
 20
      -26.999984
 30
        0.000000
 40
        7.000000
  0
CIRCLE
  8
300
 10
        4.649683
 20
      -26.000000
 30
        0.000000
 40
        0.500000
  0
CIRCLE
  8
300
 10
        4.649683
 20
      -27.999984
 30
        0.000000
 40
        0.500000
  0
CIRCLE
  8
300
 10
        3.099878
 20
      -26.999984
 30
        0.000000
 40
        0.500000
  0
CIRCLE
  8
300
 10
        3.099878
 20
      -24.500000
 30
        0.000000
 40
        0.500000
  0
CIRCLE
  8
300
 10
        1.099878
 20
      -24.500000
 30
        0.000000
 40
        0.500000
  0
CIRCLE
  8
300
 10
        1.099878
 20
      -26.999984
 30
        0.000000
 40
        0.500000
  0
CIRCLE
  8
300
 10
        1.099878
 20
      -29.500000
 30
        0.000000
 40
        0.500000
  0
CIRCLE
  8
300
 10
        3.099878
 20
      -29.500000
 30
        0.000000
 40
        0.500000
  0
CIRCLE
  8
300
 10
       -0.450171
 20
      -27.999969
 30
        0.000000
 40
        0.500000
  0
CIRCLE
  8
300
 10
       -0.450171
 20
      -25.999984
 30
        0.000000
 40
        0.500000
  0
CIRCLE
  8
300
 10
        2.099878
 20
      -26.999984
 30
        0.000000
 40
        4.799988
  0
CIRCLE
  8
300
 10
        2.099878
 20
      -26.999984
 30
        0.000000
 40
        3.800049
  0
CIRCLE
  8
115
 10
        2.099878
 20
      -26.999984
 30
        0.000000
 40
        8.000000
  0
CIRCLE
  8
115
 10
        2.099878
 20
      -45.999988
 30
        0.000000
 40
        8.000000
  0
CIRCLE
  8
300
 10
        2.099878
 20
      -45.999988
 30
        0.000000
 40
        5.949890
  0
CIRCLE
  8
300
 10
        2.099878
 20
      -45.999988
 30
        0.000000
 40
        7.000000
  0
CIRCLE
  8
300
 10
        4.649683
 20
      -45.000003
 30
        0.000000
 40
        0.500000
  0
CIRCLE
  8
300
 10
        4.649683
 20
      -46.999988
 30
        0.000000
 40
        0.500000
  0
CIRCLE
  8
300
 10
        3.099878
 20
      -45.999988
 30
        0.000000
 40
        0.500000
  0
CIRCLE
  8
300
 10
        3.099878
 20
      -43.500003
 30
        0.000000
 40
        0.500000
  0
CIRCLE
  8
300
 10
        1.099878
 20
      -43.500003
 30
        0.000000
 40
        0.500000
  0
CIRCLE
  8
300
 10
        1.099878
 20
      -45.999988
 30
        0.000000
 40
        0.500000
  0
CIRCLE
  8
300
 10
        1.099878
 20
      -48.500003
 30
        0.000000
 40
        0.500000
  0
CIRCLE
  8
300
 10
        3.099878
 20
      -48.500003
 30
        0.000000
 40
        0.500000
  0
CIRCLE
  8
300
 10
       -0.450171
 20
      -46.999973
 30
        0.000000
 40
        0.500000
  0
CIRCLE
  8
300
 10
       -0.450171
 20
      -44.999988
 30
        0.000000
 40
        0.500000
  0
CIRCLE
  8
300
 10
        2.099878
 20
      -45.999988
 30
        0.000000
 40
        4.799988
  0
CIRCLE
  8
300
 10
        2.099878
 20
      -45.999988
 30
        0.000000
 40
        3.800049
  0
CIRCLE
  8
151
 10
       -5.100098
 20
       33.000008
 30
        0.000000
 40
        4.500000
  0
ARC
  8
151
 10
      -17.000000
 20
      -64.499992
 30
        0.000000
 40
        0.500000
 50
      180.000010
 51
      270.000000
  0
LINE
  8
151
 10
       17.000000
 20
      -64.999992
 30
        0.000000
 11
      -17.000000
 21
      -64.999992
 31
        0.000000
  0
ARC
  8
151
 10
       17.000000
 20
      -64.499992
 30
        0.000000
 40
        0.500000
 50
      270.000000
 51
      360.000000
  0
LINE
  8
226
 10
      -17.500000
 20
       39.000008
 30
        0.000000
 11
       17.500000
 21
       39.000008
 31
        0.000000
  0
LINE
  8
151
 10
      -14.100098
 20
       38.000008
 30
        0.000000
 11
      -14.100098
 21
       39.000008
 31
        0.000000
  0
LINE
  8
151
 10
       -9.900146
 20
       38.000008
 30
        0.000000
 11
       -9.900146
 21
       39.000008
 31
        0.000000
  0
LINE
  8
151
 10
       14.099854
 20
       38.000008
 30
        0.000000
 11
       14.099854
 21
       39.000008
 31
        0.000000
  0
LINE
  8
151
 10
        9.899902
 20
       38.000008
 30
        0.000000
 11
        9.899902
 21
       39.000008
 31
        0.000000
  0
CIRCLE
  8
121
 10
        4.000000
 20
       49.500008
 30
        0.000000
 40
        4.750000
  0
LINE
  8
241
 10
        4.375000
 20
       49.874642
 30
        0.000000
 11
        2.875000
 21
       49.874642
 31
        0.000000
  0
LINE
  8
241
 10
        4.375000
 20
       49.124642
 30
        0.000000
 11
        2.875000
 21
       49.124642
 31
        0.000000
  0
LINE
  8
241
 10
        2.875000
 20
       49.874642
 30
        0.000000
 11
        2.875000
 21
       49.124642
 31
        0.000000
  0
LINE
  8
241
 10
        4.375000
 20
       50.249642
 30
        0.000000
 11
        4.375000
 21
       49.874642
 31
        0.000000
  0
LINE
  8
241
 10
        5.125000
 20
       49.499642
 30
        0.000000
 11
        4.375000
 21
       50.249642
 31
        0.000000
  0
LINE
  8
241
 10
        5.125000
 20
       49.499642
 30
        0.000000
 11
        4.375000
 21
       48.749642
 31
        0.000000
  0
LINE
  8
241
 10
        4.375000
 20
       49.124642
 30
        0.000000
 11
        4.375000
 21
       48.749642
 31
        0.000000
  0
LINE
  8
241
 10
       -4.725098
 20
       33.374642
 30
        0.000000
 11
       -6.225098
 21
       33.374642
 31
        0.000000
  0
LINE
  8
241
 10
       -4.725098
 20
       32.624642
 30
        0.000000
 11
       -6.225098
 21
       32.624642
 31
        0.000000
  0
LINE
  8
241
 10
       -6.225098
 20
       33.374642
 30
        0.000000
 11
       -6.225098
 21
       32.624642
 31
        0.000000
  0
LINE
  8
241
 10
       -4.725098
 20
       33.749642
 30
        0.000000
 11
       -4.725098
 21
       33.374642
 31
        0.000000
  0
LINE
  8
241
 10
       -3.975098
 20
       32.999642
 30
        0.000000
 11
       -4.725098
 21
       33.749642
 31
        0.000000
  0
LINE
  8
241
 10
       -3.975098
 20
       32.999642
 30
        0.000000
 11
       -4.725098
 21
       32.249642
 31
        0.000000
  0
LINE
  8
241
 10
       -4.725098
 20
       32.624642
 30
        0.000000
 11
       -4.725098
 21
       32.249642
 31
        0.000000
  0
LINE
  8
151
 10
      -17.500000
 20
       57.000008
 30
        0.000000
 11
       17.500000
 21
       57.000008
 31
        0.000000
  0
LINE
  8
151
 10
      -16.100098
 20
       63.500008
 30
        0.000000
 11
       16.099854
 21
       63.500008
 31
        0.000000
  0
LINE
  8
151
 10
      -16.100098
 20
       58.000008
 30
        0.000000
 11
       16.099854
 21
       58.000008
 31
        0.000000
  0
LINE
  8
151
 10
      -16.100098
 20
       58.000008
 30
        0.000000
 11
      -16.100098
 21
       63.500008
 31
        0.000000
  0
LINE
  8
151
 10
       16.099854
 20
       58.000008
 30
        0.000000
 11
       16.099854
 21
       63.500008
 31
        0.000000
  0
ARC
  8
151
 10
      -17.000000
 20
       64.500008
 30
        0.000000
 40
        0.500000
 50
       90.000000
 51
      180.000010
  0
LINE
  8
151
 10
      -17.000000
 20
       65.000008
 30
        0.000000
 11
       17.000000
 21
       65.000008
 31
        0.000000
  0
ARC
  8
151
 10
       17.000000
 20
       64.500008
 30
        0.000000
 40
        0.500000
 50
        0.000000
 51
       90.000000
  0
LINE
  8
151
 10
       17.500000
 20
      -64.499992
 30
        0.000000
 11
       17.500000
 21
       64.500008
 31
        0.000000
  0
LINE
  8
100
 10
      157.300049
 20
       55.000008
 30
        0.000000
 11
      159.900002
 21
       55.000008
 31
        0.000000
  0
LINE
  8
100
 10
       58.500000
 20
       65.000008
 30
        0.000000
 11
      159.900002
 21
       65.000008
 31
        0.000000
  0
LINE
  8
100
 10
      159.900002
 20
       56.400002
 30
        0.000000
 11
      164.900002
 21
       56.400002
 31
        0.000000
  0
LINE
  8
100
 10
      159.900002
 20
       60.400002
 30
        0.000000
 11
      164.900002
 21
       60.400002
 31
        0.000000
  0
ARC
  8
100
 10
      164.900002
 20
       58.400002
 30
        0.000000
 40
        2.000000
 50
      270.000000
 51
      450.000000
  0
LINE
  8
100
 10
      159.900002
 20
       65.000008
 30
        0.000000
 11
      159.900002
 21
       55.000008
 31
        0.000000
  0
CIRCLE
  8
10
 62
  2
 10
        4.000000
 20
       49.500008
 30
        0.000000
 40
        2.000000
  0
CIRCLE
  8
10
 62
  2
 10
       -5.100098
 20
       33.000008
 30
        0.000000
 40
        2.000000
  0
DIMENSION
  8
11
 62
  5
  2
BLK0002
 10
      159.900009
 20
      -78.072739
 11
       95.990753
 21
      -77.372734
 13
      159.900009
 23
       55.000008
 14
       57.500000
 24
      -63.999992
 50
        0.0
 70
  0
  0
DIMENSION
  8
11
 62
  5
  2
BLK0003
 10
       31.195612
 20
      -64.999992
 11
       30.495613
 21
       -5.249992
 13
       17.000000
 23
      -64.999992
 14
       17.000000
 24
       65.000008
 50
       90.0
 70
  0
  0
DIMENSION
  8
11
 62
  5
  2
BLK0004
 10
       17.500000
 20
      -79.683563
 11
       -3.500000
 21
      -78.983559
 13
       17.500000
 23
      -64.499992
 14
      -17.500000
 24
      -64.499992
 50
        0.0
 70
  0
  0
LINE
  8
251
 10
        9.000100
 20
      -16.049980
 30
        0.000000
 11
        9.000100
 21
       23.050057
 31
        0.000000
  0
LINE
  8
251
 10
       -3.599998
 20
      -16.049980
 30
        0.000000
 11
       -3.599998
 21
       23.050057
 31
        0.000000
  0
LINE
  8
251
 10
        9.000100
 20
       23.050057
 30
        0.000000
 11
       -3.599998
 21
       23.050057
 31
        0.000000
  0
LINE
  8
251
 10
        9.000100
 20
      -16.049980
 30
        0.000000
 11
       -3.599998
 21
      -16.049980
 31
        0.000000
  0
LINE
  8
251
 10
        6.609963
 20
       13.355721
 30
        0.000000
 11
        6.609963
 21
       -6.355705
 31
        0.000000
  0
ARC
  8
251
 10
        5.009866
 20
       -6.355705
 30
        0.000000
 40
        1.599990
 50
      279.999892
 51
      360.000000
  0
LINE
  8
251
 10
        0.389993
 20
       -8.795036
 30
        0.000000
 11
        5.287698
 21
       -7.931388
 31
        0.000000
  0
ARC
  8
251
 10
        0.389993
 20
       -7.194999
 30
        0.000000
 40
        1.599854
 50
      180.000010
 51
      270.000000
  0
LINE
  8
251
 10
       -1.209861
 20
       14.194954
 30
        0.000000
 11
       -1.209861
 21
       -7.194999
 31
        0.000000
  0
ARC
  8
251
 10
        0.389993
 20
       14.194954
 30
        0.000000
 40
        1.599976
 50
       90.000000
 51
      180.000010
  0
LINE
  8
251
 10
        0.389993
 20
       15.795052
 30
        0.000000
 11
        5.287698
 21
       14.931404
 31
        0.000000
  0
ARC
  8
251
 10
        5.009866
 20
       13.355721
 30
        0.000000
 40
        1.600098
 50
        0.000000
 51
       80.000788
  0
CIRCLE
  8
251
 10
        2.700051
 20
       20.160042
 30
        0.000000
 40
        1.300049
  0
CIRCLE
  8
251
 10
        2.700051
 20
      -13.160026
 30
        0.000000
 40
        1.300049
  0
LINE
  8
251
 10
        5.200051
 20
       21.603402
 30
        0.000000
 11
        2.700051
 21
       23.046761
 31
        0.000000
  0
LINE
  8
251
 10
        2.700051
 20
       23.046761
 30
        0.000000
 11
        0.200051
 21
       21.603402
 31
        0.000000
  0
LINE
  8
251
 10
        0.200051
 20
       21.603402
 30
        0.000000
 11
        0.200051
 21
       18.716683
 31
        0.000000
  0
LINE
  8
251
 10
        0.200051
 20
       18.716683
 30
        0.000000
 11
        2.700051
 21
       17.273201
 31
        0.000000
  0
LINE
  8
251
 10
        2.700051
 20
       17.273201
 30
        0.000000
 11
        5.200051
 21
       18.716683
 31
        0.000000
  0
LINE
  8
251
 10
        5.200051
 20
       18.716683
 30
        0.000000
 11
        5.200051
 21
       21.603402
 31
        0.000000
  0
LINE
  8
251
 10
        5.200051
 20
      -11.716606
 30
        0.000000
 11
        2.700051
 21
      -10.273246
 31
        0.000000
  0
LINE
  8
251
 10
        2.700051
 20
      -10.273246
 30
        0.000000
 11
        0.200051
 21
      -11.716606
 31
        0.000000
  0
LINE
  8
251
 10
        0.200051
 20
      -11.716606
 30
        0.000000
 11
        0.200051
 21
      -14.603386
 31
        0.000000
  0
LINE
  8
251
 10
        0.200051
 20
      -14.603386
 30
        0.000000
 11
        2.700051
 21
      -16.046745
 31
        0.000000
  0
LINE
  8
251
 10
        2.700051
 20
      -16.046745
 30
        0.000000
 11
        5.200051
 21
      -14.603386
 31
        0.000000
  0
LINE
  8
251
 10
        5.200051
 20
      -14.603386
 30
        0.000000
 11
        5.200051
 21
      -11.716606
 31
        0.000000
  0
ENDSEC
  0
EOF
