  0
SECTION
  2
HEADER
  9
$ACADVER
  1
AC1006
  9
$INSBASE
 10
0.0
 20
0.0
 30
0.0
  9
$EXTMIN
 10
      -65.000000
 20
      -65.000000
  9
$EXTMAX
 10
      315.000000
 20
      334.067108
  9
$LIMMIN
 10
      -65.000000
 20
      -65.000000
  9
$LIMMAX
 10
      315.000000
 20
      334.067108
  9
$VIEWCTR
 10
      125.000000
 20
      125.000000
  9
$ORTHOMODE
 70
     0
  9
$ANGBASE
 50
0.0
  9
$ANGDIR
 70
     0
  9
$SPLINETYPE
 70
     6
  9
$SPLINESEGS
 70
     8
9
$DIMASZ
 40
        4.000000
9
$DIMEXE
 40
        0.700000
9
$DIMEXO
 40
        1.000000
9
$DIMTXT
 40
        4.000000
9
$DIMGAP
 40
        0.700000
9
$DIMTAD
 70
1
9
$DIMTIH
 70
0
9
$DIMTOH
 70
0
  0
ENDSEC
  0
SECTION
  2
TABLES
  0
TABLE
  2
LTYPE
 70
     5
  0
LTYPE
  2
CONTINUOUS
 70
    64
  3
SOLID LINE
 72
    65
 73
     0
 40
0.0
  0
LTYPE
  2
DASHED
 70
    64
  3
-- -- -- -- -- --
 72
    65
 73
     2
 40
  0.75  
 49
  0.50  
 49
 -0.25  
  0
LTYPE
  2
DOT
 70
    64
  3
....................
 72
    65
 73
     2
 40
  0.25  
 49
  0.02  
 49
 -0.23  
  0
LTYPE
  2
CENTER
 70
    64
  3
-- . -- . -- . -- .
 72
    65
 73
    4
 40
  2.00  
 49
  1.25  
 49
 -0.25  
 49
  0.25  
 49
 -0.25  
  0
LTYPE
  2
PHANTOM
 70
    64
  3
-- .. -- .. -- ..
 72
    65
 73
    6
 40
  2.50  
 49
  1.25  
 49
 -0.25  
 49
  0.25  
 49
 -0.25  
 49
  0.25  
 49
 -0.25  
  0
ENDTAB
  0
TABLE
  2
LAYER
 70
     1
  0
LAYER
  2
LVL0000
 70
    64
 62
     3
  6
CONTINUOUS
  0
ENDTAB
  0
TABLE
  2
STYLE
 70
     2
  0
STYLE
  2
STANDARD
 70
    64
 40
0.0
 41
1.0
 50
0.0
 71
     0
 42
5.0
  3
ROMANS
  4
BIGFONT
  0
STYLE
  2
BIGFONT
 70
    64
 40
0.0
 41
1.0
 50
0.0
 71
     0
 42
5.0
  3
ROMANS
  4
BIGFONT
  0
ENDTAB
  0
TABLE
  2
VIEW
 70
     0
  0
ENDTAB
  0
TABLE
  2
UCS
 70
     0
  0
ENDTAB
  0
TABLE
  2
DWGMGR
 70
     0
  0
ENDTAB
  0
ENDSEC
  0
SECTION
  2
BLOCKS
  0
BLOCK
  8
0
  2
BLK0001
 70
    64
 10
        0.000000
 20
        0.000000
  0
TEXT
  8
LVL0000
 62
  2
 10
       87.734085
 20
      122.206627
 30
        0.000000
 40
        4.000000
  1
２４５．５
 50
        0.000000
 41
        0.835000
 51
        0.000000
  7
BIGFONT
  0
LINE
  8
LVL0000
 62
  2
 10
      216.000000
 20
      138.000000
 30
        0.000000
 11
      216.000000
 21
      120.806625
 31
        0.000000
  0
LINE
  8
LVL0000
 62
  2
 10
      -29.500002
 20
      138.000000
 30
        0.000000
 11
      -29.500002
 21
      120.806625
 31
        0.000000
  0
LINE
  8
LVL0000
 62
  2
 10
      212.000000
 20
      120.459427
 30
        0.000000
 11
      216.000000
 21
      121.506622
 31
        0.000000
  0
LINE
  8
LVL0000
 62
  2
 10
      216.000000
 20
      121.506622
 30
        0.000000
 11
      212.000000
 21
      122.553818
 31
        0.000000
  0
LINE
  8
LVL0000
 62
  2
 10
      -25.500002
 20
      122.553818
 30
        0.000000
 11
      -29.500002
 21
      121.506622
 31
        0.000000
  0
LINE
  8
LVL0000
 62
  2
 10
      -29.500002
 20
      121.506622
 30
        0.000000
 11
      -25.500002
 21
      120.459427
 31
        0.000000
  0
LINE
  8
LVL0000
 62
  2
 10
      216.000000
 20
      121.506622
 30
        0.000000
 11
      -29.500002
 21
      121.506622
 31
        0.000000
  0
ENDBLK
  0
BLOCK
  8
0
  2
BLK0002
 70
    64
 10
        0.000000
 20
        0.000000
  0
TEXT
  8
LVL0000
 62
  2
 10
      218.331421
 20
      122.206627
 30
        0.000000
 40
        4.000000
  1
８
 50
        0.000000
 41
        0.835000
 51
        0.000000
  7
BIGFONT
  0
LINE
  8
LVL0000
 62
  2
 10
      216.000000
 20
      137.000000
 30
        0.000000
 11
      216.000000
 21
      120.806625
 31
        0.000000
  0
LINE
  8
LVL0000
 62
  2
 10
      224.000000
 20
      137.000000
 30
        0.000000
 11
      224.000000
 21
      120.806625
 31
        0.000000
  0
LINE
  8
LVL0000
 62
  2
 10
      212.000000
 20
      120.459427
 30
        0.000000
 11
      216.000000
 21
      121.506622
 31
        0.000000
  0
LINE
  8
LVL0000
 62
  2
 10
      216.000000
 20
      121.506622
 30
        0.000000
 11
      212.000000
 21
      122.553818
 31
        0.000000
  0
LINE
  8
LVL0000
 62
  2
 10
      228.000000
 20
      122.553818
 30
        0.000000
 11
      224.000000
 21
      121.506622
 31
        0.000000
  0
LINE
  8
LVL0000
 62
  2
 10
      224.000000
 20
      121.506622
 30
        0.000000
 11
      228.000000
 21
      120.459427
 31
        0.000000
  0
LINE
  8
LVL0000
 62
  2
 10
      210.500000
 20
      121.506622
 30
        0.000000
 11
      229.500000
 21
      121.506622
 31
        0.000000
  0
ENDBLK
  0
BLOCK
  8
0
  2
BLK0003
 70
    64
 10
        0.000000
 20
        0.000000
  0
TEXT
  8
LVL0000
 62
  2
 10
       87.250000
 20
      108.494286
 30
        0.000000
 40
        4.000000
  1
２６１．５
 50
        0.000000
 41
        0.835000
 51
        0.000000
  7
BIGFONT
  0
LINE
  8
LVL0000
 62
  2
 10
      -37.500000
 20
      138.000000
 30
        0.000000
 11
      -37.500000
 21
      107.094284
 31
        0.000000
  0
LINE
  8
LVL0000
 62
  2
 10
      224.000000
 20
      138.000000
 30
        0.000000
 11
      224.000000
 21
      107.094284
 31
        0.000000
  0
LINE
  8
LVL0000
 62
  2
 10
      -33.500000
 20
      108.841476
 30
        0.000000
 11
      -37.500000
 21
      107.794281
 31
        0.000000
  0
LINE
  8
LVL0000
 62
  2
 10
      -37.500000
 20
      107.794281
 30
        0.000000
 11
      -33.500000
 21
      106.747086
 31
        0.000000
  0
LINE
  8
LVL0000
 62
  2
 10
      220.000000
 20
      106.747086
 30
        0.000000
 11
      224.000000
 21
      107.794281
 31
        0.000000
  0
LINE
  8
LVL0000
 62
  2
 10
      224.000000
 20
      107.794281
 30
        0.000000
 11
      220.000000
 21
      108.841476
 31
        0.000000
  0
LINE
  8
LVL0000
 62
  2
 10
      -37.500000
 20
      107.794281
 30
        0.000000
 11
      224.000000
 21
      107.794281
 31
        0.000000
  0
ENDBLK
  0
BLOCK
  8
0
  2
BLK0004
 70
    64
 10
        0.000000
 20
        0.000000
  0
TEXT
  8
LVL0000
 62
  2
 10
      243.335373
 20
      259.000000
 30
        0.000000
 40
        4.000000
  1
８
 50
       90.000000
 41
        0.835000
 51
        0.000000
  7
BIGFONT
  0
LINE
  8
LVL0000
 62
  2
 10
      209.000000
 20
      265.000000
 30
        0.000000
 11
      244.735367
 21
      265.000000
 31
        0.000000
  0
LINE
  8
LVL0000
 62
  2
 10
      217.000000
 20
      257.000000
 30
        0.000000
 11
      244.735367
 21
      257.000000
 31
        0.000000
  0
LINE
  8
LVL0000
 62
  2
 10
      243.249969
 20
      268.000000
 30
        0.000000
 11
      244.035370
 21
      265.000000
 31
        0.000000
  0
LINE
  8
LVL0000
 62
  2
 10
      244.035370
 20
      265.000000
 30
        0.000000
 11
      244.820770
 21
      268.000000
 31
        0.000000
  0
LINE
  8
LVL0000
 62
  2
 10
      244.820770
 20
      254.000000
 30
        0.000000
 11
      244.035370
 21
      257.000000
 31
        0.000000
  0
LINE
  8
LVL0000
 62
  2
 10
      244.035370
 20
      257.000000
 30
        0.000000
 11
      243.249969
 21
      254.000000
 31
        0.000000
  0
LINE
  8
LVL0000
 62
  2
 10
      244.035370
 20
      270.500000
 30
        0.000000
 11
      244.035370
 21
      251.500000
 31
        0.000000
  0
ENDBLK
  0
BLOCK
  8
0
  2
BLK0005
 70
    64
 10
        0.000000
 20
        0.000000
  0
TEXT
  8
LVL0000
 62
  2
 10
      243.335373
 20
      192.000000
 30
        0.000000
 40
        4.000000
  1
１１８
 50
       90.000000
 41
        0.835000
 51
        0.000000
  7
BIGFONT
  0
LINE
  8
LVL0000
 62
  2
 10
      217.000000
 20
      257.000000
 30
        0.000000
 11
      244.735367
 21
      257.000000
 31
        0.000000
  0
LINE
  8
LVL0000
 62
  2
 10
      217.000000
 20
      139.000000
 30
        0.000000
 11
      244.735367
 21
      139.000000
 31
        0.000000
  0
LINE
  8
LVL0000
 62
  2
 10
      244.820770
 20
      254.000000
 30
        0.000000
 11
      244.035370
 21
      257.000000
 31
        0.000000
  0
LINE
  8
LVL0000
 62
  2
 10
      244.035370
 20
      257.000000
 30
        0.000000
 11
      243.249969
 21
      254.000000
 31
        0.000000
  0
LINE
  8
LVL0000
 62
  2
 10
      243.249969
 20
      142.000000
 30
        0.000000
 11
      244.035370
 21
      139.000000
 31
        0.000000
  0
LINE
  8
LVL0000
 62
  2
 10
      244.035370
 20
      139.000000
 30
        0.000000
 11
      244.820770
 21
      142.000000
 31
        0.000000
  0
LINE
  8
LVL0000
 62
  2
 10
      244.035370
 20
      257.000000
 30
        0.000000
 11
      244.035370
 21
      139.000000
 31
        0.000000
  0
ENDBLK
  0
BLOCK
  8
0
  2
BLK0006
 70
    64
 10
        0.000000
 20
        0.000000
  0
TEXT
  8
LVL0000
 62
  2
 10
      254.321854
 20
      194.000000
 30
        0.000000
 40
        4.000000
  1
１３０
 50
       90.000000
 41
        0.835000
 51
        0.000000
  7
BIGFONT
  0
LINE
  8
LVL0000
 62
  2
 10
      209.000000
 20
      265.000000
 30
        0.000000
 11
      255.721848
 21
      265.000000
 31
        0.000000
  0
LINE
  8
LVL0000
 62
  2
 10
      209.000000
 20
      135.000000
 30
        0.000000
 11
      255.721848
 21
      135.000000
 31
        0.000000
  0
LINE
  8
LVL0000
 62
  2
 10
      255.807251
 20
      262.000000
 30
        0.000000
 11
      255.021851
 21
      265.000000
 31
        0.000000
  0
LINE
  8
LVL0000
 62
  2
 10
      255.021851
 20
      265.000000
 30
        0.000000
 11
      254.236450
 21
      262.000000
 31
        0.000000
  0
LINE
  8
LVL0000
 62
  2
 10
      254.236450
 20
      138.000000
 30
        0.000000
 11
      255.021851
 21
      135.000000
 31
        0.000000
  0
LINE
  8
LVL0000
 62
  2
 10
      255.021851
 20
      135.000000
 30
        0.000000
 11
      255.807251
 21
      138.000000
 31
        0.000000
  0
LINE
  8
LVL0000
 62
  2
 10
      255.021851
 20
      265.000000
 30
        0.000000
 11
      255.021851
 21
      135.000000
 31
        0.000000
  0
ENDBLK
  0
BLOCK
  8
0
  2
BLK0007
 70
    64
 10
        0.000000
 20
        0.000000
  0
TEXT
  8
LVL0000
 62
  2
 10
      288.938538
 20
      277.482269
 30
        0.000000
 40
        4.000000
  1
７．６
 50
        0.000000
 41
        0.835000
 51
        0.000000
  7
BIGFONT
  0
LINE
  8
LVL0000
 62
  2
 10
      278.012512
 20
      266.000000
 30
        0.000000
 11
      278.012512
 21
      277.482269
 31
        0.000000
  0
LINE
  8
LVL0000
 62
  2
 10
      285.612518
 20
      264.399994
 30
        0.000000
 11
      285.612518
 21
      277.482269
 31
        0.000000
  0
LINE
  8
LVL0000
 62
  2
 10
      275.012512
 20
      275.996857
 30
        0.000000
 11
      278.012512
 21
      276.782257
 31
        0.000000
  0
LINE
  8
LVL0000
 62
  2
 10
      278.012512
 20
      276.782257
 30
        0.000000
 11
      275.012512
 21
      277.567657
 31
        0.000000
  0
LINE
  8
LVL0000
 62
  2
 10
      288.612518
 20
      277.567657
 30
        0.000000
 11
      285.612518
 21
      276.782257
 31
        0.000000
  0
LINE
  8
LVL0000
 62
  2
 10
      285.612518
 20
      276.782257
 30
        0.000000
 11
      288.612518
 21
      275.996857
 31
        0.000000
  0
LINE
  8
LVL0000
 62
  2
 10
      300.938538
 20
      276.782257
 30
        0.000000
 11
      272.512512
 21
      276.782257
 31
        0.000000
  0
ENDBLK
  0
ENDSEC
  0
SECTION
  2
ENTITIES
  0
ARC
  8
LVL0000
 10
      -35.500000
 20
       61.000000
 30
        0.000000
 40
        2.000000
 50
       90.000000
 51
      179.999995
  0
LINE
  8
LVL0000
 10
      -37.500000
 20
       61.000000
 30
        0.000000
 11
      -37.500000
 21
      -61.000000
 31
        0.000000
  0
LINE
  8
LVL0000
 10
      -35.500000
 20
       63.000000
 30
        0.000000
 11
      -21.500000
 21
       63.000000
 31
        0.000000
  0
ARC
  8
LVL0000
 10
      -35.500000
 20
      -61.000000
 30
        0.000000
 40
        2.000000
 50
      179.999995
 51
      270.000000
  0
LINE
  8
LVL0000
 10
      -35.500000
 20
      -63.000000
 30
        0.000000
 11
      -32.500000
 21
      -63.000000
 31
        0.000000
  0
ARC
  8
LVL0000
 10
      222.000000
 20
      -61.000000
 30
        0.000000
 40
        2.000000
 50
      270.000000
 51
      360.000000
  0
LINE
  8
LVL0000
 10
      224.000000
 20
       61.000000
 30
        0.000000
 11
      224.000000
 21
      -61.000000
 31
        0.000000
  0
LINE
  8
LVL0000
 10
      219.000000
 20
      -63.000000
 30
        0.000000
 11
      222.000000
 21
      -63.000000
 31
        0.000000
  0
ARC
  8
LVL0000
 10
      222.000000
 20
       61.000000
 30
        0.000000
 40
        2.000000
 50
        0.000000
 51
       90.000000
  0
LINE
  8
LVL0000
 10
      208.000000
 20
       63.000000
 30
        0.000000
 11
      222.000000
 21
       63.000000
 31
        0.000000
  0
ARC
  8
LVL0000
 10
      -35.500002
 20
      139.000000
 30
        0.000000
 40
        2.000000
 50
      179.999995
 51
      270.000000
  0
LINE
  8
LVL0000
 10
      -35.500002
 20
      137.000000
 30
        0.000000
 11
      -32.500002
 21
      137.000000
 31
        0.000000
  0
LINE
  8
LVL0000
 10
      -37.500002
 20
      261.000000
 30
        0.000000
 11
      -37.500002
 21
      139.000000
 31
        0.000000
  0
ARC
  8
LVL0000
 10
      -35.500002
 20
      261.000000
 30
        0.000000
 40
        2.000000
 50
       90.000000
 51
      179.999995
  0
LINE
  8
LVL0000
 10
      -35.500002
 20
      263.000000
 30
        0.000000
 11
      -21.500002
 21
      263.000000
 31
        0.000000
  0
ARC
  8
LVL0000
 10
      221.999998
 20
      139.000000
 30
        0.000000
 40
        2.000000
 50
      270.000000
 51
      360.000000
  0
LINE
  8
LVL0000
 10
      223.999998
 20
      261.000000
 30
        0.000000
 11
      223.999998
 21
      139.000000
 31
        0.000000
  0
LINE
  8
LVL0000
 10
      218.999998
 20
      137.000000
 30
        0.000000
 11
      221.999998
 21
      137.000000
 31
        0.000000
  0
ARC
  8
LVL0000
 10
      221.999998
 20
      261.000000
 30
        0.000000
 40
        2.000000
 50
        0.000000
 51
       90.000000
  0
LINE
  8
LVL0000
 10
      207.999998
 20
      263.000000
 30
        0.000000
 11
      221.999998
 21
      263.000000
 31
        0.000000
  0
DIMENSION
  8
LVL0000
 62
  5
  2
BLK0001
 10
      216.000000
 20
      121.506622
 11
       87.734085
 21
      122.206627
 13
      216.000000
 23
      139.000000
 14
      -29.500002
 24
      139.000000
 50
        0.0
 70
  0
  0
DIMENSION
  8
LVL0000
 62
  5
  2
BLK0002
 10
      210.500000
 20
      121.506622
 11
      218.331421
 21
      122.206627
 13
      216.000000
 23
      138.000000
 14
      224.000000
 24
      138.000000
 50
        0.0
 70
  0
  0
LINE
  8
LVL0000
 10
      213.400024
 20
      295.099976
 30
        0.000000
 11
      206.399994
 21
      295.099976
 31
        0.000000
  0
LINE
  8
LVL0000
 10
      213.400024
 20
      298.749969
 30
        0.000000
 11
      206.399994
 21
      298.749969
 31
        0.000000
  0
LINE
  8
LVL0000
 10
      213.400024
 20
      295.099976
 30
        0.000000
 11
      213.400024
 21
      305.800000
 31
        0.000000
  0
LINE
  8
LVL0000
 10
      206.399994
 20
      295.099976
 30
        0.000000
 11
      206.399994
 21
      305.800000
 31
        0.000000
  0
LINE
  8
LVL0000
 10
      212.000000
 20
       45.614990
 30
        0.000000
 11
      212.000000
 21
       41.314987
 31
        0.000000
  0
LINE
  8
LVL0000
 10
      207.400024
 20
       45.614990
 30
        0.000000
 11
      207.400024
 21
       41.314987
 31
        0.000000
  0
LINE
  8
LVL0000
 10
      212.000000
 20
       10.784988
 30
        0.000000
 11
      212.000000
 21
        6.484985
 31
        0.000000
  0
LINE
  8
LVL0000
 10
      207.400024
 20
       10.784988
 30
        0.000000
 11
      207.400024
 21
        6.484985
 31
        0.000000
  0
LINE
  8
LVL0000
 10
      207.950012
 20
        9.799988
 30
        0.000000
 11
      211.450012
 21
        9.799988
 31
        0.000000
  0
LINE
  8
LVL0000
 10
      207.950012
 20
       42.299988
 30
        0.000000
 11
      211.450012
 21
       42.299988
 31
        0.000000
  0
LINE
  8
LVL0000
 10
      207.400024
 20
       45.614990
 30
        0.000000
 11
      212.000000
 21
       45.614990
 31
        0.000000
  0
LINE
  8
LVL0000
 10
      207.400024
 20
        6.484985
 30
        0.000000
 11
      212.000000
 21
        6.484985
 31
        0.000000
  0
LINE
  8
LVL0000
 10
      211.450012
 20
       10.784988
 30
        0.000000
 11
      211.450012
 21
        9.799988
 31
        0.000000
  0
LINE
  8
LVL0000
 10
      207.950012
 20
       10.784988
 30
        0.000000
 11
      207.950012
 21
        9.799988
 31
        0.000000
  0
LINE
  8
LVL0000
 10
      211.450012
 20
       42.299988
 30
        0.000000
 11
      211.450012
 21
       41.314987
 31
        0.000000
  0
LINE
  8
LVL0000
 10
      207.950012
 20
       42.299988
 30
        0.000000
 11
      207.950012
 21
       41.314987
 31
        0.000000
  0
LINE
  8
LVL0000
 10
      213.000000
 20
       41.314987
 30
        0.000000
 11
      213.000000
 21
       10.784988
 31
        0.000000
  0
LINE
  8
LVL0000
 10
      206.399994
 20
       10.784988
 30
        0.000000
 11
      213.400024
 21
       10.784988
 31
        0.000000
  0
LINE
  8
LVL0000
 10
      213.000000
 20
       39.114990
 30
        0.000000
 11
      213.400024
 21
       39.114990
 31
        0.000000
  0
LINE
  8
LVL0000
 10
      213.000000
 20
       12.984985
 30
        0.000000
 11
      213.400024
 21
       12.984985
 31
        0.000000
  0
LINE
  8
LVL0000
 10
      213.400024
 20
       12.984985
 30
        0.000000
 11
      213.400024
 21
        5.784988
 31
        0.000000
  0
LINE
  8
LVL0000
 10
      213.400024
 20
       46.314987
 30
        0.000000
 11
      213.400024
 21
       39.114990
 31
        0.000000
  0
LINE
  8
LVL0000
 10
      206.399994
 20
       41.314987
 30
        0.000000
 11
      213.400024
 21
       41.314987
 31
        0.000000
  0
LINE
  8
LVL0000
 10
      206.399994
 20
        5.784988
 30
        0.000000
 11
      213.400024
 21
        5.784988
 31
        0.000000
  0
LINE
  8
LVL0000
 10
      206.399994
 20
       46.314987
 30
        0.000000
 11
      213.400024
 21
       46.314987
 31
        0.000000
  0
LINE
  8
LVL0000
 10
      206.399994
 20
       46.314987
 30
        0.000000
 11
      206.399994
 21
        5.784988
 31
        0.000000
  0
LINE
  8
LVL0000
 10
      208.747498
 20
       38.964981
 30
        0.000000
 11
      208.747498
 21
       13.134987
 31
        0.000000
  0
LINE
  8
LVL0000
 10
      210.652527
 20
       38.964981
 30
        0.000000
 11
      210.652527
 21
       13.134987
 31
        0.000000
  0
CIRCLE
  8
LVL0000
 10
      209.700012
 20
        8.269989
 30
        0.000000
 40
        1.149994
  0
CIRCLE
  8
LVL0000
 10
      209.700012
 20
       43.829987
 30
        0.000000
 40
        1.149994
  0
LINE
  8
LVL0000
 10
      208.450012
 20
       38.964981
 30
        0.000000
 11
      208.450012
 21
       13.134987
 31
        0.000000
  0
LINE
  8
LVL0000
 10
      210.950012
 20
       38.964981
 30
        0.000000
 11
      210.950012
 21
       13.134987
 31
        0.000000
  0
LINE
  8
LVL0000
 10
      207.200012
 20
       40.314987
 30
        0.000000
 11
      207.200012
 21
       11.784988
 31
        0.000000
  0
LINE
  8
LVL0000
 10
      212.200012
 20
       40.314987
 30
        0.000000
 11
      212.200012
 21
       11.784988
 31
        0.000000
  0
LINE
  8
LVL0000
 10
      208.450012
 20
       13.134987
 30
        0.000000
 11
      210.950012
 21
       13.134987
 31
        0.000000
  0
LINE
  8
LVL0000
 10
      208.450012
 20
       38.964981
 30
        0.000000
 11
      210.950012
 21
       38.964981
 31
        0.000000
  0
LINE
  8
LVL0000
 10
      207.200012
 20
       11.784988
 30
        0.000000
 11
      212.200012
 21
       11.784988
 31
        0.000000
  0
LINE
  8
LVL0000
 10
      207.200012
 20
       40.314987
 30
        0.000000
 11
      212.200012
 21
       40.314987
 31
        0.000000
  0
CIRCLE
  8
LVL0000
 10
      201.000000
 20
       59.500000
 30
        0.000000
 40
        2.000000
  0
CIRCLE
  8
LVL0000
 10
      201.000000
 20
       59.500000
 30
        0.000000
 40
        1.500000
  0
CIRCLE
  8
LVL0000
 10
      201.000000
 20
      -59.500000
 30
        0.000000
 40
        2.000000
  0
CIRCLE
  8
LVL0000
 10
      201.000000
 20
      -59.500000
 30
        0.000000
 40
        1.500000
  0
POINT
  8
LVL0000
 10
      -25.500002
 20
      182.250000
 30
        0.000000
  0
POINT
  8
LVL0000
 10
      -25.500002
 20
      173.750000
 30
        0.000000
  0
LINE
  8
LVL0000
 10
      -32.500002
 20
      188.000000
 30
        0.000000
 11
      -19.500002
 21
      188.000000
 31
        0.000000
  0
LINE
  8
LVL0000
 10
      -32.500002
 20
      188.000000
 30
        0.000000
 11
      -32.500002
 21
      168.000000
 31
        0.000000
  0
LINE
  8
LVL0000
 10
      -19.500002
 20
      188.000000
 30
        0.000000
 11
      -19.500002
 21
      168.000000
 31
        0.000000
  0
LINE
  8
LVL0000
 10
      -32.500002
 20
      168.000000
 30
        0.000000
 11
      -19.500002
 21
      168.000000
 31
        0.000000
  0
LINE
  8
LVL0000
 10
      -32.500002
 20
      187.149994
 30
        0.000000
 11
      -20.800005
 21
      187.149994
 31
        0.000000
  0
LINE
  8
LVL0000
 10
      -20.800005
 20
      188.000000
 30
        0.000000
 11
      -20.800005
 21
      187.149994
 31
        0.000000
  0
LINE
  8
LVL0000
 10
      -32.500002
 20
      185.850006
 30
        0.000000
 11
      -20.800005
 21
      185.850006
 31
        0.000000
  0
LINE
  8
LVL0000
 10
      -20.800005
 20
      185.850006
 30
        0.000000
 11
      -20.800005
 21
      178.649994
 31
        0.000000
  0
LINE
  8
LVL0000
 10
      -32.500002
 20
      178.649994
 30
        0.000000
 11
      -20.800005
 21
      178.649994
 31
        0.000000
  0
LINE
  8
LVL0000
 10
      -32.500002
 20
      177.350006
 30
        0.000000
 11
      -20.800005
 21
      177.350006
 31
        0.000000
  0
LINE
  8
LVL0000
 10
      -20.800005
 20
      177.350006
 30
        0.000000
 11
      -20.800005
 21
      170.149994
 31
        0.000000
  0
LINE
  8
LVL0000
 10
      -32.500002
 20
      170.149994
 30
        0.000000
 11
      -20.800005
 21
      170.149994
 31
        0.000000
  0
LINE
  8
LVL0000
 10
      -32.500002
 20
      168.850006
 30
        0.000000
 11
      -20.800005
 21
      168.850006
 31
        0.000000
  0
LINE
  8
LVL0000
 10
      -20.800005
 20
      168.850006
 30
        0.000000
 11
      -20.800005
 21
      168.000000
 31
        0.000000
  0
LINE
  8
LVL0000
 10
      -29.100000
 20
      185.850006
 30
        0.000000
 11
      -29.100000
 21
      178.649994
 31
        0.000000
  0
LINE
  8
LVL0000
 10
      -29.100000
 20
      177.350006
 30
        0.000000
 11
      -29.100000
 21
      170.149994
 31
        0.000000
  0
LINE
  8
LVL0000
 10
      -21.900003
 20
      185.850006
 30
        0.000000
 11
      -21.900003
 21
      178.649994
 31
        0.000000
  0
LINE
  8
LVL0000
 10
      -21.900003
 20
      177.350006
 30
        0.000000
 11
      -21.900003
 21
      170.149994
 31
        0.000000
  0
CIRCLE
  8
LVL0000
 10
      -25.500002
 20
      182.250000
 30
        0.000000
 40
        3.000000
  0
CIRCLE
  8
LVL0000
 10
      -25.500002
 20
      173.750000
 30
        0.000000
 40
        3.000000
  0
LINE
  8
LVL0000
 10
      -29.100000
 20
      176.250000
 30
        0.000000
 11
      -29.600000
 21
      176.250000
 31
        0.000000
  0
LINE
  8
LVL0000
 10
      -29.600000
 20
      176.250000
 30
        0.000000
 11
      -29.600000
 21
      171.250000
 31
        0.000000
  0
LINE
  8
LVL0000
 10
      -21.400003
 20
      176.250000
 30
        0.000000
 11
      -21.900003
 21
      176.250000
 31
        0.000000
  0
LINE
  8
LVL0000
 10
      -21.400003
 20
      176.250000
 30
        0.000000
 11
      -21.400003
 21
      171.250000
 31
        0.000000
  0
LINE
  8
LVL0000
 10
      -21.400003
 20
      184.750000
 30
        0.000000
 11
      -21.900003
 21
      184.750000
 31
        0.000000
  0
LINE
  8
LVL0000
 10
      -21.400003
 20
      184.750000
 30
        0.000000
 11
      -21.400003
 21
      179.750000
 31
        0.000000
  0
LINE
  8
LVL0000
 10
      -29.100000
 20
      184.750000
 30
        0.000000
 11
      -29.600000
 21
      184.750000
 31
        0.000000
  0
LINE
  8
LVL0000
 10
      -29.600000
 20
      184.750000
 30
        0.000000
 11
      -29.600000
 21
      179.750000
 31
        0.000000
  0
LINE
  8
LVL0000
 10
      -29.100000
 20
      179.750000
 30
        0.000000
 11
      -29.600000
 21
      179.750000
 31
        0.000000
  0
LINE
  8
LVL0000
 10
      -21.400003
 20
      179.750000
 30
        0.000000
 11
      -21.900003
 21
      179.750000
 31
        0.000000
  0
LINE
  8
LVL0000
 10
      -21.400003
 20
      171.250000
 30
        0.000000
 11
      -21.900003
 21
      171.250000
 31
        0.000000
  0
LINE
  8
LVL0000
 10
      -29.100000
 20
      171.250000
 30
        0.000000
 11
      -29.600000
 21
      171.250000
 31
        0.000000
  0
LINE
  8
LVL0000
 10
      -27.621325
 20
      180.128677
 30
        0.000000
 11
      -23.378679
 21
      184.371323
 31
        0.000000
  0
LINE
  8
LVL0000
 10
      -26.560663
 20
      183.310669
 30
        0.000000
 11
      -24.439348
 21
      181.189331
 31
        0.000000
  0
LINE
  8
LVL0000
 10
      -27.621325
 20
      171.628677
 30
        0.000000
 11
      -23.378679
 21
      175.871323
 31
        0.000000
  0
LINE
  8
LVL0000
 10
      -26.560663
 20
      174.810669
 30
        0.000000
 11
      -24.439348
 21
      172.689331
 31
        0.000000
  0
CIRCLE
  8
LVL0000
 10
      207.999987
 20
      159.499985
 30
        0.000000
 40
        2.750000
  0
LINE
  8
LVL0000
 10
      207.999987
 20
      161.299984
 30
        0.000000
 11
      207.999987
 21
      157.699986
 31
        0.000000
  0
CIRCLE
  8
LVL0000
 10
       78.500000
 20
      161.000000
 30
        0.000000
 40
        2.500000
  0
LINE
  8
LVL0000
 10
      211.999983
 20
      245.615005
 30
        0.000000
 11
      211.999983
 21
      241.315002
 31
        0.000000
  0
LINE
  8
LVL0000
 10
      207.400007
 20
      245.615005
 30
        0.000000
 11
      207.400007
 21
      241.315002
 31
        0.000000
  0
LINE
  8
LVL0000
 10
      211.999983
 20
      210.785004
 30
        0.000000
 11
      211.999983
 21
      206.485001
 31
        0.000000
  0
LINE
  8
LVL0000
 10
      207.400007
 20
      210.785004
 30
        0.000000
 11
      207.400007
 21
      206.485001
 31
        0.000000
  0
LINE
  8
LVL0000
 10
      207.949995
 20
      209.800003
 30
        0.000000
 11
      211.449995
 21
      209.800003
 31
        0.000000
  0
LINE
  8
LVL0000
 10
      207.949995
 20
      242.300003
 30
        0.000000
 11
      211.449995
 21
      242.300003
 31
        0.000000
  0
LINE
  8
LVL0000
 10
      207.400007
 20
      245.615005
 30
        0.000000
 11
      211.999983
 21
      245.615005
 31
        0.000000
  0
LINE
  8
LVL0000
 10
      207.400007
 20
      206.485001
 30
        0.000000
 11
      211.999983
 21
      206.485001
 31
        0.000000
  0
LINE
  8
LVL0000
 10
      211.449995
 20
      210.785004
 30
        0.000000
 11
      211.449995
 21
      209.800003
 31
        0.000000
  0
LINE
  8
LVL0000
 10
      207.949995
 20
      210.785004
 30
        0.000000
 11
      207.949995
 21
      209.800003
 31
        0.000000
  0
LINE
  8
LVL0000
 10
      211.449995
 20
      242.300003
 30
        0.000000
 11
      211.449995
 21
      241.315002
 31
        0.000000
  0
LINE
  8
LVL0000
 10
      207.949995
 20
      242.300003
 30
        0.000000
 11
      207.949995
 21
      241.315002
 31
        0.000000
  0
LINE
  8
LVL0000
 10
      212.999983
 20
      241.315002
 30
        0.000000
 11
      212.999983
 21
      210.785004
 31
        0.000000
  0
LINE
  8
LVL0000
 10
      206.399977
 20
      210.785004
 30
        0.000000
 11
      213.400007
 21
      210.785004
 31
        0.000000
  0
LINE
  8
LVL0000
 10
      212.999983
 20
      239.115005
 30
        0.000000
 11
      213.400007
 21
      239.115005
 31
        0.000000
  0
LINE
  8
LVL0000
 10
      212.999983
 20
      212.985001
 30
        0.000000
 11
      213.400007
 21
      212.985001
 31
        0.000000
  0
LINE
  8
LVL0000
 10
      213.400007
 20
      212.985001
 30
        0.000000
 11
      213.400007
 21
      205.785004
 31
        0.000000
  0
LINE
  8
LVL0000
 10
      213.400007
 20
      246.315002
 30
        0.000000
 11
      213.400007
 21
      239.115005
 31
        0.000000
  0
LINE
  8
LVL0000
 10
      206.399977
 20
      241.315002
 30
        0.000000
 11
      213.400007
 21
      241.315002
 31
        0.000000
  0
LINE
  8
LVL0000
 10
      206.399977
 20
      205.785004
 30
        0.000000
 11
      213.400007
 21
      205.785004
 31
        0.000000
  0
LINE
  8
LVL0000
 10
      206.399977
 20
      246.315002
 30
        0.000000
 11
      213.400007
 21
      246.315002
 31
        0.000000
  0
LINE
  8
LVL0000
 10
      206.399977
 20
      246.315002
 30
        0.000000
 11
      206.399977
 21
      205.785004
 31
        0.000000
  0
LINE
  8
LVL0000
 10
      208.747480
 20
      238.964996
 30
        0.000000
 11
      208.747480
 21
      213.135002
 31
        0.000000
  0
LINE
  8
LVL0000
 10
      210.652510
 20
      238.964996
 30
        0.000000
 11
      210.652510
 21
      213.135002
 31
        0.000000
  0
CIRCLE
  8
LVL0000
 10
      209.699995
 20
      208.270004
 30
        0.000000
 40
        1.149994
  0
CIRCLE
  8
LVL0000
 10
      209.699995
 20
      243.830002
 30
        0.000000
 40
        1.149994
  0
LINE
  8
LVL0000
 10
      208.449995
 20
      238.964996
 30
        0.000000
 11
      208.449995
 21
      213.135002
 31
        0.000000
  0
LINE
  8
LVL0000
 10
      210.949995
 20
      238.964996
 30
        0.000000
 11
      210.949995
 21
      213.135002
 31
        0.000000
  0
LINE
  8
LVL0000
 10
      207.199995
 20
      240.315002
 30
        0.000000
 11
      207.199995
 21
      211.785004
 31
        0.000000
  0
LINE
  8
LVL0000
 10
      212.199995
 20
      240.315002
 30
        0.000000
 11
      212.199995
 21
      211.785004
 31
        0.000000
  0
LINE
  8
LVL0000
 10
      208.449995
 20
      213.135002
 30
        0.000000
 11
      210.949995
 21
      213.135002
 31
        0.000000
  0
LINE
  8
LVL0000
 10
      208.449995
 20
      238.964996
 30
        0.000000
 11
      210.949995
 21
      238.964996
 31
        0.000000
  0
LINE
  8
LVL0000
 10
      207.199995
 20
      211.785004
 30
        0.000000
 11
      212.199995
 21
      211.785004
 31
        0.000000
  0
LINE
  8
LVL0000
 10
      207.199995
 20
      240.315002
 30
        0.000000
 11
      212.199995
 21
      240.315002
 31
        0.000000
  0
CIRCLE
  8
LVL0000
 10
      200.999998
 20
      259.500000
 30
        0.000000
 40
        2.000000
  0
CIRCLE
  8
LVL0000
 10
      200.999998
 20
      259.500000
 30
        0.000000
 40
        1.500000
  0
CIRCLE
  8
LVL0000
 10
      188.499998
 20
      258.500000
 30
        0.000000
 40
        2.500000
  0
CIRCLE
  8
LVL0000
 10
      200.999998
 20
      140.500000
 30
        0.000000
 40
        2.000000
  0
CIRCLE
  8
LVL0000
 10
      200.999998
 20
      140.500000
 30
        0.000000
 40
        1.500000
  0
LINE
  8
LVL0000
 10
       74.899992
 20
      241.130005
 30
        0.000000
 11
       77.699995
 21
      241.130005
 31
        0.000000
  0
LINE
  8
LVL0000
 10
       74.899992
 20
      215.000015
 30
        0.000000
 11
       77.699995
 21
      215.000015
 31
        0.000000
  0
LINE
  8
LVL0000
 10
       74.899992
 20
      215.000015
 30
        0.000000
 11
       74.899992
 21
      241.130005
 31
        0.000000
  0
LINE
  8
LVL0000
 10
       77.699995
 20
      215.000015
 30
        0.000000
 11
       77.699995
 21
      241.130005
 31
        0.000000
  0
LINE
  8
LVL0000
 10
       79.599997
 20
      214.500015
 30
        0.000000
 11
       79.599997
 21
      241.630005
 31
        0.000000
  0
LINE
  8
LVL0000
 10
       72.999998
 20
      209.000015
 30
        0.000000
 11
       72.999998
 21
      247.130005
 31
        0.000000
  0
LINE
  8
LVL0000
 10
       73.899992
 20
      214.000015
 30
        0.000000
 11
       73.899992
 21
      242.130005
 31
        0.000000
  0
LINE
  8
LVL0000
 10
       78.699995
 20
      214.000015
 30
        0.000000
 11
       78.699995
 21
      242.130005
 31
        0.000000
  0
LINE
  8
LVL0000
 10
       79.599997
 20
      214.500015
 30
        0.000000
 11
       79.999998
 21
      214.500015
 31
        0.000000
  0
LINE
  8
LVL0000
 10
       79.999998
 20
      214.500015
 30
        0.000000
 11
       79.999998
 21
      209.000015
 31
        0.000000
  0
LINE
  8
LVL0000
 10
       72.999998
 20
      209.000015
 30
        0.000000
 11
       79.999998
 21
      209.000015
 31
        0.000000
  0
LINE
  8
LVL0000
 10
       78.149992
 20
      212.550018
 30
        0.000000
 11
       78.149992
 21
      209.700012
 31
        0.000000
  0
LINE
  8
LVL0000
 10
       74.449995
 20
      212.550018
 30
        0.000000
 11
       74.449995
 21
      209.700012
 31
        0.000000
  0
LINE
  8
LVL0000
 10
       78.149992
 20
      212.550018
 30
        0.000000
 11
       79.999998
 21
      212.550018
 31
        0.000000
  0
LINE
  8
LVL0000
 10
       72.999998
 20
      212.550018
 30
        0.000000
 11
       74.449995
 21
      212.550018
 31
        0.000000
  0
LINE
  8
LVL0000
 10
       74.449995
 20
      209.700012
 30
        0.000000
 11
       78.149992
 21
      209.700012
 31
        0.000000
  0
CIRCLE
  8
LVL0000
 10
       76.300001
 20
      211.555023
 30
        0.000000
 40
        1.149994
  0
LINE
  8
LVL0000
 10
       73.899992
 20
      214.000015
 30
        0.000000
 11
       78.699995
 21
      214.000015
 31
        0.000000
  0
LINE
  8
LVL0000
 10
       72.999998
 20
      247.130005
 30
        0.000000
 11
       79.999998
 21
      247.130005
 31
        0.000000
  0
LINE
  8
LVL0000
 10
       79.599997
 20
      241.630005
 30
        0.000000
 11
       79.999998
 21
      241.630005
 31
        0.000000
  0
LINE
  8
LVL0000
 10
       79.999998
 20
      241.630005
 30
        0.000000
 11
       79.999998
 21
      247.130005
 31
        0.000000
  0
LINE
  8
LVL0000
 10
       78.149992
 20
      243.580002
 30
        0.000000
 11
       78.149992
 21
      246.430008
 31
        0.000000
  0
LINE
  8
LVL0000
 10
       74.449995
 20
      243.580002
 30
        0.000000
 11
       74.449995
 21
      246.430008
 31
        0.000000
  0
LINE
  8
LVL0000
 10
       73.899992
 20
      242.130005
 30
        0.000000
 11
       78.699995
 21
      242.130005
 31
        0.000000
  0
LINE
  8
LVL0000
 10
       78.149992
 20
      243.580002
 30
        0.000000
 11
       79.999998
 21
      243.580002
 31
        0.000000
  0
LINE
  8
LVL0000
 10
       72.999998
 20
      243.580002
 30
        0.000000
 11
       74.449995
 21
      243.580002
 31
        0.000000
  0
LINE
  8
LVL0000
 10
       74.449995
 20
      246.430008
 30
        0.000000
 11
       78.149992
 21
      246.430008
 31
        0.000000
  0
CIRCLE
  8
LVL0000
 10
       76.300001
 20
      244.574997
 30
        0.000000
 40
        1.149994
  0
LINE
  8
LVL0000
  6
CENTER
 10
       35.500000
 20
      -65.000000
 30
        0.000000
 11
       35.500000
 21
       65.000000
 31
        0.000000
  0
LINE
  8
LVL0000
  6
CENTER
 10
       71.000000
 20
      -65.000000
 30
        0.000000
 11
       71.000000
 21
       65.000000
 31
        0.000000
  0
LINE
  8
LVL0000
 10
       53.500000
 20
      -65.000000
 30
        0.000000
 11
       53.500000
 21
       65.000000
 31
        0.000000
  0
LINE
  8
LVL0000
 10
       53.000000
 20
      -65.000000
 30
        0.000000
 11
       53.000000
 21
       65.000000
 31
        0.000000
  0
LINE
  8
LVL0000
 10
      -21.500000
 20
      -51.900000
 30
        0.000000
 11
      -21.500000
 21
      -65.000000
 31
        0.000000
  0
LINE
  8
LVL0000
 10
      -21.500000
 20
       65.000000
 30
        0.000000
 11
      -21.500000
 21
       49.499985
 31
        0.000000
  0
LINE
  8
LVL0000
 10
      -35.000000
 20
      -44.000015
 30
        0.000000
 11
      -35.000000
 21
      -51.900000
 31
        0.000000
  0
LINE
  8
LVL0000
 10
      -35.900000
 20
      -44.000015
 30
        0.000000
 11
      -35.900000
 21
      -46.900000
 31
        0.000000
  0
LINE
  8
LVL0000
 10
      -35.900000
 20
      -46.900000
 30
        0.000000
 11
      -37.500000
 21
      -46.900000
 31
        0.000000
  0
CIRCLE
  8
LVL0000
 10
      -29.500000
 20
       57.000000
 30
        0.000000
 40
        3.000000
  0
ARC
  8
LVL0000
 10
      -29.500000
 20
      -61.000000
 30
        0.000000
 40
        3.000000
 50
        0.000000
 51
      179.999995
  0
LINE
  8
LVL0000
 10
      -26.500000
 20
      -61.000000
 30
        0.000000
 11
      -26.500000
 21
      -63.000000
 31
        0.000000
  0
LINE
  8
LVL0000
 10
      -32.500000
 20
      -61.000000
 30
        0.000000
 11
      -32.500000
 21
      -63.000000
 31
        0.000000
  0
LINE
  8
LVL0000
 10
      -26.500000
 20
      -63.000000
 30
        0.000000
 11
      -21.500000
 21
      -63.000000
 31
        0.000000
  0
LINE
  8
LVL0000
 10
      -21.500000
 20
      -51.900000
 30
        0.000000
 11
      -35.000000
 21
      -51.900000
 31
        0.000000
  0
LINE
  8
LVL0000
 10
      -17.499998
 20
       52.799978
 30
        0.000000
 11
      -17.499998
 21
       49.199980
 31
        0.000000
  0
LINE
  8
LVL0000
 10
      -27.299982
 20
      -40.500034
 30
        0.000000
 11
      -23.700014
 21
      -40.500015
 31
        0.000000
  0
LINE
  8
LVL0000
 10
      -25.499998
 20
      -38.700016
 30
        0.000000
 11
      -25.499998
 21
      -42.300014
 31
        0.000000
  0
CIRCLE
  8
LVL0000
 10
      -25.499998
 20
      -40.500015
 30
        0.000000
 40
        2.750000
  0
LINE
  8
LVL0000
 10
      -37.500000
 20
       49.499969
 30
        0.000000
 11
      -21.499998
 21
       49.499969
 31
        0.000000
  0
LINE
  8
LVL0000
 10
      -26.560661
 20
      -25.189346
 30
        0.000000
 11
      -24.439346
 21
      -27.310684
 31
        0.000000
  0
LINE
  8
LVL0000
 10
      -27.621323
 20
      -28.371338
 30
        0.000000
 11
      -23.378677
 21
      -24.128693
 31
        0.000000
  0
LINE
  8
LVL0000
 10
      -26.560661
 20
      -16.689346
 30
        0.000000
 11
      -24.439346
 21
      -18.810684
 31
        0.000000
  0
LINE
  8
LVL0000
 10
      -27.621323
 20
      -19.871338
 30
        0.000000
 11
      -23.378677
 21
      -15.628693
 31
        0.000000
  0
LINE
  8
LVL0000
 10
      -29.099998
 20
      -28.750015
 30
        0.000000
 11
      -29.599998
 21
      -28.750015
 31
        0.000000
  0
LINE
  8
LVL0000
 10
      -21.400002
 20
      -28.750015
 30
        0.000000
 11
      -21.900002
 21
      -28.750015
 31
        0.000000
  0
LINE
  8
LVL0000
 10
      -21.400002
 20
      -20.250015
 30
        0.000000
 11
      -21.900002
 21
      -20.250015
 31
        0.000000
  0
LINE
  8
LVL0000
 10
      -29.099998
 20
      -20.250015
 30
        0.000000
 11
      -29.599998
 21
      -20.250015
 31
        0.000000
  0
LINE
  8
LVL0000
 10
      -29.599998
 20
      -15.250015
 30
        0.000000
 11
      -29.599998
 21
      -20.250015
 31
        0.000000
  0
LINE
  8
LVL0000
 10
      -29.099998
 20
      -15.250015
 30
        0.000000
 11
      -29.599998
 21
      -15.250015
 31
        0.000000
  0
LINE
  8
LVL0000
 10
      -21.400002
 20
      -15.250015
 30
        0.000000
 11
      -21.400002
 21
      -20.250015
 31
        0.000000
  0
LINE
  8
LVL0000
 10
      -21.400002
 20
      -15.250015
 30
        0.000000
 11
      -21.900002
 21
      -15.250015
 31
        0.000000
  0
LINE
  8
LVL0000
 10
      -21.400002
 20
      -23.750015
 30
        0.000000
 11
      -21.400002
 21
      -28.750015
 31
        0.000000
  0
LINE
  8
LVL0000
 10
      -21.400002
 20
      -23.750015
 30
        0.000000
 11
      -21.900002
 21
      -23.750015
 31
        0.000000
  0
LINE
  8
LVL0000
 10
      -29.599998
 20
      -23.750015
 30
        0.000000
 11
      -29.599998
 21
      -28.750015
 31
        0.000000
  0
LINE
  8
LVL0000
 10
      -29.099998
 20
      -23.750015
 30
        0.000000
 11
      -29.599998
 21
      -23.750015
 31
        0.000000
  0
CIRCLE
  8
LVL0000
 10
      -25.500000
 20
      -26.250015
 30
        0.000000
 40
        3.000000
  0
CIRCLE
  8
LVL0000
 10
      -25.500000
 20
      -17.750015
 30
        0.000000
 40
        3.000000
  0
LINE
  8
LVL0000
 10
      -21.900002
 20
      -22.650009
 30
        0.000000
 11
      -21.900002
 21
      -29.850021
 31
        0.000000
  0
LINE
  8
LVL0000
 10
      -21.900002
 20
      -14.150009
 30
        0.000000
 11
      -21.900002
 21
      -21.350021
 31
        0.000000
  0
LINE
  8
LVL0000
 10
      -29.099998
 20
      -22.650009
 30
        0.000000
 11
      -29.099998
 21
      -29.850021
 31
        0.000000
  0
LINE
  8
LVL0000
 10
      -29.099998
 20
      -14.150009
 30
        0.000000
 11
      -29.099998
 21
      -21.350021
 31
        0.000000
  0
LINE
  8
LVL0000
 10
      -20.800003
 20
      -31.150009
 30
        0.000000
 11
      -20.800003
 21
      -32.000015
 31
        0.000000
  0
LINE
  8
LVL0000
 10
      -32.500000
 20
      -31.150009
 30
        0.000000
 11
      -20.800003
 21
      -31.150009
 31
        0.000000
  0
LINE
  8
LVL0000
 10
      -32.500000
 20
      -29.850021
 30
        0.000000
 11
      -20.800003
 21
      -29.850021
 31
        0.000000
  0
LINE
  8
LVL0000
 10
      -20.800003
 20
      -22.650009
 30
        0.000000
 11
      -20.800003
 21
      -29.850021
 31
        0.000000
  0
LINE
  8
LVL0000
 10
      -32.500000
 20
      -22.650009
 30
        0.000000
 11
      -20.800003
 21
      -22.650009
 31
        0.000000
  0
LINE
  8
LVL0000
 10
      -32.500000
 20
      -21.350021
 30
        0.000000
 11
      -20.800003
 21
      -21.350021
 31
        0.000000
  0
LINE
  8
LVL0000
 10
      -20.800003
 20
      -14.150009
 30
        0.000000
 11
      -20.800003
 21
      -21.350021
 31
        0.000000
  0
LINE
  8
LVL0000
 10
      -32.500000
 20
      -14.150009
 30
        0.000000
 11
      -20.800003
 21
      -14.150009
 31
        0.000000
  0
LINE
  8
LVL0000
 10
      -20.800003
 20
      -12.000015
 30
        0.000000
 11
      -20.800003
 21
      -12.850021
 31
        0.000000
  0
LINE
  8
LVL0000
 10
      -32.500000
 20
      -12.850021
 30
        0.000000
 11
      -20.800003
 21
      -12.850021
 31
        0.000000
  0
LINE
  8
LVL0000
 10
      -32.500000
 20
      -32.000015
 30
        0.000000
 11
      -19.500000
 21
      -32.000015
 31
        0.000000
  0
LINE
  8
LVL0000
 10
      -19.500000
 20
      -12.000015
 30
        0.000000
 11
      -19.500000
 21
      -32.000015
 31
        0.000000
  0
LINE
  8
LVL0000
 10
      -32.500000
 20
      -12.000015
 30
        0.000000
 11
      -32.500000
 21
      -32.000015
 31
        0.000000
  0
LINE
  8
LVL0000
 10
      -32.500000
 20
      -12.000015
 30
        0.000000
 11
      -19.500000
 21
      -12.000015
 31
        0.000000
  0
LINE
  8
LVL0000
 10
      -37.500002
 20
       49.499985
 30
        0.000000
 11
      -21.500000
 21
       49.499985
 31
        0.000000
  0
ARC
  8
LVL0000
 10
      -17.499998
 20
       50.999969
 30
        0.000000
 40
        2.750000
 50
       90.000000
 51
      270.000000
  0
LINE
  8
LVL0000
 10
      -19.299982
 20
       50.999960
 30
        0.000000
 11
      -17.500000
 21
       50.999969
 31
        0.000000
  0
LINE
  8
LVL0000
 10
      -17.500000
 20
      -65.000000
 30
        0.000000
 11
      -17.500000
 21
       65.000000
 31
        0.000000
  0
LINE
  8
LVL0000
 10
       17.500000
 20
      -65.000000
 30
        0.000000
 11
       17.500000
 21
       65.000000
 31
        0.000000
  0
LINE
  8
LVL0000
 10
       18.000000
 20
      -65.000000
 30
        0.000000
 11
       18.000000
 21
       65.000000
 31
        0.000000
  0
LINE
  8
LVL0000
 10
       88.500000
 20
      -65.000000
 30
        0.000000
 11
       88.500000
 21
       65.000000
 31
        0.000000
  0
LINE
  8
LVL0000
 10
       89.000000
 20
      -65.000000
 30
        0.000000
 11
       89.000000
 21
       65.000000
 31
        0.000000
  0
LINE
  8
LVL0000
 10
      124.000000
 20
      -65.000000
 30
        0.000000
 11
      124.000000
 21
       65.000000
 31
        0.000000
  0
LINE
  8
LVL0000
 10
      -21.500000
 20
      -55.000000
 30
        0.000000
 11
      -17.500000
 21
      -55.000000
 31
        0.000000
  0
LINE
  8
LVL0000
 10
      124.500000
 20
      -65.000000
 30
        0.000000
 11
      124.500000
 21
       65.000000
 31
        0.000000
  0
LINE
  8
LVL0000
 10
      159.500000
 20
      -65.000000
 30
        0.000000
 11
      159.500000
 21
       65.000000
 31
        0.000000
  0
LINE
  8
LVL0000
 10
      160.000000
 20
      -65.000000
 30
        0.000000
 11
      160.000000
 21
       65.000000
 31
        0.000000
  0
LINE
  8
LVL0000
 10
      -17.500000
 20
      -46.900000
 30
        0.000000
 11
      -35.000000
 21
      -46.900000
 31
        0.000000
  0
LINE
  8
LVL0000
 10
      -37.500000
 20
      -44.000015
 30
        0.000000
 11
      -17.500000
 21
      -44.000015
 31
        0.000000
  0
LINE
  8
LVL0000
 10
      -21.499998
 20
       54.499969
 30
        0.000000
 11
      -17.500000
 21
       54.499969
 31
        0.000000
  0
LINE
  8
LVL0000
 10
      -37.500002
 20
      -44.000000
 30
        0.000000
 11
      -17.500000
 21
      -44.000000
 31
        0.000000
  0
LINE
  8
LVL0000
  6
CENTER
 10
      177.500000
 20
      -65.000000
 30
        0.000000
 11
      177.500000
 21
       65.000000
 31
        0.000000
  0
LINE
  8
LVL0000
  6
CENTER
 10
      142.000000
 20
      -65.000000
 30
        0.000000
 11
      142.000000
 21
       65.000000
 31
        0.000000
  0
LINE
  8
LVL0000
  6
CENTER
 10
      106.500000
 20
      -65.000000
 30
        0.000000
 11
      106.500000
 21
       65.000000
 31
        0.000000
  0
LINE
  8
LVL0000
  6
CENTER
 10
        0.000000
 20
      -65.000000
 30
        0.000000
 11
        0.000000
 21
       65.000000
 31
        0.000000
  0
LINE
  8
LVL0000
 10
      208.000000
 20
      -51.900000
 30
        0.000000
 11
      208.000000
 21
      -65.000000
 31
        0.000000
  0
LINE
  8
LVL0000
 10
      -21.500000
 20
       65.000000
 30
        0.000000
 11
      208.000000
 21
       65.000000
 31
        0.000000
  0
LINE
  8
LVL0000
 10
      208.000000
 20
      -63.000000
 30
        0.000000
 11
      213.000000
 21
      -63.000000
 31
        0.000000
  0
LINE
  8
LVL0000
 10
      219.000000
 20
      -61.000000
 30
        0.000000
 11
      219.000000
 21
      -63.000000
 31
        0.000000
  0
LINE
  8
LVL0000
 10
      213.000000
 20
      -61.000000
 30
        0.000000
 11
      213.000000
 21
      -63.000000
 31
        0.000000
  0
LINE
  8
LVL0000
 10
      195.000000
 20
      -55.000000
 30
        0.000000
 11
      208.000000
 21
      -55.000000
 31
        0.000000
  0
LINE
  8
LVL0000
 10
      195.000000
 20
      -44.000000
 30
        0.000000
 11
      224.000015
 21
      -44.000000
 31
        0.000000
  0
LINE
  8
LVL0000
 10
      195.000000
 20
      -44.000015
 30
        0.000000
 11
      224.000015
 21
      -44.000015
 31
        0.000000
  0
LINE
  8
LVL0000
 10
      221.500000
 20
      -46.900000
 30
        0.000000
 11
      195.000000
 21
      -46.900000
 31
        0.000000
  0
LINE
  8
LVL0000
 10
      195.000000
 20
       54.499969
 30
        0.000000
 11
      203.000015
 21
       54.499969
 31
        0.000000
  0
CIRCLE
  8
LVL0000
 10
      198.500015
 20
       50.999985
 30
        0.000000
 40
        2.750000
  0
LINE
  8
LVL0000
 10
      196.700031
 20
       50.999975
 30
        0.000000
 11
      200.299999
 21
       50.999994
 31
        0.000000
  0
LINE
  8
LVL0000
 10
      198.500015
 20
       52.799994
 30
        0.000000
 11
      198.500015
 21
       49.199995
 31
        0.000000
  0
CIRCLE
  8
LVL0000
 10
      208.099987
 20
      -40.500015
 30
        0.000000
 40
        2.750000
  0
LINE
  8
LVL0000
 10
      206.300003
 20
      -40.500025
 30
        0.000000
 11
      209.899971
 21
      -40.500006
 31
        0.000000
  0
LINE
  8
LVL0000
 10
      208.099987
 20
      -38.700006
 30
        0.000000
 11
      208.099987
 21
      -42.300005
 31
        0.000000
  0
CIRCLE
  8
LVL0000
 10
      198.000031
 20
      -40.500000
 30
        0.000000
 40
        1.750000
  0
LINE
  8
LVL0000
 10
      195.000000
 20
      -65.000000
 30
        0.000000
 11
      195.000000
 21
       65.000000
 31
        0.000000
  0
LINE
  8
LVL0000
 10
      -21.500000
 20
      -65.000000
 30
        0.000000
 11
      208.000000
 21
      -65.000000
 31
        0.000000
  0
CIRCLE
  8
LVL0000
 10
      216.000000
 20
       57.000000
 30
        0.000000
 40
        3.000000
  0
ARC
  8
LVL0000
 10
      216.000000
 20
      -61.000000
 30
        0.000000
 40
        3.000000
 50
        0.000000
 51
      179.999995
  0
LINE
  8
LVL0000
 10
      222.400000
 20
      -46.900000
 30
        0.000000
 11
      224.000000
 21
      -46.900000
 31
        0.000000
  0
LINE
  8
LVL0000
 10
      221.500000
 20
      -51.900000
 30
        0.000000
 11
      208.000000
 21
      -51.900000
 31
        0.000000
  0
LINE
  8
LVL0000
 10
      224.000000
 20
       49.499985
 30
        0.000000
 11
      203.000000
 21
       49.499985
 31
        0.000000
  0
LINE
  8
LVL0000
 10
      224.000015
 20
      -44.000015
 30
        0.000000
 11
      224.000015
 21
       49.499969
 31
        0.000000
  0
LINE
  8
LVL0000
 10
      203.000015
 20
       49.499969
 30
        0.000000
 11
      203.000015
 21
       54.499969
 31
        0.000000
  0
LINE
  8
LVL0000
 10
      203.000015
 20
       49.499969
 30
        0.000000
 11
      224.000015
 21
       49.499969
 31
        0.000000
  0
LINE
  8
LVL0000
 10
      203.000000
 20
       54.499985
 30
        0.000000
 11
      203.000000
 21
       49.499985
 31
        0.000000
  0
LINE
  8
LVL0000
  6
CENTER
 10
      197.000000
 20
        0.000000
 30
        0.000000
 11
      -17.500000
 21
        0.000000
 31
        0.000000
  0
LINE
  8
LVL0000
 10
      208.000000
 20
       65.000000
 30
        0.000000
 11
      208.000000
 21
       49.499985
 31
        0.000000
  0
LINE
  8
LVL0000
 10
      221.500000
 20
      -44.000015
 30
        0.000000
 11
      221.500000
 21
      -51.900000
 31
        0.000000
  0
LINE
  8
LVL0000
 10
      222.400000
 20
      -44.000015
 30
        0.000000
 11
      222.400000
 21
      -46.900000
 31
        0.000000
  0
LINE
  8
LVL0000
 10
      -32.500000
 20
      290.800000
 30
        0.000000
 11
      -32.500000
 21
      305.800000
 31
        0.000000
  0
LINE
  8
LVL0000
 10
      -19.500000
 20
      290.800000
 30
        0.000000
 11
      -19.500000
 21
      305.800000
 31
        0.000000
  0
LINE
  8
LVL0000
 10
      -32.500000
 20
      290.800000
 30
        0.000000
 11
      -19.500000
 21
      290.800000
 31
        0.000000
  0
LINE
  8
LVL0000
 10
        8.000000
 20
      296.100000
 30
        0.000000
 11
        8.000000
 21
      301.800000
 31
        0.000000
  0
LINE
  8
LVL0000
 10
        4.000000
 20
      296.100000
 30
        0.000000
 11
        4.000000
 21
      301.800000
 31
        0.000000
  0
LINE
  8
LVL0000
 10
        9.000000
 20
      301.800000
 30
        0.000000
 11
        3.000000
 21
      301.800000
 31
        0.000000
  0
LINE
  8
LVL0000
 10
        8.000000
 20
      296.100000
 30
        0.000000
 11
        4.000000
 21
      296.100000
 31
        0.000000
  0
LINE
  8
LVL0000
 10
        3.000000
 20
      301.800000
 30
        0.000000
 11
        3.000000
 21
      305.800000
 31
        0.000000
  0
LINE
  8
LVL0000
 10
        9.000000
 20
      301.800000
 30
        0.000000
 11
        9.000000
 21
      305.800000
 31
        0.000000
  0
LINE
  8
LVL0000
 10
       37.500000
 20
      295.099976
 30
        0.000000
 11
       37.500000
 21
      305.800000
 31
        0.000000
  0
LINE
  8
LVL0000
 10
       44.500031
 20
      295.099976
 30
        0.000000
 11
       44.500031
 21
      305.800000
 31
        0.000000
  0
LINE
  8
LVL0000
 10
       44.500031
 20
      298.749969
 30
        0.000000
 11
       37.500000
 21
      298.749969
 31
        0.000000
  0
LINE
  8
LVL0000
 10
       44.500031
 20
      295.099976
 30
        0.000000
 11
       37.500000
 21
      295.099976
 31
        0.000000
  0
LINE
  8
LVL0000
 10
       73.000000
 20
      295.099976
 30
        0.000000
 11
       73.000000
 21
      305.800000
 31
        0.000000
  0
LINE
  8
LVL0000
 10
       80.000031
 20
      295.099976
 30
        0.000000
 11
       80.000031
 21
      305.800000
 31
        0.000000
  0
LINE
  8
LVL0000
 10
       80.000031
 20
      298.749969
 30
        0.000000
 11
       73.000000
 21
      298.749969
 31
        0.000000
  0
LINE
  8
LVL0000
 10
       80.000031
 20
      295.099976
 30
        0.000000
 11
       73.000000
 21
      295.099976
 31
        0.000000
  0
LINE
  8
LVL0000
 10
      108.500000
 20
      295.099976
 30
        0.000000
 11
      108.500000
 21
      305.800000
 31
        0.000000
  0
LINE
  8
LVL0000
 10
      115.500031
 20
      295.099976
 30
        0.000000
 11
      115.500031
 21
      305.800000
 31
        0.000000
  0
LINE
  8
LVL0000
 10
      115.500031
 20
      298.749969
 30
        0.000000
 11
      108.500000
 21
      298.749969
 31
        0.000000
  0
LINE
  8
LVL0000
 10
      115.500031
 20
      295.099976
 30
        0.000000
 11
      108.500000
 21
      295.099976
 31
        0.000000
  0
LINE
  8
LVL0000
 10
      144.000000
 20
      295.099976
 30
        0.000000
 11
      144.000000
 21
      305.800000
 31
        0.000000
  0
LINE
  8
LVL0000
 10
      151.000031
 20
      295.099976
 30
        0.000000
 11
      151.000031
 21
      305.800000
 31
        0.000000
  0
LINE
  8
LVL0000
 10
      151.000031
 20
      298.749969
 30
        0.000000
 11
      144.000000
 21
      298.749969
 31
        0.000000
  0
LINE
  8
LVL0000
 10
      151.000031
 20
      295.099976
 30
        0.000000
 11
      144.000000
 21
      295.099976
 31
        0.000000
  0
LINE
  8
LVL0000
 10
      179.500000
 20
      295.099976
 30
        0.000000
 11
      179.500000
 21
      305.800000
 31
        0.000000
  0
LINE
  8
LVL0000
 10
      186.500031
 20
      295.099976
 30
        0.000000
 11
      186.500031
 21
      305.800000
 31
        0.000000
  0
LINE
  8
LVL0000
 10
      186.500031
 20
      298.749969
 30
        0.000000
 11
      179.500000
 21
      298.749969
 31
        0.000000
  0
LINE
  8
LVL0000
 10
      186.500031
 20
      295.099976
 30
        0.000000
 11
      179.500000
 21
      295.099976
 31
        0.000000
  0
LINE
  8
LVL0000
 10
      -37.500000
 20
      315.000000
 30
        0.000000
 11
      -37.500000
 21
      305.800000
 31
        0.000000
  0
LINE
  8
LVL0000
 10
      -21.500000
 20
      313.400000
 30
        0.000000
 11
      -37.500000
 21
      313.400000
 31
        0.000000
  0
LINE
  8
LVL0000
 10
      -21.500000
 20
      307.399994
 30
        0.000000
 11
      -21.500000
 21
      315.000000
 31
        0.000000
  0
LINE
  8
LVL0000
 10
      224.000000
 20
      315.000000
 30
        0.000000
 11
      224.000000
 21
      305.800000
 31
        0.000000
  0
LINE
  8
LVL0000
 10
      208.000000
 20
      307.399994
 30
        0.000000
 11
      208.000000
 21
      315.000000
 31
        0.000000
  0
LINE
  8
LVL0000
 10
      224.000000
 20
      313.400000
 30
        0.000000
 11
      208.000000
 21
      313.400000
 31
        0.000000
  0
LINE
  8
LVL0000
 10
      224.000000
 20
      315.000000
 30
        0.000000
 11
      -37.500000
 21
      315.000000
 31
        0.000000
  0
LINE
  8
LVL0000
 10
      224.000000
 20
      307.399994
 30
        0.000000
 11
      -37.500000
 21
      307.399994
 31
        0.000000
  0
LINE
  8
LVL0000
 10
      224.000000
 20
      305.800000
 30
        0.000000
 11
      -37.500000
 21
      305.800000
 31
        0.000000
  0
TEXT
  8
LVL0000
 62
  2
 10
      -40.049348
 20
      334.067106
 30
        0.000000
 40
        5.000000
  1
ＪＷ３１４ＫＢ
 50
        0.000000
 41
        0.835000
 51
        0.000000
  7
BIGFONT
  0
LINE
  8
LVL0000
 10
       37.499998
 20
      243.580002
 30
        0.000000
 11
       38.949999
 21
      243.580002
 31
        0.000000
  0
LINE
  8
LVL0000
 10
       38.949999
 20
      246.430008
 30
        0.000000
 11
       42.649996
 21
      246.430008
 31
        0.000000
  0
CIRCLE
  8
LVL0000
 10
       40.799997
 20
      244.574997
 30
        0.000000
 40
        1.150002
  0
LINE
  8
LVL0000
 10
      -21.500002
 20
      148.100000
 30
        0.000000
 11
      -21.500002
 21
      135.000000
 31
        0.000000
  0
LINE
  8
LVL0000
 10
      -37.500002
 20
      249.500000
 30
        0.000000
 11
      -21.500002
 21
      249.500000
 31
        0.000000
  0
LINE
  8
LVL0000
 10
      -21.500002
 20
      254.500000
 30
        0.000000
 11
      -21.500002
 21
      249.500000
 31
        0.000000
  0
CIRCLE
  8
LVL0000
 10
      149.500000
 20
      160.999985
 30
        0.000000
 40
        2.500000
  0
CIRCLE
  8
LVL0000
 10
      114.000000
 20
      161.000000
 30
        0.000000
 40
        2.500000
  0
LINE
  8
LVL0000
 10
      -37.500002
 20
      156.000000
 30
        0.000000
 11
      223.999998
 21
      156.000000
 31
        0.000000
  0
LINE
  8
LVL0000
 10
      -21.500002
 20
      254.500000
 30
        0.000000
 11
      202.999998
 21
      254.500000
 31
        0.000000
  0
CIRCLE
  8
LVL0000
 10
      -17.500000
 20
      250.999985
 30
        0.000000
 40
        2.750000
  0
CIRCLE
  8
LVL0000
 10
       59.500000
 20
      250.999985
 30
        0.000000
 40
        2.750000
  0
CIRCLE
  8
LVL0000
 10
      130.500000
 20
      250.999985
 30
        0.000000
 40
        2.750000
  0
CIRCLE
  8
LVL0000
 10
      130.500000
 20
      159.500000
 30
        0.000000
 40
        2.750000
  0
CIRCLE
  8
LVL0000
 10
       59.500000
 20
      159.500000
 30
        0.000000
 40
        2.750000
  0
CIRCLE
  8
LVL0000
 10
      -25.500000
 20
      159.500000
 30
        0.000000
 40
        2.750000
  0
LINE
  8
LVL0000
 10
      -19.299984
 20
      250.999994
 30
        0.000000
 11
      -15.700016
 21
      250.999975
 31
        0.000000
  0
LINE
  8
LVL0000
 10
      -17.500000
 20
      252.799974
 30
        0.000000
 11
      -17.500000
 21
      249.199976
 31
        0.000000
  0
LINE
  8
LVL0000
 10
      -25.500000
 20
      161.299990
 30
        0.000000
 11
      -25.500000
 21
      157.699991
 31
        0.000000
  0
LINE
  8
LVL0000
 10
      -27.299984
 20
      159.500010
 30
        0.000000
 11
      -23.700016
 21
      159.499990
 31
        0.000000
  0
LINE
  8
LVL0000
 10
       57.700016
 20
      159.500010
 30
        0.000000
 11
       61.299984
 21
      159.499990
 31
        0.000000
  0
LINE
  8
LVL0000
 10
       59.500000
 20
      161.299990
 30
        0.000000
 11
       59.500000
 21
      157.699991
 31
        0.000000
  0
LINE
  8
LVL0000
 10
       59.500000
 20
      252.799974
 30
        0.000000
 11
       59.500000
 21
      249.199976
 31
        0.000000
  0
LINE
  8
LVL0000
 10
       57.700016
 20
      250.999994
 30
        0.000000
 11
       61.299984
 21
      250.999975
 31
        0.000000
  0
LINE
  8
LVL0000
 10
      128.700016
 20
      159.500010
 30
        0.000000
 11
      132.299984
 21
      159.499990
 31
        0.000000
  0
LINE
  8
LVL0000
 10
      130.500000
 20
      161.299990
 30
        0.000000
 11
      130.500000
 21
      157.699991
 31
        0.000000
  0
LINE
  8
LVL0000
 10
      130.500000
 20
      252.799974
 30
        0.000000
 11
      130.500000
 21
      249.199976
 31
        0.000000
  0
LINE
  8
LVL0000
 10
      128.700016
 20
      250.999994
 30
        0.000000
 11
      132.299984
 21
      250.999975
 31
        0.000000
  0
LINE
  8
LVL0000
 10
      -21.500000
 20
      254.499985
 30
        0.000000
 11
      203.000015
 21
      254.499985
 31
        0.000000
  0
CIRCLE
  8
LVL0000
 10
      -15.500002
 20
      159.500000
 30
        0.000000
 40
        1.750000
  0
CIRCLE
  8
LVL0000
 10
       -7.500002
 20
      251.000000
 30
        0.000000
 40
        1.750000
  0
LINE
  8
LVL0000
 10
        7.999998
 20
      236.922363
 30
        0.000000
 11
        7.999998
 21
      215.707642
 31
        0.000000
  0
ARC
  8
LVL0000
 10
        4.999998
 20
      215.707642
 30
        0.000000
 40
        3.000004
 50
      315.000020
 51
      360.000000
  0
LINE
  8
LVL0000
 10
        5.707106
 20
      212.172104
 30
        0.000000
 11
        7.121321
 21
      213.586319
 31
        0.000000
  0
LINE
  8
LVL0000
 10
        3.999998
 20
      239.750793
 30
        0.000000
 11
        3.999998
 21
      212.879211
 31
        0.000000
  0
ARC
  8
LVL0000
 10
        4.999998
 20
      212.879211
 30
        0.000000
 40
        1.000000
 50
      180.000010
 51
      315.000020
  0
LINE
  8
LVL0000
 10
        2.999998
 20
      243.565002
 30
        0.000000
 11
        2.999998
 21
      209.065002
 31
        0.000000
  0
LINE
  8
LVL0000
 10
        8.999998
 20
      243.565002
 30
        0.000000
 11
        8.999998
 21
      209.065002
 31
        0.000000
  0
LINE
  8
LVL0000
 10
        2.999998
 20
      209.065002
 30
        0.000000
 11
        8.999998
 21
      209.065002
 31
        0.000000
  0
LINE
  8
LVL0000
 10
        2.999998
 20
      243.565002
 30
        0.000000
 11
        8.999998
 21
      243.565002
 31
        0.000000
  0
ARC
  8
LVL0000
 10
        4.999998
 20
      236.922363
 30
        0.000000
 40
        3.000000
 50
        0.000000
 51
       45.000051
  0
ARC
  8
LVL0000
 10
        4.999998
 20
      239.750793
 30
        0.000000
 40
        1.000001
 50
       45.000000
 51
      180.000010
  0
LINE
  8
LVL0000
 10
        5.707106
 20
      240.457901
 30
        0.000000
 11
        7.121321
 21
      239.043686
 31
        0.000000
  0
CIRCLE
  8
LVL0000
 10
      147.300001
 20
      244.574997
 30
        0.000000
 40
        1.149994
  0
LINE
  8
LVL0000
 10
      145.449995
 20
      246.430008
 30
        0.000000
 11
      149.149992
 21
      246.430008
 31
        0.000000
  0
LINE
  8
LVL0000
 10
      143.999998
 20
      243.580002
 30
        0.000000
 11
      145.449995
 21
      243.580002
 31
        0.000000
  0
LINE
  8
LVL0000
 10
      149.149992
 20
      243.580002
 30
        0.000000
 11
      150.999998
 21
      243.580002
 31
        0.000000
  0
LINE
  8
LVL0000
 10
      144.899992
 20
      242.130005
 30
        0.000000
 11
      149.699995
 21
      242.130005
 31
        0.000000
  0
LINE
  8
LVL0000
 10
      145.449995
 20
      243.580002
 30
        0.000000
 11
      145.449995
 21
      246.430008
 31
        0.000000
  0
LINE
  8
LVL0000
 10
      149.149992
 20
      243.580002
 30
        0.000000
 11
      149.149992
 21
      246.430008
 31
        0.000000
  0
LINE
  8
LVL0000
 10
      150.999998
 20
      241.630005
 30
        0.000000
 11
      150.999998
 21
      247.130005
 31
        0.000000
  0
LINE
  8
LVL0000
 10
      150.600004
 20
      241.630005
 30
        0.000000
 11
      150.999998
 21
      241.630005
 31
        0.000000
  0
LINE
  8
LVL0000
 10
      143.999998
 20
      247.130005
 30
        0.000000
 11
      150.999998
 21
      247.130005
 31
        0.000000
  0
LINE
  8
LVL0000
 10
      144.899992
 20
      214.000015
 30
        0.000000
 11
      149.699995
 21
      214.000015
 31
        0.000000
  0
CIRCLE
  8
LVL0000
 10
      147.300001
 20
      211.555023
 30
        0.000000
 40
        1.149994
  0
LINE
  8
LVL0000
 10
      145.449995
 20
      209.700012
 30
        0.000000
 11
      149.149992
 21
      209.700012
 31
        0.000000
  0
LINE
  8
LVL0000
 10
      143.999998
 20
      212.550018
 30
        0.000000
 11
      145.449995
 21
      212.550018
 31
        0.000000
  0
LINE
  8
LVL0000
 10
      149.149992
 20
      212.550018
 30
        0.000000
 11
      150.999998
 21
      212.550018
 31
        0.000000
  0
LINE
  8
LVL0000
 10
      145.449995
 20
      212.550018
 30
        0.000000
 11
      145.449995
 21
      209.700012
 31
        0.000000
  0
LINE
  8
LVL0000
 10
      149.149992
 20
      212.550018
 30
        0.000000
 11
      149.149992
 21
      209.700012
 31
        0.000000
  0
LINE
  8
LVL0000
 10
      143.999998
 20
      209.000015
 30
        0.000000
 11
      150.999998
 21
      209.000015
 31
        0.000000
  0
LINE
  8
LVL0000
 10
      150.999998
 20
      214.500015
 30
        0.000000
 11
      150.999998
 21
      209.000015
 31
        0.000000
  0
LINE
  8
LVL0000
 10
      150.600004
 20
      214.500015
 30
        0.000000
 11
      150.999998
 21
      214.500015
 31
        0.000000
  0
LINE
  8
LVL0000
 10
      149.699995
 20
      214.000015
 30
        0.000000
 11
      149.699995
 21
      242.130005
 31
        0.000000
  0
LINE
  8
LVL0000
 10
      144.899992
 20
      214.000015
 30
        0.000000
 11
      144.899992
 21
      242.130005
 31
        0.000000
  0
LINE
  8
LVL0000
 10
      143.999998
 20
      209.000015
 30
        0.000000
 11
      143.999998
 21
      247.130005
 31
        0.000000
  0
LINE
  8
LVL0000
 10
      150.600004
 20
      214.500015
 30
        0.000000
 11
      150.600004
 21
      241.630005
 31
        0.000000
  0
LINE
  8
LVL0000
 10
      148.699995
 20
      215.000015
 30
        0.000000
 11
      148.699995
 21
      241.130005
 31
        0.000000
  0
LINE
  8
LVL0000
 10
      145.899992
 20
      215.000015
 30
        0.000000
 11
      145.899992
 21
      241.130005
 31
        0.000000
  0
LINE
  8
LVL0000
 10
      145.899992
 20
      215.000015
 30
        0.000000
 11
      148.699995
 21
      215.000015
 31
        0.000000
  0
LINE
  8
LVL0000
 10
      145.899992
 20
      241.130005
 30
        0.000000
 11
      148.699995
 21
      241.130005
 31
        0.000000
  0
CIRCLE
  8
LVL0000
 10
      111.800001
 20
      244.574997
 30
        0.000000
 40
        1.149994
  0
LINE
  8
LVL0000
 10
      109.949995
 20
      246.430008
 30
        0.000000
 11
      113.649992
 21
      246.430008
 31
        0.000000
  0
LINE
  8
LVL0000
 10
      108.499998
 20
      243.580002
 30
        0.000000
 11
      109.949995
 21
      243.580002
 31
        0.000000
  0
LINE
  8
LVL0000
 10
      113.649992
 20
      243.580002
 30
        0.000000
 11
      115.499998
 21
      243.580002
 31
        0.000000
  0
LINE
  8
LVL0000
 10
      109.399992
 20
      242.130005
 30
        0.000000
 11
      114.199995
 21
      242.130005
 31
        0.000000
  0
LINE
  8
LVL0000
 10
      109.949995
 20
      243.580002
 30
        0.000000
 11
      109.949995
 21
      246.430008
 31
        0.000000
  0
LINE
  8
LVL0000
 10
      113.649992
 20
      243.580002
 30
        0.000000
 11
      113.649992
 21
      246.430008
 31
        0.000000
  0
LINE
  8
LVL0000
 10
      115.499998
 20
      241.630005
 30
        0.000000
 11
      115.499998
 21
      247.130005
 31
        0.000000
  0
LINE
  8
LVL0000
 10
      115.099997
 20
      241.630005
 30
        0.000000
 11
      115.499998
 21
      241.630005
 31
        0.000000
  0
LINE
  8
LVL0000
 10
      108.499998
 20
      247.130005
 30
        0.000000
 11
      115.499998
 21
      247.130005
 31
        0.000000
  0
LINE
  8
LVL0000
 10
      109.399992
 20
      214.000015
 30
        0.000000
 11
      114.199995
 21
      214.000015
 31
        0.000000
  0
CIRCLE
  8
LVL0000
 10
      111.800001
 20
      211.555023
 30
        0.000000
 40
        1.149994
  0
LINE
  8
LVL0000
 10
      109.949995
 20
      209.700012
 30
        0.000000
 11
      113.649992
 21
      209.700012
 31
        0.000000
  0
LINE
  8
LVL0000
 10
      108.499998
 20
      212.550018
 30
        0.000000
 11
      109.949995
 21
      212.550018
 31
        0.000000
  0
LINE
  8
LVL0000
 10
      113.649992
 20
      212.550018
 30
        0.000000
 11
      115.499998
 21
      212.550018
 31
        0.000000
  0
LINE
  8
LVL0000
 10
      109.949995
 20
      212.550018
 30
        0.000000
 11
      109.949995
 21
      209.700012
 31
        0.000000
  0
LINE
  8
LVL0000
 10
      113.649992
 20
      212.550018
 30
        0.000000
 11
      113.649992
 21
      209.700012
 31
        0.000000
  0
LINE
  8
LVL0000
 10
      108.499998
 20
      209.000015
 30
        0.000000
 11
      115.499998
 21
      209.000015
 31
        0.000000
  0
LINE
  8
LVL0000
 10
      115.499998
 20
      214.500015
 30
        0.000000
 11
      115.499998
 21
      209.000015
 31
        0.000000
  0
LINE
  8
LVL0000
 10
      115.099997
 20
      214.500015
 30
        0.000000
 11
      115.499998
 21
      214.500015
 31
        0.000000
  0
LINE
  8
LVL0000
 10
      114.199995
 20
      214.000015
 30
        0.000000
 11
      114.199995
 21
      242.130005
 31
        0.000000
  0
LINE
  8
LVL0000
 10
      109.399992
 20
      214.000015
 30
        0.000000
 11
      109.399992
 21
      242.130005
 31
        0.000000
  0
LINE
  8
LVL0000
 10
      108.499998
 20
      209.000015
 30
        0.000000
 11
      108.499998
 21
      247.130005
 31
        0.000000
  0
LINE
  8
LVL0000
 10
      115.099997
 20
      214.500015
 30
        0.000000
 11
      115.099997
 21
      241.630005
 31
        0.000000
  0
LINE
  8
LVL0000
 10
      113.199995
 20
      215.000015
 30
        0.000000
 11
      113.199995
 21
      241.130005
 31
        0.000000
  0
LINE
  8
LVL0000
 10
      110.399992
 20
      215.000015
 30
        0.000000
 11
      110.399992
 21
      241.130005
 31
        0.000000
  0
LINE
  8
LVL0000
 10
      110.399992
 20
      215.000015
 30
        0.000000
 11
      113.199995
 21
      215.000015
 31
        0.000000
  0
LINE
  8
LVL0000
 10
      110.399992
 20
      241.130005
 30
        0.000000
 11
      113.199995
 21
      241.130005
 31
        0.000000
  0
DIMENSION
  8
LVL0000
 62
  5
  2
BLK0003
 10
      -37.500000
 20
      107.794281
 11
       87.250000
 21
      108.494286
 13
      -37.500000
 23
      139.000000
 14
      224.000000
 24
      139.000000
 50
        0.0
 70
  0
  0
LINE
  8
LVL0000
 10
      221.499998
 20
      153.100000
 30
        0.000000
 11
      -35.000002
 21
      153.100000
 31
        0.000000
  0
LINE
  8
LVL0000
 10
      -21.500002
 20
      135.000000
 30
        0.000000
 11
      207.999998
 21
      135.000000
 31
        0.000000
  0
LINE
  8
LVL0000
 10
      -21.500002
 20
      265.000000
 30
        0.000000
 11
      207.999998
 21
      265.000000
 31
        0.000000
  0
CIRCLE
  8
LVL0000
 10
      141.999998
 20
      259.500000
 30
        0.000000
 40
        2.000000
  0
CIRCLE
  8
LVL0000
 10
      141.999998
 20
      259.500000
 30
        0.000000
 40
        1.500000
  0
CIRCLE
  8
LVL0000
 10
      106.499998
 20
      259.500000
 30
        0.000000
 40
        2.000000
  0
CIRCLE
  8
LVL0000
 10
      106.499998
 20
      259.500000
 30
        0.000000
 40
        1.500000
  0
CIRCLE
  8
LVL0000
 10
       70.999998
 20
      259.500000
 30
        0.000000
 40
        2.000000
  0
CIRCLE
  8
LVL0000
 10
       70.999998
 20
      259.500000
 30
        0.000000
 40
        1.500000
  0
CIRCLE
  8
LVL0000
 10
       35.499998
 20
      259.500000
 30
        0.000000
 40
        2.000000
  0
CIRCLE
  8
LVL0000
 10
       35.499998
 20
      259.500000
 30
        0.000000
 40
        1.500000
  0
CIRCLE
  8
LVL0000
 10
       -0.000002
 20
      259.500000
 30
        0.000000
 40
        2.000000
  0
CIRCLE
  8
LVL0000
 10
       -0.000002
 20
      259.500000
 30
        0.000000
 40
        1.500000
  0
LINE
  8
LVL0000
 10
      -12.400002
 20
      145.000000
 30
        0.000000
 11
      -12.400002
 21
      140.000000
 31
        0.000000
  0
LINE
  8
LVL0000
 10
       10.899998
 20
      145.000000
 30
        0.000000
 11
       10.899998
 21
      140.000000
 31
        0.000000
  0
LINE
  8
LVL0000
 10
       46.399998
 20
      145.000000
 30
        0.000000
 11
       46.399998
 21
      140.000000
 31
        0.000000
  0
LINE
  8
LVL0000
 10
       23.099998
 20
      145.000000
 30
        0.000000
 11
       23.099998
 21
      140.000000
 31
        0.000000
  0
LINE
  8
LVL0000
 10
       58.599998
 20
      145.000000
 30
        0.000000
 11
       58.599998
 21
      140.000000
 31
        0.000000
  0
LINE
  8
LVL0000
 10
       81.899998
 20
      145.000000
 30
        0.000000
 11
       81.899998
 21
      140.000000
 31
        0.000000
  0
LINE
  8
LVL0000
 10
      117.399998
 20
      145.000000
 30
        0.000000
 11
      117.399998
 21
      140.000000
 31
        0.000000
  0
LINE
  8
LVL0000
 10
       94.099998
 20
      145.000000
 30
        0.000000
 11
       94.099998
 21
      140.000000
 31
        0.000000
  0
LINE
  8
LVL0000
 10
      129.599998
 20
      145.000000
 30
        0.000000
 11
      129.599998
 21
      140.000000
 31
        0.000000
  0
LINE
  8
LVL0000
 10
      152.899998
 20
      145.000000
 30
        0.000000
 11
      152.899998
 21
      140.000000
 31
        0.000000
  0
LINE
  8
LVL0000
 10
      129.599998
 20
      140.000000
 30
        0.000000
 11
      152.899998
 21
      140.000000
 31
        0.000000
  0
LINE
  8
LVL0000
 10
       94.099998
 20
      140.000000
 30
        0.000000
 11
      117.399998
 21
      140.000000
 31
        0.000000
  0
LINE
  8
LVL0000
 10
       58.599998
 20
      140.000000
 30
        0.000000
 11
       81.899998
 21
      140.000000
 31
        0.000000
  0
LINE
  8
LVL0000
 10
       23.099998
 20
      140.000000
 30
        0.000000
 11
       46.399998
 21
      140.000000
 31
        0.000000
  0
LINE
  8
LVL0000
 10
      -12.400002
 20
      140.000000
 30
        0.000000
 11
       10.899998
 21
      140.000000
 31
        0.000000
  0
LINE
  8
LVL0000
 10
       10.899998
 20
      143.500000
 30
        0.000000
 11
      -12.400002
 21
      143.500000
 31
        0.000000
  0
LINE
  8
LVL0000
 10
       46.399998
 20
      143.500000
 30
        0.000000
 11
       23.099998
 21
      143.500000
 31
        0.000000
  0
LINE
  8
LVL0000
 10
       81.899998
 20
      143.500000
 30
        0.000000
 11
       58.599998
 21
      143.500000
 31
        0.000000
  0
LINE
  8
LVL0000
 10
      117.399998
 20
      143.500000
 30
        0.000000
 11
       94.099998
 21
      143.500000
 31
        0.000000
  0
LINE
  8
LVL0000
 10
      152.899998
 20
      143.500000
 30
        0.000000
 11
      129.599998
 21
      143.500000
 31
        0.000000
  0
CIRCLE
  8
LVL0000
 10
      152.999998
 20
      258.500000
 30
        0.000000
 40
        2.500000
  0
CIRCLE
  8
LVL0000
 10
      117.499998
 20
      258.500000
 30
        0.000000
 40
        2.500000
  0
CIRCLE
  8
LVL0000
 10
       81.999998
 20
      258.500000
 30
        0.000000
 40
        2.500000
  0
CIRCLE
  8
LVL0000
 10
       46.499998
 20
      258.500000
 30
        0.000000
 40
        2.500000
  0
CIRCLE
  8
LVL0000
 10
       10.999998
 20
      258.500000
 30
        0.000000
 40
        2.500000
  0
LINE
  8
LVL0000
 10
      -21.500002
 20
      148.100000
 30
        0.000000
 11
      -35.000002
 21
      148.100000
 31
        0.000000
  0
LINE
  8
LVL0000
 10
      -26.500002
 20
      137.000000
 30
        0.000000
 11
      -21.500002
 21
      137.000000
 31
        0.000000
  0
LINE
  8
LVL0000
 10
      -32.500002
 20
      139.000000
 30
        0.000000
 11
      -32.500002
 21
      137.000000
 31
        0.000000
  0
LINE
  8
LVL0000
 10
      -26.500002
 20
      139.000000
 30
        0.000000
 11
      -26.500002
 21
      137.000000
 31
        0.000000
  0
ARC
  8
LVL0000
 10
      -29.500002
 20
      139.000000
 30
        0.000000
 40
        3.000000
 50
        0.000000
 51
      179.999995
  0
CIRCLE
  8
LVL0000
 10
      -29.500002
 20
      257.000000
 30
        0.000000
 40
        3.000000
  0
LINE
  8
LVL0000
 10
      -21.500002
 20
      145.000000
 30
        0.000000
 11
      -12.400002
 21
      145.000000
 31
        0.000000
  0
LINE
  8
LVL0000
 10
       10.899998
 20
      145.000000
 30
        0.000000
 11
       23.099998
 21
      145.000000
 31
        0.000000
  0
LINE
  8
LVL0000
 10
       46.399998
 20
      145.000000
 30
        0.000000
 11
       58.599998
 21
      145.000000
 31
        0.000000
  0
LINE
  8
LVL0000
 10
       81.899998
 20
      145.000000
 30
        0.000000
 11
       94.099998
 21
      145.000000
 31
        0.000000
  0
LINE
  8
LVL0000
 10
      117.399998
 20
      145.000000
 30
        0.000000
 11
      129.599998
 21
      145.000000
 31
        0.000000
  0
LINE
  8
LVL0000
 10
      -35.900002
 20
      153.100000
 30
        0.000000
 11
      -37.500002
 21
      153.100000
 31
        0.000000
  0
LINE
  8
LVL0000
 10
      -35.900002
 20
      156.000000
 30
        0.000000
 11
      -35.900002
 21
      153.100000
 31
        0.000000
  0
LINE
  8
LVL0000
 10
      -35.000002
 20
      156.000000
 30
        0.000000
 11
      -35.000002
 21
      148.100000
 31
        0.000000
  0
LINE
  8
LVL0000
 10
      -21.500002
 20
      265.000000
 30
        0.000000
 11
      -21.500002
 21
      254.499985
 31
        0.000000
  0
LINE
  8
LVL0000
 10
       39.399996
 20
      176.899979
 30
        0.000000
 11
       39.399996
 21
      241.130005
 31
        0.000000
  0
LINE
  8
LVL0000
 10
       42.199999
 20
      176.899979
 30
        0.000000
 11
       42.199999
 21
      241.130005
 31
        0.000000
  0
LINE
  8
LVL0000
 10
       39.399996
 20
      176.899979
 30
        0.000000
 11
       42.199999
 21
      176.899979
 31
        0.000000
  0
LINE
  8
LVL0000
 10
       39.399996
 20
      241.130005
 30
        0.000000
 11
       42.199999
 21
      241.130005
 31
        0.000000
  0
LINE
  8
LVL0000
 10
       43.199999
 20
      175.899979
 30
        0.000000
 11
       43.199999
 21
      242.130005
 31
        0.000000
  0
LINE
  8
LVL0000
 10
       38.399996
 20
      175.899979
 30
        0.000000
 11
       38.399996
 21
      242.130005
 31
        0.000000
  0
LINE
  8
LVL0000
 10
       44.099997
 20
      176.399979
 30
        0.000000
 11
       44.099997
 21
      241.630005
 31
        0.000000
  0
LINE
  8
LVL0000
 10
       37.499998
 20
      170.899994
 30
        0.000000
 11
       44.499998
 21
      170.899994
 31
        0.000000
  0
LINE
  8
LVL0000
 10
       37.499998
 20
      170.899994
 30
        0.000000
 11
       37.499998
 21
      247.130005
 31
        0.000000
  0
LINE
  8
LVL0000
 10
       37.499998
 20
      247.130005
 30
        0.000000
 11
       44.499998
 21
      247.130005
 31
        0.000000
  0
LINE
  8
LVL0000
 10
       44.099997
 20
      176.399979
 30
        0.000000
 11
       44.499998
 21
      176.399979
 31
        0.000000
  0
LINE
  8
LVL0000
 10
       44.499998
 20
      176.399979
 30
        0.000000
 11
       44.499998
 21
      170.899979
 31
        0.000000
  0
LINE
  8
LVL0000
 10
       38.399996
 20
      175.899979
 30
        0.000000
 11
       43.199999
 21
      175.899979
 31
        0.000000
  0
LINE
  8
LVL0000
 10
       42.649996
 20
      174.449982
 30
        0.000000
 11
       42.649996
 21
      171.599976
 31
        0.000000
  0
LINE
  8
LVL0000
 10
       38.949999
 20
      174.449982
 30
        0.000000
 11
       38.949999
 21
      171.599976
 31
        0.000000
  0
LINE
  8
LVL0000
 10
       42.649996
 20
      174.449982
 30
        0.000000
 11
       44.499998
 21
      174.449982
 31
        0.000000
  0
LINE
  8
LVL0000
 10
       37.499998
 20
      174.449982
 30
        0.000000
 11
       38.949999
 21
      174.449982
 31
        0.000000
  0
LINE
  8
LVL0000
 10
       38.949999
 20
      171.599976
 30
        0.000000
 11
       42.649996
 21
      171.599976
 31
        0.000000
  0
CIRCLE
  8
LVL0000
 10
       40.799997
 20
      173.454987
 30
        0.000000
 40
        1.150002
  0
LINE
  8
LVL0000
 10
       44.099997
 20
      241.630005
 30
        0.000000
 11
       44.499998
 21
      241.630005
 31
        0.000000
  0
LINE
  8
LVL0000
 10
       44.499998
 20
      241.630005
 30
        0.000000
 11
       44.499998
 21
      247.130005
 31
        0.000000
  0
LINE
  8
LVL0000
 10
       42.649996
 20
      243.580002
 30
        0.000000
 11
       42.649996
 21
      246.430008
 31
        0.000000
  0
LINE
  8
LVL0000
 10
       38.949999
 20
      243.580002
 30
        0.000000
 11
       38.949999
 21
      246.430008
 31
        0.000000
  0
LINE
  8
LVL0000
 10
       38.399996
 20
      242.130005
 30
        0.000000
 11
       43.199999
 21
      242.130005
 31
        0.000000
  0
LINE
  8
LVL0000
 10
       42.649996
 20
      243.580002
 30
        0.000000
 11
       44.499998
 21
      243.580002
 31
        0.000000
  0
LINE
  8
LVL0000
 10
      207.999998
 20
      148.100000
 30
        0.000000
 11
      207.999998
 21
      135.000000
 31
        0.000000
  0
LINE
  8
LVL0000
 10
      278.012512
 20
      154.700000
 30
        0.000000
 11
      278.012512
 21
      265.000000
 31
        0.000000
  0
CIRCLE
  8
LVL0000
 10
      185.000017
 20
      161.000000
 30
        0.000000
 40
        2.500000
  0
CIRCLE
  8
LVL0000
 10
      197.999998
 20
      159.500000
 30
        0.000000
 40
        1.750000
  0
CIRCLE
  8
LVL0000
 10
      188.499998
 20
      251.000000
 30
        0.000000
 40
        1.750000
  0
LINE
  8
LVL0000
 10
      223.999998
 20
      249.500000
 30
        0.000000
 11
      202.999998
 21
      249.500000
 31
        0.000000
  0
LINE
  8
LVL0000
 10
      202.999998
 20
      254.500000
 30
        0.000000
 11
      202.999998
 21
      249.500000
 31
        0.000000
  0
CIRCLE
  8
LVL0000
 10
      198.500015
 20
      250.999985
 30
        0.000000
 40
        2.750000
  0
LINE
  8
LVL0000
 10
      196.700031
 20
      250.999994
 30
        0.000000
 11
      200.299999
 21
      250.999975
 31
        0.000000
  0
LINE
  8
LVL0000
 10
      198.500015
 20
      252.799974
 30
        0.000000
 11
      198.500015
 21
      249.199976
 31
        0.000000
  0
LINE
  8
LVL0000
 10
      206.300003
 20
      159.500004
 30
        0.000000
 11
      209.899971
 21
      159.499985
 31
        0.000000
  0
CIRCLE
  8
LVL0000
 10
      182.800001
 20
      244.574997
 30
        0.000000
 40
        1.149994
  0
LINE
  8
LVL0000
 10
      180.949995
 20
      246.430008
 30
        0.000000
 11
      184.649992
 21
      246.430008
 31
        0.000000
  0
LINE
  8
LVL0000
 10
      179.499998
 20
      243.580002
 30
        0.000000
 11
      180.949995
 21
      243.580002
 31
        0.000000
  0
LINE
  8
LVL0000
 10
      184.649992
 20
      243.580002
 30
        0.000000
 11
      186.499998
 21
      243.580002
 31
        0.000000
  0
LINE
  8
LVL0000
 10
      180.399992
 20
      242.130005
 30
        0.000000
 11
      185.199995
 21
      242.130005
 31
        0.000000
  0
LINE
  8
LVL0000
 10
      180.949995
 20
      243.580002
 30
        0.000000
 11
      180.949995
 21
      246.430008
 31
        0.000000
  0
LINE
  8
LVL0000
 10
      184.649992
 20
      243.580002
 30
        0.000000
 11
      184.649992
 21
      246.430008
 31
        0.000000
  0
LINE
  8
LVL0000
 10
      186.499998
 20
      241.630005
 30
        0.000000
 11
      186.499998
 21
      247.130005
 31
        0.000000
  0
LINE
  8
LVL0000
 10
      186.100004
 20
      241.630005
 30
        0.000000
 11
      186.499998
 21
      241.630005
 31
        0.000000
  0
LINE
  8
LVL0000
 10
      179.499998
 20
      247.130005
 30
        0.000000
 11
      186.499998
 21
      247.130005
 31
        0.000000
  0
LINE
  8
LVL0000
 10
      180.399992
 20
      214.000015
 30
        0.000000
 11
      185.199995
 21
      214.000015
 31
        0.000000
  0
CIRCLE
  8
LVL0000
 10
      182.800001
 20
      211.555023
 30
        0.000000
 40
        1.149994
  0
LINE
  8
LVL0000
 10
      180.949995
 20
      209.700012
 30
        0.000000
 11
      184.649992
 21
      209.700012
 31
        0.000000
  0
LINE
  8
LVL0000
 10
      179.499998
 20
      212.550018
 30
        0.000000
 11
      180.949995
 21
      212.550018
 31
        0.000000
  0
LINE
  8
LVL0000
 10
      184.649992
 20
      212.550018
 30
        0.000000
 11
      186.499998
 21
      212.550018
 31
        0.000000
  0
LINE
  8
LVL0000
 10
      180.949995
 20
      212.550018
 30
        0.000000
 11
      180.949995
 21
      209.700012
 31
        0.000000
  0
LINE
  8
LVL0000
 10
      184.649992
 20
      212.550018
 30
        0.000000
 11
      184.649992
 21
      209.700012
 31
        0.000000
  0
LINE
  8
LVL0000
 10
      179.499998
 20
      209.000015
 30
        0.000000
 11
      186.499998
 21
      209.000015
 31
        0.000000
  0
LINE
  8
LVL0000
 10
      186.499998
 20
      214.500015
 30
        0.000000
 11
      186.499998
 21
      209.000015
 31
        0.000000
  0
LINE
  8
LVL0000
 10
      186.100004
 20
      214.500015
 30
        0.000000
 11
      186.499998
 21
      214.500015
 31
        0.000000
  0
LINE
  8
LVL0000
 10
      185.199995
 20
      214.000015
 30
        0.000000
 11
      185.199995
 21
      242.130005
 31
        0.000000
  0
LINE
  8
LVL0000
 10
      180.399992
 20
      214.000015
 30
        0.000000
 11
      180.399992
 21
      242.130005
 31
        0.000000
  0
LINE
  8
LVL0000
 10
      179.499998
 20
      209.000015
 30
        0.000000
 11
      179.499998
 21
      247.130005
 31
        0.000000
  0
LINE
  8
LVL0000
 10
      186.100004
 20
      214.500015
 30
        0.000000
 11
      186.100004
 21
      241.630005
 31
        0.000000
  0
LINE
  8
LVL0000
 10
      184.199995
 20
      215.000015
 30
        0.000000
 11
      184.199995
 21
      241.130005
 31
        0.000000
  0
LINE
  8
LVL0000
 10
      181.399992
 20
      215.000015
 30
        0.000000
 11
      181.399992
 21
      241.130005
 31
        0.000000
  0
LINE
  8
LVL0000
 10
      181.399992
 20
      215.000015
 30
        0.000000
 11
      184.199995
 21
      215.000015
 31
        0.000000
  0
LINE
  8
LVL0000
 10
      181.399992
 20
      241.130005
 30
        0.000000
 11
      184.199995
 21
      241.130005
 31
        0.000000
  0
DIMENSION
  8
LVL0000
 62
  5
  2
BLK0004
 10
      244.035370
 20
      270.500000
 11
      243.335373
 21
      259.000000
 13
      208.000000
 23
      265.000000
 14
      216.000000
 24
      257.000000
 50
       90.0
 70
  0
  0
DIMENSION
  8
LVL0000
 62
  5
  2
BLK0005
 10
      244.035370
 20
      257.000000
 11
      243.335373
 21
      192.000000
 13
      216.000000
 23
      257.000000
 14
      216.000000
 24
      139.000000
 50
       90.0
 70
  0
  0
DIMENSION
  8
LVL0000
 62
  5
  2
BLK0006
 10
      255.021851
 20
      265.000000
 11
      254.321854
 21
      194.000000
 13
      208.000000
 23
      265.000000
 14
      208.000000
 24
      135.000000
 50
       90.0
 70
  0
  0
DIMENSION
  8
LVL0000
 62
  5
  2
BLK0007
 10
      300.938538
 20
      276.782257
 11
      288.938538
 21
      277.482269
 13
      278.012512
 23
      265.000000
 14
      285.612518
 24
      263.399994
 50
        0.0
 70
  0
  0
LINE
  8
LVL0000
 10
      279.612518
 20
      263.399994
 30
        0.000000
 11
      283.212518
 21
      263.399994
 31
        0.000000
  0
LINE
  8
LVL0000
 10
      278.012512
 20
      265.000000
 30
        0.000000
 11
      284.012518
 21
      265.000000
 31
        0.000000
  0
LINE
  8
LVL0000
 10
      279.612518
 20
      265.000000
 30
        0.000000
 11
      279.612518
 21
      249.000000
 31
        0.000000
  0
ARC
  8
LVL0000
 10
      275.912506
 20
      250.000100
 30
        0.000000
 40
        2.000000
 50
      180.000010
 51
      270.000000
  0
LINE
  8
LVL0000
 10
      275.912506
 20
      248.000100
 30
        0.000000
 11
      276.412506
 21
      248.000100
 31
        0.000000
  0
LINE
  8
LVL0000
 10
      273.912506
 20
      250.000100
 30
        0.000000
 11
      273.912506
 21
      252.000100
 31
        0.000000
  0
ARC
  8
LVL0000
 10
      275.912506
 20
      252.000100
 30
        0.000000
 40
        2.000000
 50
       90.000000
 51
      180.000010
  0
LINE
  8
LVL0000
 10
      275.912506
 20
      254.000100
 30
        0.000000
 11
      276.412506
 21
      254.000100
 31
        0.000000
  0
ARC
  8
LVL0000
 10
      275.912506
 20
      158.500100
 30
        0.000000
 40
        2.000000
 50
      180.000010
 51
      270.000000
  0
LINE
  8
LVL0000
 10
      273.912506
 20
      158.500100
 30
        0.000000
 11
      273.912506
 21
      160.500100
 31
        0.000000
  0
LINE
  8
LVL0000
 10
      275.912506
 20
      156.500100
 30
        0.000000
 11
      276.412506
 21
      156.500100
 31
        0.000000
  0
ARC
  8
LVL0000
 10
      275.912506
 20
      160.500100
 30
        0.000000
 40
        2.000000
 50
       90.000000
 51
      180.000010
  0
LINE
  8
LVL0000
 10
      275.912506
 20
      162.500100
 30
        0.000000
 11
      276.412506
 21
      162.500100
 31
        0.000000
  0
LINE
  8
LVL0000
 10
      265.712494
 20
      210.785104
 30
        0.000000
 11
      269.362488
 21
      210.785104
 31
        0.000000
  0
LINE
  8
LVL0000
 10
      265.712494
 20
      210.785104
 30
        0.000000
 11
      265.712494
 21
      241.315102
 31
        0.000000
  0
LINE
  8
LVL0000
 10
      265.712494
 20
      241.315102
 30
        0.000000
 11
      269.362488
 21
      241.315102
 31
        0.000000
  0
LINE
  8
LVL0000
 10
      269.362488
 20
      241.315102
 30
        0.000000
 11
      269.362488
 21
      246.315102
 31
        0.000000
  0
LINE
  8
LVL0000
 10
      269.362488
 20
      246.315102
 30
        0.000000
 11
      276.412506
 21
      246.315102
 31
        0.000000
  0
LINE
  8
LVL0000
 10
      269.362488
 20
      205.785104
 30
        0.000000
 11
      276.412506
 21
      205.785104
 31
        0.000000
  0
LINE
  8
LVL0000
 10
      269.362488
 20
      205.785104
 30
        0.000000
 11
      269.362488
 21
      210.785104
 31
        0.000000
  0
LINE
  8
LVL0000
 10
      276.412506
 20
      156.000100
 30
        0.000000
 11
      276.412506
 21
      254.500100
 31
        0.000000
  0
LINE
  8
LVL0000
 10
      276.412506
 20
      156.000100
 30
        0.000000
 11
      278.012512
 21
      156.000100
 31
        0.000000
  0
LINE
  8
LVL0000
 10
      276.412506
 20
      254.500100
 30
        0.000000
 11
      278.012512
 21
      254.500100
 31
        0.000000
  0
ARC
  8
LVL0000
 10
      277.012512
 20
      136.599954
 30
        0.000000
 40
        1.600006
 50
      180.000010
 51
      270.000000
  0
ARC
  8
LVL0000
 10
      277.812500
 20
      137.399972
 30
        0.000000
 40
        0.799988
 50
      180.000010
 51
      270.000000
  0
LINE
  8
LVL0000
 10
      277.012512
 20
      134.999963
 30
        0.000000
 11
      284.012518
 21
      134.999963
 31
        0.000000
  0
ARC
  8
LVL0000
 10
      284.012518
 20
      136.599963
 30
        0.000000
 40
        1.600000
 50
      270.000000
 51
      360.000000
  0
LINE
  8
LVL0000
 10
      285.612518
 20
      263.400000
 30
        0.000000
 11
      285.612518
 21
      136.599963
 31
        0.000000
  0
LINE
  8
LVL0000
 10
      277.012512
 20
      137.399972
 30
        0.000000
 11
      277.012512
 21
      145.000000
 31
        0.000000
  0
LINE
  8
LVL0000
 10
      275.412506
 20
      136.599954
 30
        0.000000
 11
      275.412506
 21
      145.000000
 31
        0.000000
  0
LINE
  8
LVL0000
 10
      277.812500
 20
      136.599969
 30
        0.000000
 11
      283.212518
 21
      136.599969
 31
        0.000000
  0
ARC
  8
LVL0000
 10
      283.212518
 20
      137.399969
 30
        0.000000
 40
        0.800000
 50
      270.000000
 51
      360.000000
  0
ARC
  8
LVL0000
 10
      284.012518
 20
      263.400000
 30
        0.000000
 40
        1.600000
 50
        0.000000
 51
       90.000000
  0
ARC
  8
LVL0000
 10
      283.212518
 20
      262.599994
 30
        0.000000
 40
        0.800000
 50
        0.000000
 51
       90.000000
  0
LINE
  8
LVL0000
 10
      277.012512
 20
      145.000000
 30
        0.000000
 11
      275.412506
 21
      145.000000
 31
        0.000000
  0
LINE
  8
LVL0000
 10
      282.812518
 20
      143.500000
 30
        0.000000
 11
      284.012518
 21
      143.500000
 31
        0.000000
  0
LINE
  8
LVL0000
 10
      278.212524
 20
      153.100000
 30
        0.000000
 11
      285.612518
 21
      153.100000
 31
        0.000000
  0
LINE
  8
LVL0000
 10
      278.212524
 20
      153.100000
 30
        0.000000
 11
      278.212524
 21
      249.000000
 31
        0.000000
  0
LINE
  8
LVL0000
 10
      284.012518
 20
      153.100000
 30
        0.000000
 11
      284.012518
 21
      137.399969
 31
        0.000000
  0
LINE
  8
LVL0000
 10
      284.012512
 20
      152.400003
 30
        0.000000
 11
      284.012512
 21
      153.100000
 31
        0.000000
  0
LINE
  8
LVL0000
 10
      284.012518
 20
      262.599994
 30
        0.000000
 11
      284.012518
 21
      249.000000
 31
        0.000000
  0
LINE
  8
LVL0000
 10
      278.212524
 20
      246.300000
 30
        0.000000
 11
      278.012512
 21
      246.300000
 31
        0.000000
  0
LINE
  8
LVL0000
 10
      278.012512
 20
      164.200000
 30
        0.000000
 11
      278.212524
 21
      164.200000
 31
        0.000000
  0
ARC
  8
LVL0000
 10
      279.212512
 20
      154.700000
 30
        0.000000
 40
        1.200000
 50
      179.999995
 51
      213.558368
  0
LINE
  8
LVL0000
 10
      282.812518
 20
      153.100000
 30
        0.000000
 11
      282.812518
 21
      143.500000
 31
        0.000000
  0
LINE
  8
LVL0000
 10
      278.212524
 20
      249.000000
 30
        0.000000
 11
      285.612518
 21
      249.000000
 31
        0.000000
  0
LINE
  8
LVL0000
 10
      278.012512
 20
      249.000000
 30
        0.000000
 11
      278.212524
 21
      249.000000
 31
        0.000000
  0
LINE
  8
LVL0000
 10
      278.012512
 20
      247.800000
 30
        0.000000
 11
      278.212524
 21
      247.800000
 31
        0.000000
  0
LINE
  8
LVL0000
 10
      165.099998
 20
      145.000000
 30
        0.000000
 11
      165.099998
 21
      140.000000
 31
        0.000000
  0
LINE
  8
LVL0000
 10
      165.099998
 20
      140.000000
 30
        0.000000
 11
      188.399998
 21
      140.000000
 31
        0.000000
  0
LINE
  8
LVL0000
 10
      188.399998
 20
      145.000000
 30
        0.000000
 11
      188.399998
 21
      140.000000
 31
        0.000000
  0
LINE
  8
LVL0000
 10
      188.399998
 20
      143.500000
 30
        0.000000
 11
      165.099998
 21
      143.500000
 31
        0.000000
  0
LINE
  8
LVL0000
 10
      188.399998
 20
      145.000000
 30
        0.000000
 11
      207.999998
 21
      145.000000
 31
        0.000000
  0
LINE
  8
LVL0000
 10
      152.899998
 20
      145.000000
 30
        0.000000
 11
      165.099998
 21
      145.000000
 31
        0.000000
  0
CIRCLE
  8
LVL0000
 10
      177.499998
 20
      259.500000
 30
        0.000000
 40
        2.000000
  0
CIRCLE
  8
LVL0000
 10
      177.499998
 20
      259.500000
 30
        0.000000
 40
        1.500000
  0
LINE
  8
LVL0000
 10
      221.499998
 20
      148.100000
 30
        0.000000
 11
      207.999998
 21
      148.100000
 31
        0.000000
  0
LINE
  8
LVL0000
 10
      222.399998
 20
      153.100000
 30
        0.000000
 11
      223.999998
 21
      153.100000
 31
        0.000000
  0
ARC
  8
LVL0000
 10
      215.999998
 20
      139.000000
 30
        0.000000
 40
        3.000000
 50
        0.000000
 51
      179.999995
  0
CIRCLE
  8
LVL0000
 10
      215.999998
 20
      257.000000
 30
        0.000000
 40
        3.000000
  0
LINE
  8
LVL0000
 10
      212.999998
 20
      139.000000
 30
        0.000000
 11
      212.999998
 21
      137.000000
 31
        0.000000
  0
LINE
  8
LVL0000
 10
      218.999998
 20
      139.000000
 30
        0.000000
 11
      218.999998
 21
      137.000000
 31
        0.000000
  0
LINE
  8
LVL0000
 10
      207.999998
 20
      137.000000
 30
        0.000000
 11
      212.999998
 21
      137.000000
 31
        0.000000
  0
LINE
  8
LVL0000
 10
      222.399998
 20
      156.000000
 30
        0.000000
 11
      222.399998
 21
      153.100000
 31
        0.000000
  0
LINE
  8
LVL0000
 10
      221.499998
 20
      156.000000
 30
        0.000000
 11
      221.499998
 21
      148.100000
 31
        0.000000
  0
LINE
  8
LVL0000
 10
      207.999998
 20
      265.000000
 30
        0.000000
 11
      207.999998
 21
      249.500000
 31
        0.000000
  0
ENDSEC
  0
EOF
