  0
SECTION
  2
HEADER
  9
$ACADVER
  1
AC1006
  9
$INSBASE
 10
0.0
 20
0.0
 30
0.0
  9
$EXTMIN
 10
       -5.500015
 20
       -5.000022
  9
$EXTMAX
 10
      186.630280
 20
      186.630280
  9
$LIMMIN
 10
       -5.500015
 20
       -5.000022
  9
$LIMMAX
 10
      186.630280
 20
      186.630280
  9
$VIEWCTR
 10
       90.565132
 20
       90.565132
  9
$ORTHOMODE
 70
     0
  9
$ANGBASE
 50
0.0
  9
$ANGDIR
 70
     0
  9
$SPLINETYPE
 70
     6
  9
$SPLINESEGS
 70
     8
9
$DIMASZ
 40
        3.500000
9
$DIMEXE
 40
        0.560000
9
$DIMEXO
 40
        0.800000
9
$DIMTXT
 40
        4.000000
9
$DIMGAP
 40
        0.560000
9
$DIMTAD
 70
1
9
$DIMTIH
 70
0
9
$DIMTOH
 70
0
  0
ENDSEC
  0
SECTION
  2
TABLES
  0
TABLE
  2
LTYPE
 70
     5
  0
LTYPE
  2
CONTINUOUS
 70
    64
  3
SOLID LINE
 72
    65
 73
     0
 40
0.0
  0
LTYPE
  2
DASHED
 70
    64
  3
-- -- -- -- -- --
 72
    65
 73
     2
 40
  0.75  
 49
  0.50  
 49
 -0.25  
  0
LTYPE
  2
DOT
 70
    64
  3
....................
 72
    65
 73
     2
 40
  0.25  
 49
  0.02  
 49
 -0.23  
  0
LTYPE
  2
CENTER
 70
    64
  3
-- . -- . -- . -- .
 72
    65
 73
    4
 40
  2.00  
 49
  1.25  
 49
 -0.25  
 49
  0.25  
 49
 -0.25  
  0
LTYPE
  2
PHANTOM
 70
    64
  3
-- .. -- .. -- ..
 72
    65
 73
    6
 40
  2.50  
 49
  1.25  
 49
 -0.25  
 49
  0.25  
 49
 -0.25  
 49
  0.25  
 49
 -0.25  
  0
ENDTAB
  0
TABLE
  2
LAYER
 70
     1
  0
LAYER
  2
LVL0000
 70
    64
 62
     3
  6
CONTINUOUS
  0
ENDTAB
  0
TABLE
  2
STYLE
 70
     2
  0
STYLE
  2
STANDARD
 70
    64
 40
0.0
 41
1.0
 50
0.0
 71
     0
 42
5.0
  3
ROMANS
  4
BIGFONT
  0
STYLE
  2
BIGFONT
 70
    64
 40
0.0
 41
1.0
 50
0.0
 71
     0
 42
5.0
  3
ROMANS
  4
BIGFONT
  0
ENDTAB
  0
TABLE
  2
VIEW
 70
     0
  0
ENDTAB
  0
TABLE
  2
UCS
 70
     0
  0
ENDTAB
  0
TABLE
  2
DWGMGR
 70
     0
  0
ENDTAB
  0
ENDSEC
  0
SECTION
  2
BLOCKS
  0
BLOCK
  8
0
  2
BLK0001
 70
    64
 10
        0.000000
 20
        0.000000
  0
TEXT
  8
LVL0000
 62
  2
 10
      115.376419
 20
      134.768173
 30
        0.000000
 40
        4.000000
  1
１０２．４
 50
        0.000000
 41
        0.835000
 51
        0.000000
  7
BIGFONT
  0
LINE
  8
LVL0000
 62
  2
 10
      175.799942
 20
      124.799995
 30
        0.000000
 11
      175.799942
 21
      134.768173
 31
        0.000000
  0
LINE
  8
LVL0000
 62
  2
 10
       73.399979
 20
      113.799995
 30
        0.000000
 11
       73.399979
 21
      134.768173
 31
        0.000000
  0
LINE
  8
LVL0000
 62
  2
 10
      172.299942
 20
      133.291870
 30
        0.000000
 11
      175.799942
 21
      134.208176
 31
        0.000000
  0
LINE
  8
LVL0000
 62
  2
 10
      175.799942
 20
      134.208176
 30
        0.000000
 11
      172.299942
 21
      135.124481
 31
        0.000000
  0
LINE
  8
LVL0000
 62
  2
 10
       76.899979
 20
      135.124481
 30
        0.000000
 11
       73.399979
 21
      134.208176
 31
        0.000000
  0
LINE
  8
LVL0000
 62
  2
 10
       73.399979
 20
      134.208176
 30
        0.000000
 11
       76.899979
 21
      133.291870
 31
        0.000000
  0
LINE
  8
LVL0000
 62
  2
 10
      175.799942
 20
      134.208176
 30
        0.000000
 11
       73.399979
 21
      134.208176
 31
        0.000000
  0
ENDBLK
  0
BLOCK
  8
0
  2
BLK0002
 70
    64
 10
        0.000000
 20
        0.000000
  0
TEXT
  8
LVL0000
 62
  2
 10
      119.897720
 20
      -16.403791
 30
        0.000000
 40
        4.000000
  1
９９．８
 50
        0.000000
 41
        0.835000
 51
        0.000000
  7
BIGFONT
  0
LINE
  8
LVL0000
 62
  2
 10
       73.399979
 20
        5.199978
 30
        0.000000
 11
       73.399979
 21
      -17.523792
 31
        0.000000
  0
LINE
  8
LVL0000
 62
  2
 10
      173.199966
 20
       -5.800022
 30
        0.000000
 11
      173.199966
 21
      -17.523792
 31
        0.000000
  0
LINE
  8
LVL0000
 62
  2
 10
       76.899979
 20
      -16.047495
 30
        0.000000
 11
       73.399979
 21
      -16.963793
 31
        0.000000
  0
LINE
  8
LVL0000
 62
  2
 10
       73.399979
 20
      -16.963793
 30
        0.000000
 11
       76.899979
 21
      -17.880091
 31
        0.000000
  0
LINE
  8
LVL0000
 62
  2
 10
      169.699966
 20
      -17.880091
 30
        0.000000
 11
      173.199966
 21
      -16.963793
 31
        0.000000
  0
LINE
  8
LVL0000
 62
  2
 10
      173.199966
 20
      -16.963793
 30
        0.000000
 11
      169.699966
 21
      -16.047495
 31
        0.000000
  0
LINE
  8
LVL0000
 62
  2
 10
       73.399979
 20
      -16.963793
 30
        0.000000
 11
      173.199966
 21
      -16.963793
 31
        0.000000
  0
ENDBLK
  0
BLOCK
  8
0
  2
BLK0003
 70
    64
 10
        0.000000
 20
        0.000000
  0
TEXT
  8
LVL0000
 62
  2
 10
       -0.800464
 20
      -16.403791
 30
        0.000000
 40
        4.000000
  1
２６．５
 50
        0.000000
 41
        0.835000
 51
        0.000000
  7
BIGFONT
  0
LINE
  8
LVL0000
 62
  2
 10
       -5.500015
 20
       -4.800000
 30
        0.000000
 11
       -5.500015
 21
      -17.523792
 31
        0.000000
  0
LINE
  8
LVL0000
 62
  2
 10
       20.999985
 20
        5.199978
 30
        0.000000
 11
       20.999985
 21
      -17.523792
 31
        0.000000
  0
LINE
  8
LVL0000
 62
  2
 10
       -2.000015
 20
      -16.047495
 30
        0.000000
 11
       -5.500015
 21
      -16.963793
 31
        0.000000
  0
LINE
  8
LVL0000
 62
  2
 10
       -5.500015
 20
      -16.963793
 30
        0.000000
 11
       -2.000015
 21
      -17.880091
 31
        0.000000
  0
LINE
  8
LVL0000
 62
  2
 10
       17.499985
 20
      -17.880091
 30
        0.000000
 11
       20.999985
 21
      -16.963793
 31
        0.000000
  0
LINE
  8
LVL0000
 62
  2
 10
       20.999985
 20
      -16.963793
 30
        0.000000
 11
       17.499985
 21
      -16.047495
 31
        0.000000
  0
LINE
  8
LVL0000
 62
  2
 10
       -5.500015
 20
      -16.963793
 30
        0.000000
 11
       20.999985
 21
      -16.963793
 31
        0.000000
  0
ENDBLK
  0
BLOCK
  8
0
  2
BLK0004
 70
    64
 10
        0.000000
 20
        0.000000
  0
TEXT
  8
LVL0000
 62
  2
 10
       36.005264
 20
       55.452915
 30
        0.000000
 40
        4.000000
  1
１２９
 50
       90.000000
 41
        0.835000
 51
        0.000000
  7
BIGFONT
  0
LINE
  8
LVL0000
 62
  2
 10
        5.299985
 20
       -5.000000
 30
        0.000000
 11
       37.125263
 21
       -5.000000
 31
        0.000000
  0
LINE
  8
LVL0000
 62
  2
 10
        5.299985
 20
      124.000015
 30
        0.000000
 11
       37.125263
 21
      124.000015
 31
        0.000000
  0
LINE
  8
LVL0000
 62
  2
 10
       35.648964
 20
       -1.500000
 30
        0.000000
 11
       36.565262
 21
       -5.000000
 31
        0.000000
  0
LINE
  8
LVL0000
 62
  2
 10
       36.565262
 20
       -5.000000
 30
        0.000000
 11
       37.481560
 21
       -1.500000
 31
        0.000000
  0
LINE
  8
LVL0000
 62
  2
 10
       37.481560
 20
      120.500015
 30
        0.000000
 11
       36.565262
 21
      124.000015
 31
        0.000000
  0
LINE
  8
LVL0000
 62
  2
 10
       36.565262
 20
      124.000015
 30
        0.000000
 11
       35.648964
 21
      120.500015
 31
        0.000000
  0
LINE
  8
LVL0000
 62
  2
 10
       36.565262
 20
       -5.000000
 30
        0.000000
 11
       36.565262
 21
      124.000015
 31
        0.000000
  0
ENDBLK
  0
ENDSEC
  0
SECTION
  2
ENTITIES
  0
LINE
  8
LVL0000
 10
      108.399979
 20
       72.000008
 30
        0.000000
 11
      158.399979
 21
       72.000008
 31
        0.000000
  0
LINE
  8
LVL0000
 10
      108.399979
 20
       47.000008
 30
        0.000000
 11
      158.399979
 21
       47.000008
 31
        0.000000
  0
LINE
  8
LVL0000
 10
      158.399979
 20
       47.000008
 30
        0.000000
 11
      158.399979
 21
       72.000008
 31
        0.000000
  0
LINE
  8
LVL0000
 10
      108.399979
 20
       47.000008
 30
        0.000000
 11
      108.399979
 21
       72.000008
 31
        0.000000
  0
LINE
  8
LVL0000
 10
      173.199966
 20
        5.999978
 30
        0.000000
 11
      173.199966
 21
      114.999993
 31
        0.000000
  0
LINE
  8
LVL0000
 10
      173.199966
 20
       -5.000022
 30
        0.000000
 11
      173.199966
 21
        3.999978
 31
        0.000000
  0
LINE
  8
LVL0000
 10
      170.599966
 20
        3.999978
 30
        0.000000
 11
      170.599966
 21
        5.999978
 31
        0.000000
  0
LINE
  8
LVL0000
 10
      170.599966
 20
        3.999978
 30
        0.000000
 11
      173.199966
 21
        3.999978
 31
        0.000000
  0
LINE
  8
LVL0000
 10
      172.199966
 20
        5.999978
 30
        0.000000
 11
      173.199966
 21
        5.999978
 31
        0.000000
  0
LINE
  8
LVL0000
 10
      173.199966
 20
      114.999993
 30
        0.000000
 11
      175.799942
 21
      114.999993
 31
        0.000000
  0
LINE
  8
LVL0000
 10
      175.799942
 20
      123.999993
 30
        0.000000
 11
      175.799942
 21
      114.999993
 31
        0.000000
  0
LINE
  8
LVL0000
 10
       73.399979
 20
        5.999978
 30
        0.000000
 11
       73.399979
 21
      112.999993
 31
        0.000000
  0
LINE
  8
LVL0000
 10
      165.799942
 20
      123.999993
 30
        0.000000
 11
      175.799942
 21
      123.999993
 31
        0.000000
  0
LINE
  8
LVL0000
 10
      165.799942
 20
      123.999993
 30
        0.000000
 11
      165.799942
 21
      112.999993
 31
        0.000000
  0
LINE
  8
LVL0000
 10
      163.199966
 20
       -5.000022
 30
        0.000000
 11
      173.199966
 21
       -5.000022
 31
        0.000000
  0
LINE
  8
LVL0000
 10
      163.199966
 20
        5.999978
 30
        0.000000
 11
      163.199966
 21
       -5.000022
 31
        0.000000
  0
LINE
  8
LVL0000
 10
       73.399979
 20
        5.999978
 30
        0.000000
 11
      173.199966
 21
        5.999978
 31
        0.000000
  0
LINE
  8
LVL0000
 10
       73.399979
 20
      112.999993
 30
        0.000000
 11
      173.199966
 21
      112.999993
 31
        0.000000
  0
CIRCLE
  8
LVL0000
 10
        0.000000
 20
        0.000000
 30
        0.000000
 40
        3.500000
  0
LINE
  8
LVL0000
 10
       -1.449568
 20
        1.449568
 30
        0.000000
 11
        1.449568
 21
       -1.449568
 31
        0.000000
  0
LINE
  8
LVL0000
 10
        2.474874
 20
        2.474874
 30
        0.000000
 11
       -2.474874
 21
       -2.474874
 31
        0.000000
  0
LINE
  8
LVL0000
 10
        2.474874
 20
      121.474889
 30
        0.000000
 11
       -2.474874
 21
      116.525142
 31
        0.000000
  0
LINE
  8
LVL0000
 10
       -1.449568
 20
      120.449584
 30
        0.000000
 11
        1.449568
 21
      117.550447
 31
        0.000000
  0
CIRCLE
  8
LVL0000
 10
        0.000000
 20
      119.000015
 30
        0.000000
 40
        3.500000
  0
LINE
  8
LVL0000
 10
      163.199966
 20
        3.500000
 30
        0.000000
 11
      163.199966
 21
       -3.500000
 31
        0.000000
  0
ARC
  8
LVL0000
 10
      169.599967
 20
        0.000000
 30
        0.000000
 40
        9.000000
 50
      164.119344
 51
      195.880921
  0
LINE
  8
LVL0000
 10
      163.199966
 20
        3.500000
 30
        0.000000
 11
      162.080567
 21
        3.402012
 31
        0.000000
  0
ARC
  8
LVL0000
 10
      162.193873
 20
        2.106959
 30
        0.000000
 40
        1.300000
 50
       95.000147
 51
      164.118688
  0
LINE
  8
LVL0000
 10
      163.199966
 20
       -3.500000
 30
        0.000000
 11
      162.080560
 21
       -3.402011
 31
        0.000000
  0
ARC
  8
LVL0000
 10
      162.193866
 20
       -2.106958
 30
        0.000000
 40
        1.300000
 50
      195.881215
 51
      264.999858
  0
ARC
  8
LVL0000
 10
      164.793841
 20
      116.893057
 30
        0.000000
 40
        1.300000
 50
      195.881215
 51
      264.999858
  0
LINE
  8
LVL0000
 10
      165.799942
 20
      115.500015
 30
        0.000000
 11
      164.680536
 21
      115.598005
 31
        0.000000
  0
ARC
  8
LVL0000
 10
      164.793848
 20
      121.106974
 30
        0.000000
 40
        1.300000
 50
       95.000147
 51
      164.118688
  0
LINE
  8
LVL0000
 10
      165.799942
 20
      122.500015
 30
        0.000000
 11
      164.680542
 21
      122.402027
 31
        0.000000
  0
ARC
  8
LVL0000
 10
      172.199942
 20
      119.000015
 30
        0.000000
 40
        9.000000
 50
      164.119344
 51
      195.880921
  0
LINE
  8
LVL0000
 10
      165.799942
 20
      122.500015
 30
        0.000000
 11
      165.799942
 21
      115.500015
 31
        0.000000
  0
ARC
  8
LVL0000
 10
       -4.500015
 20
       -4.000000
 30
        0.000000
 40
        1.000000
 50
      179.999995
 51
      270.000000
  0
LINE
  8
LVL0000
 10
        4.499985
 20
       -5.000000
 30
        0.000000
 11
       -4.500015
 21
       -5.000000
 31
        0.000000
  0
LINE
  8
LVL0000
 10
       -5.500015
 20
      123.000015
 30
        0.000000
 11
       -5.500015
 21
       -4.000000
 31
        0.000000
  0
ARC
  8
LVL0000
 10
        4.499985
 20
       -4.000000
 30
        0.000000
 40
        1.000000
 50
      270.000000
 51
      360.000000
  0
LINE
  8
LVL0000
 10
        5.499985
 20
        5.999978
 30
        0.000000
 11
        5.499985
 21
       -4.000000
 31
        0.000000
  0
ARC
  8
LVL0000
 10
       -4.500015
 20
      123.000015
 30
        0.000000
 40
        1.000000
 50
       90.000000
 51
      179.999995
  0
LINE
  8
LVL0000
 10
       -4.500015
 20
      124.000015
 30
        0.000000
 11
        4.499985
 21
      124.000015
 31
        0.000000
  0
ARC
  8
LVL0000
 10
        4.499985
 20
      123.000015
 30
        0.000000
 40
        1.000000
 50
        0.000000
 51
       90.000000
  0
LINE
  8
LVL0000
 10
        5.499985
 20
      123.000015
 30
        0.000000
 11
        5.499985
 21
      112.999993
 31
        0.000000
  0
LINE
  8
LVL0000
 10
        4.499985
 20
      124.000015
 30
        0.000000
 11
        4.499985
 21
      112.999993
 31
        0.000000
  0
LINE
  8
LVL0000
 10
        4.499985
 20
        5.999978
 30
        0.000000
 11
        4.499985
 21
       -5.000000
 31
        0.000000
  0
LINE
  8
LVL0000
 10
       20.999985
 20
        5.999978
 30
        0.000000
 11
       -5.500015
 21
        5.999978
 31
        0.000000
  0
LINE
  8
LVL0000
 10
       -5.500015
 20
      112.999993
 30
        0.000000
 11
       20.999985
 21
      112.999993
 31
        0.000000
  0
LINE
  8
LVL0000
 10
       -4.500015
 20
        5.999978
 30
        0.000000
 11
       -4.500015
 21
       -5.000000
 31
        0.000000
  0
LINE
  8
LVL0000
 10
       -4.500015
 20
      124.000015
 30
        0.000000
 11
       -4.500015
 21
      112.999993
 31
        0.000000
  0
LINE
  8
LVL0000
 10
       20.999985
 20
      112.999993
 30
        0.000000
 11
       20.999985
 21
        5.999978
 31
        0.000000
  0
LINE
  8
LVL0000
 10
       13.650006
 20
       83.500008
 30
        0.000000
 11
       13.650006
 21
       35.500008
 31
        0.000000
  0
LINE
  8
LVL0000
 10
        4.150006
 20
       83.500008
 30
        0.000000
 11
       13.650006
 21
       83.500008
 31
        0.000000
  0
LINE
  8
LVL0000
 10
        4.150006
 20
       35.500008
 30
        0.000000
 11
       13.650006
 21
       35.500008
 31
        0.000000
  0
LINE
  8
LVL0000
 10
        4.150006
 20
       83.500008
 30
        0.000000
 11
        4.150006
 21
       35.500008
 31
        0.000000
  0
LINE
  8
LVL0000
 10
       12.399985
 20
       83.500008
 30
        0.000000
 11
       12.399985
 21
       35.500008
 31
        0.000000
  0
LINE
  8
LVL0000
 10
      175.799961
 20
      186.630295
 30
        0.000000
 11
      175.799966
 21
      175.630295
 31
        0.000000
  0
LINE
  8
LVL0000
 10
      173.199966
 20
      161.130294
 30
        0.000000
 11
      173.199960
 21
      175.630294
 31
        0.000000
  0
LINE
  8
LVL0000
 10
      172.199966
 20
      160.130294
 30
        0.000000
 11
      172.199960
 21
      175.630294
 31
        0.000000
  0
ARC
  8
LVL0000
 10
      172.199966
 20
      161.130294
 30
        0.000000
 40
        1.000000
 50
      270.000000
 51
      360.000024
  0
LINE
  8
LVL0000
 10
      175.799966
 20
      175.630295
 30
        0.000000
 11
      165.799935
 21
      175.630291
 31
        0.000000
  0
LINE
  8
LVL0000
 10
      165.799935
 20
      176.630291
 30
        0.000000
 11
      165.799935
 21
      175.630291
 31
        0.000000
  0
ARC
  8
LVL0000
 10
       74.399978
 20
      161.130252
 30
        0.000000
 40
        1.000000
 50
      180.000029
 51
      270.000000
  0
LINE
  8
LVL0000
 10
       73.399978
 20
      161.130252
 30
        0.000000
 11
       73.399968
 21
      185.630252
 31
        0.000000
  0
LINE
  8
LVL0000
 10
      172.199966
 20
      160.130294
 30
        0.000000
 11
       74.399979
 21
      160.130252
 31
        0.000000
  0
LINE
  8
LVL0000
 10
       74.399979
 20
      160.130252
 30
        0.000000
 11
       74.399968
 21
      185.630252
 31
        0.000000
  0
LINE
  8
LVL0000
 10
      104.199970
 20
      166.630265
 30
        0.000000
 11
      102.199970
 21
      166.630264
 31
        0.000000
  0
LINE
  8
LVL0000
 10
      108.199970
 20
      166.630267
 30
        0.000000
 11
      106.199970
 21
      166.630266
 31
        0.000000
  0
LINE
  8
LVL0000
 10
      112.199970
 20
      166.630268
 30
        0.000000
 11
      110.199970
 21
      166.630267
 31
        0.000000
  0
LINE
  8
LVL0000
 10
      116.199970
 20
      166.630270
 30
        0.000000
 11
      114.199970
 21
      166.630269
 31
        0.000000
  0
LINE
  8
LVL0000
 10
      120.199970
 20
      166.630272
 30
        0.000000
 11
      118.199970
 21
      166.630271
 31
        0.000000
  0
LINE
  8
LVL0000
 10
      124.199970
 20
      166.630273
 30
        0.000000
 11
      122.199970
 21
      166.630273
 31
        0.000000
  0
LINE
  8
LVL0000
 10
      128.199970
 20
      166.630275
 30
        0.000000
 11
      126.199970
 21
      166.630274
 31
        0.000000
  0
LINE
  8
LVL0000
 10
      132.199970
 20
      166.630277
 30
        0.000000
 11
      130.199970
 21
      166.630276
 31
        0.000000
  0
LINE
  8
LVL0000
 10
      136.199970
 20
      166.630278
 30
        0.000000
 11
      134.199970
 21
      166.630278
 31
        0.000000
  0
LINE
  8
LVL0000
 10
      140.199970
 20
      166.630280
 30
        0.000000
 11
      138.199970
 21
      166.630279
 31
        0.000000
  0
LINE
  8
LVL0000
 10
      144.199970
 20
      166.630282
 30
        0.000000
 11
      142.199970
 21
      166.630281
 31
        0.000000
  0
LINE
  8
LVL0000
 10
      104.199963
 20
      181.630265
 30
        0.000000
 11
      104.199970
 21
      166.630265
 31
        0.000000
  0
LINE
  8
LVL0000
 10
      108.199963
 20
      181.630267
 30
        0.000000
 11
      108.199970
 21
      166.630267
 31
        0.000000
  0
LINE
  8
LVL0000
 10
      112.199963
 20
      181.630268
 30
        0.000000
 11
      112.199970
 21
      166.630268
 31
        0.000000
  0
LINE
  8
LVL0000
 10
      116.199963
 20
      181.630270
 30
        0.000000
 11
      116.199970
 21
      166.630270
 31
        0.000000
  0
LINE
  8
LVL0000
 10
      120.199963
 20
      181.630272
 30
        0.000000
 11
      120.199970
 21
      166.630272
 31
        0.000000
  0
LINE
  8
LVL0000
 10
      124.199963
 20
      181.630273
 30
        0.000000
 11
      124.199970
 21
      166.630273
 31
        0.000000
  0
LINE
  8
LVL0000
 10
      128.199963
 20
      181.630275
 30
        0.000000
 11
      128.199970
 21
      166.630275
 31
        0.000000
  0
LINE
  8
LVL0000
 10
      132.199963
 20
      181.630277
 30
        0.000000
 11
      132.199970
 21
      166.630277
 31
        0.000000
  0
LINE
  8
LVL0000
 10
      136.199963
 20
      181.630278
 30
        0.000000
 11
      136.199970
 21
      166.630278
 31
        0.000000
  0
LINE
  8
LVL0000
 10
      140.199963
 20
      181.630280
 30
        0.000000
 11
      140.199970
 21
      166.630280
 31
        0.000000
  0
LINE
  8
LVL0000
 10
      144.199963
 20
      181.630282
 30
        0.000000
 11
      144.199970
 21
      166.630282
 31
        0.000000
  0
LINE
  8
LVL0000
 10
      102.199963
 20
      181.630264
 30
        0.000000
 11
      102.199970
 21
      166.630264
 31
        0.000000
  0
LINE
  8
LVL0000
 10
      106.199963
 20
      181.630266
 30
        0.000000
 11
      106.199970
 21
      166.630266
 31
        0.000000
  0
LINE
  8
LVL0000
 10
      110.199963
 20
      181.630267
 30
        0.000000
 11
      110.199970
 21
      166.630267
 31
        0.000000
  0
LINE
  8
LVL0000
 10
      114.199963
 20
      181.630269
 30
        0.000000
 11
      114.199970
 21
      166.630269
 31
        0.000000
  0
LINE
  8
LVL0000
 10
      118.199963
 20
      181.630271
 30
        0.000000
 11
      118.199970
 21
      166.630271
 31
        0.000000
  0
LINE
  8
LVL0000
 10
      122.199963
 20
      181.630273
 30
        0.000000
 11
      122.199970
 21
      166.630273
 31
        0.000000
  0
LINE
  8
LVL0000
 10
      126.199963
 20
      181.630274
 30
        0.000000
 11
      126.199970
 21
      166.630274
 31
        0.000000
  0
LINE
  8
LVL0000
 10
      130.199963
 20
      181.630276
 30
        0.000000
 11
      130.199970
 21
      166.630276
 31
        0.000000
  0
LINE
  8
LVL0000
 10
      134.199963
 20
      181.630278
 30
        0.000000
 11
      134.199970
 21
      166.630278
 31
        0.000000
  0
LINE
  8
LVL0000
 10
      138.199963
 20
      181.630279
 30
        0.000000
 11
      138.199970
 21
      166.630279
 31
        0.000000
  0
LINE
  8
LVL0000
 10
      142.199963
 20
      181.630281
 30
        0.000000
 11
      142.199970
 21
      166.630281
 31
        0.000000
  0
LINE
  8
LVL0000
 10
      146.199963
 20
      181.630283
 30
        0.000000
 11
      146.199970
 21
      166.630283
 31
        0.000000
  0
LINE
  8
LVL0000
 10
      148.199970
 20
      166.630284
 30
        0.000000
 11
      146.199970
 21
      166.630283
 31
        0.000000
  0
LINE
  8
LVL0000
 10
      148.199963
 20
      181.630284
 30
        0.000000
 11
      148.199970
 21
      166.630284
 31
        0.000000
  0
LINE
  8
LVL0000
 10
      152.199963
 20
      181.630285
 30
        0.000000
 11
      152.199970
 21
      166.630285
 31
        0.000000
  0
LINE
  8
LVL0000
 10
      152.199970
 20
      166.630285
 30
        0.000000
 11
      150.199970
 21
      166.630284
 31
        0.000000
  0
LINE
  8
LVL0000
 10
      150.199963
 20
      181.630284
 30
        0.000000
 11
      150.199970
 21
      166.630284
 31
        0.000000
  0
LINE
  8
LVL0000
 10
      165.799931
 20
      186.630291
 30
        0.000000
 11
      165.799931
 21
      185.630291
 31
        0.000000
  0
LINE
  8
LVL0000
 10
      175.799961
 20
      186.630295
 30
        0.000000
 11
      155.799931
 21
      186.630287
 31
        0.000000
  0
LINE
  8
LVL0000
 10
      174.799961
 20
      186.630295
 30
        0.000000
 11
       74.399967
 21
      186.630252
 31
        0.000000
  0
ARC
  8
LVL0000
 10
       74.399968
 20
      185.630252
 30
        0.000000
 40
        1.000000
 50
       90.000000
 51
      180.000029
  0
LINE
  8
LVL0000
 10
       80.899968
 20
      185.630255
 30
        0.000000
 11
       80.899967
 21
      186.630255
 31
        0.000000
  0
LINE
  8
LVL0000
 10
       80.899968
 20
      185.630255
 30
        0.000000
 11
       74.399968
 21
      185.630252
 31
        0.000000
  0
LINE
  8
LVL0000
 10
      104.199963
 20
      181.630265
 30
        0.000000
 11
      102.199963
 21
      181.630264
 31
        0.000000
  0
LINE
  8
LVL0000
 10
      108.199963
 20
      181.630267
 30
        0.000000
 11
      106.199963
 21
      181.630266
 31
        0.000000
  0
LINE
  8
LVL0000
 10
      112.199963
 20
      181.630268
 30
        0.000000
 11
      110.199963
 21
      181.630267
 31
        0.000000
  0
LINE
  8
LVL0000
 10
      116.199963
 20
      181.630270
 30
        0.000000
 11
      114.199963
 21
      181.630269
 31
        0.000000
  0
LINE
  8
LVL0000
 10
      120.199963
 20
      181.630272
 30
        0.000000
 11
      118.199963
 21
      181.630271
 31
        0.000000
  0
LINE
  8
LVL0000
 10
      124.199963
 20
      181.630273
 30
        0.000000
 11
      122.199963
 21
      181.630273
 31
        0.000000
  0
LINE
  8
LVL0000
 10
      128.199963
 20
      181.630275
 30
        0.000000
 11
      126.199963
 21
      181.630274
 31
        0.000000
  0
LINE
  8
LVL0000
 10
      132.199963
 20
      181.630277
 30
        0.000000
 11
      130.199963
 21
      181.630276
 31
        0.000000
  0
LINE
  8
LVL0000
 10
      136.199963
 20
      181.630278
 30
        0.000000
 11
      134.199963
 21
      181.630278
 31
        0.000000
  0
LINE
  8
LVL0000
 10
      140.199963
 20
      181.630280
 30
        0.000000
 11
      138.199963
 21
      181.630279
 31
        0.000000
  0
LINE
  8
LVL0000
 10
      144.199963
 20
      181.630282
 30
        0.000000
 11
      142.199963
 21
      181.630281
 31
        0.000000
  0
LINE
  8
LVL0000
 10
      148.199963
 20
      181.630284
 30
        0.000000
 11
      146.199963
 21
      181.630283
 31
        0.000000
  0
LINE
  8
LVL0000
 10
      152.199963
 20
      181.630285
 30
        0.000000
 11
      150.199963
 21
      181.630284
 31
        0.000000
  0
ARC
  8
LVL0000
 10
      164.793861
 20
      179.023322
 30
        0.000000
 40
        1.300000
 50
      195.881215
 51
      264.999858
  0
ARC
  8
LVL0000
 10
      172.199961
 20
      181.130280
 30
        0.000000
 40
        9.000000
 50
      164.119344
 51
      195.880921
  0
LINE
  8
LVL0000
 10
      165.799961
 20
      177.630280
 30
        0.000000
 11
      164.680555
 21
      177.728269
 31
        0.000000
  0
ARC
  8
LVL0000
 10
      164.793868
 20
      183.237239
 30
        0.000000
 40
        1.300000
 50
       95.000147
 51
      164.118688
  0
LINE
  8
LVL0000
 10
      165.799961
 20
      184.630280
 30
        0.000000
 11
      164.680562
 21
      184.532292
 31
        0.000000
  0
LINE
  8
LVL0000
 10
      165.799935
 20
      175.630291
 30
        0.000000
 11
      165.299935
 21
      175.630291
 31
        0.000000
  0
LINE
  8
LVL0000
 10
      165.299931
 20
      186.630291
 30
        0.000000
 11
      165.299935
 21
      175.630291
 31
        0.000000
  0
LINE
  8
LVL0000
 10
      165.799931
 20
      185.630291
 30
        0.000000
 11
      165.799935
 21
      175.630291
 31
        0.000000
  0
TEXT
  8
LVL0000
 62
  2
 10
       -1.845712
 20
      176.675046
 30
        0.000000
 40
        5.000000
  1
ＪＷ３１ＥＡ
 50
        0.000000
 41
        0.835000
 51
        0.000000
  7
BIGFONT
  0
DIMENSION
  8
LVL0000
 62
  5
  2
BLK0001
 10
      175.799942
 20
      134.208176
 11
      115.376419
 21
      134.768173
 13
      175.799942
 23
      123.999992
 14
       73.399979
 24
      112.999992
 50
        0.0
 70
  0
  0
DIMENSION
  8
LVL0000
 62
  5
  2
BLK0002
 10
       73.399979
 20
      -16.963793
 11
      119.897720
 21
      -16.403791
 13
       73.399979
 23
        5.999978
 14
      173.199966
 24
       -5.000022
 50
        0.0
 70
  0
  0
DIMENSION
  8
LVL0000
 62
  5
  2
BLK0003
 10
       -5.500015
 20
      -16.963793
 11
       -0.800464
 21
      -16.403791
 13
       -5.500015
 23
       -4.000000
 14
       20.999985
 24
        5.999978
 50
        0.0
 70
  0
  0
DIMENSION
  8
LVL0000
 62
  5
  2
BLK0004
 10
       36.565262
 20
       -5.000000
 11
       36.005264
 21
       55.452915
 13
        4.499985
 23
       -5.000000
 14
        4.499985
 24
      124.000015
 50
       90.0
 70
  0
  0
LINE
  8
LVL0000
 10
       10.549979
 20
       40.960016
 30
        0.000000
 11
       10.549979
 21
       38.110010
 31
        0.000000
  0
LINE
  8
LVL0000
 10
        6.849982
 20
       40.960016
 30
        0.000000
 11
        6.849982
 21
       38.110010
 31
        0.000000
  0
LINE
  8
LVL0000
 10
       10.549979
 20
       40.960016
 30
        0.000000
 11
       12.399985
 21
       40.960016
 31
        0.000000
  0
LINE
  8
LVL0000
 10
        5.399985
 20
       40.960016
 30
        0.000000
 11
        6.849982
 21
       40.960016
 31
        0.000000
  0
LINE
  8
LVL0000
 10
        6.849982
 20
       38.110010
 30
        0.000000
 11
       10.549979
 21
       38.110010
 31
        0.000000
  0
LINE
  8
LVL0000
 10
        6.299979
 20
       42.410013
 30
        0.000000
 11
       11.099982
 21
       42.410013
 31
        0.000000
  0
LINE
  8
LVL0000
 10
        7.299979
 20
       43.410013
 30
        0.000000
 11
       10.099982
 21
       43.410013
 31
        0.000000
  0
LINE
  8
LVL0000
 10
        7.299979
 20
       75.590002
 30
        0.000000
 11
       10.099982
 21
       75.590002
 31
        0.000000
  0
LINE
  8
LVL0000
 10
        5.399985
 20
       81.590002
 30
        0.000000
 11
       12.399985
 21
       81.590002
 31
        0.000000
  0
LINE
  8
LVL0000
 10
       11.999983
 20
       76.090002
 30
        0.000000
 11
       12.399985
 21
       76.090002
 31
        0.000000
  0
LINE
  8
LVL0000
 10
       12.399985
 20
       76.090002
 30
        0.000000
 11
       12.399985
 21
       81.590002
 31
        0.000000
  0
LINE
  8
LVL0000
 10
       10.549979
 20
       78.039999
 30
        0.000000
 11
       10.549979
 21
       80.890005
 31
        0.000000
  0
LINE
  8
LVL0000
 10
        6.849982
 20
       78.039999
 30
        0.000000
 11
        6.849982
 21
       80.890005
 31
        0.000000
  0
LINE
  8
LVL0000
 10
        6.299979
 20
       76.590002
 30
        0.000000
 11
       11.099982
 21
       76.590002
 31
        0.000000
  0
LINE
  8
LVL0000
 10
       10.549979
 20
       78.039999
 30
        0.000000
 11
       12.399985
 21
       78.039999
 31
        0.000000
  0
LINE
  8
LVL0000
 10
        5.399985
 20
       78.039999
 30
        0.000000
 11
        6.849982
 21
       78.039999
 31
        0.000000
  0
LINE
  8
LVL0000
 10
        6.849982
 20
       80.890005
 30
        0.000000
 11
       10.549979
 21
       80.890005
 31
        0.000000
  0
CIRCLE
  8
LVL0000
 10
        8.699988
 20
       39.815021
 30
        0.000000
 40
        1.149994
  0
CIRCLE
  8
LVL0000
 10
        8.699988
 20
       79.184995
 30
        0.000000
 40
        1.149994
  0
LINE
  8
LVL0000
 10
       11.099982
 20
       42.410013
 30
        0.000000
 11
       11.099982
 21
       76.590002
 31
        0.000000
  0
LINE
  8
LVL0000
 10
        7.299979
 20
       43.410013
 30
        0.000000
 11
        7.299979
 21
       75.590002
 31
        0.000000
  0
LINE
  8
LVL0000
 10
       10.099982
 20
       43.410013
 30
        0.000000
 11
       10.099982
 21
       75.590002
 31
        0.000000
  0
LINE
  8
LVL0000
 10
       11.999983
 20
       42.910013
 30
        0.000000
 11
       11.999983
 21
       76.090002
 31
        0.000000
  0
LINE
  8
LVL0000
 10
        5.399985
 20
       37.410013
 30
        0.000000
 11
        5.399985
 21
       81.590002
 31
        0.000000
  0
LINE
  8
LVL0000
 10
        6.299979
 20
       42.410013
 30
        0.000000
 11
        6.299979
 21
       76.590002
 31
        0.000000
  0
LINE
  8
LVL0000
 10
       11.999983
 20
       42.910013
 30
        0.000000
 11
       12.399985
 21
       42.910013
 31
        0.000000
  0
LINE
  8
LVL0000
 10
       12.399985
 20
       42.910013
 30
        0.000000
 11
       12.399985
 21
       37.410013
 31
        0.000000
  0
LINE
  8
LVL0000
 10
        5.399985
 20
       37.410013
 30
        0.000000
 11
       12.399985
 21
       37.410013
 31
        0.000000
  0
ENDSEC
  0
EOF
