  0
SECTION
  2
HEADER
  9
$ACADVER
  1
AC1006
  9
$INSBASE
 10
0.0
 20
0.0
 30
0.0
  9
$EXTMIN
 10
      -70.484238
 20
      -70.484238
  9
$EXTMAX
 10
      165.092010
 20
      131.826462
  9
$LIMMIN
 10
      -70.484238
 20
      -70.484238
  9
$LIMMAX
 10
      165.092010
 20
      131.826462
  9
$VIEWCTR
 10
       47.303886
 20
       47.303886
  9
$ORTHOMODE
 70
     0
  9
$ANGBASE
 50
0.0
  9
$ANGDIR
 70
     0
  9
$SPLINETYPE
 70
     6
  9
$SPLINESEGS
 70
     8
9
$DIMASZ
 40
        3.000000
9
$DIMEXE
 40
        0.933333
9
$DIMEXO
 40
        1.333333
9
$DIMTXT
 40
        4.000000
9
$DIMGAP
 40
        0.933333
9
$DIMTAD
 70
1
9
$DIMTIH
 70
0
9
$DIMTOH
 70
0
  0
ENDSEC
  0
SECTION
  2
TABLES
  0
TABLE
  2
LTYPE
 70
     5
  0
LTYPE
  2
CONTINUOUS
 70
    64
  3
SOLID LINE
 72
    65
 73
     0
 40
0.0
  0
LTYPE
  2
DASHED
 70
    64
  3
-- -- -- -- -- --
 72
    65
 73
     2
 40
  0.75  
 49
  0.50  
 49
 -0.25  
  0
LTYPE
  2
DOT
 70
    64
  3
....................
 72
    65
 73
     2
 40
  0.25  
 49
  0.02  
 49
 -0.23  
  0
LTYPE
  2
CENTER
 70
    64
  3
-- . -- . -- . -- .
 72
    65
 73
    4
 40
  2.00  
 49
  1.25  
 49
 -0.25  
 49
  0.25  
 49
 -0.25  
  0
LTYPE
  2
PHANTOM
 70
    64
  3
-- .. -- .. -- ..
 72
    65
 73
    6
 40
  2.50  
 49
  1.25  
 49
 -0.25  
 49
  0.25  
 49
 -0.25  
 49
  0.25  
 49
 -0.25  
  0
ENDTAB
  0
TABLE
  2
LAYER
 70
     1
  0
LAYER
  2
LVL0000
 70
    64
 62
     3
  6
CONTINUOUS
  0
ENDTAB
  0
TABLE
  2
STYLE
 70
     2
  0
STYLE
  2
STANDARD
 70
    64
 40
0.0
 41
1.0
 50
0.0
 71
     0
 42
5.0
  3
ROMANS
  4
BIGFONT
  0
STYLE
  2
BIGFONT
 70
    64
 40
0.0
 41
1.0
 50
0.0
 71
     0
 42
5.0
  3
ROMANS
  4
BIGFONT
  0
ENDTAB
  0
TABLE
  2
VIEW
 70
     0
  0
ENDTAB
  0
TABLE
  2
UCS
 70
     0
  0
ENDTAB
  0
TABLE
  2
DWGMGR
 70
     0
  0
ENDTAB
  0
ENDSEC
  0
SECTION
  2
BLOCKS
  0
BLOCK
  8
0
  2
BLK0001
 70
    64
 10
        0.000000
 20
        0.000000
  0
TEXT
  8
LVL0000
 62
  2
 10
       30.266211
 20
       -7.154851
 30
        0.000000
 40
        4.000000
  1
１３０
 50
       90.000000
 41
        0.835000
 51
        0.000000
  7
BIGFONT
  0
LINE
  8
LVL0000
 62
  2
 10
       18.333334
 20
      -65.000015
 30
        0.000000
 11
       32.132877
 21
      -65.000015
 31
        0.000000
  0
LINE
  8
LVL0000
 62
  2
 10
       18.333334
 20
       65.000000
 30
        0.000000
 11
       32.132877
 21
       65.000000
 31
        0.000000
  0
LINE
  8
LVL0000
 62
  2
 10
       30.728306
 20
      -62.000015
 30
        0.000000
 11
       31.199545
 21
      -65.000015
 31
        0.000000
  0
LINE
  8
LVL0000
 62
  2
 10
       31.199545
 20
      -65.000015
 30
        0.000000
 11
       31.670784
 21
      -62.000015
 31
        0.000000
  0
LINE
  8
LVL0000
 62
  2
 10
       31.670784
 20
       62.000000
 30
        0.000000
 11
       31.199545
 21
       65.000000
 31
        0.000000
  0
LINE
  8
LVL0000
 62
  2
 10
       31.199545
 20
       65.000000
 30
        0.000000
 11
       30.728306
 21
       62.000000
 31
        0.000000
  0
LINE
  8
LVL0000
 62
  2
 10
       31.199545
 20
      -65.000015
 30
        0.000000
 11
       31.199545
 21
       65.000000
 31
        0.000000
  0
ENDBLK
  0
BLOCK
  8
0
  2
BLK0002
 70
    64
 10
        0.000000
 20
        0.000000
  0
TEXT
  8
LVL0000
 62
  2
 10
       -4.513413
 20
      -75.189445
 30
        0.000000
 40
        4.000000
  1
３５
 50
        0.000000
 41
        0.835000
 51
        0.000000
  7
BIGFONT
  0
LINE
  8
LVL0000
 62
  2
 10
      -17.500000
 20
      -65.833351
 30
        0.000000
 11
      -17.500000
 21
      -77.056114
 31
        0.000000
  0
LINE
  8
LVL0000
 62
  2
 10
       17.500000
 20
      -65.833351
 30
        0.000000
 11
       17.500000
 21
      -77.056114
 31
        0.000000
  0
LINE
  8
LVL0000
 62
  2
 10
      -14.500000
 20
      -75.651543
 30
        0.000000
 11
      -17.500000
 21
      -76.122780
 31
        0.000000
  0
LINE
  8
LVL0000
 62
  2
 10
      -17.500000
 20
      -76.122780
 30
        0.000000
 11
      -14.500000
 21
      -76.594017
 31
        0.000000
  0
LINE
  8
LVL0000
 62
  2
 10
       14.500000
 20
      -76.594017
 30
        0.000000
 11
       17.500000
 21
      -76.122780
 31
        0.000000
  0
LINE
  8
LVL0000
 62
  2
 10
       17.500000
 20
      -76.122780
 30
        0.000000
 11
       14.500000
 21
      -75.651543
 31
        0.000000
  0
LINE
  8
LVL0000
 62
  2
 10
      -17.500000
 20
      -76.122780
 30
        0.000000
 11
       17.500000
 21
      -76.122780
 31
        0.000000
  0
ENDBLK
  0
BLOCK
  8
0
  2
BLK0003
 70
    64
 10
        0.000000
 20
        0.000000
  0
TEXT
  8
LVL0000
 62
  2
 10
       98.685127
 20
      -76.534050
 30
        0.000000
 40
        4.000000
  1
１０２．４
 50
        0.000000
 41
        0.835000
 51
        0.000000
  7
BIGFONT
  0
LINE
  8
LVL0000
 62
  2
 10
       55.691650
 20
      -65.833336
 30
        0.000000
 11
       55.691650
 21
      -78.400719
 31
        0.000000
  0
LINE
  8
LVL0000
 62
  2
 10
      158.091644
 20
       53.666668
 30
        0.000000
 11
      158.091644
 21
      -78.400726
 31
        0.000000
  0
LINE
  8
LVL0000
 62
  2
 10
       58.691650
 20
      -76.996147
 30
        0.000000
 11
       55.691650
 21
      -77.467384
 31
        0.000000
  0
LINE
  8
LVL0000
 62
  2
 10
       55.691650
 20
      -77.467384
 30
        0.000000
 11
       58.691650
 21
      -77.938622
 31
        0.000000
  0
LINE
  8
LVL0000
 62
  2
 10
      155.091644
 20
      -77.938629
 30
        0.000000
 11
      158.091644
 21
      -77.467392
 31
        0.000000
  0
LINE
  8
LVL0000
 62
  2
 10
      158.091644
 20
      -77.467392
 30
        0.000000
 11
      155.091644
 21
      -76.996155
 31
        0.000000
  0
LINE
  8
LVL0000
 62
  2
 10
       55.691650
 20
      -77.467384
 30
        0.000000
 11
      158.091644
 21
      -77.467392
 31
        0.000000
  0
ENDBLK
  0
ENDSEC
  0
SECTION
  2
ENTITIES
  0
LINE
  8
LVL0000
 10
       10.475000
 20
       52.950000
 30
        0.000000
 11
       10.475000
 21
       55.450000
 31
        0.000000
  0
LINE
  8
LVL0000
 10
       11.875000
 20
       55.450000
 30
        0.000000
 11
       10.475000
 21
       55.450000
 31
        0.000000
  0
LINE
  8
LVL0000
 10
       11.875000
 20
       52.950000
 30
        0.000000
 11
       11.875000
 21
       55.450000
 31
        0.000000
  0
LINE
  8
LVL0000
 10
       11.875000
 20
       52.950000
 30
        0.000000
 11
       10.475000
 21
       52.950000
 31
        0.000000
  0
LINE
  8
LVL0000
 10
       11.875000
 20
       49.150000
 30
        0.000000
 11
       10.475000
 21
       49.150000
 31
        0.000000
  0
LINE
  8
LVL0000
 10
       11.875000
 20
       49.150000
 30
        0.000000
 11
       11.875000
 21
       51.650000
 31
        0.000000
  0
LINE
  8
LVL0000
 10
       11.875000
 20
       51.650000
 30
        0.000000
 11
       10.475000
 21
       51.650000
 31
        0.000000
  0
LINE
  8
LVL0000
 10
       10.475000
 20
       49.150000
 30
        0.000000
 11
       10.475000
 21
       51.650000
 31
        0.000000
  0
LINE
  8
LVL0000
 10
       10.475000
 20
       45.350000
 30
        0.000000
 11
       10.475000
 21
       47.850000
 31
        0.000000
  0
LINE
  8
LVL0000
 10
       11.875000
 20
       47.850000
 30
        0.000000
 11
       10.475000
 21
       47.850000
 31
        0.000000
  0
LINE
  8
LVL0000
 10
       11.875000
 20
       45.350000
 30
        0.000000
 11
       11.875000
 21
       47.850000
 31
        0.000000
  0
LINE
  8
LVL0000
 10
       11.875000
 20
       45.350000
 30
        0.000000
 11
       10.475000
 21
       45.350000
 31
        0.000000
  0
LINE
  8
LVL0000
 10
       11.875000
 20
       41.550000
 30
        0.000000
 11
       10.475000
 21
       41.550000
 31
        0.000000
  0
LINE
  8
LVL0000
 10
       11.875000
 20
       41.550000
 30
        0.000000
 11
       11.875000
 21
       44.050000
 31
        0.000000
  0
LINE
  8
LVL0000
 10
       11.875000
 20
       44.050000
 30
        0.000000
 11
       10.475000
 21
       44.050000
 31
        0.000000
  0
LINE
  8
LVL0000
 10
       10.475000
 20
       41.550000
 30
        0.000000
 11
       10.475000
 21
       44.050000
 31
        0.000000
  0
LINE
  8
LVL0000
 10
       10.475000
 20
       37.750000
 30
        0.000000
 11
       10.475000
 21
       40.250000
 31
        0.000000
  0
LINE
  8
LVL0000
 10
       11.875000
 20
       40.250000
 30
        0.000000
 11
       10.475000
 21
       40.250000
 31
        0.000000
  0
LINE
  8
LVL0000
 10
       11.875000
 20
       37.750000
 30
        0.000000
 11
       11.875000
 21
       40.250000
 31
        0.000000
  0
LINE
  8
LVL0000
 10
       11.875000
 20
       37.750000
 30
        0.000000
 11
       10.475000
 21
       37.750000
 31
        0.000000
  0
LINE
  8
LVL0000
 10
       -3.899976
 20
       43.550000
 30
        0.000000
 11
       -5.299976
 21
       43.550000
 31
        0.000000
  0
LINE
  8
LVL0000
 10
       -3.899976
 20
       41.050000
 30
        0.000000
 11
       -3.899976
 21
       43.550000
 31
        0.000000
  0
LINE
  8
LVL0000
 10
       -3.899976
 20
       41.050000
 30
        0.000000
 11
       -5.299976
 21
       41.050000
 31
        0.000000
  0
LINE
  8
LVL0000
 10
       -6.400000
 20
      -64.900015
 30
        0.000000
 11
       -6.400000
 21
      -62.080015
 31
        0.000000
  0
LINE
  8
LVL0000
 10
      -13.200000
 20
      -64.900015
 30
        0.000000
 11
      -13.200000
 21
      -62.080015
 31
        0.000000
  0
LINE
  8
LVL0000
 10
       -6.400000
 20
      -62.080015
 30
        0.000000
 11
       -4.050000
 21
      -62.080015
 31
        0.000000
  0
LINE
  8
LVL0000
 10
       -6.400000
 20
      -62.290015
 30
        0.000000
 11
       -4.050000
 21
      -62.290015
 31
        0.000000
  0
LINE
  8
LVL0000
 10
       -6.400000
 20
      -63.750015
 30
        0.000000
 11
       -4.050000
 21
      -63.750015
 31
        0.000000
  0
LINE
  8
LVL0000
 10
      -15.550000
 20
      -62.080015
 30
        0.000000
 11
      -13.200000
 21
      -62.080015
 31
        0.000000
  0
LINE
  8
LVL0000
 10
      -15.550000
 20
      -62.290015
 30
        0.000000
 11
      -13.200000
 21
      -62.290015
 31
        0.000000
  0
LINE
  8
LVL0000
 10
      -15.550000
 20
      -63.750015
 30
        0.000000
 11
      -13.200000
 21
      -63.750015
 31
        0.000000
  0
LINE
  8
LVL0000
 10
       15.799982
 20
      -17.000000
 30
        0.000000
 11
       -3.200018
 21
      -17.000000
 31
        0.000000
  0
LINE
  8
LVL0000
 10
       15.799982
 20
       30.000000
 30
        0.000000
 11
       -3.200018
 21
       30.000000
 31
        0.000000
  0
LINE
  8
LVL0000
 10
      -15.550000
 20
      -64.900015
 30
        0.000000
 11
      -15.550000
 21
       -5.500015
 31
        0.000000
  0
LINE
  8
LVL0000
 10
      -15.550000
 20
       -4.000015
 30
        0.000000
 11
       -4.050000
 21
       -4.000015
 31
        0.000000
  0
LINE
  8
LVL0000
 10
      -15.550000
 20
       -5.500015
 30
        0.000000
 11
       -4.050000
 21
       -5.500015
 31
        0.000000
  0
LINE
  8
LVL0000
 10
       -4.050000
 20
      -64.900015
 30
        0.000000
 11
       -4.050000
 21
       -4.000015
 31
        0.000000
  0
LINE
  8
LVL0000
 10
      -15.550000
 20
      -64.900015
 30
        0.000000
 11
       -4.050000
 21
      -64.900015
 31
        0.000000
  0
LINE
  8
LVL0000
 10
      -17.000000
 20
       65.000000
 30
        0.000000
 11
       17.000000
 21
       65.000000
 31
        0.000000
  0
LINE
  8
LVL0000
 10
      -17.000000
 20
      -65.000015
 30
        0.000000
 11
       17.000000
 21
      -65.000015
 31
        0.000000
  0
ARC
  8
LVL0000
 10
       17.000000
 20
      -64.500015
 30
        0.000000
 40
        0.500000
 50
      270.000000
 51
      359.999995
  0
ARC
  8
LVL0000
 10
      -17.000000
 20
      -64.500015
 30
        0.000000
 40
        0.500000
 50
      179.999995
 51
      270.000000
  0
ARC
  8
LVL0000
 10
      -17.000000
 20
       64.500000
 30
        0.000000
 40
        0.500000
 50
       90.000000
 51
      179.999995
  0
ARC
  8
LVL0000
 10
       17.000000
 20
       64.500000
 30
        0.000000
 40
        0.500000
 50
      359.999995
 51
      450.000000
  0
LINE
  8
LVL0000
 10
      -17.500000
 20
       64.500000
 30
        0.000000
 11
      -17.500000
 21
      -64.500015
 31
        0.000000
  0
LINE
  8
LVL0000
 10
       17.500000
 20
       64.500000
 30
        0.000000
 11
       17.500000
 21
      -64.500015
 31
        0.000000
  0
LINE
  8
LVL0000
 10
       16.299976
 20
       63.500000
 30
        0.000000
 11
       16.299976
 21
       58.000000
 31
        0.000000
  0
LINE
  8
LVL0000
 10
       16.299976
 20
       57.000000
 30
        0.000000
 11
       16.299976
 21
       32.500000
 31
        0.000000
  0
LINE
  8
LVL0000
 10
      -15.550000
 20
       -5.500015
 30
        0.000000
 11
      -17.500000
 21
       -5.500015
 31
        0.000000
  0
LINE
  8
LVL0000
 10
      -15.550000
 20
       -4.000015
 30
        0.000000
 11
      -17.500000
 21
       -4.000015
 31
        0.000000
  0
LINE
  8
LVL0000
 10
      -15.550000
 20
       -9.500015
 30
        0.000000
 11
      -17.500000
 21
       -9.500015
 31
        0.000000
  0
ARC
  8
LVL0000
 10
        0.169982
 20
      -58.630000
 30
        0.000000
 40
        0.500000
 50
      180.000005
 51
      270.000000
  0
LINE
  8
LVL0000
 10
        0.169982
 20
      -59.130000
 30
        0.000000
 11
       12.429982
 21
      -59.130000
 31
        0.000000
  0
ARC
  8
LVL0000
 10
       12.429982
 20
      -58.630000
 30
        0.000000
 40
        0.500000
 50
      270.000000
 51
      360.000000
  0
LINE
  8
LVL0000
 10
       12.938807
 20
      -59.223248
 30
        0.000000
 11
       13.644216
 21
      -59.850279
 31
        0.000000
  0
LINE
  8
LVL0000
 10
       -0.939842
 20
      -59.771900
 30
        0.000000
 11
       -0.312811
 21
      -59.144869
 31
        0.000000
  0
LINE
  8
LVL0000
 10
       12.929982
 20
      -18.370000
 30
        0.000000
 11
       12.929982
 21
      -58.630000
 31
        0.000000
  0
ARC
  8
LVL0000
 10
       12.429982
 20
      -18.370000
 30
        0.000000
 40
        0.500000
 50
        0.000000
 51
       90.000000
  0
LINE
  8
LVL0000
 10
       -0.330018
 20
      -18.370000
 30
        0.000000
 11
       -0.330018
 21
      -58.630000
 31
        0.000000
  0
ARC
  8
LVL0000
 10
        0.169982
 20
      -18.370000
 30
        0.000000
 40
        0.500000
 50
       90.000000
 51
      179.999995
  0
LINE
  8
LVL0000
 10
       13.799982
 20
      -17.000000
 30
        0.000000
 11
       13.799982
 21
      -60.000000
 31
        0.000000
  0
LINE
  8
LVL0000
 10
       -1.200018
 20
      -17.000000
 30
        0.000000
 11
       -1.200018
 21
      -60.000000
 31
        0.000000
  0
LINE
  8
LVL0000
 10
       12.959063
 20
      -17.963528
 30
        0.000000
 11
       13.611785
 21
      -17.210388
 31
        0.000000
  0
LINE
  8
LVL0000
 10
       -0.352149
 20
      -17.913319
 30
        0.000000
 11
       -0.954661
 21
      -17.260598
 31
        0.000000
  0
ARC
  8
LVL0000
 10
       15.799982
 20
      -17.500000
 30
        0.000000
 40
        0.500000
 50
        0.000000
 51
       90.000000
  0
ARC
  8
LVL0000
 10
       -3.200018
 20
      -17.500000
 30
        0.000000
 40
        0.500000
 50
       90.000000
 51
      179.999995
  0
LINE
  8
LVL0000
 10
       -3.700018
 20
      -17.500000
 30
        0.000000
 11
       -3.700018
 21
      -59.500000
 31
        0.000000
  0
ARC
  8
LVL0000
 10
       -3.200018
 20
      -59.500000
 30
        0.000000
 40
        0.500000
 50
      179.999995
 51
      270.000000
  0
LINE
  8
LVL0000
 10
       -3.200018
 20
      -60.000000
 30
        0.000000
 11
       15.799982
 21
      -60.000000
 31
        0.000000
  0
LINE
  8
LVL0000
 10
       16.299982
 20
      -17.500000
 30
        0.000000
 11
       16.299982
 21
      -59.500000
 31
        0.000000
  0
ARC
  8
LVL0000
 10
       15.799982
 20
      -59.500000
 30
        0.000000
 40
        0.500000
 50
      270.000000
 51
      360.000000
  0
LINE
  8
LVL0000
 10
        3.299982
 20
      -18.000000
 30
        0.000000
 11
        9.299982
 21
      -18.000000
 31
        0.000000
  0
LINE
  8
LVL0000
 10
        9.299982
 20
      -17.000000
 30
        0.000000
 11
        9.299982
 21
      -18.000000
 31
        0.000000
  0
LINE
  8
LVL0000
 10
        3.299982
 20
      -17.000000
 30
        0.000000
 11
        3.299982
 21
      -18.000000
 31
        0.000000
  0
LINE
  8
LVL0000
 10
        0.169982
 20
      -17.870000
 30
        0.000000
 11
        3.299982
 21
      -17.870000
 31
        0.000000
  0
LINE
  8
LVL0000
 10
        9.299982
 20
      -17.870000
 30
        0.000000
 11
       12.429982
 21
      -17.870000
 31
        0.000000
  0
LINE
  8
LVL0000
 10
        9.299982
 20
       29.130000
 30
        0.000000
 11
       12.429982
 21
       29.130000
 31
        0.000000
  0
LINE
  8
LVL0000
 10
        0.169982
 20
       29.130000
 30
        0.000000
 11
        3.299982
 21
       29.130000
 31
        0.000000
  0
LINE
  8
LVL0000
 10
        3.299982
 20
       30.000000
 30
        0.000000
 11
        3.299982
 21
       29.000000
 31
        0.000000
  0
LINE
  8
LVL0000
 10
        9.299982
 20
       30.000000
 30
        0.000000
 11
        9.299982
 21
       29.000000
 31
        0.000000
  0
LINE
  8
LVL0000
 10
        3.299982
 20
       29.000000
 30
        0.000000
 11
        9.299982
 21
       29.000000
 31
        0.000000
  0
ARC
  8
LVL0000
 10
       15.799982
 20
      -12.500000
 30
        0.000000
 40
        0.500000
 50
      270.000000
 51
      360.000000
  0
LINE
  8
LVL0000
 10
       16.299982
 20
       29.500000
 30
        0.000000
 11
       16.299982
 21
      -12.500000
 31
        0.000000
  0
LINE
  8
LVL0000
 10
       -3.200018
 20
      -13.000000
 30
        0.000000
 11
       15.799982
 21
      -13.000000
 31
        0.000000
  0
ARC
  8
LVL0000
 10
       -3.200018
 20
      -12.500000
 30
        0.000000
 40
        0.500000
 50
      179.999995
 51
      270.000000
  0
LINE
  8
LVL0000
 10
       -3.700018
 20
       29.500000
 30
        0.000000
 11
       -3.700018
 21
      -12.500000
 31
        0.000000
  0
ARC
  8
LVL0000
 10
       -3.200018
 20
       29.500000
 30
        0.000000
 40
        0.500000
 50
       90.000000
 51
      179.999995
  0
ARC
  8
LVL0000
 10
       15.799982
 20
       29.500000
 30
        0.000000
 40
        0.500000
 50
        0.000000
 51
       90.000000
  0
LINE
  8
LVL0000
 10
       -0.352149
 20
       29.086681
 30
        0.000000
 11
       -0.954661
 21
       29.739402
 31
        0.000000
  0
LINE
  8
LVL0000
 10
       12.959063
 20
       29.036472
 30
        0.000000
 11
       13.611785
 21
       29.789612
 31
        0.000000
  0
LINE
  8
LVL0000
 10
       -1.200018
 20
       30.000000
 30
        0.000000
 11
       -1.200018
 21
      -13.000000
 31
        0.000000
  0
LINE
  8
LVL0000
 10
       13.799982
 20
       30.000000
 30
        0.000000
 11
       13.799982
 21
      -13.000000
 31
        0.000000
  0
ARC
  8
LVL0000
 10
        0.169982
 20
       28.630000
 30
        0.000000
 40
        0.500000
 50
       90.000000
 51
      179.999995
  0
LINE
  8
LVL0000
 10
       -0.330018
 20
       28.630000
 30
        0.000000
 11
       -0.330018
 21
      -11.630000
 31
        0.000000
  0
ARC
  8
LVL0000
 10
       12.429982
 20
       28.630000
 30
        0.000000
 40
        0.500000
 50
        0.000000
 51
       90.000000
  0
LINE
  8
LVL0000
 10
       12.929982
 20
       28.630000
 30
        0.000000
 11
       12.929982
 21
      -11.630000
 31
        0.000000
  0
LINE
  8
LVL0000
 10
       -0.939842
 20
      -12.771900
 30
        0.000000
 11
       -0.312811
 21
      -12.144869
 31
        0.000000
  0
LINE
  8
LVL0000
 10
       12.938807
 20
      -12.223248
 30
        0.000000
 11
       13.644216
 21
      -12.850279
 31
        0.000000
  0
ARC
  8
LVL0000
 10
       12.429982
 20
      -11.630000
 30
        0.000000
 40
        0.500000
 50
      270.000000
 51
      360.000000
  0
LINE
  8
LVL0000
 10
        0.169982
 20
      -12.130000
 30
        0.000000
 11
       12.429982
 21
      -12.130000
 31
        0.000000
  0
ARC
  8
LVL0000
 10
        0.169982
 20
      -11.630000
 30
        0.000000
 40
        0.500000
 50
      180.000005
 51
      270.000000
  0
LINE
  8
LVL0000
 10
       16.299976
 20
       63.500000
 30
        0.000000
 11
       -5.299976
 21
       63.500000
 31
        0.000000
  0
LINE
  8
LVL0000
 10
       16.299976
 20
       58.000000
 30
        0.000000
 11
       -5.299976
 21
       58.000000
 31
        0.000000
  0
LINE
  8
LVL0000
 10
       -5.299976
 20
       57.000000
 30
        0.000000
 11
       16.299976
 21
       57.000000
 31
        0.000000
  0
LINE
  8
LVL0000
 10
       -5.299976
 20
       32.500000
 30
        0.000000
 11
       16.299976
 21
       32.500000
 31
        0.000000
  0
LINE
  8
LVL0000
 10
       -5.299976
 20
       63.500000
 30
        0.000000
 11
       -5.299976
 21
       58.000000
 31
        0.000000
  0
LINE
  8
LVL0000
 10
       -5.299976
 20
       57.000000
 30
        0.000000
 11
       -5.299976
 21
       32.500000
 31
        0.000000
  0
LINE
  8
LVL0000
 10
       11.875000
 20
       33.950000
 30
        0.000000
 11
       10.475000
 21
       33.950000
 31
        0.000000
  0
LINE
  8
LVL0000
 10
       11.875000
 20
       33.950000
 30
        0.000000
 11
       11.875000
 21
       36.450000
 31
        0.000000
  0
LINE
  8
LVL0000
 10
       11.875000
 20
       36.450000
 30
        0.000000
 11
       10.475000
 21
       36.450000
 31
        0.000000
  0
LINE
  8
LVL0000
 10
       10.475000
 20
       33.950000
 30
        0.000000
 11
       10.475000
 21
       36.450000
 31
        0.000000
  0
CIRCLE
  8
LVL0000
 10
       -0.399976
 20
       47.900000
 30
        0.000000
 40
        1.100000
  0
CIRCLE
  8
LVL0000
 10
       -0.399976
 20
       47.900000
 30
        0.000000
 40
        0.900000
  0
LINE
  8
LVL0000
 10
       -2.199976
 20
       53.620000
 30
        0.000000
 11
        1.400024
 21
       53.620000
 31
        0.000000
  0
LINE
  8
LVL0000
 10
       -0.299976
 20
       52.580000
 30
        0.000000
 11
       -0.299976
 21
       51.080000
 31
        0.000000
  0
LINE
  8
LVL0000
 10
       -2.199976
 20
       51.080000
 30
        0.000000
 11
        1.400024
 21
       51.080000
 31
        0.000000
  0
LINE
  8
LVL0000
 10
        1.400024
 20
       51.080000
 30
        0.000000
 11
        1.400024
 21
       52.580000
 31
        0.000000
  0
LINE
  8
LVL0000
 10
       -1.299976
 20
       52.580000
 30
        0.000000
 11
       -1.299976
 21
       51.080000
 31
        0.000000
  0
LINE
  8
LVL0000
 10
       -2.199976
 20
       51.080000
 30
        0.000000
 11
       -2.199976
 21
       52.580000
 31
        0.000000
  0
LINE
  8
LVL0000
 10
       -2.199976
 20
       52.580000
 30
        0.000000
 11
        1.400024
 21
       52.580000
 31
        0.000000
  0
LINE
  8
LVL0000
 10
        1.400024
 20
       55.120000
 30
        0.000000
 11
        1.400024
 21
       53.620000
 31
        0.000000
  0
LINE
  8
LVL0000
 10
       -0.299976
 20
       55.120000
 30
        0.000000
 11
       -0.299976
 21
       53.620000
 31
        0.000000
  0
LINE
  8
LVL0000
 10
       -2.199976
 20
       55.120000
 30
        0.000000
 11
        1.400024
 21
       55.120000
 31
        0.000000
  0
LINE
  8
LVL0000
 10
       -1.299976
 20
       55.120000
 30
        0.000000
 11
       -1.299976
 21
       53.620000
 31
        0.000000
  0
LINE
  8
LVL0000
 10
       -2.199976
 20
       55.120000
 30
        0.000000
 11
       -2.199976
 21
       53.620000
 31
        0.000000
  0
ARC
  8
LVL0000
 10
       -2.399976
 20
       51.100000
 30
        0.000000
 40
        0.300000
 50
      179.999995
 51
      270.000000
  0
ARC
  8
LVL0000
 10
        1.600024
 20
       51.100000
 30
        0.000000
 40
        0.300000
 50
      270.000000
 51
      360.000000
  0
LINE
  8
LVL0000
 10
       -2.399976
 20
       50.800000
 30
        0.000000
 11
        1.600024
 21
       50.800000
 31
        0.000000
  0
ARC
  8
LVL0000
 10
       -2.399976
 20
       55.100000
 30
        0.000000
 40
        0.300000
 50
       90.000000
 51
      179.999995
  0
LINE
  8
LVL0000
 10
        1.600024
 20
       55.400000
 30
        0.000000
 11
       -2.399976
 21
       55.400000
 31
        0.000000
  0
ARC
  8
LVL0000
 10
        1.600024
 20
       55.100000
 30
        0.000000
 40
        0.300000
 50
        0.000000
 51
       90.000000
  0
LINE
  8
LVL0000
 10
       -2.699976
 20
       55.100000
 30
        0.000000
 11
       -2.699976
 21
       51.100000
 31
        0.000000
  0
LINE
  8
LVL0000
 10
        1.900024
 20
       51.100000
 30
        0.000000
 11
        1.900024
 21
       55.100000
 31
        0.000000
  0
LINE
  8
LVL0000
 10
        7.310000
 20
       44.700000
 30
        0.000000
 11
       -0.690000
 21
       44.700000
 31
        0.000000
  0
ARC
  8
LVL0000
 10
        7.310000
 20
       43.500000
 30
        0.000000
 40
        1.200000
 50
        0.000000
 51
       90.000000
  0
LINE
  8
LVL0000
 10
        8.510000
 20
       35.500000
 30
        0.000000
 11
        8.510000
 21
       43.500000
 31
        0.000000
  0
ARC
  8
LVL0000
 10
        7.310000
 20
       35.500000
 30
        0.000000
 40
        1.200000
 50
      270.000000
 51
      360.000000
  0
LINE
  8
LVL0000
 10
       -0.690000
 20
       34.300000
 30
        0.000000
 11
        7.310000
 21
       34.300000
 31
        0.000000
  0
ARC
  8
LVL0000
 10
       -0.690000
 20
       35.500000
 30
        0.000000
 40
        1.200000
 50
      179.999995
 51
      270.000000
  0
LINE
  8
LVL0000
 10
       -1.890000
 20
       43.500000
 30
        0.000000
 11
       -1.890000
 21
       35.500000
 31
        0.000000
  0
ARC
  8
LVL0000
 10
       -0.690000
 20
       43.500000
 30
        0.000000
 40
        1.200000
 50
       90.000000
 51
      179.999995
  0
LINE
  8
LVL0000
 10
       10.475000
 20
       39.000000
 30
        0.000000
 11
        8.510000
 21
       39.000000
 31
        0.000000
  0
LINE
  8
LVL0000
  6
CENTER
 10
        0.000000
 20
       74.460789
 30
        0.000000
 11
        0.000000
 21
      -70.484236
 31
        0.000000
  0
LINE
  8
LVL0000
  6
CENTER
 10
      -21.620864
 20
        0.000000
 30
        0.000000
 11
       25.640779
 21
        0.000000
 31
        0.000000
  0
DIMENSION
  8
LVL0000
 62
  5
  2
BLK0001
 10
       31.199545
 20
      -65.000015
 11
       30.266211
 21
       -7.154851
 13
       17.000000
 23
      -65.000015
 14
       17.000000
 24
       65.000000
 50
       90.0
 70
  0
  0
DIMENSION
  8
LVL0000
 62
  5
  2
BLK0002
 10
      -17.500000
 20
      -76.122780
 11
       -4.513413
 21
      -75.189445
 13
      -17.500000
 23
      -64.500015
 14
       17.500000
 24
      -64.500015
 50
        0.0
 70
  0
  0
TEXT
  8
LVL0000
 62
  2
 10
      -15.895217
 20
       93.192561
 30
        0.000000
 40
        5.000000
  1
ＪＷ３２１ＣＵ
 50
        0.000000
 41
        0.835000
 51
        0.000000
  7
BIGFONT
  0
TEXT
  8
LVL0000
 62
  2
 10
      -15.895217
 20
      100.192561
 30
        0.000000
 40
        5.000000
  1
ＪＷ３３１ＣＵ
 50
        0.000000
 41
        0.835000
 51
        0.000000
  7
BIGFONT
  0
TEXT
  8
LVL0000
 62
  2
 10
      -15.895217
 20
      107.192561
 30
        0.000000
 40
        5.000000
  1
ＪＷ３４１ＣＵ
 50
        0.000000
 41
        0.835000
 51
        0.000000
  7
BIGFONT
  0
DIMENSION
  8
LVL0000
 62
  5
  2
BLK0003
 10
       55.691650
 20
      -77.467384
 11
       98.685127
 21
      -76.534050
 13
       55.691650
 23
      -64.500000
 14
      158.091644
 24
       55.000000
 50
        0.0
 70
  0
  0
LINE
  8
LVL0000
 10
      158.091652
 20
       96.826459
 30
        0.000000
 11
       56.191627
 21
       96.826459
 31
        0.000000
  0
LINE
  8
LVL0000
 10
       55.691627
 20
       97.326459
 30
        0.000000
 11
       55.691627
 21
      131.326459
 31
        0.000000
  0
LINE
  8
LVL0000
 10
      158.091652
 20
      131.826459
 30
        0.000000
 11
       56.191627
 21
      131.826459
 31
        0.000000
  0
LINE
  8
LVL0000
 10
      158.091652
 20
      131.826459
 30
        0.000000
 11
      158.091652
 21
       96.826459
 31
        0.000000
  0
LINE
  8
LVL0000
 10
       87.691627
 20
       96.826459
 30
        0.000000
 11
       87.691627
 21
      131.826459
 31
        0.000000
  0
LINE
  8
LVL0000
 10
       94.691627
 20
       96.826459
 30
        0.000000
 11
       94.691627
 21
      131.826459
 31
        0.000000
  0
LINE
  8
LVL0000
 10
       96.691627
 20
       96.826459
 30
        0.000000
 11
       96.691627
 21
      131.826459
 31
        0.000000
  0
LINE
  8
LVL0000
 10
       96.691627
 20
      128.826459
 30
        0.000000
 11
       94.691627
 21
      128.826459
 31
        0.000000
  0
LINE
  8
LVL0000
 10
       96.691627
 20
       99.826459
 30
        0.000000
 11
       94.691627
 21
       99.826459
 31
        0.000000
  0
LINE
  8
LVL0000
 10
      148.691627
 20
      131.826459
 30
        0.000000
 11
      148.691627
 21
       96.826459
 31
        0.000000
  0
LINE
  8
LVL0000
 10
      148.691627
 20
      117.826459
 30
        0.000000
 11
      147.491676
 21
      117.826459
 31
        0.000000
  0
ARC
  8
LVL0000
 10
      147.491676
 20
      116.326459
 30
        0.000000
 40
        1.500000
 50
       90.000000
 51
      180.000010
  0
ARC
  8
LVL0000
 10
      147.491676
 20
      112.326459
 30
        0.000000
 40
        1.500000
 50
      180.000010
 51
      270.000000
  0
LINE
  8
LVL0000
 10
      148.691627
 20
      110.826459
 30
        0.000000
 11
      147.491676
 21
      110.826459
 31
        0.000000
  0
LINE
  8
LVL0000
 10
      145.991676
 20
      116.326459
 30
        0.000000
 11
      145.991676
 21
      112.326459
 31
        0.000000
  0
LINE
  8
LVL0000
 10
       98.691627
 20
       96.826459
 30
        0.000000
 11
       98.691627
 21
      131.826459
 31
        0.000000
  0
LINE
  8
LVL0000
 10
      100.691627
 20
       96.826459
 30
        0.000000
 11
      100.691627
 21
      131.826459
 31
        0.000000
  0
LINE
  8
LVL0000
 10
      100.691627
 20
      128.826459
 30
        0.000000
 11
       98.691627
 21
      128.826459
 31
        0.000000
  0
LINE
  8
LVL0000
 10
      100.691627
 20
       99.826459
 30
        0.000000
 11
       98.691627
 21
       99.826459
 31
        0.000000
  0
LINE
  8
LVL0000
 10
      102.691627
 20
       96.826459
 30
        0.000000
 11
      102.691627
 21
      131.826459
 31
        0.000000
  0
LINE
  8
LVL0000
 10
      104.691627
 20
       96.826459
 30
        0.000000
 11
      104.691627
 21
      131.826459
 31
        0.000000
  0
LINE
  8
LVL0000
 10
      104.691627
 20
      128.826459
 30
        0.000000
 11
      102.691627
 21
      128.826459
 31
        0.000000
  0
LINE
  8
LVL0000
 10
      104.691627
 20
       99.826459
 30
        0.000000
 11
      102.691627
 21
       99.826459
 31
        0.000000
  0
LINE
  8
LVL0000
 10
      106.691627
 20
       96.826459
 30
        0.000000
 11
      106.691627
 21
      131.826459
 31
        0.000000
  0
LINE
  8
LVL0000
 10
      108.691627
 20
       96.826459
 30
        0.000000
 11
      108.691627
 21
      131.826459
 31
        0.000000
  0
LINE
  8
LVL0000
 10
      108.691627
 20
      128.826459
 30
        0.000000
 11
      106.691627
 21
      128.826459
 31
        0.000000
  0
LINE
  8
LVL0000
 10
      108.691627
 20
       99.826459
 30
        0.000000
 11
      106.691627
 21
       99.826459
 31
        0.000000
  0
LINE
  8
LVL0000
 10
      110.691627
 20
       96.826459
 30
        0.000000
 11
      110.691627
 21
      131.826459
 31
        0.000000
  0
LINE
  8
LVL0000
 10
      112.691627
 20
       96.826459
 30
        0.000000
 11
      112.691627
 21
      131.826459
 31
        0.000000
  0
LINE
  8
LVL0000
 10
      112.691627
 20
      128.826459
 30
        0.000000
 11
      110.691627
 21
      128.826459
 31
        0.000000
  0
LINE
  8
LVL0000
 10
      112.691627
 20
       99.826459
 30
        0.000000
 11
      110.691627
 21
       99.826459
 31
        0.000000
  0
LINE
  8
LVL0000
 10
      114.691627
 20
       96.826459
 30
        0.000000
 11
      114.691627
 21
      131.826459
 31
        0.000000
  0
LINE
  8
LVL0000
 10
      116.691627
 20
       96.826459
 30
        0.000000
 11
      116.691627
 21
      131.826459
 31
        0.000000
  0
LINE
  8
LVL0000
 10
      116.691627
 20
      128.826459
 30
        0.000000
 11
      114.691627
 21
      128.826459
 31
        0.000000
  0
LINE
  8
LVL0000
 10
      116.691627
 20
       99.826459
 30
        0.000000
 11
      114.691627
 21
       99.826459
 31
        0.000000
  0
LINE
  8
LVL0000
 10
      118.691627
 20
       96.826459
 30
        0.000000
 11
      118.691627
 21
      131.826459
 31
        0.000000
  0
LINE
  8
LVL0000
 10
      120.691627
 20
       96.826459
 30
        0.000000
 11
      120.691627
 21
      131.826459
 31
        0.000000
  0
LINE
  8
LVL0000
 10
      120.691627
 20
      128.826459
 30
        0.000000
 11
      118.691627
 21
      128.826459
 31
        0.000000
  0
LINE
  8
LVL0000
 10
      120.691627
 20
       99.826459
 30
        0.000000
 11
      118.691627
 21
       99.826459
 31
        0.000000
  0
LINE
  8
LVL0000
 10
      122.691627
 20
       96.826459
 30
        0.000000
 11
      122.691627
 21
      131.826459
 31
        0.000000
  0
LINE
  8
LVL0000
 10
      124.691627
 20
       96.826459
 30
        0.000000
 11
      124.691627
 21
      131.826459
 31
        0.000000
  0
LINE
  8
LVL0000
 10
      124.691627
 20
      128.826459
 30
        0.000000
 11
      122.691627
 21
      128.826459
 31
        0.000000
  0
LINE
  8
LVL0000
 10
      124.691627
 20
       99.826459
 30
        0.000000
 11
      122.691627
 21
       99.826459
 31
        0.000000
  0
LINE
  8
LVL0000
 10
      126.691627
 20
       96.826459
 30
        0.000000
 11
      126.691627
 21
      131.826459
 31
        0.000000
  0
LINE
  8
LVL0000
 10
      128.691627
 20
       96.826459
 30
        0.000000
 11
      128.691627
 21
      131.826459
 31
        0.000000
  0
LINE
  8
LVL0000
 10
      128.691627
 20
      128.826459
 30
        0.000000
 11
      126.691627
 21
      128.826459
 31
        0.000000
  0
LINE
  8
LVL0000
 10
      128.691627
 20
       99.826459
 30
        0.000000
 11
      126.691627
 21
       99.826459
 31
        0.000000
  0
LINE
  8
LVL0000
 10
      130.691627
 20
       96.826459
 30
        0.000000
 11
      130.691627
 21
      131.826459
 31
        0.000000
  0
LINE
  8
LVL0000
 10
      132.691627
 20
       96.826459
 30
        0.000000
 11
      132.691627
 21
      131.826459
 31
        0.000000
  0
LINE
  8
LVL0000
 10
      132.691627
 20
      128.826459
 30
        0.000000
 11
      130.691627
 21
      128.826459
 31
        0.000000
  0
LINE
  8
LVL0000
 10
      132.691627
 20
       99.826459
 30
        0.000000
 11
      130.691627
 21
       99.826459
 31
        0.000000
  0
LINE
  8
LVL0000
 10
      134.691627
 20
       96.826459
 30
        0.000000
 11
      134.691627
 21
      131.826459
 31
        0.000000
  0
LINE
  8
LVL0000
 10
      136.691627
 20
       96.826459
 30
        0.000000
 11
      136.691627
 21
      131.826459
 31
        0.000000
  0
LINE
  8
LVL0000
 10
      136.691627
 20
      128.826459
 30
        0.000000
 11
      134.691627
 21
      128.826459
 31
        0.000000
  0
LINE
  8
LVL0000
 10
      136.691627
 20
       99.826459
 30
        0.000000
 11
      134.691627
 21
       99.826459
 31
        0.000000
  0
LINE
  8
LVL0000
 10
      138.691627
 20
       96.826459
 30
        0.000000
 11
      138.691627
 21
      131.826459
 31
        0.000000
  0
LINE
  8
LVL0000
 10
      140.691627
 20
       96.826459
 30
        0.000000
 11
      140.691627
 21
      131.826459
 31
        0.000000
  0
LINE
  8
LVL0000
 10
      140.691627
 20
      128.826459
 30
        0.000000
 11
      138.691627
 21
      128.826459
 31
        0.000000
  0
LINE
  8
LVL0000
 10
      140.691627
 20
       99.826459
 30
        0.000000
 11
      138.691627
 21
       99.826459
 31
        0.000000
  0
LINE
  8
LVL0000
 10
      142.691627
 20
       96.826459
 30
        0.000000
 11
      142.691627
 21
      131.826459
 31
        0.000000
  0
LINE
  8
LVL0000
 10
      144.691627
 20
       96.826459
 30
        0.000000
 11
      144.691627
 21
      131.826459
 31
        0.000000
  0
LINE
  8
LVL0000
 10
      144.691627
 20
      128.826459
 30
        0.000000
 11
      142.691627
 21
      128.826459
 31
        0.000000
  0
LINE
  8
LVL0000
 10
      144.691627
 20
       99.826459
 30
        0.000000
 11
      142.691627
 21
       99.826459
 31
        0.000000
  0
LINE
  8
LVL0000
 10
      148.691627
 20
      128.826459
 30
        0.000000
 11
      146.691627
 21
      128.826459
 31
        0.000000
  0
LINE
  8
LVL0000
 10
      148.691627
 20
       99.826459
 30
        0.000000
 11
      146.691627
 21
       99.826459
 31
        0.000000
  0
LINE
  8
LVL0000
 10
      146.691627
 20
      117.595319
 30
        0.000000
 11
      146.691627
 21
      131.826459
 31
        0.000000
  0
LINE
  8
LVL0000
 10
      146.691627
 20
       96.826459
 30
        0.000000
 11
      146.691627
 21
      111.057599
 31
        0.000000
  0
LINE
  8
LVL0000
 10
      146.691627
 20
      117.926434
 30
        0.000000
 11
      144.691627
 21
      117.926434
 31
        0.000000
  0
LINE
  8
LVL0000
 10
      146.691627
 20
      110.726483
 30
        0.000000
 11
      144.691627
 21
      110.726483
 31
        0.000000
  0
LINE
  8
LVL0000
 10
      142.691627
 20
      117.926434
 30
        0.000000
 11
      140.691627
 21
      117.926434
 31
        0.000000
  0
LINE
  8
LVL0000
 10
      142.691627
 20
      110.726483
 30
        0.000000
 11
      140.691627
 21
      110.726483
 31
        0.000000
  0
LINE
  8
LVL0000
 10
      138.691627
 20
      117.926434
 30
        0.000000
 11
      136.691627
 21
      117.926434
 31
        0.000000
  0
LINE
  8
LVL0000
 10
      138.691627
 20
      110.726483
 30
        0.000000
 11
      136.691627
 21
      110.726483
 31
        0.000000
  0
LINE
  8
LVL0000
 10
      134.691627
 20
      117.926434
 30
        0.000000
 11
      132.691627
 21
      117.926434
 31
        0.000000
  0
LINE
  8
LVL0000
 10
      134.691627
 20
      110.726483
 30
        0.000000
 11
      132.691627
 21
      110.726483
 31
        0.000000
  0
LINE
  8
LVL0000
 10
      130.691627
 20
      117.926434
 30
        0.000000
 11
      128.691627
 21
      117.926434
 31
        0.000000
  0
LINE
  8
LVL0000
 10
      130.691627
 20
      110.726483
 30
        0.000000
 11
      128.691627
 21
      110.726483
 31
        0.000000
  0
LINE
  8
LVL0000
 10
      126.691627
 20
      117.926434
 30
        0.000000
 11
      124.691627
 21
      117.926434
 31
        0.000000
  0
LINE
  8
LVL0000
 10
      126.691627
 20
      110.726483
 30
        0.000000
 11
      124.691627
 21
      110.726483
 31
        0.000000
  0
LINE
  8
LVL0000
 10
      122.691627
 20
      117.926434
 30
        0.000000
 11
      120.691627
 21
      117.926434
 31
        0.000000
  0
LINE
  8
LVL0000
 10
      122.691627
 20
      110.726483
 30
        0.000000
 11
      120.691627
 21
      110.726483
 31
        0.000000
  0
LINE
  8
LVL0000
 10
      118.691627
 20
      117.926434
 30
        0.000000
 11
      116.691627
 21
      117.926434
 31
        0.000000
  0
LINE
  8
LVL0000
 10
      118.691627
 20
      110.726483
 30
        0.000000
 11
      116.691627
 21
      110.726483
 31
        0.000000
  0
LINE
  8
LVL0000
 10
      114.691627
 20
      117.926434
 30
        0.000000
 11
      112.691627
 21
      117.926434
 31
        0.000000
  0
LINE
  8
LVL0000
 10
      114.691627
 20
      110.726483
 30
        0.000000
 11
      112.691627
 21
      110.726483
 31
        0.000000
  0
LINE
  8
LVL0000
 10
      110.691627
 20
      117.926434
 30
        0.000000
 11
      108.691627
 21
      117.926434
 31
        0.000000
  0
LINE
  8
LVL0000
 10
      110.691627
 20
      110.726483
 30
        0.000000
 11
      108.691627
 21
      110.726483
 31
        0.000000
  0
ARC
  8
LVL0000
 10
       94.691627
 20
      114.326459
 30
        0.000000
 40
        1.499973
 50
      109.471585
 51
      250.528418
  0
LINE
  8
LVL0000
 10
       94.691627
 20
      115.926434
 30
        0.000000
 11
       94.191627
 21
      115.740643
 31
        0.000000
  0
LINE
  8
LVL0000
 10
       94.191627
 20
      112.912274
 30
        0.000000
 11
       94.691627
 21
      112.726483
 31
        0.000000
  0
LINE
  8
LVL0000
 10
      102.691627
 20
      111.126446
 30
        0.000000
 11
      100.691627
 21
      111.426434
 31
        0.000000
  0
LINE
  8
LVL0000
 10
      100.691627
 20
      117.226483
 30
        0.000000
 11
      102.691627
 21
      117.526471
 31
        0.000000
  0
LINE
  8
LVL0000
 10
      104.691627
 20
      117.726483
 30
        0.000000
 11
      106.691627
 21
      117.826459
 31
        0.000000
  0
LINE
  8
LVL0000
 10
      106.691627
 20
      110.826459
 30
        0.000000
 11
      104.691627
 21
      110.926434
 31
        0.000000
  0
LINE
  8
LVL0000
 10
       96.691627
 20
      116.376446
 30
        0.000000
 11
       98.691627
 21
      116.826459
 31
        0.000000
  0
LINE
  8
LVL0000
 10
       96.691627
 20
      112.276471
 30
        0.000000
 11
       98.691627
 21
      111.826459
 31
        0.000000
  0
ARC
  8
LVL0000
 10
      163.092018
 20
      103.325970
 30
        0.000000
 40
        2.000000
 50
      270.000000
 51
      450.000000
  0
LINE
  8
LVL0000
 10
      158.092018
 20
      105.325970
 30
        0.000000
 11
      163.092018
 21
      105.325970
 31
        0.000000
  0
LINE
  8
LVL0000
 10
      158.092018
 20
      101.325970
 30
        0.000000
 11
      163.092018
 21
      101.325970
 31
        0.000000
  0
LINE
  8
LVL0000
 10
      159.592018
 20
      126.226483
 30
        0.000000
 11
      158.091652
 21
      126.226483
 31
        0.000000
  0
LINE
  8
LVL0000
 10
      159.592018
 20
      126.226483
 30
        0.000000
 11
      159.592018
 21
      105.325970
 31
        0.000000
  0
LINE
  8
LVL0000
 10
       83.691627
 20
      129.826459
 30
        0.000000
 11
       81.691627
 21
      129.826459
 31
        0.000000
  0
LINE
  8
LVL0000
 10
       83.691627
 20
       98.426495
 30
        0.000000
 11
       81.691627
 21
       98.426495
 31
        0.000000
  0
LINE
  8
LVL0000
 10
       81.691627
 20
       96.826459
 30
        0.000000
 11
       81.691627
 21
      131.826459
 31
        0.000000
  0
LINE
  8
LVL0000
 10
       83.691627
 20
       96.826459
 30
        0.000000
 11
       83.691627
 21
      131.826459
 31
        0.000000
  0
LINE
  8
LVL0000
 10
       79.691627
 20
      129.826459
 30
        0.000000
 11
       77.691627
 21
      129.826459
 31
        0.000000
  0
LINE
  8
LVL0000
 10
       79.691627
 20
       98.426495
 30
        0.000000
 11
       77.691627
 21
       98.426495
 31
        0.000000
  0
LINE
  8
LVL0000
 10
       77.691627
 20
       96.826459
 30
        0.000000
 11
       77.691627
 21
      131.826459
 31
        0.000000
  0
LINE
  8
LVL0000
 10
       79.691627
 20
       96.826459
 30
        0.000000
 11
       79.691627
 21
      131.826459
 31
        0.000000
  0
LINE
  8
LVL0000
 10
       75.691627
 20
      129.826459
 30
        0.000000
 11
       73.691627
 21
      129.826459
 31
        0.000000
  0
LINE
  8
LVL0000
 10
       75.691627
 20
       98.426495
 30
        0.000000
 11
       73.691627
 21
       98.426495
 31
        0.000000
  0
LINE
  8
LVL0000
 10
       73.691627
 20
       96.826459
 30
        0.000000
 11
       73.691627
 21
      131.826459
 31
        0.000000
  0
LINE
  8
LVL0000
 10
       75.691627
 20
       96.826459
 30
        0.000000
 11
       75.691627
 21
      131.826459
 31
        0.000000
  0
LINE
  8
LVL0000
 10
       71.691627
 20
      129.826459
 30
        0.000000
 11
       69.691627
 21
      129.826459
 31
        0.000000
  0
LINE
  8
LVL0000
 10
       71.691627
 20
       98.426495
 30
        0.000000
 11
       69.691627
 21
       98.426495
 31
        0.000000
  0
LINE
  8
LVL0000
 10
       69.691627
 20
       96.826459
 30
        0.000000
 11
       69.691627
 21
      131.826459
 31
        0.000000
  0
LINE
  8
LVL0000
 10
       71.691627
 20
       96.826459
 30
        0.000000
 11
       71.691627
 21
      131.826459
 31
        0.000000
  0
LINE
  8
LVL0000
 10
       67.691627
 20
       96.826459
 30
        0.000000
 11
       67.691627
 21
      131.826459
 31
        0.000000
  0
LINE
  8
LVL0000
 10
       65.691627
 20
       96.826459
 30
        0.000000
 11
       65.691627
 21
      131.826459
 31
        0.000000
  0
LINE
  8
LVL0000
 10
       67.691627
 20
       98.426495
 30
        0.000000
 11
       65.691627
 21
       98.426495
 31
        0.000000
  0
LINE
  8
LVL0000
 10
       67.691627
 20
      129.826459
 30
        0.000000
 11
       65.691627
 21
      129.826459
 31
        0.000000
  0
LINE
  8
LVL0000
 10
       63.691627
 20
      129.826459
 30
        0.000000
 11
       61.691627
 21
      129.826459
 31
        0.000000
  0
LINE
  8
LVL0000
 10
       63.691627
 20
       98.426495
 30
        0.000000
 11
       61.691627
 21
       98.426495
 31
        0.000000
  0
LINE
  8
LVL0000
 10
       61.691627
 20
       96.826459
 30
        0.000000
 11
       61.691627
 21
      131.826459
 31
        0.000000
  0
LINE
  8
LVL0000
 10
       63.691627
 20
       96.826459
 30
        0.000000
 11
       63.691627
 21
      131.826459
 31
        0.000000
  0
LINE
  8
LVL0000
 10
       63.691627
 20
      115.326459
 30
        0.000000
 11
       61.691627
 21
      115.326459
 31
        0.000000
  0
LINE
  8
LVL0000
 10
       63.691627
 20
      113.326459
 30
        0.000000
 11
       61.691627
 21
      113.326459
 31
        0.000000
  0
LINE
  8
LVL0000
 10
       67.691627
 20
      113.326459
 30
        0.000000
 11
       65.691627
 21
      113.326459
 31
        0.000000
  0
LINE
  8
LVL0000
 10
       67.691627
 20
      115.326459
 30
        0.000000
 11
       65.691627
 21
      115.326459
 31
        0.000000
  0
LINE
  8
LVL0000
 10
       71.691627
 20
      115.326459
 30
        0.000000
 11
       69.691627
 21
      115.326459
 31
        0.000000
  0
LINE
  8
LVL0000
 10
       71.691627
 20
      113.326459
 30
        0.000000
 11
       69.691627
 21
      113.326459
 31
        0.000000
  0
LINE
  8
LVL0000
 10
       75.691627
 20
      115.326459
 30
        0.000000
 11
       73.691627
 21
      115.326459
 31
        0.000000
  0
LINE
  8
LVL0000
 10
       75.691627
 20
      113.326459
 30
        0.000000
 11
       73.691627
 21
      113.326459
 31
        0.000000
  0
LINE
  8
LVL0000
 10
       79.691627
 20
      113.326459
 30
        0.000000
 11
       77.691627
 21
      113.326459
 31
        0.000000
  0
LINE
  8
LVL0000
 10
       79.691627
 20
      115.326459
 30
        0.000000
 11
       77.691627
 21
      115.326459
 31
        0.000000
  0
LINE
  8
LVL0000
 10
       83.691627
 20
      115.326459
 30
        0.000000
 11
       81.691627
 21
      115.326459
 31
        0.000000
  0
LINE
  8
LVL0000
 10
       83.691627
 20
      113.326459
 30
        0.000000
 11
       81.691627
 21
      113.326459
 31
        0.000000
  0
ARC
  8
LVL0000
 10
       54.691627
 20
      114.371758
 30
        0.000000
 40
        0.500000
 50
      119.999997
 51
      179.999995
  0
LINE
  8
LVL0000
 10
       55.691627
 20
      115.526459
 30
        0.000000
 11
       54.441627
 21
      114.804771
 31
        0.000000
  0
LINE
  8
LVL0000
 10
       55.691627
 20
      100.526459
 30
        0.000000
 11
       54.441627
 21
      101.248146
 31
        0.000000
  0
ARC
  8
LVL0000
 10
       54.691627
 20
      101.681159
 30
        0.000000
 40
        0.500000
 50
      179.999995
 51
      240.000003
  0
LINE
  8
LVL0000
 10
       54.191627
 20
      108.026459
 30
        0.000000
 11
       54.191627
 21
      101.681159
 31
        0.000000
  0
LINE
  8
LVL0000
 10
       54.191627
 20
      108.026459
 30
        0.000000
 11
       54.191627
 21
      114.371758
 31
        0.000000
  0
LINE
  8
LVL0000
 10
       91.991798
 20
       21.750000
 30
        0.000000
 11
       94.491798
 21
       21.750000
 31
        0.000000
  0
LINE
  8
LVL0000
 10
       88.691749
 20
      -36.000000
 30
        0.000000
 11
       88.691749
 21
      -48.000000
 31
        0.000000
  0
LINE
  8
LVL0000
 10
       91.991798
 20
      -32.750000
 30
        0.000000
 11
       91.991798
 21
      -51.250000
 31
        0.000000
  0
LINE
  8
LVL0000
 10
       87.691749
 20
      -48.000000
 30
        0.000000
 11
       88.691749
 21
      -48.000000
 31
        0.000000
  0
LINE
  8
LVL0000
 10
       94.491798
 20
      -32.750000
 30
        0.000000
 11
       94.491798
 21
      -51.250000
 31
        0.000000
  0
LINE
  8
LVL0000
 10
       91.991798
 20
      -51.250000
 30
        0.000000
 11
       94.491798
 21
      -51.250000
 31
        0.000000
  0
LINE
  8
LVL0000
 10
       87.691749
 20
      -36.000000
 30
        0.000000
 11
       88.691749
 21
      -36.000000
 31
        0.000000
  0
LINE
  8
LVL0000
 10
       91.991798
 20
      -32.750000
 30
        0.000000
 11
       94.491798
 21
      -32.750000
 31
        0.000000
  0
LINE
  8
LVL0000
 10
      154.991798
 20
      -60.000000
 30
        0.000000
 11
      157.091652
 21
      -60.000000
 31
        0.000000
  0
LINE
  8
LVL0000
 10
      154.991798
 20
      -60.000000
 30
        0.000000
 11
      152.991798
 21
      -65.000000
 31
        0.000000
  0
LINE
  8
LVL0000
 10
      158.591652
 20
      -62.000000
 30
        0.000000
 11
      159.591652
 21
      -62.000000
 31
        0.000000
  0
LINE
  8
LVL0000
 10
      157.091652
 20
      -61.000000
 30
        0.000000
 11
      158.591652
 21
      -62.000000
 31
        0.000000
  0
LINE
  8
LVL0000
 10
      155.491798
 20
      -53.500000
 30
        0.000000
 11
      159.591652
 21
      -57.500000
 31
        0.000000
  0
LINE
  8
LVL0000
 10
      155.491798
 20
      -53.500000
 30
        0.000000
 11
      154.991798
 21
      -60.000000
 31
        0.000000
  0
LINE
  8
LVL0000
 10
      157.091652
 20
      -60.000000
 30
        0.000000
 11
      157.091652
 21
      -61.000000
 31
        0.000000
  0
LINE
  8
LVL0000
 10
      159.591652
 20
      -57.500000
 30
        0.000000
 11
      159.591652
 21
      -62.000000
 31
        0.000000
  0
LINE
  8
LVL0000
 10
      147.141700
 20
       12.650024
 30
        0.000000
 11
      147.141700
 21
      -12.650024
 31
        0.000000
  0
LINE
  8
LVL0000
 10
      147.141700
 20
      -12.650024
 30
        0.000000
 11
       96.841652
 21
      -12.650024
 31
        0.000000
  0
LINE
  8
LVL0000
 10
      147.141700
 20
       12.650024
 30
        0.000000
 11
       96.841652
 21
       12.650024
 31
        0.000000
  0
LINE
  8
LVL0000
 10
       96.841652
 20
       12.650024
 30
        0.000000
 11
       96.841652
 21
      -12.650024
 31
        0.000000
  0
LINE
  8
LVL0000
 10
       87.691749
 20
       65.000000
 30
        0.000000
 11
       87.691749
 21
      -65.000000
 31
        0.000000
  0
LINE
  8
LVL0000
 10
       88.691749
 20
       37.000000
 30
        0.000000
 11
       88.691749
 21
       25.000000
 31
        0.000000
  0
LINE
  8
LVL0000
 10
       91.991798
 20
       40.250000
 30
        0.000000
 11
       91.991798
 21
       21.750000
 31
        0.000000
  0
LINE
  8
LVL0000
 10
       87.691749
 20
       25.000000
 30
        0.000000
 11
       88.691749
 21
       25.000000
 31
        0.000000
  0
LINE
  8
LVL0000
 10
       87.691749
 20
       37.000000
 30
        0.000000
 11
       88.691749
 21
       37.000000
 31
        0.000000
  0
LINE
  8
LVL0000
 10
       94.491798
 20
       40.250000
 30
        0.000000
 11
       94.491798
 21
       21.750000
 31
        0.000000
  0
LINE
  8
LVL0000
 10
       91.991798
 20
       40.250000
 30
        0.000000
 11
       94.491798
 21
       40.250000
 31
        0.000000
  0
LINE
  8
LVL0000
 10
      158.091652
 20
       65.000000
 30
        0.000000
 11
      158.091652
 21
       55.000000
 31
        0.000000
  0
LINE
  8
LVL0000
 10
      155.491798
 20
       55.000000
 30
        0.000000
 11
      158.091652
 21
       55.000000
 31
        0.000000
  0
LINE
  8
LVL0000
 10
      155.491798
 20
       55.000000
 30
        0.000000
 11
      155.491798
 21
      -53.500000
 31
        0.000000
  0
ARC
  8
LVL0000
 10
      163.091652
 20
       58.400024
 30
        0.000000
 40
        2.000000
 50
      270.000000
 51
      450.000000
  0
LINE
  8
LVL0000
 10
      158.091652
 20
       60.400024
 30
        0.000000
 11
      163.091652
 21
       60.400024
 31
        0.000000
  0
LINE
  8
LVL0000
 10
      158.091652
 20
       56.400024
 30
        0.000000
 11
      163.091652
 21
       56.400024
 31
        0.000000
  0
LINE
  8
LVL0000
 10
       56.191649
 20
       65.000000
 30
        0.000000
 11
      158.091652
 21
       65.000000
 31
        0.000000
  0
ARC
  8
LVL0000
 10
       56.191649
 20
       64.500000
 30
        0.000000
 40
        0.500000
 50
       90.000000
 51
      179.999995
  0
LINE
  8
LVL0000
 10
       56.191649
 20
      -65.000000
 30
        0.000000
 11
      152.991798
 21
      -65.000000
 31
        0.000000
  0
ARC
  8
LVL0000
 10
       56.191649
 20
      -64.500000
 30
        0.000000
 40
        0.500000
 50
      180.000010
 51
      270.000000
  0
LINE
  8
LVL0000
 10
       55.691649
 20
       64.500000
 30
        0.000000
 11
       55.691649
 21
      -64.500000
 31
        0.000000
  0
LINE
  8
LVL0000
 10
       55.691649
 20
      -13.000000
 30
        0.000000
 11
       54.441649
 21
      -12.278312
 31
        0.000000
  0
ARC
  8
LVL0000
 10
       54.691649
 20
      -11.845299
 30
        0.000000
 40
        0.500000
 50
      179.999995
 51
      240.000003
  0
LINE
  8
LVL0000
 10
       55.691649
 20
       30.000000
 30
        0.000000
 11
       54.441649
 21
       29.278312
 31
        0.000000
  0
ARC
  8
LVL0000
 10
       54.691649
 20
       28.845299
 30
        0.000000
 40
        0.500000
 50
      119.999997
 51
      179.999995
  0
LINE
  8
LVL0000
 10
       54.191649
 20
       28.845299
 30
        0.000000
 11
       54.191649
 21
      -11.845299
 31
        0.000000
  0
LINE
  8
LVL0000
 10
       54.191649
 20
      -18.154701
 30
        0.000000
 11
       54.191649
 21
      -58.845299
 31
        0.000000
  0
ARC
  8
LVL0000
 10
       54.691649
 20
      -18.154701
 30
        0.000000
 40
        0.500000
 50
      119.999997
 51
      179.999995
  0
LINE
  8
LVL0000
 10
       55.691649
 20
      -17.000000
 30
        0.000000
 11
       54.441649
 21
      -17.721688
 31
        0.000000
  0
ARC
  8
LVL0000
 10
       54.691649
 20
      -58.845299
 30
        0.000000
 40
        0.500000
 50
      179.999995
 51
      240.000003
  0
LINE
  8
LVL0000
 10
       55.691649
 20
      -60.000000
 30
        0.000000
 11
       54.441649
 21
      -59.278312
 31
        0.000000
  0
LINE
  8
LVL0000
 10
       55.191649
 20
       45.300000
 30
        0.000000
 11
       55.191649
 21
       33.700000
 31
        0.000000
  0
LINE
  8
LVL0000
 10
       55.191649
 20
       45.300000
 30
        0.000000
 11
       55.691649
 21
       45.300000
 31
        0.000000
  0
LINE
  8
LVL0000
 10
       55.191649
 20
       33.700000
 30
        0.000000
 11
       55.691649
 21
       33.700000
 31
        0.000000
  0
ARC
  8
LVL0000
  6
CENTER
 10
       56.191627
 20
      131.326459
 30
        0.000000
 40
        0.500000
 50
       90.000000
 51
      179.999995
  0
ARC
  8
LVL0000
  6
CENTER
 10
       56.191627
 20
       97.326459
 30
        0.000000
 40
        0.500000
 50
      179.999995
 51
      270.000000
  0
ENDSEC
  0
EOF
