  0
SECTION
  2
HEADER
  9
$ACADVER
  1
AC1006
  9
$INSBASE
 10
0.0
 20
0.0
 30
0.0
  9
$EXTMIN
 10
       -5.500015
 20
       -5.000022
  9
$EXTMAX
 10
      186.630280
 20
      186.630280
  9
$LIMMIN
 10
       -5.500015
 20
       -5.000022
  9
$LIMMAX
 10
      186.630280
 20
      186.630280
  9
$VIEWCTR
 10
       90.565132
 20
       90.565132
  9
$ORTHOMODE
 70
     0
  9
$ANGBASE
 50
0.0
  9
$ANGDIR
 70
     0
  9
$SPLINETYPE
 70
     6
  9
$SPLINESEGS
 70
     8
9
$DIMASZ
 40
        3.500000
9
$DIMEXE
 40
        0.560000
9
$DIMEXO
 40
        0.800000
9
$DIMTXT
 40
        4.000000
9
$DIMGAP
 40
        0.560000
9
$DIMTAD
 70
1
9
$DIMTIH
 70
0
9
$DIMTOH
 70
0
  0
ENDSEC
  0
SECTION
  2
TABLES
  0
TABLE
  2
LTYPE
 70
     5
  0
LTYPE
  2
CONTINUOUS
 70
    64
  3
SOLID LINE
 72
    65
 73
     0
 40
0.0
  0
LTYPE
  2
DASHED
 70
    64
  3
-- -- -- -- -- --
 72
    65
 73
     2
 40
  0.75  
 49
  0.50  
 49
 -0.25  
  0
LTYPE
  2
DOT
 70
    64
  3
....................
 72
    65
 73
     2
 40
  0.25  
 49
  0.02  
 49
 -0.23  
  0
LTYPE
  2
CENTER
 70
    64
  3
-- . -- . -- . -- .
 72
    65
 73
    4
 40
  2.00  
 49
  1.25  
 49
 -0.25  
 49
  0.25  
 49
 -0.25  
  0
LTYPE
  2
PHANTOM
 70
    64
  3
-- .. -- .. -- ..
 72
    65
 73
    6
 40
  2.50  
 49
  1.25  
 49
 -0.25  
 49
  0.25  
 49
 -0.25  
 49
  0.25  
 49
 -0.25  
  0
ENDTAB
  0
TABLE
  2
LAYER
 70
     1
  0
LAYER
  2
LVL0000
 70
    64
 62
     2
  6
CONTINUOUS
  0
ENDTAB
  0
TABLE
  2
STYLE
 70
     2
  0
STYLE
  2
STANDARD
 70
    64
 40
0.0
 41
1.0
 50
0.0
 71
     0
 42
5.0
  3
ROMANS
  4
BIGFONT
  0
STYLE
  2
BIGFONT
 70
    64
 40
0.0
 41
1.0
 50
0.0
 71
     0
 42
5.0
  3
ROMANS
  4
BIGFONT
  0
ENDTAB
  0
TABLE
  2
VIEW
 70
     0
  0
ENDTAB
  0
TABLE
  2
UCS
 70
     0
  0
ENDTAB
  0
TABLE
  2
DWGMGR
 70
     0
  0
ENDTAB
  0
ENDSEC
  0
SECTION
  2
BLOCKS
  0
BLOCK
  8
0
  2
BLK0001
 70
    64
 10
        0.000000
 20
        0.000000
  0
TEXT
  8
LVL0000
 10
      115.376419
 20
      134.768173
 30
        0.000000
 40
        4.000000
  1
１０２．４
 50
        0.000000
 41
        0.835000
 51
        0.000000
  7
BIGFONT
  0
LINE
  8
LVL0000
 10
      175.799942
 20
      124.799995
 30
        0.000000
 11
      175.799942
 21
      134.768173
 31
        0.000000
  0
LINE
  8
LVL0000
 10
       73.399979
 20
      113.799995
 30
        0.000000
 11
       73.399979
 21
      134.768173
 31
        0.000000
  0
LINE
  8
LVL0000
 10
      172.299942
 20
      133.291870
 30
        0.000000
 11
      175.799942
 21
      134.208176
 31
        0.000000
  0
LINE
  8
LVL0000
 10
      175.799942
 20
      134.208176
 30
        0.000000
 11
      172.299942
 21
      135.124481
 31
        0.000000
  0
LINE
  8
LVL0000
 10
       76.899979
 20
      135.124481
 30
        0.000000
 11
       73.399979
 21
      134.208176
 31
        0.000000
  0
LINE
  8
LVL0000
 10
       73.399979
 20
      134.208176
 30
        0.000000
 11
       76.899979
 21
      133.291870
 31
        0.000000
  0
LINE
  8
LVL0000
 10
      175.799942
 20
      134.208176
 30
        0.000000
 11
       73.399979
 21
      134.208176
 31
        0.000000
  0
ENDBLK
  0
BLOCK
  8
0
  2
BLK0002
 70
    64
 10
        0.000000
 20
        0.000000
  0
TEXT
  8
LVL0000
 10
       36.005264
 20
       55.452915
 30
        0.000000
 40
        4.000000
  1
１２９
 50
       90.000000
 41
        0.835000
 51
        0.000000
  7
BIGFONT
  0
LINE
  8
LVL0000
 10
        5.299985
 20
       -5.000000
 30
        0.000000
 11
       37.125263
 21
       -5.000000
 31
        0.000000
  0
LINE
  8
LVL0000
 10
        5.299985
 20
      124.000015
 30
        0.000000
 11
       37.125263
 21
      124.000015
 31
        0.000000
  0
LINE
  8
LVL0000
 10
       35.648964
 20
       -1.500000
 30
        0.000000
 11
       36.565262
 21
       -5.000000
 31
        0.000000
  0
LINE
  8
LVL0000
 10
       36.565262
 20
       -5.000000
 30
        0.000000
 11
       37.481560
 21
       -1.500000
 31
        0.000000
  0
LINE
  8
LVL0000
 10
       37.481560
 20
      120.500015
 30
        0.000000
 11
       36.565262
 21
      124.000015
 31
        0.000000
  0
LINE
  8
LVL0000
 10
       36.565262
 20
      124.000015
 30
        0.000000
 11
       35.648964
 21
      120.500015
 31
        0.000000
  0
LINE
  8
LVL0000
 10
       36.565262
 20
       -5.000000
 30
        0.000000
 11
       36.565262
 21
      124.000015
 31
        0.000000
  0
ENDBLK
  0
BLOCK
  8
0
  2
BLK0003
 70
    64
 10
        0.000000
 20
        0.000000
  0
TEXT
  8
LVL0000
 10
       -0.800464
 20
      -16.403791
 30
        0.000000
 40
        4.000000
  1
２６．５
 50
        0.000000
 41
        0.835000
 51
        0.000000
  7
BIGFONT
  0
LINE
  8
LVL0000
 10
       -5.500015
 20
       -4.800000
 30
        0.000000
 11
       -5.500015
 21
      -17.523792
 31
        0.000000
  0
LINE
  8
LVL0000
 10
       20.999985
 20
        5.199978
 30
        0.000000
 11
       20.999985
 21
      -17.523792
 31
        0.000000
  0
LINE
  8
LVL0000
 10
       -2.000015
 20
      -16.047495
 30
        0.000000
 11
       -5.500015
 21
      -16.963793
 31
        0.000000
  0
LINE
  8
LVL0000
 10
       -5.500015
 20
      -16.963793
 30
        0.000000
 11
       -2.000015
 21
      -17.880091
 31
        0.000000
  0
LINE
  8
LVL0000
 10
       17.499985
 20
      -17.880091
 30
        0.000000
 11
       20.999985
 21
      -16.963793
 31
        0.000000
  0
LINE
  8
LVL0000
 10
       20.999985
 20
      -16.963793
 30
        0.000000
 11
       17.499985
 21
      -16.047495
 31
        0.000000
  0
LINE
  8
LVL0000
 10
       -5.500015
 20
      -16.963793
 30
        0.000000
 11
       20.999985
 21
      -16.963793
 31
        0.000000
  0
ENDBLK
  0
BLOCK
  8
0
  2
BLK0004
 70
    64
 10
        0.000000
 20
        0.000000
  0
TEXT
  8
LVL0000
 10
      119.897720
 20
      -16.403791
 30
        0.000000
 40
        4.000000
  1
９９．８
 50
        0.000000
 41
        0.835000
 51
        0.000000
  7
BIGFONT
  0
LINE
  8
LVL0000
 10
       73.399979
 20
        5.199978
 30
        0.000000
 11
       73.399979
 21
      -17.523792
 31
        0.000000
  0
LINE
  8
LVL0000
 10
      173.199966
 20
       -5.800022
 30
        0.000000
 11
      173.199966
 21
      -17.523792
 31
        0.000000
  0
LINE
  8
LVL0000
 10
       76.899979
 20
      -16.047495
 30
        0.000000
 11
       73.399979
 21
      -16.963793
 31
        0.000000
  0
LINE
  8
LVL0000
 10
       73.399979
 20
      -16.963793
 30
        0.000000
 11
       76.899979
 21
      -17.880091
 31
        0.000000
  0
LINE
  8
LVL0000
 10
      169.699966
 20
      -17.880091
 30
        0.000000
 11
      173.199966
 21
      -16.963793
 31
        0.000000
  0
LINE
  8
LVL0000
 10
      173.199966
 20
      -16.963793
 30
        0.000000
 11
      169.699966
 21
      -16.047495
 31
        0.000000
  0
LINE
  8
LVL0000
 10
       73.399979
 20
      -16.963793
 30
        0.000000
 11
      173.199966
 21
      -16.963793
 31
        0.000000
  0
ENDBLK
  0
ENDSEC
  0
SECTION
  2
ENTITIES
  0
DIMENSION
  8
LVL0000
 62
  5
  2
BLK0001
 10
      175.799942
 20
      134.208176
 11
      115.376419
 21
      134.768173
 13
      175.799942
 23
      123.999992
 14
       73.399979
 24
      112.999992
 50
        0.0
 70
  0
  0
DIMENSION
  8
LVL0000
 62
  5
  2
BLK0002
 10
       36.565262
 20
       -5.000000
 11
       36.005264
 21
       55.452915
 13
        4.499985
 23
       -5.000000
 14
        4.499985
 24
      124.000015
 50
       90.0
 70
  0
  0
DIMENSION
  8
LVL0000
 62
  5
  2
BLK0003
 10
       -5.500015
 20
      -16.963793
 11
       -0.800464
 21
      -16.403791
 13
       -5.500015
 23
       -4.000000
 14
       20.999985
 24
        5.999978
 50
        0.0
 70
  0
  0
DIMENSION
  8
LVL0000
 62
  5
  2
BLK0004
 10
       73.399979
 20
      -16.963793
 11
      119.897720
 21
      -16.403791
 13
       73.399979
 23
        5.999978
 14
      173.199966
 24
       -5.000022
 50
        0.0
 70
  0
  0
LINE
  8
LVL0000
 62
  3
 10
      108.199970
 20
      166.630267
 30
        0.000000
 11
      106.199970
 21
      166.630266
 31
        0.000000
  0
LINE
  8
LVL0000
 62
  3
 10
      112.199970
 20
      166.630268
 30
        0.000000
 11
      110.199970
 21
      166.630267
 31
        0.000000
  0
LINE
  8
LVL0000
 62
  3
 10
      116.199970
 20
      166.630270
 30
        0.000000
 11
      114.199970
 21
      166.630269
 31
        0.000000
  0
LINE
  8
LVL0000
 62
  3
 10
      120.199970
 20
      166.630272
 30
        0.000000
 11
      118.199970
 21
      166.630271
 31
        0.000000
  0
LINE
  8
LVL0000
 62
  3
 10
      124.199970
 20
      166.630273
 30
        0.000000
 11
      122.199970
 21
      166.630273
 31
        0.000000
  0
LINE
  8
LVL0000
 62
  3
 10
      128.199970
 20
      166.630275
 30
        0.000000
 11
      126.199970
 21
      166.630274
 31
        0.000000
  0
LINE
  8
LVL0000
 62
  3
 10
      132.199970
 20
      166.630277
 30
        0.000000
 11
      130.199970
 21
      166.630276
 31
        0.000000
  0
LINE
  8
LVL0000
 62
  3
 10
      104.199963
 20
      181.630265
 30
        0.000000
 11
      104.199970
 21
      166.630265
 31
        0.000000
  0
LINE
  8
LVL0000
 62
  3
 10
      108.199963
 20
      181.630267
 30
        0.000000
 11
      108.199970
 21
      166.630267
 31
        0.000000
  0
LINE
  8
LVL0000
 62
  3
 10
      112.199963
 20
      181.630268
 30
        0.000000
 11
      112.199970
 21
      166.630268
 31
        0.000000
  0
LINE
  8
LVL0000
 62
  3
 10
      116.199963
 20
      181.630270
 30
        0.000000
 11
      116.199970
 21
      166.630270
 31
        0.000000
  0
LINE
  8
LVL0000
 62
  3
 10
      120.199963
 20
      181.630272
 30
        0.000000
 11
      120.199970
 21
      166.630272
 31
        0.000000
  0
LINE
  8
LVL0000
 62
  3
 10
      124.199963
 20
      181.630273
 30
        0.000000
 11
      124.199970
 21
      166.630273
 31
        0.000000
  0
LINE
  8
LVL0000
 62
  3
 10
      128.199963
 20
      181.630275
 30
        0.000000
 11
      128.199970
 21
      166.630275
 31
        0.000000
  0
LINE
  8
LVL0000
 62
  3
 10
      102.199963
 20
      181.630264
 30
        0.000000
 11
      102.199970
 21
      166.630264
 31
        0.000000
  0
LINE
  8
LVL0000
 62
  3
 10
      106.199963
 20
      181.630266
 30
        0.000000
 11
      106.199970
 21
      166.630266
 31
        0.000000
  0
LINE
  8
LVL0000
 62
  3
 10
      110.199963
 20
      181.630267
 30
        0.000000
 11
      110.199970
 21
      166.630267
 31
        0.000000
  0
LINE
  8
LVL0000
 62
  3
 10
      114.199963
 20
      181.630269
 30
        0.000000
 11
      114.199970
 21
      166.630269
 31
        0.000000
  0
LINE
  8
LVL0000
 62
  3
 10
      118.199963
 20
      181.630271
 30
        0.000000
 11
      118.199970
 21
      166.630271
 31
        0.000000
  0
LINE
  8
LVL0000
 62
  3
 10
      122.199963
 20
      181.630273
 30
        0.000000
 11
      122.199970
 21
      166.630273
 31
        0.000000
  0
LINE
  8
LVL0000
 62
  3
 10
      126.199963
 20
      181.630274
 30
        0.000000
 11
      126.199970
 21
      166.630274
 31
        0.000000
  0
LINE
  8
LVL0000
 62
  3
 10
      130.199963
 20
      181.630276
 30
        0.000000
 11
      130.199970
 21
      166.630276
 31
        0.000000
  0
LINE
  8
LVL0000
 62
  3
 10
      174.799961
 20
      186.630295
 30
        0.000000
 11
       74.399967
 21
      186.630252
 31
        0.000000
  0
LINE
  8
LVL0000
 62
  3
 10
      104.199963
 20
      181.630265
 30
        0.000000
 11
      102.199963
 21
      181.630264
 31
        0.000000
  0
LINE
  8
LVL0000
 62
  3
 10
      108.199963
 20
      181.630267
 30
        0.000000
 11
      106.199963
 21
      181.630266
 31
        0.000000
  0
LINE
  8
LVL0000
 62
  3
 10
      112.199963
 20
      181.630268
 30
        0.000000
 11
      110.199963
 21
      181.630267
 31
        0.000000
  0
LINE
  8
LVL0000
 62
  3
 10
      116.199963
 20
      181.630270
 30
        0.000000
 11
      114.199963
 21
      181.630269
 31
        0.000000
  0
LINE
  8
LVL0000
 62
  3
 10
      120.199963
 20
      181.630272
 30
        0.000000
 11
      118.199963
 21
      181.630271
 31
        0.000000
  0
LINE
  8
LVL0000
 62
  3
 10
      124.199963
 20
      181.630273
 30
        0.000000
 11
      122.199963
 21
      181.630273
 31
        0.000000
  0
LINE
  8
LVL0000
 62
  3
 10
      128.199963
 20
      181.630275
 30
        0.000000
 11
      126.199963
 21
      181.630274
 31
        0.000000
  0
LINE
  8
LVL0000
 62
  3
 10
      132.199963
 20
      181.630277
 30
        0.000000
 11
      130.199963
 21
      181.630276
 31
        0.000000
  0
LINE
  8
LVL0000
 62
  3
 10
      175.799961
 20
      186.630295
 30
        0.000000
 11
      175.799966
 21
      175.630295
 31
        0.000000
  0
LINE
  8
LVL0000
 62
  3
 10
      173.199966
 20
      161.130294
 30
        0.000000
 11
      173.199960
 21
      175.630294
 31
        0.000000
  0
LINE
  8
LVL0000
 62
  3
 10
      172.199966
 20
      160.130294
 30
        0.000000
 11
      172.199960
 21
      175.630294
 31
        0.000000
  0
ARC
  8
LVL0000
 62
  3
 10
      172.199966
 20
      161.130294
 30
        0.000000
 40
        1.000000
 50
      270.000000
 51
      360.000024
  0
LINE
  8
LVL0000
 62
  3
 10
      175.799966
 20
      175.630295
 30
        0.000000
 11
      165.799935
 21
      175.630291
 31
        0.000000
  0
LINE
  8
LVL0000
 62
  3
 10
      165.799935
 20
      176.630291
 30
        0.000000
 11
      165.799935
 21
      175.630291
 31
        0.000000
  0
ARC
  8
LVL0000
 62
  3
 10
       74.399978
 20
      161.130252
 30
        0.000000
 40
        1.000000
 50
      180.000029
 51
      270.000000
  0
LINE
  8
LVL0000
 62
  3
 10
       73.399978
 20
      161.130252
 30
        0.000000
 11
       73.399968
 21
      185.630252
 31
        0.000000
  0
LINE
  8
LVL0000
 62
  3
 10
       74.399979
 20
      160.130252
 30
        0.000000
 11
       74.399968
 21
      185.630252
 31
        0.000000
  0
LINE
  8
LVL0000
 62
  3
 10
      136.199970
 20
      166.630278
 30
        0.000000
 11
      134.199970
 21
      166.630278
 31
        0.000000
  0
LINE
  8
LVL0000
 62
  3
 10
      140.199970
 20
      166.630280
 30
        0.000000
 11
      138.199970
 21
      166.630279
 31
        0.000000
  0
LINE
  8
LVL0000
 62
  3
 10
      144.199970
 20
      166.630282
 30
        0.000000
 11
      142.199970
 21
      166.630281
 31
        0.000000
  0
LINE
  8
LVL0000
 62
  3
 10
      132.199963
 20
      181.630277
 30
        0.000000
 11
      132.199970
 21
      166.630277
 31
        0.000000
  0
LINE
  8
LVL0000
 62
  3
 10
      136.199963
 20
      181.630278
 30
        0.000000
 11
      136.199970
 21
      166.630278
 31
        0.000000
  0
LINE
  8
LVL0000
 62
  3
 10
      140.199963
 20
      181.630280
 30
        0.000000
 11
      140.199970
 21
      166.630280
 31
        0.000000
  0
LINE
  8
LVL0000
 62
  3
 10
      144.199963
 20
      181.630282
 30
        0.000000
 11
      144.199970
 21
      166.630282
 31
        0.000000
  0
LINE
  8
LVL0000
 62
  3
 10
      134.199963
 20
      181.630278
 30
        0.000000
 11
      134.199970
 21
      166.630278
 31
        0.000000
  0
LINE
  8
LVL0000
 62
  3
 10
      138.199963
 20
      181.630279
 30
        0.000000
 11
      138.199970
 21
      166.630279
 31
        0.000000
  0
LINE
  8
LVL0000
 62
  3
 10
      142.199963
 20
      181.630281
 30
        0.000000
 11
      142.199970
 21
      166.630281
 31
        0.000000
  0
LINE
  8
LVL0000
 62
  3
 10
      146.199963
 20
      181.630283
 30
        0.000000
 11
      146.199970
 21
      166.630283
 31
        0.000000
  0
LINE
  8
LVL0000
 62
  3
 10
      148.199970
 20
      166.630284
 30
        0.000000
 11
      146.199970
 21
      166.630283
 31
        0.000000
  0
LINE
  8
LVL0000
 62
  3
 10
      148.199963
 20
      181.630284
 30
        0.000000
 11
      148.199970
 21
      166.630284
 31
        0.000000
  0
LINE
  8
LVL0000
 62
  3
 10
      152.199963
 20
      181.630285
 30
        0.000000
 11
      152.199970
 21
      166.630285
 31
        0.000000
  0
LINE
  8
LVL0000
 62
  3
 10
      152.199970
 20
      166.630285
 30
        0.000000
 11
      150.199970
 21
      166.630284
 31
        0.000000
  0
LINE
  8
LVL0000
 62
  3
 10
      150.199963
 20
      181.630284
 30
        0.000000
 11
      150.199970
 21
      166.630284
 31
        0.000000
  0
LINE
  8
LVL0000
 62
  3
 10
      165.799931
 20
      186.630291
 30
        0.000000
 11
      165.799931
 21
      185.630291
 31
        0.000000
  0
LINE
  8
LVL0000
 62
  3
 10
      175.799961
 20
      186.630295
 30
        0.000000
 11
      155.799931
 21
      186.630287
 31
        0.000000
  0
ARC
  8
LVL0000
 62
  3
 10
       74.399968
 20
      185.630252
 30
        0.000000
 40
        1.000000
 50
       90.000000
 51
      180.000029
  0
LINE
  8
LVL0000
 62
  3
 10
       80.899968
 20
      185.630255
 30
        0.000000
 11
       80.899967
 21
      186.630255
 31
        0.000000
  0
LINE
  8
LVL0000
 62
  3
 10
       80.899968
 20
      185.630255
 30
        0.000000
 11
       74.399968
 21
      185.630252
 31
        0.000000
  0
LINE
  8
LVL0000
 62
  3
 10
      136.199963
 20
      181.630278
 30
        0.000000
 11
      134.199963
 21
      181.630278
 31
        0.000000
  0
LINE
  8
LVL0000
 62
  3
 10
      140.199963
 20
      181.630280
 30
        0.000000
 11
      138.199963
 21
      181.630279
 31
        0.000000
  0
LINE
  8
LVL0000
 62
  3
 10
      144.199963
 20
      181.630282
 30
        0.000000
 11
      142.199963
 21
      181.630281
 31
        0.000000
  0
LINE
  8
LVL0000
 62
  3
 10
      148.199963
 20
      181.630284
 30
        0.000000
 11
      146.199963
 21
      181.630283
 31
        0.000000
  0
LINE
  8
LVL0000
 62
  3
 10
      152.199963
 20
      181.630285
 30
        0.000000
 11
      150.199963
 21
      181.630284
 31
        0.000000
  0
ARC
  8
LVL0000
 62
  3
 10
      164.793861
 20
      179.023322
 30
        0.000000
 40
        1.300000
 50
      195.881215
 51
      264.999858
  0
ARC
  8
LVL0000
 62
  3
 10
      172.199961
 20
      181.130280
 30
        0.000000
 40
        9.000000
 50
      164.119344
 51
      195.880921
  0
LINE
  8
LVL0000
 62
  3
 10
      165.799961
 20
      177.630280
 30
        0.000000
 11
      164.680555
 21
      177.728269
 31
        0.000000
  0
ARC
  8
LVL0000
 62
  3
 10
      164.793868
 20
      183.237239
 30
        0.000000
 40
        1.300000
 50
       95.000147
 51
      164.118688
  0
LINE
  8
LVL0000
 62
  3
 10
      165.799961
 20
      184.630280
 30
        0.000000
 11
      164.680562
 21
      184.532292
 31
        0.000000
  0
LINE
  8
LVL0000
 62
  3
 10
      165.799935
 20
      175.630291
 30
        0.000000
 11
      165.299935
 21
      175.630291
 31
        0.000000
  0
LINE
  8
LVL0000
 62
  3
 10
      165.299931
 20
      186.630291
 30
        0.000000
 11
      165.299935
 21
      175.630291
 31
        0.000000
  0
LINE
  8
LVL0000
 62
  3
 10
      165.799931
 20
      185.630291
 30
        0.000000
 11
      165.799935
 21
      175.630291
 31
        0.000000
  0
LINE
  8
LVL0000
 62
  3
 10
        4.499985
 20
      124.000015
 30
        0.000000
 11
        4.499985
 21
      112.999993
 31
        0.000000
  0
LINE
  8
LVL0000
 62
  3
 10
       11.549985
 20
       16.349978
 30
        0.000000
 11
        8.449985
 21
       16.349978
 31
        0.000000
  0
LINE
  8
LVL0000
 62
  3
 10
       11.549985
 20
       10.649978
 30
        0.000000
 11
        8.449985
 21
       10.649978
 31
        0.000000
  0
LINE
  8
LVL0000
 62
  3
 10
       11.549985
 20
       16.349978
 30
        0.000000
 11
       11.549985
 21
       10.649978
 31
        0.000000
  0
LINE
  8
LVL0000
 62
  3
 10
        8.449985
 20
       16.349978
 30
        0.000000
 11
        8.449985
 21
       10.649978
 31
        0.000000
  0
LINE
  8
LVL0000
 62
  3
 10
        5.499985
 20
      123.000015
 30
        0.000000
 11
        5.499985
 21
      112.999993
 31
        0.000000
  0
ARC
  8
LVL0000
 62
  3
 10
        4.499985
 20
      123.000015
 30
        0.000000
 40
        1.000000
 50
        0.000000
 51
       90.000000
  0
LINE
  8
LVL0000
 62
  3
 10
       -4.500015
 20
      124.000015
 30
        0.000000
 11
        4.499985
 21
      124.000015
 31
        0.000000
  0
ARC
  8
LVL0000
 62
  3
 10
       -4.500015
 20
      123.000015
 30
        0.000000
 40
        1.000000
 50
       90.000000
 51
      179.999995
  0
LINE
  8
LVL0000
 62
  3
 10
        5.499985
 20
        5.999978
 30
        0.000000
 11
        5.499985
 21
       -4.000000
 31
        0.000000
  0
ARC
  8
LVL0000
 62
  3
 10
        4.499985
 20
       -4.000000
 30
        0.000000
 40
        1.000000
 50
      270.000000
 51
      360.000000
  0
LINE
  8
LVL0000
 62
  3
 10
       -5.500015
 20
      123.000015
 30
        0.000000
 11
       -5.500015
 21
       -4.000000
 31
        0.000000
  0
LINE
  8
LVL0000
 62
  3
 10
        4.499985
 20
       -5.000000
 30
        0.000000
 11
       -4.500015
 21
       -5.000000
 31
        0.000000
  0
ARC
  8
LVL0000
 62
  3
 10
       -4.500015
 20
       -4.000000
 30
        0.000000
 40
        1.000000
 50
      179.999995
 51
      270.000000
  0
LINE
  8
LVL0000
 62
  3
 10
      165.799942
 20
      122.500015
 30
        0.000000
 11
      165.799942
 21
      115.500015
 31
        0.000000
  0
ARC
  8
LVL0000
 62
  3
 10
      172.199942
 20
      119.000015
 30
        0.000000
 40
        9.000000
 50
      164.119344
 51
      195.880921
  0
LINE
  8
LVL0000
 62
  3
 10
      165.799942
 20
      122.500015
 30
        0.000000
 11
      164.680542
 21
      122.402027
 31
        0.000000
  0
ARC
  8
LVL0000
 62
  3
 10
      164.793848
 20
      121.106974
 30
        0.000000
 40
        1.300000
 50
       95.000147
 51
      164.118688
  0
LINE
  8
LVL0000
 62
  3
 10
      165.799942
 20
      115.500015
 30
        0.000000
 11
      164.680536
 21
      115.598005
 31
        0.000000
  0
ARC
  8
LVL0000
 62
  3
 10
      164.793841
 20
      116.893057
 30
        0.000000
 40
        1.300000
 50
      195.881215
 51
      264.999858
  0
ARC
  8
LVL0000
 62
  3
 10
      162.193866
 20
       -2.106958
 30
        0.000000
 40
        1.300000
 50
      195.881215
 51
      264.999858
  0
LINE
  8
LVL0000
 62
  3
 10
      163.199966
 20
       -3.500000
 30
        0.000000
 11
      162.080560
 21
       -3.402011
 31
        0.000000
  0
ARC
  8
LVL0000
 62
  3
 10
      162.193873
 20
        2.106959
 30
        0.000000
 40
        1.300000
 50
       95.000147
 51
      164.118688
  0
LINE
  8
LVL0000
 62
  3
 10
      163.199966
 20
        3.500000
 30
        0.000000
 11
      162.080567
 21
        3.402012
 31
        0.000000
  0
ARC
  8
LVL0000
 62
  3
 10
      169.599967
 20
        0.000000
 30
        0.000000
 40
        9.000000
 50
      164.119344
 51
      195.880921
  0
LINE
  8
LVL0000
 62
  3
 10
      163.199966
 20
        3.500000
 30
        0.000000
 11
      163.199966
 21
       -3.500000
 31
        0.000000
  0
CIRCLE
  8
LVL0000
 62
  3
 10
        0.000000
 20
      119.000015
 30
        0.000000
 40
        3.500000
  0
LINE
  8
LVL0000
 62
  3
 10
       -1.449568
 20
      120.449584
 30
        0.000000
 11
        1.449568
 21
      117.550447
 31
        0.000000
  0
LINE
  8
LVL0000
 62
  3
 10
        2.474874
 20
      121.474889
 30
        0.000000
 11
       -2.474874
 21
      116.525142
 31
        0.000000
  0
LINE
  8
LVL0000
 62
  3
 10
        2.474874
 20
        2.474874
 30
        0.000000
 11
       -2.474874
 21
       -2.474874
 31
        0.000000
  0
LINE
  8
LVL0000
 62
  3
 10
       -1.449568
 20
        1.449568
 30
        0.000000
 11
        1.449568
 21
       -1.449568
 31
        0.000000
  0
CIRCLE
  8
LVL0000
 62
  3
 10
        0.000000
 20
        0.000000
 30
        0.000000
 40
        3.500000
  0
LINE
  8
LVL0000
 62
  3
 10
       12.399985
 20
      106.049873
 30
        0.000000
 11
       12.399985
 21
       68.949898
 31
        0.000000
  0
LINE
  8
LVL0000
 62
  3
 10
       -0.199983
 20
       68.949898
 30
        0.000000
 11
       -0.199983
 21
      106.049934
 31
        0.000000
  0
LINE
  8
LVL0000
 62
  3
 10
       11.399985
 20
       67.949898
 30
        0.000000
 11
        0.800017
 21
       67.949898
 31
        0.000000
  0
LINE
  8
LVL0000
 62
  3
 10
        0.800017
 20
      107.049934
 30
        0.000000
 11
       11.399985
 21
      107.049873
 31
        0.000000
  0
LINE
  8
LVL0000
 62
  3
 10
       10.010031
 20
       77.644173
 30
        0.000000
 11
       10.010031
 21
       97.355598
 31
        0.000000
  0
ARC
  8
LVL0000
 62
  3
 10
        8.409995
 20
       97.355598
 30
        0.000000
 40
        1.599990
 50
      359.999995
 51
      440.000120
  0
LINE
  8
LVL0000
 62
  3
 10
        3.789999
 20
       99.794930
 30
        0.000000
 11
        8.687827
 21
       98.931282
 31
        0.000000
  0
ARC
  8
LVL0000
 62
  3
 10
        3.789999
 20
       98.194893
 30
        0.000000
 40
        1.599976
 50
       90.000000
 51
      179.999995
  0
LINE
  8
LVL0000
 62
  3
 10
        2.190024
 20
       76.804878
 30
        0.000000
 11
        2.190024
 21
       98.194893
 31
        0.000000
  0
ARC
  8
LVL0000
 62
  3
 10
        3.789999
 20
       76.804878
 30
        0.000000
 40
        1.599976
 50
      179.999995
 51
      270.000000
  0
LINE
  8
LVL0000
 62
  3
 10
        3.789999
 20
       75.204842
 30
        0.000000
 11
        8.687827
 21
       76.068489
 31
        0.000000
  0
ARC
  8
LVL0000
 62
  3
 10
        8.409995
 20
       77.644173
 30
        0.000000
 40
        1.599976
 50
      279.999945
 51
      359.999995
  0
CIRCLE
  8
LVL0000
 62
  3
 10
        6.099997
 20
       70.839882
 30
        0.000000
 40
        1.299988
  0
CIRCLE
  8
LVL0000
 62
  3
 10
        6.099997
 20
      104.159889
 30
        0.000000
 40
        1.299988
  0
ARC
  8
LVL0000
 62
  3
 10
       11.399985
 20
       68.949898
 30
        0.000000
 40
        1.000000
 50
      270.000000
 51
      359.999995
  0
ARC
  8
LVL0000
 62
  3
 10
        0.800017
 20
       68.949898
 30
        0.000000
 40
        1.000000
 50
      179.999995
 51
      270.000000
  0
ARC
  8
LVL0000
 62
  3
 10
        0.800017
 20
      106.049934
 30
        0.000000
 40
        1.000000
 50
       90.000000
 51
      179.999995
  0
ARC
  8
LVL0000
 62
  3
 10
       11.399985
 20
      106.049873
 30
        0.000000
 40
        1.000000
 50
      359.999995
 51
      450.000000
  0
CIRCLE
  8
LVL0000
 62
  3
 10
        4.680014
 20
       77.899910
 30
        0.000000
 40
        0.500000
  0
CIRCLE
  8
LVL0000
 62
  3
 10
        7.519980
 20
       79.269905
 30
        0.000000
 40
        0.500000
  0
CIRCLE
  8
LVL0000
 62
  3
 10
        4.680014
 20
       80.639900
 30
        0.000000
 40
        0.500000
  0
CIRCLE
  8
LVL0000
 62
  3
 10
        4.680014
 20
       83.389900
 30
        0.000000
 40
        0.500000
  0
CIRCLE
  8
LVL0000
 62
  3
 10
        4.680014
 20
       86.129890
 30
        0.000000
 40
        0.500000
  0
CIRCLE
  8
LVL0000
 62
  3
 10
        4.680014
 20
       88.869881
 30
        0.000000
 40
        0.500000
  0
CIRCLE
  8
LVL0000
 62
  3
 10
        4.680014
 20
       91.609871
 30
        0.000000
 40
        0.500000
  0
CIRCLE
  8
LVL0000
 62
  3
 10
        4.680014
 20
       94.359871
 30
        0.000000
 40
        0.500000
  0
CIRCLE
  8
LVL0000
 62
  3
 10
        4.680014
 20
       97.099892
 30
        0.000000
 40
        0.500000
  0
CIRCLE
  8
LVL0000
 62
  3
 10
        7.519980
 20
       82.009895
 30
        0.000000
 40
        0.500000
  0
CIRCLE
  8
LVL0000
 62
  3
 10
        7.519980
 20
       84.759895
 30
        0.000000
 40
        0.500000
  0
CIRCLE
  8
LVL0000
 62
  3
 10
        7.519980
 20
       87.499886
 30
        0.000000
 40
        0.500000
  0
CIRCLE
  8
LVL0000
 62
  3
 10
        7.519980
 20
       90.239876
 30
        0.000000
 40
        0.500000
  0
CIRCLE
  8
LVL0000
 62
  3
 10
        7.519980
 20
       92.989876
 30
        0.000000
 40
        0.500000
  0
CIRCLE
  8
LVL0000
 62
  3
 10
        7.519980
 20
       95.729897
 30
        0.000000
 40
        0.500000
  0
LINE
  8
LVL0000
 62
  3
 10
        4.656638
 20
       73.339882
 30
        0.000000
 11
        7.543387
 21
       73.339912
 31
        0.000000
  0
LINE
  8
LVL0000
 62
  3
 10
        7.543387
 20
       73.339912
 30
        0.000000
 11
        8.986746
 21
       70.839882
 31
        0.000000
  0
LINE
  8
LVL0000
 62
  3
 10
        8.986746
 20
       70.839882
 30
        0.000000
 11
        7.543387
 21
       68.339912
 31
        0.000000
  0
LINE
  8
LVL0000
 62
  3
 10
        7.543387
 20
       68.339912
 30
        0.000000
 11
        4.656638
 21
       68.339912
 31
        0.000000
  0
LINE
  8
LVL0000
 62
  3
 10
        4.656638
 20
       68.339912
 30
        0.000000
 11
        3.213248
 21
       70.839912
 31
        0.000000
  0
LINE
  8
LVL0000
 62
  3
 10
        3.213248
 20
       70.839912
 30
        0.000000
 11
        4.656638
 21
       73.339882
 31
        0.000000
  0
LINE
  8
LVL0000
 62
  3
 10
        7.543387
 20
      101.659889
 30
        0.000000
 11
        4.656638
 21
      101.659889
 31
        0.000000
  0
LINE
  8
LVL0000
 62
  3
 10
        8.986746
 20
      104.159889
 30
        0.000000
 11
        7.543387
 21
      101.659889
 31
        0.000000
  0
LINE
  8
LVL0000
 62
  3
 10
        7.543387
 20
      106.659889
 30
        0.000000
 11
        8.986746
 21
      104.159889
 31
        0.000000
  0
LINE
  8
LVL0000
 62
  3
 10
        4.656638
 20
      106.659889
 30
        0.000000
 11
        7.543387
 21
      106.659889
 31
        0.000000
  0
LINE
  8
LVL0000
 62
  3
 10
        3.213248
 20
      104.159889
 30
        0.000000
 11
        4.656638
 21
      106.659889
 31
        0.000000
  0
LINE
  8
LVL0000
 62
  3
 10
        4.656638
 20
      101.659889
 30
        0.000000
 11
        3.213248
 21
      104.159889
 31
        0.000000
  0
LINE
  8
LVL0000
 62
  3
 10
       24.699997
 20
       26.734879
 30
        0.000000
 11
       21.050003
 21
       26.734879
 31
        0.000000
  0
LINE
  8
LVL0000
 62
  3
 10
       24.699997
 20
       26.734879
 30
        0.000000
 11
       24.699997
 21
       57.264877
 31
        0.000000
  0
LINE
  8
LVL0000
 62
  3
 10
       24.699997
 20
       57.264877
 30
        0.000000
 11
       21.050003
 21
       57.264877
 31
        0.000000
  0
LINE
  8
LVL0000
 62
  3
 10
       13.999985
 20
      108.999986
 30
        0.000000
 11
       13.999985
 21
       65.999986
 31
        0.000000
  0
LINE
  8
LVL0000
 62
  3
 10
       10.749985
 20
       11.749978
 30
        0.000000
 11
       10.749985
 21
       15.249978
 31
        0.000000
  0
LINE
  8
LVL0000
 62
  3
 10
        9.149985
 20
       11.749978
 30
        0.000000
 11
        9.149985
 21
       15.249978
 31
        0.000000
  0
LINE
  8
LVL0000
 62
  3
 10
        9.199985
 20
       11.749978
 30
        0.000000
 11
       10.699985
 21
       11.749978
 31
        0.000000
  0
LINE
  8
LVL0000
 62
  3
 10
       10.699985
 20
       13.749978
 30
        0.000000
 11
       10.699985
 21
       15.249978
 31
        0.000000
  0
LINE
  8
LVL0000
 62
  3
 10
        9.199985
 20
       13.749978
 30
        0.000000
 11
        9.199985
 21
       15.249978
 31
        0.000000
  0
LINE
  8
LVL0000
 62
  3
 10
        9.199985
 20
       15.249978
 30
        0.000000
 11
       10.699985
 21
       15.249978
 31
        0.000000
  0
LINE
  8
LVL0000
 62
  3
 10
        9.199985
 20
       13.749978
 30
        0.000000
 11
       10.699985
 21
       13.749978
 31
        0.000000
  0
LINE
  8
LVL0000
 62
  3
 10
       12.399985
 20
      108.999986
 30
        0.000000
 11
       12.399985
 21
       17.999978
 31
        0.000000
  0
LINE
  8
LVL0000
 62
  3
 10
       24.649979
 20
       20.499978
 30
        0.000000
 11
       20.999985
 21
       20.499978
 31
        0.000000
  0
LINE
  8
LVL0000
 62
  3
 10
       24.649979
 20
       13.499978
 30
        0.000000
 11
       24.649979
 21
       20.499978
 31
        0.000000
  0
LINE
  8
LVL0000
 62
  3
 10
       24.649979
 20
       13.499978
 30
        0.000000
 11
       20.999985
 21
       13.499978
 31
        0.000000
  0
LINE
  8
LVL0000
 62
  3
 10
       73.399979
 20
      112.999993
 30
        0.000000
 11
      173.199966
 21
      112.999993
 31
        0.000000
  0
LINE
  8
LVL0000
 62
  3
 10
       73.399979
 20
        5.999978
 30
        0.000000
 11
      173.199966
 21
        5.999978
 31
        0.000000
  0
LINE
  8
LVL0000
 62
  3
 10
      111.399979
 20
       12.249978
 30
        0.000000
 11
      111.399979
 21
       21.749978
 31
        0.000000
  0
LINE
  8
LVL0000
 62
  3
 10
      103.149979
 20
       17.999978
 30
        0.000000
 11
       93.649979
 21
       17.999978
 31
        0.000000
  0
LINE
  8
LVL0000
 62
  3
 10
       93.649979
 20
       17.999978
 30
        0.000000
 11
       93.649979
 21
       65.999986
 31
        0.000000
  0
LINE
  8
LVL0000
 62
  3
 10
      103.149979
 20
       65.999986
 30
        0.000000
 11
       93.649979
 21
       65.999986
 31
        0.000000
  0
LINE
  8
LVL0000
 62
  3
 10
      103.149979
 20
       17.999978
 30
        0.000000
 11
      103.149979
 21
       65.999986
 31
        0.000000
  0
LINE
  8
LVL0000
 62
  3
 10
      163.199966
 20
        5.999978
 30
        0.000000
 11
      163.199966
 21
       -5.000022
 31
        0.000000
  0
LINE
  8
LVL0000
 62
  3
 10
      163.199966
 20
       -5.000022
 30
        0.000000
 11
      173.199966
 21
       -5.000022
 31
        0.000000
  0
LINE
  8
LVL0000
 62
  3
 10
      165.799942
 20
      123.999993
 30
        0.000000
 11
      165.799942
 21
      112.999993
 31
        0.000000
  0
LINE
  8
LVL0000
 62
  3
 10
      165.799942
 20
      123.999993
 30
        0.000000
 11
      175.799942
 21
      123.999993
 31
        0.000000
  0
LINE
  8
LVL0000
 62
  3
 10
       73.399979
 20
        5.999978
 30
        0.000000
 11
       73.399979
 21
      112.999993
 31
        0.000000
  0
LINE
  8
LVL0000
 62
  3
 10
      175.799942
 20
      123.999993
 30
        0.000000
 11
      175.799942
 21
      114.999993
 31
        0.000000
  0
LINE
  8
LVL0000
 62
  3
 10
      173.199966
 20
      114.999993
 30
        0.000000
 11
      175.799942
 21
      114.999993
 31
        0.000000
  0
LINE
  8
LVL0000
 62
  3
 10
      172.199966
 20
        5.999978
 30
        0.000000
 11
      173.199966
 21
        5.999978
 31
        0.000000
  0
LINE
  8
LVL0000
 62
  3
 10
      170.599966
 20
        3.999978
 30
        0.000000
 11
      173.199966
 21
        3.999978
 31
        0.000000
  0
LINE
  8
LVL0000
 62
  3
 10
      170.599966
 20
        3.999978
 30
        0.000000
 11
      170.599966
 21
        5.999978
 31
        0.000000
  0
LINE
  8
LVL0000
 62
  3
 10
      173.199966
 20
       -5.000022
 30
        0.000000
 11
      173.199966
 21
        3.999978
 31
        0.000000
  0
LINE
  8
LVL0000
 62
  3
 10
      173.199966
 20
        5.999978
 30
        0.000000
 11
      173.199966
 21
      114.999993
 31
        0.000000
  0
LINE
  8
LVL0000
 62
  3
 10
      151.399979
 20
       12.249978
 30
        0.000000
 11
      151.399979
 21
       21.749978
 31
        0.000000
  0
LINE
  8
LVL0000
 62
  3
 10
      111.399979
 20
       12.249978
 30
        0.000000
 11
      151.399979
 21
       12.249978
 31
        0.000000
  0
LINE
  8
LVL0000
 62
  3
 10
      111.399979
 20
       21.749978
 30
        0.000000
 11
      151.399979
 21
       21.749978
 31
        0.000000
  0
LINE
  8
LVL0000
 62
  3
 10
      108.399979
 20
       47.000008
 30
        0.000000
 11
      108.399979
 21
       72.000008
 31
        0.000000
  0
LINE
  8
LVL0000
 62
  3
 10
      158.399979
 20
       47.000008
 30
        0.000000
 11
      158.399979
 21
       72.000008
 31
        0.000000
  0
LINE
  8
LVL0000
 62
  3
 10
      108.399979
 20
       47.000008
 30
        0.000000
 11
      158.399979
 21
       47.000008
 31
        0.000000
  0
LINE
  8
LVL0000
 62
  3
 10
      108.399979
 20
       72.000008
 30
        0.000000
 11
      158.399979
 21
       72.000008
 31
        0.000000
  0
LINE
  8
LVL0000
 62
  3
 10
       13.650006
 20
       65.999986
 30
        0.000000
 11
       13.650006
 21
       17.999978
 31
        0.000000
  0
LINE
  8
LVL0000
 62
  3
 10
        4.150006
 20
       65.999986
 30
        0.000000
 11
        4.150006
 21
       17.999978
 31
        0.000000
  0
LINE
  8
LVL0000
 62
  3
 10
       13.650006
 20
       17.999978
 30
        0.000000
 11
        4.150006
 21
       17.999978
 31
        0.000000
  0
LINE
  8
LVL0000
 62
  3
 10
       15.099997
 20
      108.999986
 30
        0.000000
 11
       15.099997
 21
       65.999986
 31
        0.000000
  0
LINE
  8
LVL0000
 62
  3
 10
       15.099997
 20
       65.999986
 30
        0.000000
 11
       13.650006
 21
       65.999986
 31
        0.000000
  0
LINE
  8
LVL0000
 62
  3
 10
        4.150006
 20
       65.999986
 30
        0.000000
 11
       -2.900003
 21
       65.999986
 31
        0.000000
  0
LINE
  8
LVL0000
 62
  3
 10
       -2.900003
 20
      108.999986
 30
        0.000000
 11
       -2.900003
 21
       65.999986
 31
        0.000000
  0
LINE
  8
LVL0000
 62
  3
 10
       13.999985
 20
      107.999993
 30
        0.000000
 11
       13.999985
 21
      101.999993
 31
        0.000000
  0
TEXT
  8
LVL0000
 10
       -1.845712
 20
      176.675046
 30
        0.000000
 40
        5.000000
  1
ＪＷ３２ＥＡ
 50
        0.000000
 41
        0.835000
 51
        0.000000
  7
BIGFONT
  0
LINE
  8
LVL0000
 62
  3
 10
       20.999985
 20
      112.999993
 30
        0.000000
 11
       20.999985
 21
        5.999978
 31
        0.000000
  0
LINE
  8
LVL0000
 62
  3
 10
       -4.500015
 20
      124.000015
 30
        0.000000
 11
       -4.500015
 21
      112.999993
 31
        0.000000
  0
LINE
  8
LVL0000
 62
  3
 10
       -4.500015
 20
        5.999978
 30
        0.000000
 11
       -4.500015
 21
       -5.000000
 31
        0.000000
  0
LINE
  8
LVL0000
 62
  3
 10
       15.099997
 20
      108.999986
 30
        0.000000
 11
       -2.900003
 21
      108.999986
 31
        0.000000
  0
LINE
  8
LVL0000
 62
  3
 10
       15.099997
 20
      101.999993
 30
        0.000000
 11
       13.999985
 21
      101.999993
 31
        0.000000
  0
LINE
  8
LVL0000
 62
  3
 10
       15.099997
 20
      107.999993
 30
        0.000000
 11
       13.999985
 21
      107.999993
 31
        0.000000
  0
LINE
  8
LVL0000
 62
  3
 10
       -5.500015
 20
      112.999993
 30
        0.000000
 11
       20.999985
 21
      112.999993
 31
        0.000000
  0
LINE
  8
LVL0000
 62
  3
 10
       20.999985
 20
        5.999978
 30
        0.000000
 11
       -5.500015
 21
        5.999978
 31
        0.000000
  0
LINE
  8
LVL0000
 62
  3
 10
        4.499985
 20
        5.999978
 30
        0.000000
 11
        4.499985
 21
       -5.000000
 31
        0.000000
  0
CIRCLE
  8
LVL0000
 62
  3
 10
      147.909966
 20
       17.199975
 30
        0.000000
 40
        1.149994
  0
LINE
  8
LVL0000
 62
  3
 10
      144.314973
 20
       18.599984
 30
        0.000000
 11
      144.314973
 21
       15.799981
 31
        0.000000
  0
LINE
  8
LVL0000
 62
  3
 10
      150.314973
 20
       20.499978
 30
        0.000000
 11
      150.314973
 21
       13.499978
 31
        0.000000
  0
LINE
  8
LVL0000
 62
  3
 10
      144.814973
 20
       13.899979
 30
        0.000000
 11
      144.814973
 21
       13.499978
 31
        0.000000
  0
LINE
  8
LVL0000
 62
  3
 10
      144.814973
 20
       13.499978
 30
        0.000000
 11
      150.314973
 21
       13.499978
 31
        0.000000
  0
LINE
  8
LVL0000
 62
  3
 10
      146.764970
 20
       15.349984
 30
        0.000000
 11
      149.614977
 21
       15.349984
 31
        0.000000
  0
LINE
  8
LVL0000
 62
  3
 10
      146.764970
 20
       19.049981
 30
        0.000000
 11
      149.614977
 21
       19.049981
 31
        0.000000
  0
LINE
  8
LVL0000
 62
  3
 10
      145.314973
 20
       19.599984
 30
        0.000000
 11
      145.314973
 21
       14.799981
 31
        0.000000
  0
LINE
  8
LVL0000
 62
  3
 10
      146.764970
 20
       15.349984
 30
        0.000000
 11
      146.764970
 21
       13.499978
 31
        0.000000
  0
LINE
  8
LVL0000
 62
  3
 10
      146.764970
 20
       20.499978
 30
        0.000000
 11
      146.764970
 21
       19.049981
 31
        0.000000
  0
LINE
  8
LVL0000
 62
  3
 10
      149.614977
 20
       19.049981
 30
        0.000000
 11
      149.614977
 21
       15.349984
 31
        0.000000
  0
LINE
  8
LVL0000
 62
  3
 10
      117.984984
 20
       13.899979
 30
        0.000000
 11
      117.984984
 21
       13.499978
 31
        0.000000
  0
LINE
  8
LVL0000
 62
  3
 10
      117.984984
 20
       13.499978
 30
        0.000000
 11
      112.484984
 21
       13.499978
 31
        0.000000
  0
LINE
  8
LVL0000
 62
  3
 10
      112.484984
 20
       20.499978
 30
        0.000000
 11
      112.484984
 21
       13.499978
 31
        0.000000
  0
LINE
  8
LVL0000
 62
  3
 10
      117.484984
 20
       14.799981
 30
        0.000000
 11
      145.314973
 21
       14.799981
 31
        0.000000
  0
LINE
  8
LVL0000
 62
  3
 10
      118.484984
 20
       18.599984
 30
        0.000000
 11
      144.314973
 21
       18.599984
 31
        0.000000
  0
LINE
  8
LVL0000
 62
  3
 10
      118.484984
 20
       15.799981
 30
        0.000000
 11
      144.314973
 21
       15.799981
 31
        0.000000
  0
LINE
  8
LVL0000
 62
  3
 10
      117.984984
 20
       13.899979
 30
        0.000000
 11
      144.814973
 21
       13.899979
 31
        0.000000
  0
LINE
  8
LVL0000
 62
  3
 10
      112.484984
 20
       20.499978
 30
        0.000000
 11
      150.314973
 21
       20.499978
 31
        0.000000
  0
LINE
  8
LVL0000
 62
  3
 10
      117.484984
 20
       19.599984
 30
        0.000000
 11
      145.314973
 21
       19.599984
 31
        0.000000
  0
LINE
  8
LVL0000
 62
  3
 10
      116.034987
 20
       15.349984
 30
        0.000000
 11
      113.184981
 21
       15.349984
 31
        0.000000
  0
LINE
  8
LVL0000
 62
  3
 10
      116.034987
 20
       19.049981
 30
        0.000000
 11
      113.184981
 21
       19.049981
 31
        0.000000
  0
LINE
  8
LVL0000
 62
  3
 10
      116.034987
 20
       15.349984
 30
        0.000000
 11
      116.034987
 21
       13.499978
 31
        0.000000
  0
LINE
  8
LVL0000
 62
  3
 10
      116.034987
 20
       20.499978
 30
        0.000000
 11
      116.034987
 21
       19.049981
 31
        0.000000
  0
LINE
  8
LVL0000
 62
  3
 10
      113.184981
 20
       19.049981
 30
        0.000000
 11
      113.184981
 21
       15.349984
 31
        0.000000
  0
LINE
  8
LVL0000
 62
  3
 10
      117.484984
 20
       19.599984
 30
        0.000000
 11
      117.484984
 21
       14.799981
 31
        0.000000
  0
LINE
  8
LVL0000
 62
  3
 10
      118.484984
 20
       18.599984
 30
        0.000000
 11
      118.484984
 21
       15.799981
 31
        0.000000
  0
CIRCLE
  8
LVL0000
 62
  3
 10
      114.889992
 20
       17.199975
 30
        0.000000
 40
        1.149994
  0
LINE
  8
LVL0000
 62
  3
 10
      100.049973
 20
       23.653721
 30
        0.000000
 11
      100.049973
 21
       20.803715
 31
        0.000000
  0
LINE
  8
LVL0000
 62
  3
 10
       96.349976
 20
       23.653721
 30
        0.000000
 11
       96.349976
 21
       20.803715
 31
        0.000000
  0
LINE
  8
LVL0000
 62
  3
 10
      100.049973
 20
       23.653721
 30
        0.000000
 11
      101.899979
 21
       23.653721
 31
        0.000000
  0
LINE
  8
LVL0000
 62
  3
 10
       94.899979
 20
       23.653721
 30
        0.000000
 11
       96.349976
 21
       23.653721
 31
        0.000000
  0
LINE
  8
LVL0000
 62
  3
 10
       96.349976
 20
       20.803715
 30
        0.000000
 11
      100.049973
 21
       20.803715
 31
        0.000000
  0
LINE
  8
LVL0000
 62
  3
 10
       95.799973
 20
       25.103718
 30
        0.000000
 11
      100.599976
 21
       25.103718
 31
        0.000000
  0
LINE
  8
LVL0000
 62
  3
 10
       96.799973
 20
       26.103718
 30
        0.000000
 11
       99.599976
 21
       26.103718
 31
        0.000000
  0
LINE
  8
LVL0000
 62
  3
 10
       96.799973
 20
       58.283707
 30
        0.000000
 11
       99.599976
 21
       58.283707
 31
        0.000000
  0
LINE
  8
LVL0000
 62
  3
 10
       94.899979
 20
       64.283707
 30
        0.000000
 11
      101.899979
 21
       64.283707
 31
        0.000000
  0
LINE
  8
LVL0000
 62
  3
 10
      101.499977
 20
       58.783707
 30
        0.000000
 11
      101.899979
 21
       58.783707
 31
        0.000000
  0
LINE
  8
LVL0000
 62
  3
 10
      101.899979
 20
       58.783707
 30
        0.000000
 11
      101.899979
 21
       64.283707
 31
        0.000000
  0
LINE
  8
LVL0000
 62
  3
 10
      100.049973
 20
       60.733704
 30
        0.000000
 11
      100.049973
 21
       63.583710
 31
        0.000000
  0
LINE
  8
LVL0000
 62
  3
 10
       96.349976
 20
       60.733704
 30
        0.000000
 11
       96.349976
 21
       63.583710
 31
        0.000000
  0
LINE
  8
LVL0000
 62
  3
 10
       95.799973
 20
       59.283707
 30
        0.000000
 11
      100.599976
 21
       59.283707
 31
        0.000000
  0
LINE
  8
LVL0000
 62
  3
 10
      100.049973
 20
       60.733704
 30
        0.000000
 11
      101.899979
 21
       60.733704
 31
        0.000000
  0
LINE
  8
LVL0000
 62
  3
 10
       94.899979
 20
       60.733704
 30
        0.000000
 11
       96.349976
 21
       60.733704
 31
        0.000000
  0
LINE
  8
LVL0000
 62
  3
 10
       96.349976
 20
       63.583710
 30
        0.000000
 11
      100.049973
 21
       63.583710
 31
        0.000000
  0
CIRCLE
  8
LVL0000
 62
  3
 10
       98.199982
 20
       22.508726
 30
        0.000000
 40
        1.149994
  0
CIRCLE
  8
LVL0000
 62
  3
 10
       98.199982
 20
       61.878699
 30
        0.000000
 40
        1.149994
  0
LINE
  8
LVL0000
 62
  3
 10
      100.599976
 20
       25.103718
 30
        0.000000
 11
      100.599976
 21
       59.283707
 31
        0.000000
  0
LINE
  8
LVL0000
 62
  3
 10
       96.799973
 20
       26.103718
 30
        0.000000
 11
       96.799973
 21
       58.283707
 31
        0.000000
  0
LINE
  8
LVL0000
 62
  3
 10
       99.599976
 20
       26.103718
 30
        0.000000
 11
       99.599976
 21
       58.283707
 31
        0.000000
  0
LINE
  8
LVL0000
 62
  3
 10
      101.499977
 20
       25.603718
 30
        0.000000
 11
      101.499977
 21
       58.783707
 31
        0.000000
  0
LINE
  8
LVL0000
 62
  3
 10
       94.899979
 20
       20.103718
 30
        0.000000
 11
       94.899979
 21
       64.283707
 31
        0.000000
  0
LINE
  8
LVL0000
 62
  3
 10
       95.799973
 20
       25.103718
 30
        0.000000
 11
       95.799973
 21
       59.283707
 31
        0.000000
  0
LINE
  8
LVL0000
 62
  3
 10
      101.499977
 20
       25.603718
 30
        0.000000
 11
      101.899979
 21
       25.603718
 31
        0.000000
  0
LINE
  8
LVL0000
 62
  3
 10
      101.899979
 20
       25.603718
 30
        0.000000
 11
      101.899979
 21
       20.103718
 31
        0.000000
  0
LINE
  8
LVL0000
 62
  3
 10
       94.899979
 20
       20.103718
 30
        0.000000
 11
      101.899979
 21
       20.103718
 31
        0.000000
  0
LINE
  8
LVL0000
 62
  3
 10
       10.549979
 20
       23.653621
 30
        0.000000
 11
       10.549979
 21
       20.803615
 31
        0.000000
  0
LINE
  8
LVL0000
 62
  3
 10
        6.849982
 20
       23.653621
 30
        0.000000
 11
        6.849982
 21
       20.803615
 31
        0.000000
  0
LINE
  8
LVL0000
 62
  3
 10
       10.549979
 20
       23.653621
 30
        0.000000
 11
       12.399985
 21
       23.653621
 31
        0.000000
  0
LINE
  8
LVL0000
 62
  3
 10
        5.399985
 20
       23.653621
 30
        0.000000
 11
        6.849982
 21
       23.653621
 31
        0.000000
  0
LINE
  8
LVL0000
 62
  3
 10
        6.849982
 20
       20.803615
 30
        0.000000
 11
       10.549979
 21
       20.803615
 31
        0.000000
  0
LINE
  8
LVL0000
 62
  3
 10
        6.299979
 20
       25.103618
 30
        0.000000
 11
       11.099982
 21
       25.103618
 31
        0.000000
  0
LINE
  8
LVL0000
 62
  3
 10
        7.299979
 20
       26.103618
 30
        0.000000
 11
       10.099982
 21
       26.103618
 31
        0.000000
  0
LINE
  8
LVL0000
 62
  3
 10
        7.299979
 20
       58.283607
 30
        0.000000
 11
       10.099982
 21
       58.283607
 31
        0.000000
  0
LINE
  8
LVL0000
 62
  3
 10
        5.399985
 20
       64.283607
 30
        0.000000
 11
       12.399985
 21
       64.283607
 31
        0.000000
  0
LINE
  8
LVL0000
 62
  3
 10
       11.999983
 20
       58.783607
 30
        0.000000
 11
       12.399985
 21
       58.783607
 31
        0.000000
  0
LINE
  8
LVL0000
 62
  3
 10
       12.399985
 20
       58.783607
 30
        0.000000
 11
       12.399985
 21
       64.283607
 31
        0.000000
  0
LINE
  8
LVL0000
 62
  3
 10
       10.549979
 20
       60.733604
 30
        0.000000
 11
       10.549979
 21
       63.583610
 31
        0.000000
  0
LINE
  8
LVL0000
 62
  3
 10
        6.849982
 20
       60.733604
 30
        0.000000
 11
        6.849982
 21
       63.583610
 31
        0.000000
  0
LINE
  8
LVL0000
 62
  3
 10
        6.299979
 20
       59.283607
 30
        0.000000
 11
       11.099982
 21
       59.283607
 31
        0.000000
  0
LINE
  8
LVL0000
 62
  3
 10
       10.549979
 20
       60.733604
 30
        0.000000
 11
       12.399985
 21
       60.733604
 31
        0.000000
  0
LINE
  8
LVL0000
 62
  3
 10
        5.399985
 20
       60.733604
 30
        0.000000
 11
        6.849982
 21
       60.733604
 31
        0.000000
  0
LINE
  8
LVL0000
 62
  3
 10
        6.849982
 20
       63.583610
 30
        0.000000
 11
       10.549979
 21
       63.583610
 31
        0.000000
  0
CIRCLE
  8
LVL0000
 62
  3
 10
        8.699988
 20
       22.508626
 30
        0.000000
 40
        1.149994
  0
CIRCLE
  8
LVL0000
 62
  3
 10
        8.699988
 20
       61.878599
 30
        0.000000
 40
        1.149994
  0
LINE
  8
LVL0000
 62
  3
 10
       11.099982
 20
       25.103618
 30
        0.000000
 11
       11.099982
 21
       59.283607
 31
        0.000000
  0
LINE
  8
LVL0000
 62
  3
 10
        7.299979
 20
       26.103618
 30
        0.000000
 11
        7.299979
 21
       58.283607
 31
        0.000000
  0
LINE
  8
LVL0000
 62
  3
 10
       10.099982
 20
       26.103618
 30
        0.000000
 11
       10.099982
 21
       58.283607
 31
        0.000000
  0
LINE
  8
LVL0000
 62
  3
 10
       11.999983
 20
       25.603618
 30
        0.000000
 11
       11.999983
 21
       58.783607
 31
        0.000000
  0
LINE
  8
LVL0000
 62
  3
 10
        5.399985
 20
       20.103618
 30
        0.000000
 11
        5.399985
 21
       64.283607
 31
        0.000000
  0
LINE
  8
LVL0000
 62
  3
 10
        6.299979
 20
       25.103618
 30
        0.000000
 11
        6.299979
 21
       59.283607
 31
        0.000000
  0
LINE
  8
LVL0000
 62
  3
 10
       11.999983
 20
       25.603618
 30
        0.000000
 11
       12.399985
 21
       25.603618
 31
        0.000000
  0
LINE
  8
LVL0000
 62
  3
 10
       12.399985
 20
       25.603618
 30
        0.000000
 11
       12.399985
 21
       20.103618
 31
        0.000000
  0
LINE
  8
LVL0000
 62
  3
 10
        5.399985
 20
       20.103618
 30
        0.000000
 11
       12.399985
 21
       20.103618
 31
        0.000000
  0
LINE
  8
LVL0000
 62
  3
 10
      172.199966
 20
      160.130294
 30
        0.000000
 11
       74.399979
 21
      160.130252
 31
        0.000000
  0
LINE
  8
LVL0000
 62
  3
 10
      104.199970
 20
      166.630265
 30
        0.000000
 11
      102.199970
 21
      166.630264
 31
        0.000000
  0
ENDSEC
  0
EOF
