  0
SECTION
  2
HEADER
  9
$ACADVER
  1
AC1006
  9
$INSBASE
 10
0.0
 20
0.0
 30
0.0
  9
$EXTMIN
 10
      -65.000000
 20
      -65.000000
  9
$EXTMAX
 10
      392.112549
 20
      334.067108
  9
$LIMMIN
 10
      -65.000000
 20
      -65.000000
  9
$LIMMAX
 10
      392.112549
 20
      334.067108
  9
$VIEWCTR
 10
      163.556274
 20
      163.556274
  9
$ORTHOMODE
 70
     0
  9
$ANGBASE
 50
0.0
  9
$ANGDIR
 70
     0
  9
$SPLINETYPE
 70
     6
  9
$SPLINESEGS
 70
     8
9
$DIMASZ
 40
        3.000000
9
$DIMEXE
 40
        0.500000
9
$DIMEXO
 40
        1.000000
9
$DIMTXT
 40
        4.000000
9
$DIMGAP
 40
        0.500000
9
$DIMTAD
 70
1
9
$DIMTIH
 70
0
9
$DIMTOH
 70
0
  0
ENDSEC
  0
SECTION
  2
TABLES
  0
TABLE
  2
LTYPE
 70
     5
  0
LTYPE
  2
CONTINUOUS
 70
    64
  3
SOLID LINE
 72
    65
 73
     0
 40
0.0
  0
LTYPE
  2
DASHED
 70
    64
  3
-- -- -- -- -- --
 72
    65
 73
     2
 40
  0.75  
 49
  0.50  
 49
 -0.25  
  0
LTYPE
  2
DOT
 70
    64
  3
....................
 72
    65
 73
     2
 40
  0.25  
 49
  0.02  
 49
 -0.23  
  0
LTYPE
  2
CENTER
 70
    64
  3
-- . -- . -- . -- .
 72
    65
 73
    4
 40
  2.00  
 49
  1.25  
 49
 -0.25  
 49
  0.25  
 49
 -0.25  
  0
LTYPE
  2
PHANTOM
 70
    64
  3
-- .. -- .. -- ..
 72
    65
 73
    6
 40
  2.50  
 49
  1.25  
 49
 -0.25  
 49
  0.25  
 49
 -0.25  
 49
  0.25  
 49
 -0.25  
  0
ENDTAB
  0
TABLE
  2
LAYER
 70
     1
  0
LAYER
  2
LVL0000
 70
    64
 62
     2
  6
CONTINUOUS
  0
ENDTAB
  0
TABLE
  2
STYLE
 70
     2
  0
STYLE
  2
STANDARD
 70
    64
 40
0.0
 41
1.0
 50
0.0
 71
     0
 42
5.0
  3
ROMANS
  4
BIGFONT
  0
STYLE
  2
BIGFONT
 70
    64
 40
0.0
 41
1.0
 50
0.0
 71
     0
 42
5.0
  3
ROMANS
  4
BIGFONT
  0
ENDTAB
  0
TABLE
  2
VIEW
 70
     0
  0
ENDTAB
  0
TABLE
  2
UCS
 70
     0
  0
ENDTAB
  0
TABLE
  2
DWGMGR
 70
     0
  0
ENDTAB
  0
ENDSEC
  0
SECTION
  2
BLOCKS
  0
BLOCK
  8
0
  2
BLK0001
 70
    64
 10
        0.000000
 20
        0.000000
  0
TEXT
  8
LVL0000
 10
      395.438538
 20
      277.482269
 30
        0.000000
 40
        4.000000
  1
７．６
 50
        0.000000
 41
        0.835000
 51
        0.000000
  7
BIGFONT
  0
LINE
  8
LVL0000
 10
      384.512543
 20
      266.000000
 30
        0.000000
 11
      384.512543
 21
      277.482269
 31
        0.000000
  0
LINE
  8
LVL0000
 10
      392.112549
 20
      264.399994
 30
        0.000000
 11
      392.112549
 21
      277.482269
 31
        0.000000
  0
LINE
  8
LVL0000
 10
      381.512543
 20
      276.196869
 30
        0.000000
 11
      384.512543
 21
      276.982269
 31
        0.000000
  0
LINE
  8
LVL0000
 10
      384.512543
 20
      276.982269
 30
        0.000000
 11
      381.512543
 21
      277.767670
 31
        0.000000
  0
LINE
  8
LVL0000
 10
      395.112549
 20
      277.767670
 30
        0.000000
 11
      392.112549
 21
      276.982269
 31
        0.000000
  0
LINE
  8
LVL0000
 10
      392.112549
 20
      276.982269
 30
        0.000000
 11
      395.112549
 21
      276.196869
 31
        0.000000
  0
LINE
  8
LVL0000
 10
      407.438538
 20
      276.982269
 30
        0.000000
 11
      378.512543
 21
      276.982269
 31
        0.000000
  0
ENDBLK
  0
BLOCK
  8
0
  2
BLK0002
 70
    64
 10
        0.000000
 20
        0.000000
  0
TEXT
  8
LVL0000
 10
      344.755981
 20
      192.000000
 30
        0.000000
 40
        4.000000
  1
１１８
 50
       90.000000
 41
        0.835000
 51
        0.000000
  7
BIGFONT
  0
LINE
  8
LVL0000
 10
      323.500031
 20
      257.000000
 30
        0.000000
 11
      345.755981
 21
      257.000000
 31
        0.000000
  0
LINE
  8
LVL0000
 10
      323.500031
 20
      139.000000
 30
        0.000000
 11
      345.755981
 21
      139.000000
 31
        0.000000
  0
LINE
  8
LVL0000
 10
      346.041382
 20
      254.000000
 30
        0.000000
 11
      345.255981
 21
      257.000000
 31
        0.000000
  0
LINE
  8
LVL0000
 10
      345.255981
 20
      257.000000
 30
        0.000000
 11
      344.470581
 21
      254.000000
 31
        0.000000
  0
LINE
  8
LVL0000
 10
      344.470581
 20
      142.000000
 30
        0.000000
 11
      345.255981
 21
      139.000000
 31
        0.000000
  0
LINE
  8
LVL0000
 10
      345.255981
 20
      139.000000
 30
        0.000000
 11
      346.041382
 21
      142.000000
 31
        0.000000
  0
LINE
  8
LVL0000
 10
      345.255981
 20
      257.000000
 30
        0.000000
 11
      345.255981
 21
      139.000000
 31
        0.000000
  0
ENDBLK
  0
BLOCK
  8
0
  2
BLK0003
 70
    64
 10
        0.000000
 20
        0.000000
  0
TEXT
  8
LVL0000
 10
      354.973419
 20
      194.000000
 30
        0.000000
 40
        4.000000
  1
１３０
 50
       90.000000
 41
        0.835000
 51
        0.000000
  7
BIGFONT
  0
LINE
  8
LVL0000
 10
      315.500031
 20
      265.000000
 30
        0.000000
 11
      355.973419
 21
      265.000000
 31
        0.000000
  0
LINE
  8
LVL0000
 10
      315.500031
 20
      135.000000
 30
        0.000000
 11
      355.973419
 21
      135.000000
 31
        0.000000
  0
LINE
  8
LVL0000
 10
      356.258820
 20
      262.000000
 30
        0.000000
 11
      355.473419
 21
      265.000000
 31
        0.000000
  0
LINE
  8
LVL0000
 10
      355.473419
 20
      265.000000
 30
        0.000000
 11
      354.688019
 21
      262.000000
 31
        0.000000
  0
LINE
  8
LVL0000
 10
      354.688019
 20
      138.000000
 30
        0.000000
 11
      355.473419
 21
      135.000000
 31
        0.000000
  0
LINE
  8
LVL0000
 10
      355.473419
 20
      135.000000
 30
        0.000000
 11
      356.258820
 21
      138.000000
 31
        0.000000
  0
LINE
  8
LVL0000
 10
      355.473419
 20
      265.000000
 30
        0.000000
 11
      355.473419
 21
      135.000000
 31
        0.000000
  0
ENDBLK
  0
BLOCK
  8
0
  2
BLK0004
 70
    64
 10
        0.000000
 20
        0.000000
  0
TEXT
  8
LVL0000
 10
      344.755981
 20
      259.000000
 30
        0.000000
 40
        4.000000
  1
８
 50
       90.000000
 41
        0.835000
 51
        0.000000
  7
BIGFONT
  0
LINE
  8
LVL0000
 10
      315.500031
 20
      265.000000
 30
        0.000000
 11
      345.755981
 21
      265.000000
 31
        0.000000
  0
LINE
  8
LVL0000
 10
      323.500031
 20
      257.000000
 30
        0.000000
 11
      345.755981
 21
      257.000000
 31
        0.000000
  0
LINE
  8
LVL0000
 10
      344.470581
 20
      268.000000
 30
        0.000000
 11
      345.255981
 21
      265.000000
 31
        0.000000
  0
LINE
  8
LVL0000
 10
      345.255981
 20
      265.000000
 30
        0.000000
 11
      346.041382
 21
      268.000000
 31
        0.000000
  0
LINE
  8
LVL0000
 10
      346.041382
 20
      254.000000
 30
        0.000000
 11
      345.255981
 21
      257.000000
 31
        0.000000
  0
LINE
  8
LVL0000
 10
      345.255981
 20
      257.000000
 30
        0.000000
 11
      344.470581
 21
      254.000000
 31
        0.000000
  0
LINE
  8
LVL0000
 10
      345.255981
 20
      271.000000
 30
        0.000000
 11
      345.255981
 21
      251.000000
 31
        0.000000
  0
ENDBLK
  0
BLOCK
  8
0
  2
BLK0005
 70
    64
 10
        0.000000
 20
        0.000000
  0
TEXT
  8
LVL0000
 10
      140.500000
 20
      104.463318
 30
        0.000000
 40
        4.000000
  1
３６８
 50
        0.000000
 41
        0.835000
 51
        0.000000
  7
BIGFONT
  0
LINE
  8
LVL0000
 10
      330.500000
 20
      138.000000
 30
        0.000000
 11
      330.500000
 21
      103.463318
 31
        0.000000
  0
LINE
  8
LVL0000
 10
      -37.500000
 20
      138.000000
 30
        0.000000
 11
      -37.500000
 21
      103.463318
 31
        0.000000
  0
LINE
  8
LVL0000
 10
      326.500000
 20
      102.916122
 30
        0.000000
 11
      330.500000
 21
      103.963318
 31
        0.000000
  0
LINE
  8
LVL0000
 10
      330.500000
 20
      103.963318
 30
        0.000000
 11
      326.500000
 21
      105.010513
 31
        0.000000
  0
LINE
  8
LVL0000
 10
      -33.500000
 20
      105.010513
 30
        0.000000
 11
      -37.500000
 21
      103.963318
 31
        0.000000
  0
LINE
  8
LVL0000
 10
      -37.500000
 20
      103.963318
 30
        0.000000
 11
      -33.500000
 21
      102.916122
 31
        0.000000
  0
LINE
  8
LVL0000
 10
      330.500000
 20
      103.963318
 30
        0.000000
 11
      -37.500000
 21
      103.963318
 31
        0.000000
  0
ENDBLK
  0
BLOCK
  8
0
  2
BLK0006
 70
    64
 10
        0.000000
 20
        0.000000
  0
TEXT
  8
LVL0000
 10
      140.500000
 20
      116.240829
 30
        0.000000
 40
        4.000000
  1
３５２
 50
        0.000000
 41
        0.835000
 51
        0.000000
  7
BIGFONT
  0
LINE
  8
LVL0000
 10
      322.500000
 20
      138.000000
 30
        0.000000
 11
      322.500000
 21
      115.240829
 31
        0.000000
  0
LINE
  8
LVL0000
 10
      -29.499998
 20
      138.000000
 30
        0.000000
 11
      -29.499998
 21
      115.240829
 31
        0.000000
  0
LINE
  8
LVL0000
 10
      319.500000
 20
      114.955429
 30
        0.000000
 11
      322.500000
 21
      115.740829
 31
        0.000000
  0
LINE
  8
LVL0000
 10
      322.500000
 20
      115.740829
 30
        0.000000
 11
      319.500000
 21
      116.526230
 31
        0.000000
  0
LINE
  8
LVL0000
 10
      -26.499998
 20
      116.526230
 30
        0.000000
 11
      -29.499998
 21
      115.740829
 31
        0.000000
  0
LINE
  8
LVL0000
 10
      -29.499998
 20
      115.740829
 30
        0.000000
 11
      -26.499998
 21
      114.955429
 31
        0.000000
  0
LINE
  8
LVL0000
 10
      322.500000
 20
      115.740829
 30
        0.000000
 11
      -29.499998
 21
      115.740829
 31
        0.000000
  0
ENDBLK
  0
ENDSEC
  0
SECTION
  2
ENTITIES
  0
TEXT
  8
LVL0000
 10
      -40.049348
 20
      334.067106
 30
        0.000000
 40
        5.000000
  1
ＪＷ３６ＫＢ
 50
        0.000000
 41
        0.835000
 51
        0.000000
  7
BIGFONT
  0
DIMENSION
  8
LVL0000
 62
  5
  2
BLK0001
 10
      407.438538
 20
      276.982269
 11
      395.438538
 21
      277.482269
 13
      384.512543
 23
      265.000000
 14
      392.112549
 24
      263.399994
 50
        0.0
 70
  0
  0
DIMENSION
  8
LVL0000
 62
  5
  2
BLK0002
 10
      345.255981
 20
      257.000000
 11
      344.755981
 21
      192.000000
 13
      322.500031
 23
      257.000000
 14
      322.500031
 24
      139.000000
 50
       90.0
 70
  0
  0
DIMENSION
  8
LVL0000
 62
  5
  2
BLK0003
 10
      355.473419
 20
      265.000000
 11
      354.973419
 21
      194.000000
 13
      314.500031
 23
      265.000000
 14
      314.500031
 24
      135.000000
 50
       90.0
 70
  0
  0
DIMENSION
  8
LVL0000
 62
  5
  2
BLK0004
 10
      345.255981
 20
      271.000000
 11
      344.755981
 21
      259.000000
 13
      314.500031
 23
      265.000000
 14
      322.500031
 24
      257.000000
 50
       90.0
 70
  0
  0
DIMENSION
  8
LVL0000
 62
  5
  2
BLK0005
 10
      330.500000
 20
      103.963318
 11
      140.500000
 21
      104.463318
 13
      330.500000
 23
      139.000000
 14
      -37.500000
 24
      139.000000
 50
        0.0
 70
  0
  0
DIMENSION
  8
LVL0000
 62
  5
  2
BLK0006
 10
      322.500000
 20
      115.740829
 11
      140.500000
 21
      116.240829
 13
      322.500000
 23
      139.000000
 14
      -29.499998
 24
      139.000000
 50
        0.0
 70
  0
  0
LINE
  8
LVL0000
 62
  3
 10
       74.900000
 20
      176.899963
 30
        0.000000
 11
       74.900000
 21
      241.129990
 31
        0.000000
  0
LINE
  8
LVL0000
 62
  3
 10
       77.700003
 20
      176.899963
 30
        0.000000
 11
       77.700003
 21
      241.129990
 31
        0.000000
  0
LINE
  8
LVL0000
 62
  3
 10
       74.900000
 20
      176.899963
 30
        0.000000
 11
       77.700003
 21
      176.899963
 31
        0.000000
  0
LINE
  8
LVL0000
 62
  3
 10
       74.900000
 20
      241.129990
 30
        0.000000
 11
       77.700003
 21
      241.129990
 31
        0.000000
  0
LINE
  8
LVL0000
 62
  3
 10
       78.700003
 20
      175.899963
 30
        0.000000
 11
       78.700003
 21
      242.129990
 31
        0.000000
  0
LINE
  8
LVL0000
 62
  3
 10
       73.900000
 20
      175.899963
 30
        0.000000
 11
       73.900000
 21
      242.129990
 31
        0.000000
  0
LINE
  8
LVL0000
 62
  3
 10
       79.600000
 20
      176.399963
 30
        0.000000
 11
       79.600000
 21
      241.629990
 31
        0.000000
  0
LINE
  8
LVL0000
 62
  3
 10
       73.000002
 20
      170.899979
 30
        0.000000
 11
       80.000002
 21
      170.899979
 31
        0.000000
  0
LINE
  8
LVL0000
 62
  3
 10
       73.000002
 20
      170.899979
 30
        0.000000
 11
       73.000002
 21
      247.129990
 31
        0.000000
  0
LINE
  8
LVL0000
 62
  3
 10
       73.000002
 20
      247.129990
 30
        0.000000
 11
       80.000002
 21
      247.129990
 31
        0.000000
  0
LINE
  8
LVL0000
 62
  3
 10
       79.600000
 20
      176.399963
 30
        0.000000
 11
       80.000002
 21
      176.399963
 31
        0.000000
  0
LINE
  8
LVL0000
 62
  3
 10
       80.000002
 20
      176.399963
 30
        0.000000
 11
       80.000002
 21
      170.899963
 31
        0.000000
  0
LINE
  8
LVL0000
 62
  3
 10
       73.900000
 20
      175.899963
 30
        0.000000
 11
       78.700003
 21
      175.899963
 31
        0.000000
  0
LINE
  8
LVL0000
 62
  3
 10
       78.150000
 20
      174.449966
 30
        0.000000
 11
       78.150000
 21
      171.599960
 31
        0.000000
  0
LINE
  8
LVL0000
 62
  3
 10
       74.450003
 20
      174.449966
 30
        0.000000
 11
       74.450003
 21
      171.599960
 31
        0.000000
  0
LINE
  8
LVL0000
 62
  3
 10
       78.150000
 20
      174.449966
 30
        0.000000
 11
       80.000002
 21
      174.449966
 31
        0.000000
  0
LINE
  8
LVL0000
 62
  3
 10
       73.000002
 20
      174.449966
 30
        0.000000
 11
       74.450003
 21
      174.449966
 31
        0.000000
  0
LINE
  8
LVL0000
 62
  3
 10
       74.450003
 20
      171.599960
 30
        0.000000
 11
       78.150000
 21
      171.599960
 31
        0.000000
  0
CIRCLE
  8
LVL0000
 62
  3
 10
       76.300001
 20
      173.454971
 30
        0.000000
 40
        1.150002
  0
LINE
  8
LVL0000
 62
  3
 10
       79.600000
 20
      241.629990
 30
        0.000000
 11
       80.000002
 21
      241.629990
 31
        0.000000
  0
LINE
  8
LVL0000
 62
  3
 10
       80.000002
 20
      241.629990
 30
        0.000000
 11
       80.000002
 21
      247.129990
 31
        0.000000
  0
LINE
  8
LVL0000
 62
  3
 10
       78.150000
 20
      243.579987
 30
        0.000000
 11
       78.150000
 21
      246.429993
 31
        0.000000
  0
LINE
  8
LVL0000
 62
  3
 10
       74.450003
 20
      243.579987
 30
        0.000000
 11
       74.450003
 21
      246.429993
 31
        0.000000
  0
LINE
  8
LVL0000
 62
  3
 10
       73.900000
 20
      242.129990
 30
        0.000000
 11
       78.700003
 21
      242.129990
 31
        0.000000
  0
LINE
  8
LVL0000
 62
  3
 10
       78.150000
 20
      243.579987
 30
        0.000000
 11
       80.000002
 21
      243.579987
 31
        0.000000
  0
LINE
  8
LVL0000
 62
  3
 10
       73.000002
 20
      243.579987
 30
        0.000000
 11
       74.450003
 21
      243.579987
 31
        0.000000
  0
LINE
  8
LVL0000
 62
  3
 10
       74.450003
 20
      246.429993
 30
        0.000000
 11
       78.150000
 21
      246.429993
 31
        0.000000
  0
CIRCLE
  8
LVL0000
 62
  3
 10
       76.300001
 20
      244.574982
 30
        0.000000
 40
        1.150002
  0
LINE
  8
LVL0000
 62
  3
 10
      110.399996
 20
      241.129990
 30
        0.000000
 11
      113.199999
 21
      241.129990
 31
        0.000000
  0
LINE
  8
LVL0000
 62
  3
 10
      110.399996
 20
      215.000000
 30
        0.000000
 11
      113.199999
 21
      215.000000
 31
        0.000000
  0
LINE
  8
LVL0000
 62
  3
 10
      110.399996
 20
      215.000000
 30
        0.000000
 11
      110.399996
 21
      241.129990
 31
        0.000000
  0
LINE
  8
LVL0000
 62
  3
 10
      113.199999
 20
      215.000000
 30
        0.000000
 11
      113.199999
 21
      241.129990
 31
        0.000000
  0
LINE
  8
LVL0000
 62
  3
 10
      115.100000
 20
      214.500000
 30
        0.000000
 11
      115.100000
 21
      241.629990
 31
        0.000000
  0
LINE
  8
LVL0000
 62
  3
 10
      108.500002
 20
      209.000000
 30
        0.000000
 11
      108.500002
 21
      247.129990
 31
        0.000000
  0
LINE
  8
LVL0000
 62
  3
 10
      109.399996
 20
      214.000000
 30
        0.000000
 11
      109.399996
 21
      242.129990
 31
        0.000000
  0
LINE
  8
LVL0000
 62
  3
 10
      114.199999
 20
      214.000000
 30
        0.000000
 11
      114.199999
 21
      242.129990
 31
        0.000000
  0
LINE
  8
LVL0000
 62
  3
 10
      115.100000
 20
      214.500000
 30
        0.000000
 11
      115.500002
 21
      214.500000
 31
        0.000000
  0
LINE
  8
LVL0000
 62
  3
 10
      115.500002
 20
      214.500000
 30
        0.000000
 11
      115.500002
 21
      209.000000
 31
        0.000000
  0
LINE
  8
LVL0000
 62
  3
 10
      108.500002
 20
      209.000000
 30
        0.000000
 11
      115.500002
 21
      209.000000
 31
        0.000000
  0
LINE
  8
LVL0000
 62
  3
 10
      113.649996
 20
      212.550003
 30
        0.000000
 11
      113.649996
 21
      209.699997
 31
        0.000000
  0
LINE
  8
LVL0000
 62
  3
 10
      109.949999
 20
      212.550003
 30
        0.000000
 11
      109.949999
 21
      209.699997
 31
        0.000000
  0
LINE
  8
LVL0000
 62
  3
 10
      113.649996
 20
      212.550003
 30
        0.000000
 11
      115.500002
 21
      212.550003
 31
        0.000000
  0
LINE
  8
LVL0000
 62
  3
 10
      108.500002
 20
      212.550003
 30
        0.000000
 11
      109.949999
 21
      212.550003
 31
        0.000000
  0
LINE
  8
LVL0000
 62
  3
 10
      109.949999
 20
      209.699997
 30
        0.000000
 11
      113.649996
 21
      209.699997
 31
        0.000000
  0
CIRCLE
  8
LVL0000
 62
  3
 10
      111.800005
 20
      211.555008
 30
        0.000000
 40
        1.149994
  0
LINE
  8
LVL0000
 62
  3
 10
      109.399996
 20
      214.000000
 30
        0.000000
 11
      114.199999
 21
      214.000000
 31
        0.000000
  0
LINE
  8
LVL0000
 62
  3
 10
      108.500002
 20
      247.129990
 30
        0.000000
 11
      115.500002
 21
      247.129990
 31
        0.000000
  0
LINE
  8
LVL0000
 62
  3
 10
      115.100000
 20
      241.629990
 30
        0.000000
 11
      115.500002
 21
      241.629990
 31
        0.000000
  0
LINE
  8
LVL0000
 62
  3
 10
      115.500002
 20
      241.629990
 30
        0.000000
 11
      115.500002
 21
      247.129990
 31
        0.000000
  0
LINE
  8
LVL0000
 62
  3
 10
      113.649996
 20
      243.579987
 30
        0.000000
 11
      113.649996
 21
      246.429993
 31
        0.000000
  0
LINE
  8
LVL0000
 62
  3
 10
      109.949999
 20
      243.579987
 30
        0.000000
 11
      109.949999
 21
      246.429993
 31
        0.000000
  0
LINE
  8
LVL0000
 62
  3
 10
      109.399996
 20
      242.129990
 30
        0.000000
 11
      114.199999
 21
      242.129990
 31
        0.000000
  0
LINE
  8
LVL0000
 62
  3
 10
      113.649996
 20
      243.579987
 30
        0.000000
 11
      115.500002
 21
      243.579987
 31
        0.000000
  0
LINE
  8
LVL0000
 62
  3
 10
      108.500002
 20
      243.579987
 30
        0.000000
 11
      109.949999
 21
      243.579987
 31
        0.000000
  0
LINE
  8
LVL0000
 62
  3
 10
      109.949999
 20
      246.429993
 30
        0.000000
 11
      113.649996
 21
      246.429993
 31
        0.000000
  0
CIRCLE
  8
LVL0000
 62
  3
 10
      111.800005
 20
      244.574982
 30
        0.000000
 40
        1.149994
  0
LINE
  8
LVL0000
 62
  3
 10
      145.899996
 20
      241.129990
 30
        0.000000
 11
      148.699999
 21
      241.129990
 31
        0.000000
  0
LINE
  8
LVL0000
 62
  3
 10
      145.899996
 20
      215.000000
 30
        0.000000
 11
      148.699999
 21
      215.000000
 31
        0.000000
  0
LINE
  8
LVL0000
 62
  3
 10
      145.899996
 20
      215.000000
 30
        0.000000
 11
      145.899996
 21
      241.129990
 31
        0.000000
  0
LINE
  8
LVL0000
 62
  3
 10
      148.699999
 20
      215.000000
 30
        0.000000
 11
      148.699999
 21
      241.129990
 31
        0.000000
  0
LINE
  8
LVL0000
 62
  3
 10
      150.600008
 20
      214.500000
 30
        0.000000
 11
      150.600008
 21
      241.629990
 31
        0.000000
  0
LINE
  8
LVL0000
 62
  3
 10
      144.000002
 20
      209.000000
 30
        0.000000
 11
      144.000002
 21
      247.129990
 31
        0.000000
  0
LINE
  8
LVL0000
 62
  3
 10
      144.899996
 20
      214.000000
 30
        0.000000
 11
      144.899996
 21
      242.129990
 31
        0.000000
  0
LINE
  8
LVL0000
 62
  3
 10
      149.699999
 20
      214.000000
 30
        0.000000
 11
      149.699999
 21
      242.129990
 31
        0.000000
  0
LINE
  8
LVL0000
 62
  3
 10
      150.600008
 20
      214.500000
 30
        0.000000
 11
      151.000002
 21
      214.500000
 31
        0.000000
  0
LINE
  8
LVL0000
 62
  3
 10
      151.000002
 20
      214.500000
 30
        0.000000
 11
      151.000002
 21
      209.000000
 31
        0.000000
  0
LINE
  8
LVL0000
 62
  3
 10
      144.000002
 20
      209.000000
 30
        0.000000
 11
      151.000002
 21
      209.000000
 31
        0.000000
  0
LINE
  8
LVL0000
 62
  3
 10
      149.149996
 20
      212.550003
 30
        0.000000
 11
      149.149996
 21
      209.699997
 31
        0.000000
  0
LINE
  8
LVL0000
 62
  3
 10
      145.449999
 20
      212.550003
 30
        0.000000
 11
      145.449999
 21
      209.699997
 31
        0.000000
  0
LINE
  8
LVL0000
 62
  3
 10
      149.149996
 20
      212.550003
 30
        0.000000
 11
      151.000002
 21
      212.550003
 31
        0.000000
  0
LINE
  8
LVL0000
 62
  3
 10
      144.000002
 20
      212.550003
 30
        0.000000
 11
      145.449999
 21
      212.550003
 31
        0.000000
  0
LINE
  8
LVL0000
 62
  3
 10
      145.449999
 20
      209.699997
 30
        0.000000
 11
      149.149996
 21
      209.699997
 31
        0.000000
  0
CIRCLE
  8
LVL0000
 62
  3
 10
      147.300005
 20
      211.555008
 30
        0.000000
 40
        1.149994
  0
LINE
  8
LVL0000
 62
  3
 10
      144.899996
 20
      214.000000
 30
        0.000000
 11
      149.699999
 21
      214.000000
 31
        0.000000
  0
LINE
  8
LVL0000
 62
  3
 10
      144.000002
 20
      247.129990
 30
        0.000000
 11
      151.000002
 21
      247.129990
 31
        0.000000
  0
LINE
  8
LVL0000
 62
  3
 10
      150.600008
 20
      241.629990
 30
        0.000000
 11
      151.000002
 21
      241.629990
 31
        0.000000
  0
LINE
  8
LVL0000
 62
  3
 10
      151.000002
 20
      241.629990
 30
        0.000000
 11
      151.000002
 21
      247.129990
 31
        0.000000
  0
LINE
  8
LVL0000
 62
  3
 10
      149.149996
 20
      243.579987
 30
        0.000000
 11
      149.149996
 21
      246.429993
 31
        0.000000
  0
LINE
  8
LVL0000
 62
  3
 10
      145.449999
 20
      243.579987
 30
        0.000000
 11
      145.449999
 21
      246.429993
 31
        0.000000
  0
LINE
  8
LVL0000
 62
  3
 10
      144.899996
 20
      242.129990
 30
        0.000000
 11
      149.699999
 21
      242.129990
 31
        0.000000
  0
LINE
  8
LVL0000
 62
  3
 10
      149.149996
 20
      243.579987
 30
        0.000000
 11
      151.000002
 21
      243.579987
 31
        0.000000
  0
LINE
  8
LVL0000
 62
  3
 10
      144.000002
 20
      243.579987
 30
        0.000000
 11
      145.449999
 21
      243.579987
 31
        0.000000
  0
LINE
  8
LVL0000
 62
  3
 10
      145.449999
 20
      246.429993
 30
        0.000000
 11
      149.149996
 21
      246.429993
 31
        0.000000
  0
CIRCLE
  8
LVL0000
 62
  3
 10
      147.300005
 20
      244.574982
 30
        0.000000
 40
        1.149994
  0
LINE
  8
LVL0000
 62
  3
 10
      181.399996
 20
      241.129990
 30
        0.000000
 11
      184.199999
 21
      241.129990
 31
        0.000000
  0
LINE
  8
LVL0000
 62
  3
 10
      181.399996
 20
      215.000000
 30
        0.000000
 11
      184.199999
 21
      215.000000
 31
        0.000000
  0
LINE
  8
LVL0000
 62
  3
 10
      181.399996
 20
      215.000000
 30
        0.000000
 11
      181.399996
 21
      241.129990
 31
        0.000000
  0
LINE
  8
LVL0000
 62
  3
 10
      184.199999
 20
      215.000000
 30
        0.000000
 11
      184.199999
 21
      241.129990
 31
        0.000000
  0
LINE
  8
LVL0000
 62
  3
 10
      186.100008
 20
      214.500000
 30
        0.000000
 11
      186.100008
 21
      241.629990
 31
        0.000000
  0
LINE
  8
LVL0000
 62
  3
 10
      179.500002
 20
      209.000000
 30
        0.000000
 11
      179.500002
 21
      247.129990
 31
        0.000000
  0
LINE
  8
LVL0000
 62
  3
 10
      180.399996
 20
      214.000000
 30
        0.000000
 11
      180.399996
 21
      242.129990
 31
        0.000000
  0
LINE
  8
LVL0000
 62
  3
 10
      185.199999
 20
      214.000000
 30
        0.000000
 11
      185.199999
 21
      242.129990
 31
        0.000000
  0
LINE
  8
LVL0000
 62
  3
 10
      186.100008
 20
      214.500000
 30
        0.000000
 11
      186.500002
 21
      214.500000
 31
        0.000000
  0
LINE
  8
LVL0000
 62
  3
 10
      186.500002
 20
      214.500000
 30
        0.000000
 11
      186.500002
 21
      209.000000
 31
        0.000000
  0
LINE
  8
LVL0000
 62
  3
 10
      179.500002
 20
      209.000000
 30
        0.000000
 11
      186.500002
 21
      209.000000
 31
        0.000000
  0
LINE
  8
LVL0000
 62
  3
 10
      184.649996
 20
      212.550003
 30
        0.000000
 11
      184.649996
 21
      209.699997
 31
        0.000000
  0
LINE
  8
LVL0000
 62
  3
 10
      180.949999
 20
      212.550003
 30
        0.000000
 11
      180.949999
 21
      209.699997
 31
        0.000000
  0
LINE
  8
LVL0000
 62
  3
 10
      184.649996
 20
      212.550003
 30
        0.000000
 11
      186.500002
 21
      212.550003
 31
        0.000000
  0
LINE
  8
LVL0000
 62
  3
 10
      179.500002
 20
      212.550003
 30
        0.000000
 11
      180.949999
 21
      212.550003
 31
        0.000000
  0
LINE
  8
LVL0000
 62
  3
 10
      180.949999
 20
      209.699997
 30
        0.000000
 11
      184.649996
 21
      209.699997
 31
        0.000000
  0
CIRCLE
  8
LVL0000
 62
  3
 10
      182.800005
 20
      211.555008
 30
        0.000000
 40
        1.149994
  0
LINE
  8
LVL0000
 62
  3
 10
      180.399996
 20
      214.000000
 30
        0.000000
 11
      185.199999
 21
      214.000000
 31
        0.000000
  0
LINE
  8
LVL0000
 62
  3
 10
      179.500002
 20
      247.129990
 30
        0.000000
 11
      186.500002
 21
      247.129990
 31
        0.000000
  0
LINE
  8
LVL0000
 62
  3
 10
      186.100008
 20
      241.629990
 30
        0.000000
 11
      186.500002
 21
      241.629990
 31
        0.000000
  0
LINE
  8
LVL0000
 62
  3
 10
      186.500002
 20
      241.629990
 30
        0.000000
 11
      186.500002
 21
      247.129990
 31
        0.000000
  0
LINE
  8
LVL0000
 62
  3
 10
      184.649996
 20
      243.579987
 30
        0.000000
 11
      184.649996
 21
      246.429993
 31
        0.000000
  0
LINE
  8
LVL0000
 62
  3
 10
      180.949999
 20
      243.579987
 30
        0.000000
 11
      180.949999
 21
      246.429993
 31
        0.000000
  0
LINE
  8
LVL0000
 62
  3
 10
      180.399996
 20
      242.129990
 30
        0.000000
 11
      185.199999
 21
      242.129990
 31
        0.000000
  0
LINE
  8
LVL0000
 62
  3
 10
      184.649996
 20
      243.579987
 30
        0.000000
 11
      186.500002
 21
      243.579987
 31
        0.000000
  0
LINE
  8
LVL0000
 62
  3
 10
      179.500002
 20
      243.579987
 30
        0.000000
 11
      180.949999
 21
      243.579987
 31
        0.000000
  0
LINE
  8
LVL0000
 62
  3
 10
      180.949999
 20
      246.429993
 30
        0.000000
 11
      184.649996
 21
      246.429993
 31
        0.000000
  0
CIRCLE
  8
LVL0000
 62
  3
 10
      182.800005
 20
      244.574982
 30
        0.000000
 40
        1.149994
  0
LINE
  8
LVL0000
 62
  3
 10
       37.500002
 20
      243.579987
 30
        0.000000
 11
       38.949999
 21
      243.579987
 31
        0.000000
  0
LINE
  8
LVL0000
 62
  3
 10
       42.649996
 20
      243.579987
 30
        0.000000
 11
       44.500002
 21
      243.579987
 31
        0.000000
  0
LINE
  8
LVL0000
 62
  3
 10
       38.399996
 20
      242.129990
 30
        0.000000
 11
       43.199999
 21
      242.129990
 31
        0.000000
  0
LINE
  8
LVL0000
 62
  3
 10
       38.949999
 20
      243.579987
 30
        0.000000
 11
       38.949999
 21
      246.429993
 31
        0.000000
  0
LINE
  8
LVL0000
 62
  3
 10
       42.649996
 20
      243.579987
 30
        0.000000
 11
       42.649996
 21
      246.429993
 31
        0.000000
  0
LINE
  8
LVL0000
 62
  3
 10
       44.500002
 20
      241.629990
 30
        0.000000
 11
       44.500002
 21
      247.129990
 31
        0.000000
  0
LINE
  8
LVL0000
 62
  3
 10
       44.100000
 20
      241.629990
 30
        0.000000
 11
       44.500002
 21
      241.629990
 31
        0.000000
  0
LINE
  8
LVL0000
 62
  3
 10
       37.500002
 20
      247.129990
 30
        0.000000
 11
       44.500002
 21
      247.129990
 31
        0.000000
  0
LINE
  8
LVL0000
 62
  3
 10
       39.399996
 20
      241.129990
 30
        0.000000
 11
       42.199999
 21
      241.129990
 31
        0.000000
  0
LINE
  8
LVL0000
 62
  3
 10
       38.399996
 20
      206.380000
 30
        0.000000
 11
       43.199999
 21
      206.380000
 31
        0.000000
  0
CIRCLE
  8
LVL0000
 62
  3
 10
       40.800005
 20
      203.935008
 30
        0.000000
 40
        1.149994
  0
LINE
  8
LVL0000
 62
  3
 10
       38.949999
 20
      202.079997
 30
        0.000000
 11
       42.649996
 21
      202.079997
 31
        0.000000
  0
LINE
  8
LVL0000
 62
  3
 10
       37.500002
 20
      204.930003
 30
        0.000000
 11
       38.949999
 21
      204.930003
 31
        0.000000
  0
LINE
  8
LVL0000
 62
  3
 10
       42.649996
 20
      204.930003
 30
        0.000000
 11
       44.500002
 21
      204.930003
 31
        0.000000
  0
LINE
  8
LVL0000
 62
  3
 10
       38.949999
 20
      204.930003
 30
        0.000000
 11
       38.949999
 21
      202.079997
 31
        0.000000
  0
LINE
  8
LVL0000
 62
  3
 10
       42.649996
 20
      204.930003
 30
        0.000000
 11
       42.649996
 21
      202.079997
 31
        0.000000
  0
LINE
  8
LVL0000
 62
  3
 10
       37.500002
 20
      201.380000
 30
        0.000000
 11
       44.500002
 21
      201.380000
 31
        0.000000
  0
LINE
  8
LVL0000
 62
  3
 10
       44.500002
 20
      206.880000
 30
        0.000000
 11
       44.500002
 21
      201.380000
 31
        0.000000
  0
LINE
  8
LVL0000
 62
  3
 10
       44.100000
 20
      206.880000
 30
        0.000000
 11
       44.500002
 21
      206.880000
 31
        0.000000
  0
LINE
  8
LVL0000
 62
  3
 10
       43.199999
 20
      206.380000
 30
        0.000000
 11
       43.199999
 21
      242.129990
 31
        0.000000
  0
LINE
  8
LVL0000
 62
  3
 10
       38.399996
 20
      206.380000
 30
        0.000000
 11
       38.399996
 21
      242.129990
 31
        0.000000
  0
LINE
  8
LVL0000
 62
  3
 10
       37.500002
 20
      201.380000
 30
        0.000000
 11
       37.500002
 21
      247.129990
 31
        0.000000
  0
LINE
  8
LVL0000
 62
  3
 10
       44.100000
 20
      206.880000
 30
        0.000000
 11
       44.100000
 21
      241.629990
 31
        0.000000
  0
LINE
  8
LVL0000
 62
  3
 10
       42.199999
 20
      207.380000
 30
        0.000000
 11
       42.199999
 21
      241.129990
 31
        0.000000
  0
LINE
  8
LVL0000
 62
  3
 10
       39.399996
 20
      207.380000
 30
        0.000000
 11
       39.399996
 21
      241.129990
 31
        0.000000
  0
LINE
  8
LVL0000
 62
  3
 10
       39.399996
 20
      207.380000
 30
        0.000000
 11
       42.199999
 21
      207.380000
 31
        0.000000
  0
CIRCLE
  8
LVL0000
 62
  3
 10
       40.800005
 20
      244.574982
 30
        0.000000
 40
        1.149994
  0
LINE
  8
LVL0000
 62
  3
 10
       38.949999
 20
      246.429993
 30
        0.000000
 11
       42.649996
 21
      246.429993
 31
        0.000000
  0
LINE
  8
LVL0000
 62
  3
 10
      318.500002
 20
      245.614990
 30
        0.000000
 11
      318.500002
 21
      241.314987
 31
        0.000000
  0
LINE
  8
LVL0000
 62
  3
 10
      313.900026
 20
      245.614990
 30
        0.000000
 11
      313.900026
 21
      241.314987
 31
        0.000000
  0
LINE
  8
LVL0000
 62
  3
 10
      318.500002
 20
      210.784988
 30
        0.000000
 11
      318.500002
 21
      206.484985
 31
        0.000000
  0
LINE
  8
LVL0000
 62
  3
 10
      313.900026
 20
      210.784988
 30
        0.000000
 11
      313.900026
 21
      206.484985
 31
        0.000000
  0
LINE
  8
LVL0000
 62
  3
 10
      314.450014
 20
      209.799988
 30
        0.000000
 11
      317.950014
 21
      209.799988
 31
        0.000000
  0
LINE
  8
LVL0000
 62
  3
 10
      314.450014
 20
      242.299988
 30
        0.000000
 11
      317.950014
 21
      242.299988
 31
        0.000000
  0
LINE
  8
LVL0000
 62
  3
 10
      313.900026
 20
      245.614990
 30
        0.000000
 11
      318.500002
 21
      245.614990
 31
        0.000000
  0
LINE
  8
LVL0000
 62
  3
 10
      313.900026
 20
      206.484985
 30
        0.000000
 11
      318.500002
 21
      206.484985
 31
        0.000000
  0
LINE
  8
LVL0000
 62
  3
 10
      317.950014
 20
      210.784988
 30
        0.000000
 11
      317.950014
 21
      209.799988
 31
        0.000000
  0
LINE
  8
LVL0000
 62
  3
 10
      314.450014
 20
      210.784988
 30
        0.000000
 11
      314.450014
 21
      209.799988
 31
        0.000000
  0
LINE
  8
LVL0000
 62
  3
 10
      317.950014
 20
      242.299988
 30
        0.000000
 11
      317.950014
 21
      241.314987
 31
        0.000000
  0
LINE
  8
LVL0000
 62
  3
 10
      314.450014
 20
      242.299988
 30
        0.000000
 11
      314.450014
 21
      241.314987
 31
        0.000000
  0
LINE
  8
LVL0000
 62
  3
 10
      319.500002
 20
      241.314987
 30
        0.000000
 11
      319.500002
 21
      210.784988
 31
        0.000000
  0
LINE
  8
LVL0000
 62
  3
 10
      312.899996
 20
      210.784988
 30
        0.000000
 11
      319.900026
 21
      210.784988
 31
        0.000000
  0
LINE
  8
LVL0000
 62
  3
 10
      312.899996
 20
      241.314987
 30
        0.000000
 11
      319.900026
 21
      241.314987
 31
        0.000000
  0
LINE
  8
LVL0000
 62
  3
 10
      319.500002
 20
      239.114990
 30
        0.000000
 11
      319.900026
 21
      239.114990
 31
        0.000000
  0
LINE
  8
LVL0000
 62
  3
 10
      319.500002
 20
      212.984985
 30
        0.000000
 11
      319.900026
 21
      212.984985
 31
        0.000000
  0
LINE
  8
LVL0000
 62
  3
 10
      319.900026
 20
      212.984985
 30
        0.000000
 11
      319.900026
 21
      205.784988
 31
        0.000000
  0
LINE
  8
LVL0000
 62
  3
 10
      319.900026
 20
      246.314987
 30
        0.000000
 11
      319.900026
 21
      239.114990
 31
        0.000000
  0
LINE
  8
LVL0000
 62
  3
 10
      312.899996
 20
      241.314987
 30
        0.000000
 11
      319.900026
 21
      241.314987
 31
        0.000000
  0
LINE
  8
LVL0000
 62
  3
 10
      312.899996
 20
      205.784988
 30
        0.000000
 11
      319.900026
 21
      205.784988
 31
        0.000000
  0
LINE
  8
LVL0000
 62
  3
 10
      312.899996
 20
      246.314987
 30
        0.000000
 11
      319.900026
 21
      246.314987
 31
        0.000000
  0
LINE
  8
LVL0000
 62
  3
 10
      312.899996
 20
      246.314987
 30
        0.000000
 11
      312.899996
 21
      205.784988
 31
        0.000000
  0
LINE
  8
LVL0000
 62
  3
 10
      315.247499
 20
      238.964981
 30
        0.000000
 11
      315.247499
 21
      213.134987
 31
        0.000000
  0
LINE
  8
LVL0000
 62
  3
 10
      317.152529
 20
      238.964981
 30
        0.000000
 11
      317.152529
 21
      213.134987
 31
        0.000000
  0
CIRCLE
  8
LVL0000
 62
  3
 10
      316.200014
 20
      208.269989
 30
        0.000000
 40
        1.149994
  0
CIRCLE
  8
LVL0000
 62
  3
 10
      316.200014
 20
      243.829987
 30
        0.000000
 40
        1.149994
  0
LINE
  8
LVL0000
 62
  3
 10
      314.950014
 20
      238.964981
 30
        0.000000
 11
      314.950014
 21
      213.134987
 31
        0.000000
  0
LINE
  8
LVL0000
 62
  3
 10
      317.450014
 20
      238.964981
 30
        0.000000
 11
      317.450014
 21
      213.134987
 31
        0.000000
  0
LINE
  8
LVL0000
 62
  3
 10
      313.700014
 20
      240.314987
 30
        0.000000
 11
      313.700014
 21
      211.784988
 31
        0.000000
  0
LINE
  8
LVL0000
 62
  3
 10
      318.700014
 20
      240.314987
 30
        0.000000
 11
      318.700014
 21
      211.784988
 31
        0.000000
  0
LINE
  8
LVL0000
 62
  3
 10
      314.950014
 20
      213.134987
 30
        0.000000
 11
      317.450014
 21
      213.134987
 31
        0.000000
  0
LINE
  8
LVL0000
 62
  3
 10
      314.950014
 20
      238.964981
 30
        0.000000
 11
      317.450014
 21
      238.964981
 31
        0.000000
  0
LINE
  8
LVL0000
 62
  3
 10
      313.700014
 20
      211.784988
 30
        0.000000
 11
      318.700014
 21
      211.784988
 31
        0.000000
  0
LINE
  8
LVL0000
 62
  3
 10
      313.700014
 20
      240.314987
 30
        0.000000
 11
      318.700014
 21
      240.314987
 31
        0.000000
  0
LINE
  8
LVL0000
 62
  3
 10
        5.707109
 20
      240.457886
 30
        0.000000
 11
        7.121325
 21
      239.043671
 31
        0.000000
  0
ARC
  8
LVL0000
 62
  3
 10
        5.000002
 20
      239.750778
 30
        0.000000
 40
        1.000001
 50
       45.000000
 51
      180.000010
  0
ARC
  8
LVL0000
 62
  3
 10
        5.000002
 20
      236.922348
 30
        0.000000
 40
        3.000000
 50
        0.000000
 51
       45.000051
  0
LINE
  8
LVL0000
 62
  3
 10
        3.000002
 20
      243.564987
 30
        0.000000
 11
        9.000002
 21
      243.564987
 31
        0.000000
  0
LINE
  8
LVL0000
 62
  3
 10
        3.000002
 20
      209.064987
 30
        0.000000
 11
        9.000002
 21
      209.064987
 31
        0.000000
  0
LINE
  8
LVL0000
 62
  3
 10
        9.000002
 20
      243.564987
 30
        0.000000
 11
        9.000002
 21
      209.064987
 31
        0.000000
  0
LINE
  8
LVL0000
 62
  3
 10
        3.000002
 20
      243.564987
 30
        0.000000
 11
        3.000002
 21
      209.064987
 31
        0.000000
  0
ARC
  8
LVL0000
 62
  3
 10
        5.000002
 20
      212.879196
 30
        0.000000
 40
        1.000000
 50
      180.000010
 51
      315.000020
  0
LINE
  8
LVL0000
 62
  3
 10
        4.000002
 20
      239.750778
 30
        0.000000
 11
        4.000002
 21
      212.879196
 31
        0.000000
  0
LINE
  8
LVL0000
 62
  3
 10
        5.707109
 20
      212.172089
 30
        0.000000
 11
        7.121325
 21
      213.586304
 31
        0.000000
  0
ARC
  8
LVL0000
 62
  3
 10
        5.000002
 20
      215.707626
 30
        0.000000
 40
        3.000004
 50
      315.000020
 51
      360.000000
  0
LINE
  8
LVL0000
 62
  3
 10
        8.000002
 20
      236.922348
 30
        0.000000
 11
        8.000002
 21
      215.707626
 31
        0.000000
  0
LINE
  8
LVL0000
 62
  3
 10
      216.899996
 20
      241.129990
 30
        0.000000
 11
      219.699999
 21
      241.129990
 31
        0.000000
  0
LINE
  8
LVL0000
 62
  3
 10
      216.899996
 20
      215.000000
 30
        0.000000
 11
      219.699999
 21
      215.000000
 31
        0.000000
  0
LINE
  8
LVL0000
 62
  3
 10
      216.899996
 20
      215.000000
 30
        0.000000
 11
      216.899996
 21
      241.129990
 31
        0.000000
  0
LINE
  8
LVL0000
 62
  3
 10
      219.699999
 20
      215.000000
 30
        0.000000
 11
      219.699999
 21
      241.129990
 31
        0.000000
  0
LINE
  8
LVL0000
 62
  3
 10
      221.600008
 20
      214.500000
 30
        0.000000
 11
      221.600008
 21
      241.629990
 31
        0.000000
  0
LINE
  8
LVL0000
 62
  3
 10
      215.000002
 20
      209.000000
 30
        0.000000
 11
      215.000002
 21
      247.129990
 31
        0.000000
  0
LINE
  8
LVL0000
 62
  3
 10
      215.899996
 20
      214.000000
 30
        0.000000
 11
      215.899996
 21
      242.129990
 31
        0.000000
  0
LINE
  8
LVL0000
 62
  3
 10
      220.699999
 20
      214.000000
 30
        0.000000
 11
      220.699999
 21
      242.129990
 31
        0.000000
  0
LINE
  8
LVL0000
 62
  3
 10
      221.600008
 20
      214.500000
 30
        0.000000
 11
      222.000002
 21
      214.500000
 31
        0.000000
  0
LINE
  8
LVL0000
 62
  3
 10
      222.000002
 20
      214.500000
 30
        0.000000
 11
      222.000002
 21
      209.000000
 31
        0.000000
  0
LINE
  8
LVL0000
 62
  3
 10
      215.000002
 20
      209.000000
 30
        0.000000
 11
      222.000002
 21
      209.000000
 31
        0.000000
  0
LINE
  8
LVL0000
 62
  3
 10
      220.149996
 20
      212.550003
 30
        0.000000
 11
      220.149996
 21
      209.699997
 31
        0.000000
  0
LINE
  8
LVL0000
 62
  3
 10
      216.449999
 20
      212.550003
 30
        0.000000
 11
      216.449999
 21
      209.699997
 31
        0.000000
  0
LINE
  8
LVL0000
 62
  3
 10
      220.149996
 20
      212.550003
 30
        0.000000
 11
      222.000002
 21
      212.550003
 31
        0.000000
  0
LINE
  8
LVL0000
 62
  3
 10
      215.000002
 20
      212.550003
 30
        0.000000
 11
      216.449999
 21
      212.550003
 31
        0.000000
  0
LINE
  8
LVL0000
 62
  3
 10
      216.449999
 20
      209.699997
 30
        0.000000
 11
      220.149996
 21
      209.699997
 31
        0.000000
  0
CIRCLE
  8
LVL0000
 62
  3
 10
      218.300005
 20
      211.555008
 30
        0.000000
 40
        1.149994
  0
LINE
  8
LVL0000
 62
  3
 10
      215.899996
 20
      214.000000
 30
        0.000000
 11
      220.699999
 21
      214.000000
 31
        0.000000
  0
LINE
  8
LVL0000
 62
  3
 10
      215.000002
 20
      247.129990
 30
        0.000000
 11
      222.000002
 21
      247.129990
 31
        0.000000
  0
LINE
  8
LVL0000
 62
  3
 10
      221.600008
 20
      241.629990
 30
        0.000000
 11
      222.000002
 21
      241.629990
 31
        0.000000
  0
LINE
  8
LVL0000
 62
  3
 10
      222.000002
 20
      241.629990
 30
        0.000000
 11
      222.000002
 21
      247.129990
 31
        0.000000
  0
LINE
  8
LVL0000
 62
  3
 10
      220.149996
 20
      243.579987
 30
        0.000000
 11
      220.149996
 21
      246.429993
 31
        0.000000
  0
LINE
  8
LVL0000
 62
  3
 10
      216.449999
 20
      243.579987
 30
        0.000000
 11
      216.449999
 21
      246.429993
 31
        0.000000
  0
LINE
  8
LVL0000
 62
  3
 10
      215.899996
 20
      242.129990
 30
        0.000000
 11
      220.699999
 21
      242.129990
 31
        0.000000
  0
LINE
  8
LVL0000
 62
  3
 10
      220.149996
 20
      243.579987
 30
        0.000000
 11
      222.000002
 21
      243.579987
 31
        0.000000
  0
LINE
  8
LVL0000
 62
  3
 10
      215.000002
 20
      243.579987
 30
        0.000000
 11
      216.449999
 21
      243.579987
 31
        0.000000
  0
LINE
  8
LVL0000
 62
  3
 10
      216.449999
 20
      246.429993
 30
        0.000000
 11
      220.149996
 21
      246.429993
 31
        0.000000
  0
CIRCLE
  8
LVL0000
 62
  3
 10
      218.300005
 20
      244.574982
 30
        0.000000
 40
        1.149994
  0
LINE
  8
LVL0000
 62
  3
 10
      252.399996
 20
      241.129990
 30
        0.000000
 11
      255.199999
 21
      241.129990
 31
        0.000000
  0
LINE
  8
LVL0000
 62
  3
 10
      252.399996
 20
      215.000000
 30
        0.000000
 11
      255.199999
 21
      215.000000
 31
        0.000000
  0
LINE
  8
LVL0000
 62
  3
 10
      252.399996
 20
      215.000000
 30
        0.000000
 11
      252.399996
 21
      241.129990
 31
        0.000000
  0
LINE
  8
LVL0000
 62
  3
 10
      255.199999
 20
      215.000000
 30
        0.000000
 11
      255.199999
 21
      241.129990
 31
        0.000000
  0
LINE
  8
LVL0000
 62
  3
 10
      257.100008
 20
      214.500000
 30
        0.000000
 11
      257.100008
 21
      241.629990
 31
        0.000000
  0
LINE
  8
LVL0000
 62
  3
 10
      250.500002
 20
      209.000000
 30
        0.000000
 11
      250.500002
 21
      247.129990
 31
        0.000000
  0
LINE
  8
LVL0000
 62
  3
 10
      251.399996
 20
      214.000000
 30
        0.000000
 11
      251.399996
 21
      242.129990
 31
        0.000000
  0
LINE
  8
LVL0000
 62
  3
 10
      256.199999
 20
      214.000000
 30
        0.000000
 11
      256.199999
 21
      242.129990
 31
        0.000000
  0
LINE
  8
LVL0000
 62
  3
 10
      257.100008
 20
      214.500000
 30
        0.000000
 11
      257.500002
 21
      214.500000
 31
        0.000000
  0
LINE
  8
LVL0000
 62
  3
 10
      257.500002
 20
      214.500000
 30
        0.000000
 11
      257.500002
 21
      209.000000
 31
        0.000000
  0
LINE
  8
LVL0000
 62
  3
 10
      250.500002
 20
      209.000000
 30
        0.000000
 11
      257.500002
 21
      209.000000
 31
        0.000000
  0
LINE
  8
LVL0000
 62
  3
 10
      255.649996
 20
      212.550003
 30
        0.000000
 11
      255.649996
 21
      209.699997
 31
        0.000000
  0
LINE
  8
LVL0000
 62
  3
 10
      251.949999
 20
      212.550003
 30
        0.000000
 11
      251.949999
 21
      209.699997
 31
        0.000000
  0
LINE
  8
LVL0000
 62
  3
 10
      255.649996
 20
      212.550003
 30
        0.000000
 11
      257.500002
 21
      212.550003
 31
        0.000000
  0
LINE
  8
LVL0000
 62
  3
 10
      250.500002
 20
      212.550003
 30
        0.000000
 11
      251.949999
 21
      212.550003
 31
        0.000000
  0
LINE
  8
LVL0000
 62
  3
 10
      251.949999
 20
      209.699997
 30
        0.000000
 11
      255.649996
 21
      209.699997
 31
        0.000000
  0
CIRCLE
  8
LVL0000
 62
  3
 10
      253.800005
 20
      211.555008
 30
        0.000000
 40
        1.149994
  0
LINE
  8
LVL0000
 62
  3
 10
      251.399996
 20
      214.000000
 30
        0.000000
 11
      256.199999
 21
      214.000000
 31
        0.000000
  0
LINE
  8
LVL0000
 62
  3
 10
      250.500002
 20
      247.129990
 30
        0.000000
 11
      257.500002
 21
      247.129990
 31
        0.000000
  0
LINE
  8
LVL0000
 62
  3
 10
      257.100008
 20
      241.629990
 30
        0.000000
 11
      257.500002
 21
      241.629990
 31
        0.000000
  0
LINE
  8
LVL0000
 62
  3
 10
      257.500002
 20
      241.629990
 30
        0.000000
 11
      257.500002
 21
      247.129990
 31
        0.000000
  0
LINE
  8
LVL0000
 62
  3
 10
      255.649996
 20
      243.579987
 30
        0.000000
 11
      255.649996
 21
      246.429993
 31
        0.000000
  0
LINE
  8
LVL0000
 62
  3
 10
      251.949999
 20
      243.579987
 30
        0.000000
 11
      251.949999
 21
      246.429993
 31
        0.000000
  0
LINE
  8
LVL0000
 62
  3
 10
      251.399996
 20
      242.129990
 30
        0.000000
 11
      256.199999
 21
      242.129990
 31
        0.000000
  0
LINE
  8
LVL0000
 62
  3
 10
      255.649996
 20
      243.579987
 30
        0.000000
 11
      257.500002
 21
      243.579987
 31
        0.000000
  0
LINE
  8
LVL0000
 62
  3
 10
      250.500002
 20
      243.579987
 30
        0.000000
 11
      251.949999
 21
      243.579987
 31
        0.000000
  0
LINE
  8
LVL0000
 62
  3
 10
      251.949999
 20
      246.429993
 30
        0.000000
 11
      255.649996
 21
      246.429993
 31
        0.000000
  0
CIRCLE
  8
LVL0000
 62
  3
 10
      253.800005
 20
      244.574982
 30
        0.000000
 40
        1.149994
  0
LINE
  8
LVL0000
 62
  3
 10
      287.899996
 20
      241.129990
 30
        0.000000
 11
      290.700014
 21
      241.129990
 31
        0.000000
  0
LINE
  8
LVL0000
 62
  3
 10
      287.899996
 20
      215.000000
 30
        0.000000
 11
      290.700014
 21
      215.000000
 31
        0.000000
  0
LINE
  8
LVL0000
 62
  3
 10
      287.899996
 20
      215.000000
 30
        0.000000
 11
      287.899996
 21
      241.129990
 31
        0.000000
  0
LINE
  8
LVL0000
 62
  3
 10
      290.700014
 20
      215.000000
 30
        0.000000
 11
      290.700014
 21
      241.129990
 31
        0.000000
  0
LINE
  8
LVL0000
 62
  3
 10
      292.600008
 20
      214.500000
 30
        0.000000
 11
      292.600008
 21
      241.629990
 31
        0.000000
  0
LINE
  8
LVL0000
 62
  3
 10
      286.000002
 20
      209.000000
 30
        0.000000
 11
      286.000002
 21
      247.129990
 31
        0.000000
  0
LINE
  8
LVL0000
 62
  3
 10
      286.899996
 20
      214.000000
 30
        0.000000
 11
      286.899996
 21
      242.129990
 31
        0.000000
  0
LINE
  8
LVL0000
 62
  3
 10
      291.700014
 20
      214.000000
 30
        0.000000
 11
      291.700014
 21
      242.129990
 31
        0.000000
  0
LINE
  8
LVL0000
 62
  3
 10
      292.600008
 20
      214.500000
 30
        0.000000
 11
      293.000002
 21
      214.500000
 31
        0.000000
  0
LINE
  8
LVL0000
 62
  3
 10
      293.000002
 20
      214.500000
 30
        0.000000
 11
      293.000002
 21
      209.000000
 31
        0.000000
  0
LINE
  8
LVL0000
 62
  3
 10
      286.000002
 20
      209.000000
 30
        0.000000
 11
      293.000002
 21
      209.000000
 31
        0.000000
  0
LINE
  8
LVL0000
 62
  3
 10
      291.149996
 20
      212.550003
 30
        0.000000
 11
      291.149996
 21
      209.699997
 31
        0.000000
  0
LINE
  8
LVL0000
 62
  3
 10
      287.450014
 20
      212.550003
 30
        0.000000
 11
      287.450014
 21
      209.699997
 31
        0.000000
  0
LINE
  8
LVL0000
 62
  3
 10
      291.149996
 20
      212.550003
 30
        0.000000
 11
      293.000002
 21
      212.550003
 31
        0.000000
  0
LINE
  8
LVL0000
 62
  3
 10
      286.000002
 20
      212.550003
 30
        0.000000
 11
      287.450014
 21
      212.550003
 31
        0.000000
  0
LINE
  8
LVL0000
 62
  3
 10
      287.450014
 20
      209.699997
 30
        0.000000
 11
      291.149996
 21
      209.699997
 31
        0.000000
  0
CIRCLE
  8
LVL0000
 62
  3
 10
      289.299990
 20
      211.555008
 30
        0.000000
 40
        1.150024
  0
LINE
  8
LVL0000
 62
  3
 10
      286.899996
 20
      214.000000
 30
        0.000000
 11
      291.700014
 21
      214.000000
 31
        0.000000
  0
LINE
  8
LVL0000
 62
  3
 10
      286.000002
 20
      247.129990
 30
        0.000000
 11
      293.000002
 21
      247.129990
 31
        0.000000
  0
LINE
  8
LVL0000
 62
  3
 10
      292.600008
 20
      241.629990
 30
        0.000000
 11
      293.000002
 21
      241.629990
 31
        0.000000
  0
LINE
  8
LVL0000
 62
  3
 10
      293.000002
 20
      241.629990
 30
        0.000000
 11
      293.000002
 21
      247.129990
 31
        0.000000
  0
LINE
  8
LVL0000
 62
  3
 10
      291.149996
 20
      243.579987
 30
        0.000000
 11
      291.149996
 21
      246.429993
 31
        0.000000
  0
LINE
  8
LVL0000
 62
  3
 10
      287.450014
 20
      243.579987
 30
        0.000000
 11
      287.450014
 21
      246.429993
 31
        0.000000
  0
LINE
  8
LVL0000
 62
  3
 10
      286.899996
 20
      242.129990
 30
        0.000000
 11
      291.700014
 21
      242.129990
 31
        0.000000
  0
LINE
  8
LVL0000
 62
  3
 10
      291.149996
 20
      243.579987
 30
        0.000000
 11
      293.000002
 21
      243.579987
 31
        0.000000
  0
LINE
  8
LVL0000
 62
  3
 10
      286.000002
 20
      243.579987
 30
        0.000000
 11
      287.450014
 21
      243.579987
 31
        0.000000
  0
LINE
  8
LVL0000
 62
  3
 10
      287.450014
 20
      246.429993
 30
        0.000000
 11
      291.149996
 21
      246.429993
 31
        0.000000
  0
CIRCLE
  8
LVL0000
 62
  3
 10
      289.299990
 20
      244.574982
 30
        0.000000
 40
        1.150024
  0
LINE
  8
LVL0000
 62
  3
 10
      320.500000
 20
       45.614990
 30
        0.000000
 11
      320.500000
 21
       41.314987
 31
        0.000000
  0
LINE
  8
LVL0000
 62
  3
 10
      315.900024
 20
       45.614990
 30
        0.000000
 11
      315.900024
 21
       41.314987
 31
        0.000000
  0
LINE
  8
LVL0000
 62
  3
 10
      320.500000
 20
       10.784988
 30
        0.000000
 11
      320.500000
 21
        6.484985
 31
        0.000000
  0
LINE
  8
LVL0000
 62
  3
 10
      315.900024
 20
       10.784988
 30
        0.000000
 11
      315.900024
 21
        6.484985
 31
        0.000000
  0
LINE
  8
LVL0000
 62
  3
 10
      316.450012
 20
        9.799988
 30
        0.000000
 11
      319.950012
 21
        9.799988
 31
        0.000000
  0
LINE
  8
LVL0000
 62
  3
 10
      316.450012
 20
       42.299988
 30
        0.000000
 11
      319.950012
 21
       42.299988
 31
        0.000000
  0
LINE
  8
LVL0000
 62
  3
 10
      315.900024
 20
       45.614990
 30
        0.000000
 11
      320.500000
 21
       45.614990
 31
        0.000000
  0
LINE
  8
LVL0000
 62
  3
 10
      315.900024
 20
        6.484985
 30
        0.000000
 11
      320.500000
 21
        6.484985
 31
        0.000000
  0
LINE
  8
LVL0000
 62
  3
 10
      319.950012
 20
       10.784988
 30
        0.000000
 11
      319.950012
 21
        9.799988
 31
        0.000000
  0
LINE
  8
LVL0000
 62
  3
 10
      316.450012
 20
       10.784988
 30
        0.000000
 11
      316.450012
 21
        9.799988
 31
        0.000000
  0
LINE
  8
LVL0000
 62
  3
 10
      319.950012
 20
       42.299988
 30
        0.000000
 11
      319.950012
 21
       41.314987
 31
        0.000000
  0
LINE
  8
LVL0000
 62
  3
 10
      316.450012
 20
       42.299988
 30
        0.000000
 11
      316.450012
 21
       41.314987
 31
        0.000000
  0
LINE
  8
LVL0000
 62
  3
 10
      321.500000
 20
       41.314987
 30
        0.000000
 11
      321.500000
 21
       10.784988
 31
        0.000000
  0
LINE
  8
LVL0000
 62
  3
 10
      314.899994
 20
       10.784988
 30
        0.000000
 11
      321.900024
 21
       10.784988
 31
        0.000000
  0
LINE
  8
LVL0000
 62
  3
 10
      314.899994
 20
       41.314987
 30
        0.000000
 11
      321.900024
 21
       41.314987
 31
        0.000000
  0
LINE
  8
LVL0000
 62
  3
 10
      321.500000
 20
       39.114990
 30
        0.000000
 11
      321.900024
 21
       39.114990
 31
        0.000000
  0
LINE
  8
LVL0000
 62
  3
 10
      321.500000
 20
       12.984985
 30
        0.000000
 11
      321.900024
 21
       12.984985
 31
        0.000000
  0
LINE
  8
LVL0000
 62
  3
 10
      321.900024
 20
       12.984985
 30
        0.000000
 11
      321.900024
 21
        5.784988
 31
        0.000000
  0
LINE
  8
LVL0000
 62
  3
 10
      321.900024
 20
       46.314987
 30
        0.000000
 11
      321.900024
 21
       39.114990
 31
        0.000000
  0
LINE
  8
LVL0000
 62
  3
 10
      314.899994
 20
       41.314987
 30
        0.000000
 11
      321.900024
 21
       41.314987
 31
        0.000000
  0
LINE
  8
LVL0000
 62
  3
 10
      314.899994
 20
        5.784988
 30
        0.000000
 11
      321.900024
 21
        5.784988
 31
        0.000000
  0
LINE
  8
LVL0000
 62
  3
 10
      314.899994
 20
       46.314987
 30
        0.000000
 11
      321.900024
 21
       46.314987
 31
        0.000000
  0
LINE
  8
LVL0000
 62
  3
 10
      314.899994
 20
       46.314987
 30
        0.000000
 11
      314.899994
 21
        5.784988
 31
        0.000000
  0
LINE
  8
LVL0000
 62
  3
 10
      317.247498
 20
       38.964981
 30
        0.000000
 11
      317.247498
 21
       13.134987
 31
        0.000000
  0
LINE
  8
LVL0000
 62
  3
 10
      319.152527
 20
       38.964981
 30
        0.000000
 11
      319.152527
 21
       13.134987
 31
        0.000000
  0
CIRCLE
  8
LVL0000
 62
  3
 10
      318.200012
 20
        8.269989
 30
        0.000000
 40
        1.149994
  0
CIRCLE
  8
LVL0000
 62
  3
 10
      318.200012
 20
       43.829987
 30
        0.000000
 40
        1.149994
  0
LINE
  8
LVL0000
 62
  3
 10
      316.950012
 20
       38.964981
 30
        0.000000
 11
      316.950012
 21
       13.134987
 31
        0.000000
  0
LINE
  8
LVL0000
 62
  3
 10
      319.450012
 20
       38.964981
 30
        0.000000
 11
      319.450012
 21
       13.134987
 31
        0.000000
  0
LINE
  8
LVL0000
 62
  3
 10
      315.700012
 20
       40.314987
 30
        0.000000
 11
      315.700012
 21
       11.784988
 31
        0.000000
  0
LINE
  8
LVL0000
 62
  3
 10
      320.700012
 20
       40.314987
 30
        0.000000
 11
      320.700012
 21
       11.784988
 31
        0.000000
  0
LINE
  8
LVL0000
 62
  3
 10
      316.950012
 20
       13.134987
 30
        0.000000
 11
      319.450012
 21
       13.134987
 31
        0.000000
  0
LINE
  8
LVL0000
 62
  3
 10
      316.950012
 20
       38.964981
 30
        0.000000
 11
      319.450012
 21
       38.964981
 31
        0.000000
  0
LINE
  8
LVL0000
 62
  3
 10
      315.700012
 20
       11.784988
 30
        0.000000
 11
      320.700012
 21
       11.784988
 31
        0.000000
  0
LINE
  8
LVL0000
 62
  3
 10
      315.700012
 20
       40.314987
 30
        0.000000
 11
      320.700012
 21
       40.314987
 31
        0.000000
  0
LINE
  8
LVL0000
 62
  3
 10
      222.000031
 20
      295.099976
 30
        0.000000
 11
      215.000000
 21
      295.099976
 31
        0.000000
  0
LINE
  8
LVL0000
 62
  3
 10
      222.000031
 20
      298.749969
 30
        0.000000
 11
      215.000000
 21
      298.749969
 31
        0.000000
  0
LINE
  8
LVL0000
 62
  3
 10
      222.000031
 20
      295.099976
 30
        0.000000
 11
      222.000031
 21
      305.800000
 31
        0.000000
  0
LINE
  8
LVL0000
 62
  3
 10
      215.000000
 20
      295.099976
 30
        0.000000
 11
      215.000000
 21
      305.800000
 31
        0.000000
  0
LINE
  8
LVL0000
 62
  3
 10
      186.500031
 20
      295.099976
 30
        0.000000
 11
      179.500000
 21
      295.099976
 31
        0.000000
  0
LINE
  8
LVL0000
 62
  3
 10
      186.500031
 20
      298.749969
 30
        0.000000
 11
      179.500000
 21
      298.749969
 31
        0.000000
  0
LINE
  8
LVL0000
 62
  3
 10
      186.500031
 20
      295.099976
 30
        0.000000
 11
      186.500031
 21
      305.800000
 31
        0.000000
  0
LINE
  8
LVL0000
 62
  3
 10
      179.500000
 20
      295.099976
 30
        0.000000
 11
      179.500000
 21
      305.800000
 31
        0.000000
  0
LINE
  8
LVL0000
 62
  3
 10
      151.000031
 20
      295.099976
 30
        0.000000
 11
      144.000000
 21
      295.099976
 31
        0.000000
  0
LINE
  8
LVL0000
 62
  3
 10
      151.000031
 20
      298.749969
 30
        0.000000
 11
      144.000000
 21
      298.749969
 31
        0.000000
  0
LINE
  8
LVL0000
 62
  3
 10
      151.000031
 20
      295.099976
 30
        0.000000
 11
      151.000031
 21
      305.800000
 31
        0.000000
  0
LINE
  8
LVL0000
 62
  3
 10
      144.000000
 20
      295.099976
 30
        0.000000
 11
      144.000000
 21
      305.800000
 31
        0.000000
  0
LINE
  8
LVL0000
 62
  3
 10
      115.500031
 20
      295.099976
 30
        0.000000
 11
      108.500000
 21
      295.099976
 31
        0.000000
  0
LINE
  8
LVL0000
 62
  3
 10
      115.500031
 20
      298.749969
 30
        0.000000
 11
      108.500000
 21
      298.749969
 31
        0.000000
  0
LINE
  8
LVL0000
 62
  3
 10
      115.500031
 20
      295.099976
 30
        0.000000
 11
      115.500031
 21
      305.800000
 31
        0.000000
  0
LINE
  8
LVL0000
 62
  3
 10
      108.500000
 20
      295.099976
 30
        0.000000
 11
      108.500000
 21
      305.800000
 31
        0.000000
  0
LINE
  8
LVL0000
 62
  3
 10
       80.000031
 20
      295.099976
 30
        0.000000
 11
       73.000000
 21
      295.099976
 31
        0.000000
  0
LINE
  8
LVL0000
 62
  3
 10
       80.000031
 20
      298.749969
 30
        0.000000
 11
       73.000000
 21
      298.749969
 31
        0.000000
  0
LINE
  8
LVL0000
 62
  3
 10
       80.000031
 20
      295.099976
 30
        0.000000
 11
       80.000031
 21
      305.800000
 31
        0.000000
  0
LINE
  8
LVL0000
 62
  3
 10
       73.000000
 20
      295.099976
 30
        0.000000
 11
       73.000000
 21
      305.800000
 31
        0.000000
  0
LINE
  8
LVL0000
 62
  3
 10
       44.500031
 20
      295.099976
 30
        0.000000
 11
       37.500000
 21
      295.099976
 31
        0.000000
  0
LINE
  8
LVL0000
 62
  3
 10
       44.500031
 20
      298.749969
 30
        0.000000
 11
       37.500000
 21
      298.749969
 31
        0.000000
  0
LINE
  8
LVL0000
 62
  3
 10
       44.500031
 20
      295.099976
 30
        0.000000
 11
       44.500031
 21
      305.800000
 31
        0.000000
  0
LINE
  8
LVL0000
 62
  3
 10
       37.500000
 20
      295.099976
 30
        0.000000
 11
       37.500000
 21
      305.800000
 31
        0.000000
  0
LINE
  8
LVL0000
 62
  3
 10
        9.000000
 20
      301.800000
 30
        0.000000
 11
        9.000000
 21
      305.800000
 31
        0.000000
  0
LINE
  8
LVL0000
 62
  3
 10
        3.000000
 20
      301.800000
 30
        0.000000
 11
        3.000000
 21
      305.800000
 31
        0.000000
  0
LINE
  8
LVL0000
 62
  3
 10
        8.000000
 20
      296.100000
 30
        0.000000
 11
        4.000000
 21
      296.100000
 31
        0.000000
  0
LINE
  8
LVL0000
 62
  3
 10
        9.000000
 20
      301.800000
 30
        0.000000
 11
        3.000000
 21
      301.800000
 31
        0.000000
  0
LINE
  8
LVL0000
 62
  3
 10
        4.000000
 20
      296.100000
 30
        0.000000
 11
        4.000000
 21
      301.800000
 31
        0.000000
  0
LINE
  8
LVL0000
 62
  3
 10
        8.000000
 20
      296.100000
 30
        0.000000
 11
        8.000000
 21
      301.800000
 31
        0.000000
  0
LINE
  8
LVL0000
 62
  3
 10
      -32.500000
 20
      290.800000
 30
        0.000000
 11
      -19.500000
 21
      290.800000
 31
        0.000000
  0
LINE
  8
LVL0000
 62
  3
 10
      -19.500000
 20
      290.800000
 30
        0.000000
 11
      -19.500000
 21
      305.800000
 31
        0.000000
  0
LINE
  8
LVL0000
 62
  3
 10
      -32.500000
 20
      290.800000
 30
        0.000000
 11
      -32.500000
 21
      305.800000
 31
        0.000000
  0
LINE
  8
LVL0000
 62
  3
 10
      319.900042
 20
      295.099976
 30
        0.000000
 11
      312.900011
 21
      295.099976
 31
        0.000000
  0
LINE
  8
LVL0000
 62
  3
 10
      319.900042
 20
      298.749969
 30
        0.000000
 11
      312.900011
 21
      298.749969
 31
        0.000000
  0
LINE
  8
LVL0000
 62
  3
 10
      319.900042
 20
      295.099976
 30
        0.000000
 11
      319.900042
 21
      305.800000
 31
        0.000000
  0
LINE
  8
LVL0000
 62
  3
 10
      312.900011
 20
      295.099976
 30
        0.000000
 11
      312.900011
 21
      305.800000
 31
        0.000000
  0
LINE
  8
LVL0000
 62
  3
 10
      257.500031
 20
      295.099976
 30
        0.000000
 11
      250.500000
 21
      295.099976
 31
        0.000000
  0
LINE
  8
LVL0000
 62
  3
 10
      257.500031
 20
      298.749969
 30
        0.000000
 11
      250.500000
 21
      298.749969
 31
        0.000000
  0
LINE
  8
LVL0000
 62
  3
 10
      257.500031
 20
      295.099976
 30
        0.000000
 11
      257.500031
 21
      305.800000
 31
        0.000000
  0
LINE
  8
LVL0000
 62
  3
 10
      250.500000
 20
      295.099976
 30
        0.000000
 11
      250.500000
 21
      305.800000
 31
        0.000000
  0
LINE
  8
LVL0000
 62
  3
 10
      293.000031
 20
      295.099976
 30
        0.000000
 11
      286.000000
 21
      295.099976
 31
        0.000000
  0
LINE
  8
LVL0000
 62
  3
 10
      293.000031
 20
      298.749969
 30
        0.000000
 11
      286.000000
 21
      298.749969
 31
        0.000000
  0
LINE
  8
LVL0000
 62
  3
 10
      293.000031
 20
      295.099976
 30
        0.000000
 11
      293.000031
 21
      305.800000
 31
        0.000000
  0
LINE
  8
LVL0000
 62
  3
 10
      286.000000
 20
      295.099976
 30
        0.000000
 11
      286.000000
 21
      305.800000
 31
        0.000000
  0
CIRCLE
  8
LVL0000
 62
  3
 10
      -15.499998
 20
      159.499985
 30
        0.000000
 40
        1.750000
  0
CIRCLE
  8
LVL0000
 62
  3
 10
      185.000002
 20
      160.999985
 30
        0.000000
 40
        2.500000
  0
CIRCLE
  8
LVL0000
 62
  3
 10
      149.500002
 20
      160.999985
 30
        0.000000
 40
        2.500000
  0
CIRCLE
  8
LVL0000
 62
  3
 10
      114.000002
 20
      160.999985
 30
        0.000000
 40
        2.500000
  0
CIRCLE
  8
LVL0000
 62
  3
 10
      291.500002
 20
      160.999985
 30
        0.000000
 40
        2.500000
  0
CIRCLE
  8
LVL0000
 62
  3
 10
      256.000002
 20
      160.999985
 30
        0.000000
 40
        2.500000
  0
CIRCLE
  8
LVL0000
 62
  3
 10
      220.500002
 20
      160.999985
 30
        0.000000
 40
        2.500000
  0
LINE
  8
LVL0000
 62
  3
 10
      -21.499998
 20
      254.499985
 30
        0.000000
 11
      309.500002
 21
      254.499985
 31
        0.000000
  0
LINE
  8
LVL0000
 62
  3
 10
      330.500002
 20
      249.499985
 30
        0.000000
 11
      309.500002
 21
      249.499985
 31
        0.000000
  0
CIRCLE
  8
LVL0000
 62
  3
 10
      256.000017
 20
      161.000000
 30
        0.000000
 40
        2.500000
  0
CIRCLE
  8
LVL0000
 62
  3
 10
      291.500017
 20
      161.000000
 30
        0.000000
 40
        2.500000
  0
CIRCLE
  8
LVL0000
 62
  3
 10
      -17.499998
 20
      250.999985
 30
        0.000000
 40
        2.750000
  0
CIRCLE
  8
LVL0000
 62
  3
 10
      305.000017
 20
      250.999985
 30
        0.000000
 40
        2.750000
  0
CIRCLE
  8
LVL0000
 62
  3
 10
       59.500002
 20
      250.999985
 30
        0.000000
 40
        2.750000
  0
CIRCLE
  8
LVL0000
 62
  3
 10
      130.500002
 20
      250.999985
 30
        0.000000
 40
        2.750000
  0
CIRCLE
  8
LVL0000
 62
  3
 10
      201.500002
 20
      250.999985
 30
        0.000000
 40
        2.750000
  0
CIRCLE
  8
LVL0000
 62
  3
 10
      -25.499998
 20
      159.500000
 30
        0.000000
 40
        2.750000
  0
CIRCLE
  8
LVL0000
 62
  3
 10
       59.500002
 20
      159.500000
 30
        0.000000
 40
        2.750000
  0
CIRCLE
  8
LVL0000
 62
  3
 10
      130.500002
 20
      159.500000
 30
        0.000000
 40
        2.750000
  0
CIRCLE
  8
LVL0000
 62
  3
 10
      201.500002
 20
      159.500000
 30
        0.000000
 40
        2.750000
  0
CIRCLE
  8
LVL0000
 62
  3
 10
      314.599989
 20
      159.499985
 30
        0.000000
 40
        2.750000
  0
LINE
  8
LVL0000
 62
  3
 10
      -17.499998
 20
      252.799984
 30
        0.000000
 11
      -17.499998
 21
      249.199986
 31
        0.000000
  0
LINE
  8
LVL0000
 62
  3
 10
      -19.299982
 20
      251.000004
 30
        0.000000
 11
      -15.700014
 21
      250.999985
 31
        0.000000
  0
LINE
  8
LVL0000
 62
  3
 10
      -27.299982
 20
      159.500019
 30
        0.000000
 11
      -23.700014
 21
      159.500000
 31
        0.000000
  0
LINE
  8
LVL0000
 62
  3
 10
      -25.499998
 20
      161.299999
 30
        0.000000
 11
      -25.499998
 21
      157.700001
 31
        0.000000
  0
LINE
  8
LVL0000
 62
  3
 10
       59.500002
 20
      161.299999
 30
        0.000000
 11
       59.500002
 21
      157.700001
 31
        0.000000
  0
LINE
  8
LVL0000
 62
  3
 10
       57.700018
 20
      159.500019
 30
        0.000000
 11
       61.299986
 21
      159.500000
 31
        0.000000
  0
LINE
  8
LVL0000
 62
  3
 10
       57.700018
 20
      251.000004
 30
        0.000000
 11
       61.299986
 21
      250.999985
 31
        0.000000
  0
LINE
  8
LVL0000
 62
  3
 10
       59.500002
 20
      252.799984
 30
        0.000000
 11
       59.500002
 21
      249.199986
 31
        0.000000
  0
LINE
  8
LVL0000
 62
  3
 10
      130.500002
 20
      252.799984
 30
        0.000000
 11
      130.500002
 21
      249.199986
 31
        0.000000
  0
LINE
  8
LVL0000
 62
  3
 10
      128.700018
 20
      251.000004
 30
        0.000000
 11
      132.299986
 21
      250.999985
 31
        0.000000
  0
LINE
  8
LVL0000
 62
  3
 10
      128.700018
 20
      159.500019
 30
        0.000000
 11
      132.299986
 21
      159.500000
 31
        0.000000
  0
LINE
  8
LVL0000
 62
  3
 10
      130.500002
 20
      161.299999
 30
        0.000000
 11
      130.500002
 21
      157.700001
 31
        0.000000
  0
LINE
  8
LVL0000
 62
  3
 10
      201.500002
 20
      161.299990
 30
        0.000000
 11
      201.500002
 21
      157.699991
 31
        0.000000
  0
LINE
  8
LVL0000
 62
  3
 10
      199.700018
 20
      159.500010
 30
        0.000000
 11
      203.299986
 21
      159.499990
 31
        0.000000
  0
LINE
  8
LVL0000
 62
  3
 10
      199.700018
 20
      250.999994
 30
        0.000000
 11
      203.299986
 21
      250.999975
 31
        0.000000
  0
LINE
  8
LVL0000
 62
  3
 10
      201.500002
 20
      252.799974
 30
        0.000000
 11
      201.500002
 21
      249.199976
 31
        0.000000
  0
LINE
  8
LVL0000
 62
  3
 10
      305.000017
 20
      252.799974
 30
        0.000000
 11
      305.000017
 21
      249.199976
 31
        0.000000
  0
LINE
  8
LVL0000
 62
  3
 10
      303.200033
 20
      250.999994
 30
        0.000000
 11
      306.800001
 21
      250.999975
 31
        0.000000
  0
LINE
  8
LVL0000
 62
  3
 10
      312.800005
 20
      159.499994
 30
        0.000000
 11
      316.399973
 21
      159.499975
 31
        0.000000
  0
LINE
  8
LVL0000
 62
  3
 10
      314.599989
 20
      161.299974
 30
        0.000000
 11
      314.599989
 21
      157.699976
 31
        0.000000
  0
CIRCLE
  8
LVL0000
 62
  3
 10
       -7.499998
 20
      250.999985
 30
        0.000000
 40
        1.750000
  0
CIRCLE
  8
LVL0000
 62
  3
 10
      220.500017
 20
      161.000000
 30
        0.000000
 40
        2.500000
  0
CIRCLE
  8
LVL0000
 62
  3
 10
      185.000002
 20
      161.000000
 30
        0.000000
 40
        2.500000
  0
CIRCLE
  8
LVL0000
 62
  3
 10
      149.500002
 20
      161.000000
 30
        0.000000
 40
        2.500000
  0
CIRCLE
  8
LVL0000
 62
  3
 10
      114.000002
 20
      161.000000
 30
        0.000000
 40
        2.500000
  0
LINE
  8
LVL0000
 62
  3
 10
      -37.500000
 20
      249.499985
 30
        0.000000
 11
      -21.499998
 21
      249.499985
 31
        0.000000
  0
LINE
  8
LVL0000
 62
  3
 10
      -21.499998
 20
      249.499985
 30
        0.000000
 11
      -21.499998
 21
      254.499985
 31
        0.000000
  0
LINE
  8
LVL0000
 62
  3
 10
      -37.500000
 20
      156.000000
 30
        0.000000
 11
      -37.500000
 21
      249.499985
 31
        0.000000
  0
CIRCLE
  8
LVL0000
 62
  3
 10
      291.500017
 20
      161.000000
 30
        0.000000
 40
        2.500000
  0
CIRCLE
  8
LVL0000
 62
  3
 10
      256.000017
 20
      161.000000
 30
        0.000000
 40
        2.500000
  0
CIRCLE
  8
LVL0000
 62
  3
 10
      295.000017
 20
      250.999985
 30
        0.000000
 40
        1.750000
  0
LINE
  8
LVL0000
 62
  3
 10
      -37.500000
 20
      156.000000
 30
        0.000000
 11
      330.500017
 21
      156.000000
 31
        0.000000
  0
LINE
  8
LVL0000
 62
  3
 10
      309.500017
 20
      249.499985
 30
        0.000000
 11
      330.500017
 21
      249.499985
 31
        0.000000
  0
LINE
  8
LVL0000
 62
  3
 10
      -21.499998
 20
      254.499985
 30
        0.000000
 11
      309.500017
 21
      254.499985
 31
        0.000000
  0
CIRCLE
  8
LVL0000
 62
  3
 10
      304.500017
 20
      159.500000
 30
        0.000000
 40
        1.750000
  0
LINE
  8
LVL0000
 62
  3
 10
      -37.500000
 20
      156.000000
 30
        0.000000
 11
      -37.500000
 21
      249.499985
 31
        0.000000
  0
LINE
  8
LVL0000
 62
  3
 10
      -21.499998
 20
      249.499985
 30
        0.000000
 11
      -21.499998
 21
      254.499985
 31
        0.000000
  0
LINE
  8
LVL0000
 62
  3
 10
      -37.500000
 20
      249.499985
 30
        0.000000
 11
      -21.499998
 21
      249.499985
 31
        0.000000
  0
CIRCLE
  8
LVL0000
 62
  3
 10
      114.000002
 20
      161.000000
 30
        0.000000
 40
        2.500000
  0
CIRCLE
  8
LVL0000
 62
  3
 10
      149.500002
 20
      161.000000
 30
        0.000000
 40
        2.500000
  0
CIRCLE
  8
LVL0000
 62
  3
 10
      185.000002
 20
      161.000000
 30
        0.000000
 40
        2.500000
  0
CIRCLE
  8
LVL0000
 62
  3
 10
      220.500017
 20
      161.000000
 30
        0.000000
 40
        2.500000
  0
LINE
  8
LVL0000
 62
  3
 10
      -37.499998
 20
      155.999985
 30
        0.000000
 11
      330.500002
 21
      155.999985
 31
        0.000000
  0
LINE
  8
LVL0000
 62
  3
 10
      330.500017
 20
      156.000000
 30
        0.000000
 11
      330.500017
 21
      249.499985
 31
        0.000000
  0
LINE
  8
LVL0000
 62
  3
 10
      -37.500000
 20
      156.000000
 30
        0.000000
 11
      330.500017
 21
      156.000000
 31
        0.000000
  0
LINE
  8
LVL0000
 62
  3
 10
      -21.499998
 20
      254.499985
 30
        0.000000
 11
      309.500017
 21
      254.499985
 31
        0.000000
  0
LINE
  8
LVL0000
 62
  3
 10
      309.500017
 20
      249.499985
 30
        0.000000
 11
      309.500017
 21
      254.499985
 31
        0.000000
  0
LINE
  8
LVL0000
 62
  3
 10
      309.500017
 20
      249.499985
 30
        0.000000
 11
      330.500017
 21
      249.499985
 31
        0.000000
  0
LINE
  8
LVL0000
 62
  3
 10
      -32.499998
 20
      187.999985
 30
        0.000000
 11
      -19.499998
 21
      187.999985
 31
        0.000000
  0
LINE
  8
LVL0000
 62
  3
 10
      -32.499998
 20
      187.999985
 30
        0.000000
 11
      -32.499998
 21
      167.999985
 31
        0.000000
  0
LINE
  8
LVL0000
 62
  3
 10
      -19.499998
 20
      187.999985
 30
        0.000000
 11
      -19.499998
 21
      167.999985
 31
        0.000000
  0
LINE
  8
LVL0000
 62
  3
 10
      -32.499998
 20
      167.999985
 30
        0.000000
 11
      -19.499998
 21
      167.999985
 31
        0.000000
  0
LINE
  8
LVL0000
 62
  3
 10
      -32.499998
 20
      187.149979
 30
        0.000000
 11
      -20.800001
 21
      187.149979
 31
        0.000000
  0
LINE
  8
LVL0000
 62
  3
 10
      -20.800001
 20
      187.999985
 30
        0.000000
 11
      -20.800001
 21
      187.149979
 31
        0.000000
  0
LINE
  8
LVL0000
 62
  3
 10
      -32.499998
 20
      185.849991
 30
        0.000000
 11
      -20.800001
 21
      185.849991
 31
        0.000000
  0
LINE
  8
LVL0000
 62
  3
 10
      -20.800001
 20
      185.849991
 30
        0.000000
 11
      -20.800001
 21
      178.649979
 31
        0.000000
  0
LINE
  8
LVL0000
 62
  3
 10
      -32.499998
 20
      178.649979
 30
        0.000000
 11
      -20.800001
 21
      178.649979
 31
        0.000000
  0
LINE
  8
LVL0000
 62
  3
 10
      -32.499998
 20
      177.349991
 30
        0.000000
 11
      -20.800001
 21
      177.349991
 31
        0.000000
  0
LINE
  8
LVL0000
 62
  3
 10
      -20.800001
 20
      177.349991
 30
        0.000000
 11
      -20.800001
 21
      170.149979
 31
        0.000000
  0
LINE
  8
LVL0000
 62
  3
 10
      -32.499998
 20
      170.149979
 30
        0.000000
 11
      -20.800001
 21
      170.149979
 31
        0.000000
  0
LINE
  8
LVL0000
 62
  3
 10
      -32.499998
 20
      168.849991
 30
        0.000000
 11
      -20.800001
 21
      168.849991
 31
        0.000000
  0
LINE
  8
LVL0000
 62
  3
 10
      -20.800001
 20
      168.849991
 30
        0.000000
 11
      -20.800001
 21
      167.999985
 31
        0.000000
  0
LINE
  8
LVL0000
 62
  3
 10
      -29.099997
 20
      185.849991
 30
        0.000000
 11
      -29.099997
 21
      178.649979
 31
        0.000000
  0
LINE
  8
LVL0000
 62
  3
 10
      -29.099997
 20
      177.349991
 30
        0.000000
 11
      -29.099997
 21
      170.149979
 31
        0.000000
  0
LINE
  8
LVL0000
 62
  3
 10
      -21.900000
 20
      185.849991
 30
        0.000000
 11
      -21.900000
 21
      178.649979
 31
        0.000000
  0
LINE
  8
LVL0000
 62
  3
 10
      -21.900000
 20
      177.349991
 30
        0.000000
 11
      -21.900000
 21
      170.149979
 31
        0.000000
  0
CIRCLE
  8
LVL0000
 62
  3
 10
      -25.499998
 20
      182.249985
 30
        0.000000
 40
        3.000000
  0
CIRCLE
  8
LVL0000
 62
  3
 10
      -25.499998
 20
      173.749985
 30
        0.000000
 40
        3.000000
  0
LINE
  8
LVL0000
 62
  3
 10
      -29.099997
 20
      176.249985
 30
        0.000000
 11
      -29.599997
 21
      176.249985
 31
        0.000000
  0
LINE
  8
LVL0000
 62
  3
 10
      -29.599997
 20
      176.249985
 30
        0.000000
 11
      -29.599997
 21
      171.249985
 31
        0.000000
  0
LINE
  8
LVL0000
 62
  3
 10
      -21.400000
 20
      176.249985
 30
        0.000000
 11
      -21.900000
 21
      176.249985
 31
        0.000000
  0
LINE
  8
LVL0000
 62
  3
 10
      -21.400000
 20
      176.249985
 30
        0.000000
 11
      -21.400000
 21
      171.249985
 31
        0.000000
  0
LINE
  8
LVL0000
 62
  3
 10
      -21.400000
 20
      184.749985
 30
        0.000000
 11
      -21.900000
 21
      184.749985
 31
        0.000000
  0
LINE
  8
LVL0000
 62
  3
 10
      -21.400000
 20
      184.749985
 30
        0.000000
 11
      -21.400000
 21
      179.749985
 31
        0.000000
  0
LINE
  8
LVL0000
 62
  3
 10
      -29.099997
 20
      184.749985
 30
        0.000000
 11
      -29.599997
 21
      184.749985
 31
        0.000000
  0
LINE
  8
LVL0000
 62
  3
 10
      -29.599997
 20
      184.749985
 30
        0.000000
 11
      -29.599997
 21
      179.749985
 31
        0.000000
  0
LINE
  8
LVL0000
 62
  3
 10
      -29.099997
 20
      179.749985
 30
        0.000000
 11
      -29.599997
 21
      179.749985
 31
        0.000000
  0
LINE
  8
LVL0000
 62
  3
 10
      -21.400000
 20
      179.749985
 30
        0.000000
 11
      -21.900000
 21
      179.749985
 31
        0.000000
  0
LINE
  8
LVL0000
 62
  3
 10
      -21.400000
 20
      171.249985
 30
        0.000000
 11
      -21.900000
 21
      171.249985
 31
        0.000000
  0
LINE
  8
LVL0000
 62
  3
 10
      -29.099997
 20
      171.249985
 30
        0.000000
 11
      -29.599997
 21
      171.249985
 31
        0.000000
  0
LINE
  8
LVL0000
 62
  3
 10
      -27.621321
 20
      180.128662
 30
        0.000000
 11
      -23.378675
 21
      184.371307
 31
        0.000000
  0
LINE
  8
LVL0000
 62
  3
 10
      -26.560659
 20
      183.310654
 30
        0.000000
 11
      -24.439344
 21
      181.189316
 31
        0.000000
  0
LINE
  8
LVL0000
 62
  3
 10
      -27.621321
 20
      171.628662
 30
        0.000000
 11
      -23.378675
 21
      175.871307
 31
        0.000000
  0
LINE
  8
LVL0000
 62
  3
 10
      -26.560659
 20
      174.810654
 30
        0.000000
 11
      -24.439344
 21
      172.689316
 31
        0.000000
  0
LINE
  8
LVL0000
 62
  3
 10
      -21.499998
 20
      254.499985
 30
        0.000000
 11
      -21.499998
 21
      249.499985
 31
        0.000000
  0
LINE
  8
LVL0000
 62
  3
 10
      -37.499998
 20
      249.499985
 30
        0.000000
 11
      -21.499998
 21
      249.499985
 31
        0.000000
  0
LINE
  8
LVL0000
 62
  3
 10
      -21.500000
 20
       65.000000
 30
        0.000000
 11
      -21.500000
 21
       49.499985
 31
        0.000000
  0
LINE
  8
LVL0000
 62
  3
 10
      -35.000000
 20
      -44.000015
 30
        0.000000
 11
      -35.000000
 21
      -51.900000
 31
        0.000000
  0
LINE
  8
LVL0000
 62
  3
 10
      -35.900000
 20
      -44.000015
 30
        0.000000
 11
      -35.900000
 21
      -46.900000
 31
        0.000000
  0
LINE
  8
LVL0000
 62
  3
 10
      -35.900000
 20
      -46.900000
 30
        0.000000
 11
      -37.500000
 21
      -46.900000
 31
        0.000000
  0
CIRCLE
  8
LVL0000
 62
  3
 10
      -29.500000
 20
       57.000000
 30
        0.000000
 40
        3.000000
  0
ARC
  8
LVL0000
 62
  3
 10
      -29.500000
 20
      -61.000000
 30
        0.000000
 40
        3.000000
 50
        0.000000
 51
      179.999995
  0
LINE
  8
LVL0000
 62
  3
 10
      -21.500000
 20
      -55.000000
 30
        0.000000
 11
      -21.500000
 21
      -65.000000
 31
        0.000000
  0
LINE
  8
LVL0000
 62
  3
 10
      -35.500000
 20
       63.000000
 30
        0.000000
 11
      -21.500000
 21
       63.000000
 31
        0.000000
  0
LINE
  8
LVL0000
 62
  3
 10
      -35.500000
 20
       63.000000
 30
        0.000000
 11
      -37.500000
 21
       61.000000
 31
        0.000000
  0
LINE
  8
LVL0000
 62
  3
 10
      -37.500000
 20
       61.000000
 30
        0.000000
 11
      -37.500000
 21
      -61.000000
 31
        0.000000
  0
LINE
  8
LVL0000
 62
  3
 10
      -37.500000
 20
      -61.000000
 30
        0.000000
 11
      -35.500000
 21
      -63.000000
 31
        0.000000
  0
LINE
  8
LVL0000
 62
  3
 10
      -26.500000
 20
      -61.000000
 30
        0.000000
 11
      -26.500000
 21
      -63.000000
 31
        0.000000
  0
LINE
  8
LVL0000
 62
  3
 10
      -32.500000
 20
      -61.000000
 30
        0.000000
 11
      -32.500000
 21
      -63.000000
 31
        0.000000
  0
LINE
  8
LVL0000
 62
  3
 10
      -26.500000
 20
      -63.000000
 30
        0.000000
 11
      -21.500000
 21
      -63.000000
 31
        0.000000
  0
LINE
  8
LVL0000
 62
  3
 10
      -35.500000
 20
      -63.000000
 30
        0.000000
 11
      -32.500000
 21
      -63.000000
 31
        0.000000
  0
LINE
  8
LVL0000
 62
  3
 10
      -21.500000
 20
      -51.900000
 30
        0.000000
 11
      -21.500000
 21
      -56.500000
 31
        0.000000
  0
LINE
  8
LVL0000
 62
  3
 10
      -21.500000
 20
      -51.900000
 30
        0.000000
 11
      -35.000000
 21
      -51.900000
 31
        0.000000
  0
LINE
  8
LVL0000
 62
  3
 10
      -37.500000
 20
       49.499985
 30
        0.000000
 11
      -21.500000
 21
       49.499985
 31
        0.000000
  0
LINE
  8
LVL0000
 62
  3
 10
      -21.500000
 20
       54.499985
 30
        0.000000
 11
      -21.500000
 21
       49.499985
 31
        0.000000
  0
LINE
  8
LVL0000
 62
  3
 10
      -17.499998
 20
       52.799978
 30
        0.000000
 11
      -17.499998
 21
       49.199980
 31
        0.000000
  0
LINE
  8
LVL0000
 62
  3
 10
      -27.299982
 20
      -40.500034
 30
        0.000000
 11
      -23.700014
 21
      -40.500015
 31
        0.000000
  0
LINE
  8
LVL0000
 62
  3
 10
      -25.499998
 20
      -38.700016
 30
        0.000000
 11
      -25.499998
 21
      -42.300014
 31
        0.000000
  0
CIRCLE
  8
LVL0000
 62
  3
 10
      -25.499998
 20
      -40.500015
 30
        0.000000
 40
        2.750000
  0
LINE
  8
LVL0000
 62
  3
 10
      -37.500000
 20
      -44.000015
 30
        0.000000
 11
      -37.500000
 21
       49.499969
 31
        0.000000
  0
LINE
  8
LVL0000
 62
  3
 10
      -37.500000
 20
       49.499969
 30
        0.000000
 11
      -21.499998
 21
       49.499969
 31
        0.000000
  0
LINE
  8
LVL0000
 62
  3
 10
      -26.560661
 20
      -25.189346
 30
        0.000000
 11
      -24.439346
 21
      -27.310684
 31
        0.000000
  0
LINE
  8
LVL0000
 62
  3
 10
      -27.621323
 20
      -28.371338
 30
        0.000000
 11
      -23.378677
 21
      -24.128693
 31
        0.000000
  0
LINE
  8
LVL0000
 62
  3
 10
      -26.560661
 20
      -16.689346
 30
        0.000000
 11
      -24.439346
 21
      -18.810684
 31
        0.000000
  0
LINE
  8
LVL0000
 62
  3
 10
      -27.621323
 20
      -19.871338
 30
        0.000000
 11
      -23.378677
 21
      -15.628693
 31
        0.000000
  0
LINE
  8
LVL0000
 62
  3
 10
      -29.099998
 20
      -28.750015
 30
        0.000000
 11
      -29.599998
 21
      -28.750015
 31
        0.000000
  0
LINE
  8
LVL0000
 62
  3
 10
      -21.400002
 20
      -28.750015
 30
        0.000000
 11
      -21.900002
 21
      -28.750015
 31
        0.000000
  0
LINE
  8
LVL0000
 62
  3
 10
      -21.400002
 20
      -20.250015
 30
        0.000000
 11
      -21.900002
 21
      -20.250015
 31
        0.000000
  0
LINE
  8
LVL0000
 62
  3
 10
      -29.099998
 20
      -20.250015
 30
        0.000000
 11
      -29.599998
 21
      -20.250015
 31
        0.000000
  0
LINE
  8
LVL0000
 62
  3
 10
      -29.599998
 20
      -15.250015
 30
        0.000000
 11
      -29.599998
 21
      -20.250015
 31
        0.000000
  0
LINE
  8
LVL0000
 62
  3
 10
      -29.099998
 20
      -15.250015
 30
        0.000000
 11
      -29.599998
 21
      -15.250015
 31
        0.000000
  0
LINE
  8
LVL0000
 62
  3
 10
      -21.400002
 20
      -15.250015
 30
        0.000000
 11
      -21.400002
 21
      -20.250015
 31
        0.000000
  0
LINE
  8
LVL0000
 62
  3
 10
      -21.400002
 20
      -15.250015
 30
        0.000000
 11
      -21.900002
 21
      -15.250015
 31
        0.000000
  0
LINE
  8
LVL0000
 62
  3
 10
      -21.400002
 20
      -23.750015
 30
        0.000000
 11
      -21.400002
 21
      -28.750015
 31
        0.000000
  0
LINE
  8
LVL0000
 62
  3
 10
      -21.400002
 20
      -23.750015
 30
        0.000000
 11
      -21.900002
 21
      -23.750015
 31
        0.000000
  0
LINE
  8
LVL0000
 62
  3
 10
      -29.599998
 20
      -23.750015
 30
        0.000000
 11
      -29.599998
 21
      -28.750015
 31
        0.000000
  0
LINE
  8
LVL0000
 62
  3
 10
      -29.099998
 20
      -23.750015
 30
        0.000000
 11
      -29.599998
 21
      -23.750015
 31
        0.000000
  0
CIRCLE
  8
LVL0000
 62
  3
 10
      -25.500000
 20
      -26.250015
 30
        0.000000
 40
        3.000000
  0
CIRCLE
  8
LVL0000
 62
  3
 10
      -25.500000
 20
      -17.750015
 30
        0.000000
 40
        3.000000
  0
LINE
  8
LVL0000
 62
  3
 10
      -21.900002
 20
      -22.650009
 30
        0.000000
 11
      -21.900002
 21
      -29.850021
 31
        0.000000
  0
LINE
  8
LVL0000
 62
  3
 10
      -21.900002
 20
      -14.150009
 30
        0.000000
 11
      -21.900002
 21
      -21.350021
 31
        0.000000
  0
LINE
  8
LVL0000
 62
  3
 10
      -29.099998
 20
      -22.650009
 30
        0.000000
 11
      -29.099998
 21
      -29.850021
 31
        0.000000
  0
LINE
  8
LVL0000
 62
  3
 10
      -29.099998
 20
      -14.150009
 30
        0.000000
 11
      -29.099998
 21
      -21.350021
 31
        0.000000
  0
LINE
  8
LVL0000
 62
  3
 10
      -20.800003
 20
      -31.150009
 30
        0.000000
 11
      -20.800003
 21
      -32.000015
 31
        0.000000
  0
LINE
  8
LVL0000
 62
  3
 10
      -32.500000
 20
      -31.150009
 30
        0.000000
 11
      -20.800003
 21
      -31.150009
 31
        0.000000
  0
LINE
  8
LVL0000
 62
  3
 10
      -32.500000
 20
      -29.850021
 30
        0.000000
 11
      -20.800003
 21
      -29.850021
 31
        0.000000
  0
LINE
  8
LVL0000
 62
  3
 10
      -20.800003
 20
      -22.650009
 30
        0.000000
 11
      -20.800003
 21
      -29.850021
 31
        0.000000
  0
LINE
  8
LVL0000
 62
  3
 10
      -32.500000
 20
      -22.650009
 30
        0.000000
 11
      -20.800003
 21
      -22.650009
 31
        0.000000
  0
LINE
  8
LVL0000
 62
  3
 10
      -32.500000
 20
      -21.350021
 30
        0.000000
 11
      -20.800003
 21
      -21.350021
 31
        0.000000
  0
LINE
  8
LVL0000
 62
  3
 10
      -20.800003
 20
      -14.150009
 30
        0.000000
 11
      -20.800003
 21
      -21.350021
 31
        0.000000
  0
LINE
  8
LVL0000
 62
  3
 10
      -32.500000
 20
      -14.150009
 30
        0.000000
 11
      -20.800003
 21
      -14.150009
 31
        0.000000
  0
LINE
  8
LVL0000
 62
  3
 10
      -20.800003
 20
      -12.000015
 30
        0.000000
 11
      -20.800003
 21
      -12.850021
 31
        0.000000
  0
LINE
  8
LVL0000
 62
  3
 10
      -32.500000
 20
      -12.850021
 30
        0.000000
 11
      -20.800003
 21
      -12.850021
 31
        0.000000
  0
LINE
  8
LVL0000
 62
  3
 10
      -32.500000
 20
      -32.000015
 30
        0.000000
 11
      -19.500000
 21
      -32.000015
 31
        0.000000
  0
LINE
  8
LVL0000
 62
  3
 10
      -19.500000
 20
      -12.000015
 30
        0.000000
 11
      -19.500000
 21
      -32.000015
 31
        0.000000
  0
LINE
  8
LVL0000
 62
  3
 10
      -32.500000
 20
      -12.000015
 30
        0.000000
 11
      -32.500000
 21
      -32.000015
 31
        0.000000
  0
LINE
  8
LVL0000
 62
  3
 10
      -32.500000
 20
      -12.000015
 30
        0.000000
 11
      -19.500000
 21
      -12.000015
 31
        0.000000
  0
LINE
  8
LVL0000
 62
  3
 10
      -37.500002
 20
       49.499985
 30
        0.000000
 11
      -21.500000
 21
       49.499985
 31
        0.000000
  0
LINE
  8
LVL0000
 62
  3
 10
      -37.500002
 20
      -44.000000
 30
        0.000000
 11
      -37.500002
 21
       49.499985
 31
        0.000000
  0
ARC
  8
LVL0000
 62
  3
 10
      -17.499998
 20
       50.999969
 30
        0.000000
 40
        2.750000
 50
       90.000000
 51
      270.000000
  0
LINE
  8
LVL0000
 62
  3
 10
      -19.299982
 20
       50.999960
 30
        0.000000
 11
      -17.500000
 21
       50.999969
 31
        0.000000
  0
LINE
  8
LVL0000
 62
  3
 10
      -17.500000
 20
      -65.000000
 30
        0.000000
 11
      -17.500000
 21
       65.000000
 31
        0.000000
  0
LINE
  8
LVL0000
 62
  3
 10
       17.500000
 20
      -65.000000
 30
        0.000000
 11
       17.500000
 21
       65.000000
 31
        0.000000
  0
LINE
  8
LVL0000
 62
  3
 10
       18.000000
 20
      -65.000000
 30
        0.000000
 11
       18.000000
 21
       65.000000
 31
        0.000000
  0
LINE
  8
LVL0000
 62
  3
 10
       88.500000
 20
      -65.000000
 30
        0.000000
 11
       88.500000
 21
       65.000000
 31
        0.000000
  0
LINE
  8
LVL0000
 62
  3
 10
       89.000000
 20
      -65.000000
 30
        0.000000
 11
       89.000000
 21
       65.000000
 31
        0.000000
  0
LINE
  8
LVL0000
 62
  3
 10
      124.000000
 20
      -65.000000
 30
        0.000000
 11
      124.000000
 21
       65.000000
 31
        0.000000
  0
LINE
  8
LVL0000
 62
  3
 10
      -21.500000
 20
      -55.000000
 30
        0.000000
 11
      -17.500000
 21
      -55.000000
 31
        0.000000
  0
LINE
  8
LVL0000
 62
  3
 10
      124.500000
 20
      -65.000000
 30
        0.000000
 11
      124.500000
 21
       65.000000
 31
        0.000000
  0
LINE
  8
LVL0000
 62
  3
 10
      159.500000
 20
      -65.000000
 30
        0.000000
 11
      159.500000
 21
       65.000000
 31
        0.000000
  0
LINE
  8
LVL0000
 62
  3
 10
      195.000000
 20
      -65.000000
 30
        0.000000
 11
      195.000000
 21
       65.000000
 31
        0.000000
  0
LINE
  8
LVL0000
 62
  3
 10
      160.000000
 20
      -65.000000
 30
        0.000000
 11
      160.000000
 21
       65.000000
 31
        0.000000
  0
LINE
  8
LVL0000
 62
  3
 10
      195.500000
 20
      -65.000000
 30
        0.000000
 11
      195.500000
 21
       65.000000
 31
        0.000000
  0
LINE
  8
LVL0000
 62
  3
 10
      -17.500000
 20
      -46.900000
 30
        0.000000
 11
      -35.000000
 21
      -46.900000
 31
        0.000000
  0
LINE
  8
LVL0000
 62
  3
 10
      -37.500000
 20
      -44.000015
 30
        0.000000
 11
      -17.500000
 21
      -44.000015
 31
        0.000000
  0
LINE
  8
LVL0000
 62
  3
 10
      -21.499998
 20
       54.499969
 30
        0.000000
 11
      -17.500000
 21
       54.499969
 31
        0.000000
  0
LINE
  8
LVL0000
 62
  3
 10
      -37.500000
 20
      -44.000015
 30
        0.000000
 11
      -17.500000
 21
      -44.000015
 31
        0.000000
  0
LINE
  8
LVL0000
 62
  3
 10
      -37.500002
 20
      -44.000000
 30
        0.000000
 11
      -17.500000
 21
      -44.000000
 31
        0.000000
  0
LINE
  8
LVL0000
  6
CENTER
 62
  3
 10
      213.000000
 20
      -65.000000
 30
        0.000000
 11
      213.000000
 21
       65.000000
 31
        0.000000
  0
LINE
  8
LVL0000
  6
CENTER
 62
  3
 10
      177.500000
 20
      -65.000000
 30
        0.000000
 11
      177.500000
 21
       65.000000
 31
        0.000000
  0
LINE
  8
LVL0000
  6
CENTER
 62
  3
 10
      142.000000
 20
      -65.000000
 30
        0.000000
 11
      142.000000
 21
       65.000000
 31
        0.000000
  0
LINE
  8
LVL0000
  6
CENTER
 62
  3
 10
      106.500000
 20
      -65.000000
 30
        0.000000
 11
      106.500000
 21
       65.000000
 31
        0.000000
  0
LINE
  8
LVL0000
  6
CENTER
 62
  3
 10
        0.000000
 20
      -65.000000
 30
        0.000000
 11
        0.000000
 21
       65.000000
 31
        0.000000
  0
CIRCLE
  8
LVL0000
 62
  3
 10
       52.500002
 20
      140.500000
 30
        0.000000
 40
        2.000000
  0
LINE
  8
LVL0000
 62
  3
 10
      330.500017
 20
      305.800000
 30
        0.000000
 11
      -37.500000
 21
      305.800000
 31
        0.000000
  0
LINE
  8
LVL0000
 62
  3
 10
      330.500017
 20
      307.399994
 30
        0.000000
 11
      -37.500000
 21
      307.399994
 31
        0.000000
  0
LINE
  8
LVL0000
 62
  3
 10
      330.500017
 20
      315.000000
 30
        0.000000
 11
      -37.500000
 21
      315.000000
 31
        0.000000
  0
LINE
  8
LVL0000
 62
  3
 10
      330.500017
 20
      313.400000
 30
        0.000000
 11
      314.500017
 21
      313.400000
 31
        0.000000
  0
LINE
  8
LVL0000
 62
  3
 10
      314.500017
 20
      307.399994
 30
        0.000000
 11
      314.500017
 21
      315.000000
 31
        0.000000
  0
LINE
  8
LVL0000
 62
  3
 10
      330.500017
 20
      315.000000
 30
        0.000000
 11
      330.500017
 21
      305.800000
 31
        0.000000
  0
LINE
  8
LVL0000
 62
  3
 10
      -21.500000
 20
      307.399994
 30
        0.000000
 11
      -21.500000
 21
      315.000000
 31
        0.000000
  0
LINE
  8
LVL0000
 62
  3
 10
      -21.500000
 20
      313.400000
 30
        0.000000
 11
      -37.500000
 21
      313.400000
 31
        0.000000
  0
LINE
  8
LVL0000
 62
  3
 10
      -37.500000
 20
      315.000000
 30
        0.000000
 11
      -37.500000
 21
      305.800000
 31
        0.000000
  0
LINE
  8
LVL0000
 62
  3
 10
      386.112537
 20
      263.399994
 30
        0.000000
 11
      389.712537
 21
      263.399994
 31
        0.000000
  0
LINE
  8
LVL0000
 62
  3
 10
      384.512531
 20
      265.000000
 30
        0.000000
 11
      390.512537
 21
      265.000000
 31
        0.000000
  0
LINE
  8
LVL0000
 62
  3
 10
      384.512531
 20
      265.000000
 30
        0.000000
 11
      384.512531
 21
      246.300000
 31
        0.000000
  0
LINE
  8
LVL0000
 62
  3
 10
      386.112537
 20
      265.000000
 30
        0.000000
 11
      386.112537
 21
      249.000000
 31
        0.000000
  0
ARC
  8
LVL0000
 62
  3
 10
      382.412525
 20
      250.000100
 30
        0.000000
 40
        2.000000
 50
      180.000010
 51
      270.000000
  0
LINE
  8
LVL0000
 62
  3
 10
      382.412525
 20
      248.000100
 30
        0.000000
 11
      382.912525
 21
      248.000100
 31
        0.000000
  0
LINE
  8
LVL0000
 62
  3
 10
      380.412525
 20
      250.000100
 30
        0.000000
 11
      380.412525
 21
      252.000100
 31
        0.000000
  0
ARC
  8
LVL0000
 62
  3
 10
      382.412525
 20
      252.000100
 30
        0.000000
 40
        2.000000
 50
       90.000000
 51
      180.000010
  0
LINE
  8
LVL0000
 62
  3
 10
      382.412525
 20
      254.000100
 30
        0.000000
 11
      382.912525
 21
      254.000100
 31
        0.000000
  0
ARC
  8
LVL0000
 62
  3
 10
      382.412525
 20
      158.500100
 30
        0.000000
 40
        2.000000
 50
      180.000010
 51
      270.000000
  0
LINE
  8
LVL0000
 62
  3
 10
      380.412525
 20
      158.500100
 30
        0.000000
 11
      380.412525
 21
      160.500100
 31
        0.000000
  0
LINE
  8
LVL0000
 62
  3
 10
      382.412525
 20
      156.500100
 30
        0.000000
 11
      382.912525
 21
      156.500100
 31
        0.000000
  0
ARC
  8
LVL0000
 62
  3
 10
      382.412525
 20
      160.500100
 30
        0.000000
 40
        2.000000
 50
       90.000000
 51
      180.000010
  0
LINE
  8
LVL0000
 62
  3
 10
      382.412525
 20
      162.500100
 30
        0.000000
 11
      382.912525
 21
      162.500100
 31
        0.000000
  0
LINE
  8
LVL0000
 62
  3
 10
      372.212513
 20
      210.785104
 30
        0.000000
 11
      375.862507
 21
      210.785104
 31
        0.000000
  0
LINE
  8
LVL0000
 62
  3
 10
      372.212513
 20
      210.785104
 30
        0.000000
 11
      372.212513
 21
      241.315102
 31
        0.000000
  0
LINE
  8
LVL0000
 62
  3
 10
      372.212513
 20
      241.315102
 30
        0.000000
 11
      375.862507
 21
      241.315102
 31
        0.000000
  0
LINE
  8
LVL0000
 62
  3
 10
      375.862507
 20
      241.315102
 30
        0.000000
 11
      375.862507
 21
      246.315102
 31
        0.000000
  0
LINE
  8
LVL0000
 62
  3
 10
      375.862507
 20
      246.315102
 30
        0.000000
 11
      382.912525
 21
      246.315102
 31
        0.000000
  0
LINE
  8
LVL0000
 62
  3
 10
      375.862507
 20
      205.785104
 30
        0.000000
 11
      382.912525
 21
      205.785104
 31
        0.000000
  0
LINE
  8
LVL0000
 62
  3
 10
      375.862507
 20
      205.785104
 30
        0.000000
 11
      375.862507
 21
      210.785104
 31
        0.000000
  0
LINE
  8
LVL0000
 62
  3
 10
      382.912525
 20
      156.000100
 30
        0.000000
 11
      382.912525
 21
      254.500100
 31
        0.000000
  0
LINE
  8
LVL0000
 62
  3
 10
      382.912525
 20
      156.000100
 30
        0.000000
 11
      384.512531
 21
      156.000100
 31
        0.000000
  0
LINE
  8
LVL0000
 62
  3
 10
      384.512531
 20
      156.000100
 30
        0.000000
 11
      384.512531
 21
      242.000100
 31
        0.000000
  0
LINE
  8
LVL0000
 62
  3
 10
      384.512531
 20
      242.000100
 30
        0.000000
 11
      384.512531
 21
      254.500100
 31
        0.000000
  0
LINE
  8
LVL0000
 62
  3
 10
      382.912525
 20
      254.500100
 30
        0.000000
 11
      384.512531
 21
      254.500100
 31
        0.000000
  0
ARC
  8
LVL0000
 62
  3
 10
      383.512531
 20
      136.599954
 30
        0.000000
 40
        1.600006
 50
      180.000010
 51
      270.000000
  0
ARC
  8
LVL0000
 62
  3
 10
      384.312519
 20
      137.399972
 30
        0.000000
 40
        0.799988
 50
      180.000010
 51
      270.000000
  0
LINE
  8
LVL0000
 62
  3
 10
      383.512531
 20
      134.999963
 30
        0.000000
 11
      390.512537
 21
      134.999963
 31
        0.000000
  0
ARC
  8
LVL0000
 62
  3
 10
      390.512537
 20
      136.599963
 30
        0.000000
 40
        1.600000
 50
      270.000000
 51
      360.000000
  0
LINE
  8
LVL0000
 62
  3
 10
      392.112537
 20
      263.400000
 30
        0.000000
 11
      392.112537
 21
      136.599963
 31
        0.000000
  0
LINE
  8
LVL0000
 62
  3
 10
      383.512531
 20
      137.399972
 30
        0.000000
 11
      383.512531
 21
      145.000000
 31
        0.000000
  0
LINE
  8
LVL0000
 62
  3
 10
      381.912525
 20
      136.599954
 30
        0.000000
 11
      381.912525
 21
      145.000000
 31
        0.000000
  0
LINE
  8
LVL0000
 62
  3
 10
      384.312519
 20
      136.599969
 30
        0.000000
 11
      389.712537
 21
      136.599969
 31
        0.000000
  0
ARC
  8
LVL0000
 62
  3
 10
      389.712537
 20
      137.399969
 30
        0.000000
 40
        0.800000
 50
      270.000000
 51
      360.000000
  0
ARC
  8
LVL0000
 62
  3
 10
      390.512537
 20
      263.400000
 30
        0.000000
 40
        1.600000
 50
        0.000000
 51
       90.000000
  0
ARC
  8
LVL0000
 62
  3
 10
      389.712537
 20
      262.599994
 30
        0.000000
 40
        0.800000
 50
        0.000000
 51
       90.000000
  0
LINE
  8
LVL0000
 62
  3
 10
      383.512531
 20
      145.000000
 30
        0.000000
 11
      381.912525
 21
      145.000000
 31
        0.000000
  0
LINE
  8
LVL0000
 62
  3
 10
      384.512531
 20
      164.200000
 30
        0.000000
 11
      384.512531
 21
      154.700000
 31
        0.000000
  0
LINE
  8
LVL0000
 62
  3
 10
      389.312537
 20
      143.500000
 30
        0.000000
 11
      390.512537
 21
      143.500000
 31
        0.000000
  0
LINE
  8
LVL0000
 62
  3
 10
      384.712543
 20
      153.100000
 30
        0.000000
 11
      392.112537
 21
      153.100000
 31
        0.000000
  0
LINE
  8
LVL0000
 62
  3
 10
      384.712543
 20
      153.100000
 30
        0.000000
 11
      384.712543
 21
      249.000000
 31
        0.000000
  0
LINE
  8
LVL0000
 62
  3
 10
      390.512537
 20
      153.100000
 30
        0.000000
 11
      390.512537
 21
      137.399969
 31
        0.000000
  0
LINE
  8
LVL0000
 62
  3
 10
      390.512531
 20
      152.400003
 30
        0.000000
 11
      390.512531
 21
      153.100000
 31
        0.000000
  0
LINE
  8
LVL0000
 62
  3
 10
      390.512537
 20
      262.599994
 30
        0.000000
 11
      390.512537
 21
      249.000000
 31
        0.000000
  0
LINE
  8
LVL0000
 62
  3
 10
      384.712543
 20
      246.300000
 30
        0.000000
 11
      384.512531
 21
      246.300000
 31
        0.000000
  0
LINE
  8
LVL0000
 62
  3
 10
      384.512531
 20
      164.200000
 30
        0.000000
 11
      384.712543
 21
      164.200000
 31
        0.000000
  0
ARC
  8
LVL0000
 62
  3
 10
      385.712531
 20
      154.700000
 30
        0.000000
 40
        1.200000
 50
      179.999995
 51
      213.558368
  0
LINE
  8
LVL0000
 62
  3
 10
      389.312537
 20
      153.100000
 30
        0.000000
 11
      389.312537
 21
      143.500000
 31
        0.000000
  0
LINE
  8
LVL0000
 62
  3
 10
      384.712543
 20
      249.000000
 30
        0.000000
 11
      392.112537
 21
      249.000000
 31
        0.000000
  0
LINE
  8
LVL0000
 62
  3
 10
      384.512531
 20
      249.000000
 30
        0.000000
 11
      384.712543
 21
      249.000000
 31
        0.000000
  0
LINE
  8
LVL0000
 62
  3
 10
      384.512531
 20
      247.800000
 30
        0.000000
 11
      384.712543
 21
      247.800000
 31
        0.000000
  0
LINE
  8
LVL0000
 62
  3
 10
      -21.499998
 20
      265.000000
 30
        0.000000
 11
      -21.499998
 21
      249.499985
 31
        0.000000
  0
LINE
  8
LVL0000
 62
  3
 10
      314.500002
 20
      265.000000
 30
        0.000000
 11
      314.500002
 21
      249.499985
 31
        0.000000
  0
LINE
  8
LVL0000
 62
  3
 10
      -35.899998
 20
      156.000000
 30
        0.000000
 11
      -35.899998
 21
      153.100000
 31
        0.000000
  0
LINE
  8
LVL0000
 62
  3
 10
      -34.999998
 20
      156.000000
 30
        0.000000
 11
      -34.999998
 21
      148.100000
 31
        0.000000
  0
LINE
  8
LVL0000
 62
  3
 10
      328.000002
 20
      156.000000
 30
        0.000000
 11
      328.000002
 21
      148.100000
 31
        0.000000
  0
LINE
  8
LVL0000
 62
  3
 10
      328.900002
 20
      156.000000
 30
        0.000000
 11
      328.900002
 21
      153.100000
 31
        0.000000
  0
CIRCLE
  8
LVL0000
 62
  3
 10
      230.000002
 20
      140.500000
 30
        0.000000
 40
        2.000000
  0
CIRCLE
  8
LVL0000
 62
  3
 10
      194.500002
 20
      140.500000
 30
        0.000000
 40
        2.000000
  0
CIRCLE
  8
LVL0000
 62
  3
 10
      159.000002
 20
      140.500000
 30
        0.000000
 40
        2.000000
  0
CIRCLE
  8
LVL0000
 62
  3
 10
      123.500002
 20
      140.500000
 30
        0.000000
 40
        2.000000
  0
LINE
  8
LVL0000
 62
  3
 10
      -35.899998
 20
      153.100000
 30
        0.000000
 11
      -37.499998
 21
      153.100000
 31
        0.000000
  0
LINE
  8
LVL0000
 62
  3
 10
      223.900002
 20
      145.000000
 30
        0.000000
 11
      236.100002
 21
      145.000000
 31
        0.000000
  0
LINE
  8
LVL0000
 62
  3
 10
      188.400002
 20
      145.000000
 30
        0.000000
 11
      200.600002
 21
      145.000000
 31
        0.000000
  0
LINE
  8
LVL0000
 62
  3
 10
      152.900002
 20
      145.000000
 30
        0.000000
 11
      165.100002
 21
      145.000000
 31
        0.000000
  0
LINE
  8
LVL0000
 62
  3
 10
      117.400002
 20
      145.000000
 30
        0.000000
 11
      129.600002
 21
      145.000000
 31
        0.000000
  0
LINE
  8
LVL0000
 62
  3
 10
       81.900002
 20
      145.000000
 30
        0.000000
 11
       94.100002
 21
      145.000000
 31
        0.000000
  0
LINE
  8
LVL0000
 62
  3
 10
       46.400002
 20
      145.000000
 30
        0.000000
 11
       58.600002
 21
      145.000000
 31
        0.000000
  0
LINE
  8
LVL0000
 62
  3
 10
       10.900002
 20
      145.000000
 30
        0.000000
 11
       23.100002
 21
      145.000000
 31
        0.000000
  0
LINE
  8
LVL0000
 62
  3
 10
      -21.499998
 20
      145.000000
 30
        0.000000
 11
      -12.399998
 21
      145.000000
 31
        0.000000
  0
CIRCLE
  8
LVL0000
 62
  3
 10
      -29.499998
 20
      257.000000
 30
        0.000000
 40
        3.000000
  0
ARC
  8
LVL0000
 62
  3
 10
      -29.499998
 20
      139.000000
 30
        0.000000
 40
        3.000000
 50
        0.000000
 51
      179.999995
  0
LINE
  8
LVL0000
 62
  3
 10
      -21.499998
 20
      145.000000
 30
        0.000000
 11
      -21.499998
 21
      135.000000
 31
        0.000000
  0
LINE
  8
LVL0000
 62
  3
 10
      -35.499998
 20
      263.000000
 30
        0.000000
 11
      -21.499998
 21
      263.000000
 31
        0.000000
  0
LINE
  8
LVL0000
 62
  3
 10
      -35.499998
 20
      263.000000
 30
        0.000000
 11
      -37.499998
 21
      261.000000
 31
        0.000000
  0
LINE
  8
LVL0000
 62
  3
 10
      -37.499998
 20
      261.000000
 30
        0.000000
 11
      -37.499998
 21
      139.000000
 31
        0.000000
  0
LINE
  8
LVL0000
 62
  3
 10
      -37.499998
 20
      139.000000
 30
        0.000000
 11
      -35.499998
 21
      137.000000
 31
        0.000000
  0
LINE
  8
LVL0000
 62
  3
 10
      -26.499998
 20
      139.000000
 30
        0.000000
 11
      -26.499998
 21
      137.000000
 31
        0.000000
  0
LINE
  8
LVL0000
 62
  3
 10
      -32.499998
 20
      139.000000
 30
        0.000000
 11
      -32.499998
 21
      137.000000
 31
        0.000000
  0
LINE
  8
LVL0000
 62
  3
 10
      -26.499998
 20
      137.000000
 30
        0.000000
 11
      -21.499998
 21
      137.000000
 31
        0.000000
  0
LINE
  8
LVL0000
 62
  3
 10
      -35.499998
 20
      137.000000
 30
        0.000000
 11
      -32.499998
 21
      137.000000
 31
        0.000000
  0
LINE
  8
LVL0000
 62
  3
 10
      -21.499998
 20
      148.100000
 30
        0.000000
 11
      -21.499998
 21
      143.500000
 31
        0.000000
  0
LINE
  8
LVL0000
 62
  3
 10
      -21.499998
 20
      148.100000
 30
        0.000000
 11
      -34.999998
 21
      148.100000
 31
        0.000000
  0
CIRCLE
  8
LVL0000
 62
  3
 10
      224.000002
 20
      258.500000
 30
        0.000000
 40
        2.500000
  0
CIRCLE
  8
LVL0000
 62
  3
 10
      259.500002
 20
      258.500000
 30
        0.000000
 40
        2.500000
  0
CIRCLE
  8
LVL0000
 62
  3
 10
       11.000002
 20
      258.500000
 30
        0.000000
 40
        2.500000
  0
CIRCLE
  8
LVL0000
 62
  3
 10
       46.500002
 20
      258.500000
 30
        0.000000
 40
        2.500000
  0
CIRCLE
  8
LVL0000
 62
  3
 10
       82.000002
 20
      258.500000
 30
        0.000000
 40
        2.500000
  0
CIRCLE
  8
LVL0000
 62
  3
 10
      117.500002
 20
      258.500000
 30
        0.000000
 40
        2.500000
  0
CIRCLE
  8
LVL0000
 62
  3
 10
      153.000002
 20
      258.500000
 30
        0.000000
 40
        2.500000
  0
CIRCLE
  8
LVL0000
 62
  3
 10
      188.500002
 20
      258.500000
 30
        0.000000
 40
        2.500000
  0
LINE
  8
LVL0000
 62
  3
 10
      259.400002
 20
      143.500000
 30
        0.000000
 11
      236.100002
 21
      143.500000
 31
        0.000000
  0
LINE
  8
LVL0000
 62
  3
 10
      223.900002
 20
      143.500000
 30
        0.000000
 11
      200.600002
 21
      143.500000
 31
        0.000000
  0
LINE
  8
LVL0000
 62
  3
 10
      188.400002
 20
      143.500000
 30
        0.000000
 11
      165.100002
 21
      143.500000
 31
        0.000000
  0
LINE
  8
LVL0000
 62
  3
 10
      152.900002
 20
      143.500000
 30
        0.000000
 11
      129.600002
 21
      143.500000
 31
        0.000000
  0
LINE
  8
LVL0000
 62
  3
 10
      117.400002
 20
      143.500000
 30
        0.000000
 11
       94.100002
 21
      143.500000
 31
        0.000000
  0
LINE
  8
LVL0000
 62
  3
 10
       81.900002
 20
      143.500000
 30
        0.000000
 11
       58.600002
 21
      143.500000
 31
        0.000000
  0
LINE
  8
LVL0000
 62
  3
 10
       46.400002
 20
      143.500000
 30
        0.000000
 11
       23.100002
 21
      143.500000
 31
        0.000000
  0
LINE
  8
LVL0000
 62
  3
 10
       10.900002
 20
      143.500000
 30
        0.000000
 11
      -12.399998
 21
      143.500000
 31
        0.000000
  0
CIRCLE
  8
LVL0000
 62
  3
 10
       52.500002
 20
      140.500000
 30
        0.000000
 40
        1.500000
  0
CIRCLE
  8
LVL0000
 62
  3
 10
      123.500002
 20
      140.500000
 30
        0.000000
 40
        1.500000
  0
CIRCLE
  8
LVL0000
 62
  3
 10
      159.000002
 20
      140.500000
 30
        0.000000
 40
        1.500000
  0
CIRCLE
  8
LVL0000
 62
  3
 10
      194.500002
 20
      140.500000
 30
        0.000000
 40
        1.500000
  0
CIRCLE
  8
LVL0000
 62
  3
 10
      230.000002
 20
      140.500000
 30
        0.000000
 40
        1.500000
  0
LINE
  8
LVL0000
 62
  3
 10
      -12.399998
 20
      140.000000
 30
        0.000000
 11
       10.900002
 21
      140.000000
 31
        0.000000
  0
LINE
  8
LVL0000
 62
  3
 10
       23.100002
 20
      140.000000
 30
        0.000000
 11
       46.400002
 21
      140.000000
 31
        0.000000
  0
LINE
  8
LVL0000
 62
  3
 10
       58.600002
 20
      140.000000
 30
        0.000000
 11
       81.900002
 21
      140.000000
 31
        0.000000
  0
LINE
  8
LVL0000
 62
  3
 10
       94.100002
 20
      140.000000
 30
        0.000000
 11
      117.400002
 21
      140.000000
 31
        0.000000
  0
LINE
  8
LVL0000
 62
  3
 10
      129.600002
 20
      140.000000
 30
        0.000000
 11
      152.900002
 21
      140.000000
 31
        0.000000
  0
LINE
  8
LVL0000
 62
  3
 10
      165.100002
 20
      140.000000
 30
        0.000000
 11
      188.400002
 21
      140.000000
 31
        0.000000
  0
LINE
  8
LVL0000
 62
  3
 10
      200.600002
 20
      140.000000
 30
        0.000000
 11
      223.900002
 21
      140.000000
 31
        0.000000
  0
LINE
  8
LVL0000
 62
  3
 10
      236.100002
 20
      140.000000
 30
        0.000000
 11
      259.400002
 21
      140.000000
 31
        0.000000
  0
LINE
  8
LVL0000
 62
  3
 10
      236.100002
 20
      145.000000
 30
        0.000000
 11
      236.100002
 21
      140.000000
 31
        0.000000
  0
LINE
  8
LVL0000
 62
  3
 10
      223.900002
 20
      145.000000
 30
        0.000000
 11
      223.900002
 21
      140.000000
 31
        0.000000
  0
LINE
  8
LVL0000
 62
  3
 10
      200.600002
 20
      145.000000
 30
        0.000000
 11
      200.600002
 21
      140.000000
 31
        0.000000
  0
LINE
  8
LVL0000
 62
  3
 10
      165.100002
 20
      145.000000
 30
        0.000000
 11
      165.100002
 21
      140.000000
 31
        0.000000
  0
LINE
  8
LVL0000
 62
  3
 10
      188.400002
 20
      145.000000
 30
        0.000000
 11
      188.400002
 21
      140.000000
 31
        0.000000
  0
LINE
  8
LVL0000
 62
  3
 10
      152.900002
 20
      145.000000
 30
        0.000000
 11
      152.900002
 21
      140.000000
 31
        0.000000
  0
LINE
  8
LVL0000
 62
  3
 10
      129.600002
 20
      145.000000
 30
        0.000000
 11
      129.600002
 21
      140.000000
 31
        0.000000
  0
LINE
  8
LVL0000
 62
  3
 10
       94.100002
 20
      145.000000
 30
        0.000000
 11
       94.100002
 21
      140.000000
 31
        0.000000
  0
LINE
  8
LVL0000
 62
  3
 10
      117.400002
 20
      145.000000
 30
        0.000000
 11
      117.400002
 21
      140.000000
 31
        0.000000
  0
LINE
  8
LVL0000
 62
  3
 10
       81.900002
 20
      145.000000
 30
        0.000000
 11
       81.900002
 21
      140.000000
 31
        0.000000
  0
LINE
  8
LVL0000
 62
  3
 10
       58.600002
 20
      145.000000
 30
        0.000000
 11
       58.600002
 21
      140.000000
 31
        0.000000
  0
LINE
  8
LVL0000
 62
  3
 10
       23.100002
 20
      145.000000
 30
        0.000000
 11
       23.100002
 21
      140.000000
 31
        0.000000
  0
LINE
  8
LVL0000
 62
  3
 10
       46.400002
 20
      145.000000
 30
        0.000000
 11
       46.400002
 21
      140.000000
 31
        0.000000
  0
LINE
  8
LVL0000
 62
  3
 10
       10.900002
 20
      145.000000
 30
        0.000000
 11
       10.900002
 21
      140.000000
 31
        0.000000
  0
LINE
  8
LVL0000
 62
  3
 10
      -12.399998
 20
      145.000000
 30
        0.000000
 11
      -12.399998
 21
      140.000000
 31
        0.000000
  0
CIRCLE
  8
LVL0000
 62
  3
 10
        0.000002
 20
      259.500000
 30
        0.000000
 40
        1.500000
  0
CIRCLE
  8
LVL0000
 62
  3
 10
        0.000002
 20
      259.500000
 30
        0.000000
 40
        2.000000
  0
CIRCLE
  8
LVL0000
 62
  3
 10
       35.500002
 20
      259.500000
 30
        0.000000
 40
        1.500000
  0
CIRCLE
  8
LVL0000
 62
  3
 10
       35.500002
 20
      259.500000
 30
        0.000000
 40
        2.000000
  0
CIRCLE
  8
LVL0000
 62
  3
 10
       71.000002
 20
      259.500000
 30
        0.000000
 40
        1.500000
  0
CIRCLE
  8
LVL0000
 62
  3
 10
       71.000002
 20
      259.500000
 30
        0.000000
 40
        2.000000
  0
CIRCLE
  8
LVL0000
 62
  3
 10
      106.500002
 20
      259.500000
 30
        0.000000
 40
        1.500000
  0
CIRCLE
  8
LVL0000
 62
  3
 10
      106.500002
 20
      259.500000
 30
        0.000000
 40
        2.000000
  0
CIRCLE
  8
LVL0000
 62
  3
 10
      142.000002
 20
      259.500000
 30
        0.000000
 40
        1.500000
  0
CIRCLE
  8
LVL0000
 62
  3
 10
      142.000002
 20
      259.500000
 30
        0.000000
 40
        2.000000
  0
CIRCLE
  8
LVL0000
 62
  3
 10
      177.500002
 20
      259.500000
 30
        0.000000
 40
        1.500000
  0
CIRCLE
  8
LVL0000
 62
  3
 10
      177.500002
 20
      259.500000
 30
        0.000000
 40
        2.000000
  0
CIRCLE
  8
LVL0000
 62
  3
 10
      213.000002
 20
      259.500000
 30
        0.000000
 40
        1.500000
  0
CIRCLE
  8
LVL0000
 62
  3
 10
      213.000002
 20
      259.500000
 30
        0.000000
 40
        2.000000
  0
CIRCLE
  8
LVL0000
 62
  3
 10
      248.500002
 20
      259.500000
 30
        0.000000
 40
        1.500000
  0
CIRCLE
  8
LVL0000
 62
  3
 10
      248.500002
 20
      259.500000
 30
        0.000000
 40
        2.000000
  0
CIRCLE
  8
LVL0000
 62
  3
 10
      309.500002
 20
      140.500000
 30
        0.000000
 40
        2.000000
  0
CIRCLE
  8
LVL0000
 62
  3
 10
      309.500002
 20
      259.500000
 30
        0.000000
 40
        2.000000
  0
CIRCLE
  8
LVL0000
 62
  3
 10
      297.000002
 20
      258.500000
 30
        0.000000
 40
        2.500000
  0
LINE
  8
LVL0000
 62
  3
 10
      314.500002
 20
      148.100000
 30
        0.000000
 11
      314.500002
 21
      143.500000
 31
        0.000000
  0
LINE
  8
LVL0000
 62
  3
 10
      -21.499998
 20
      265.000000
 30
        0.000000
 11
      314.500002
 21
      265.000000
 31
        0.000000
  0
LINE
  8
LVL0000
 62
  3
 10
      314.500002
 20
      145.000000
 30
        0.000000
 11
      314.500002
 21
      135.000000
 31
        0.000000
  0
LINE
  8
LVL0000
 62
  3
 10
      314.500002
 20
      263.000000
 30
        0.000000
 11
      328.500002
 21
      263.000000
 31
        0.000000
  0
LINE
  8
LVL0000
 62
  3
 10
      330.500002
 20
      261.000000
 30
        0.000000
 11
      328.500002
 21
      263.000000
 31
        0.000000
  0
LINE
  8
LVL0000
 62
  3
 10
      314.500002
 20
      137.000000
 30
        0.000000
 11
      319.500002
 21
      137.000000
 31
        0.000000
  0
LINE
  8
LVL0000
 62
  3
 10
      325.500002
 20
      139.000000
 30
        0.000000
 11
      325.500002
 21
      137.000000
 31
        0.000000
  0
LINE
  8
LVL0000
 62
  3
 10
      319.500002
 20
      139.000000
 30
        0.000000
 11
      319.500002
 21
      137.000000
 31
        0.000000
  0
LINE
  8
LVL0000
 62
  3
 10
      325.500002
 20
      137.000000
 30
        0.000000
 11
      328.500002
 21
      137.000000
 31
        0.000000
  0
LINE
  8
LVL0000
 62
  3
 10
      330.500002
 20
      261.000000
 30
        0.000000
 11
      330.500002
 21
      139.000000
 31
        0.000000
  0
LINE
  8
LVL0000
 62
  3
 10
      328.500002
 20
      137.000000
 30
        0.000000
 11
      330.500002
 21
      139.000000
 31
        0.000000
  0
LINE
  8
LVL0000
 62
  3
 10
      -21.499998
 20
      135.000000
 30
        0.000000
 11
      314.500002
 21
      135.000000
 31
        0.000000
  0
CIRCLE
  8
LVL0000
 62
  3
 10
      322.500002
 20
      257.000000
 30
        0.000000
 40
        3.000000
  0
ARC
  8
LVL0000
 62
  3
 10
      322.500002
 20
      139.000000
 30
        0.000000
 40
        3.000000
 50
        0.000000
 51
      179.999995
  0
LINE
  8
LVL0000
 62
  3
 10
      328.000002
 20
      153.100000
 30
        0.000000
 11
      -34.999998
 21
      153.100000
 31
        0.000000
  0
LINE
  8
LVL0000
 62
  3
 10
      328.900002
 20
      153.100000
 30
        0.000000
 11
      330.500002
 21
      153.100000
 31
        0.000000
  0
LINE
  8
LVL0000
 62
  3
 10
      328.000002
 20
      148.100000
 30
        0.000000
 11
      314.500002
 21
      148.100000
 31
        0.000000
  0
CIRCLE
  8
LVL0000
 62
  3
 10
      309.500002
 20
      259.500000
 30
        0.000000
 40
        1.500000
  0
CIRCLE
  8
LVL0000
 62
  3
 10
      309.500002
 20
      140.500000
 30
        0.000000
 40
        1.500000
  0
CIRCLE
  8
LVL0000
 62
  3
 10
      284.000002
 20
      259.500000
 30
        0.000000
 40
        1.500000
  0
CIRCLE
  8
LVL0000
 62
  3
 10
      284.000002
 20
      259.500000
 30
        0.000000
 40
        2.000000
  0
CIRCLE
  8
LVL0000
 62
  3
 10
      265.500002
 20
      140.500000
 30
        0.000000
 40
        2.000000
  0
LINE
  8
LVL0000
 62
  3
 10
      259.400002
 20
      145.000000
 30
        0.000000
 11
      271.600002
 21
      145.000000
 31
        0.000000
  0
LINE
  8
LVL0000
 62
  3
 10
      294.900002
 20
      145.000000
 30
        0.000000
 11
      314.500002
 21
      145.000000
 31
        0.000000
  0
LINE
  8
LVL0000
 62
  3
 10
      294.900002
 20
      143.500000
 30
        0.000000
 11
      271.600002
 21
      143.500000
 31
        0.000000
  0
LINE
  8
LVL0000
 62
  3
 10
      294.900002
 20
      145.000000
 30
        0.000000
 11
      294.900002
 21
      140.000000
 31
        0.000000
  0
LINE
  8
LVL0000
 62
  3
 10
      271.600002
 20
      140.000000
 30
        0.000000
 11
      294.900002
 21
      140.000000
 31
        0.000000
  0
LINE
  8
LVL0000
 62
  3
 10
      271.600002
 20
      145.000000
 30
        0.000000
 11
      271.600002
 21
      140.000000
 31
        0.000000
  0
CIRCLE
  8
LVL0000
 62
  3
 10
      265.500002
 20
      140.500000
 30
        0.000000
 40
        1.500000
  0
LINE
  8
LVL0000
 62
  3
 10
      259.400002
 20
      145.000000
 30
        0.000000
 11
      259.400002
 21
      140.000000
 31
        0.000000
  0
CIRCLE
  8
LVL0000
 62
  3
 10
       88.000002
 20
      140.500000
 30
        0.000000
 40
        2.000000
  0
CIRCLE
  8
LVL0000
 62
  3
 10
       88.000002
 20
      140.500000
 30
        0.000000
 40
        1.500000
  0
LINE
  8
LVL0000
 62
  3
 10
      328.000000
 20
      -46.900000
 30
        0.000000
 11
      301.500000
 21
      -46.900000
 31
        0.000000
  0
LINE
  8
LVL0000
 62
  3
 10
      301.500000
 20
      -44.000015
 30
        0.000000
 11
      330.500000
 21
      -44.000015
 31
        0.000000
  0
LINE
  8
LVL0000
 62
  3
 10
      301.500000
 20
      -44.000015
 30
        0.000000
 11
      330.500015
 21
      -44.000015
 31
        0.000000
  0
LINE
  8
LVL0000
 62
  3
 10
      301.500000
 20
      -44.000000
 30
        0.000000
 11
      330.500015
 21
      -44.000000
 31
        0.000000
  0
LINE
  8
LVL0000
 62
  3
 10
      301.500000
 20
      -55.000000
 30
        0.000000
 11
      314.500000
 21
      -55.000000
 31
        0.000000
  0
LINE
  8
LVL0000
 62
  3
 10
      301.500000
 20
       54.499969
 30
        0.000000
 11
      309.500015
 21
       54.499969
 31
        0.000000
  0
LINE
  8
LVL0000
  6
CENTER
 62
  3
 10
      301.500000
 20
        0.000000
 30
        0.000000
 11
      -17.500000
 21
        0.000000
 31
        0.000000
  0
LINE
  8
LVL0000
 62
  3
 10
      301.500000
 20
      -65.000000
 30
        0.000000
 11
      301.500000
 21
       65.000000
 31
        0.000000
  0
LINE
  8
LVL0000
 62
  3
 10
      266.000000
 20
      -65.000000
 30
        0.000000
 11
      266.000000
 21
       65.000000
 31
        0.000000
  0
LINE
  8
LVL0000
 62
  3
 10
      266.500000
 20
      -65.000000
 30
        0.000000
 11
      266.500000
 21
       65.000000
 31
        0.000000
  0
LINE
  8
LVL0000
  6
CENTER
 62
  3
 10
      284.000000
 20
      -65.000000
 30
        0.000000
 11
      284.000000
 21
       65.000000
 31
        0.000000
  0
LINE
  8
LVL0000
  6
CENTER
 62
  3
 10
      248.500000
 20
      -65.000000
 30
        0.000000
 11
      248.500000
 21
       65.000000
 31
        0.000000
  0
LINE
  8
LVL0000
 62
  3
 10
      231.000000
 20
      -65.000000
 30
        0.000000
 11
      231.000000
 21
       65.000000
 31
        0.000000
  0
LINE
  8
LVL0000
 62
  3
 10
      230.500000
 20
      -65.000000
 30
        0.000000
 11
      230.500000
 21
       65.000000
 31
        0.000000
  0
LINE
  8
LVL0000
 62
  3
 10
      330.500000
 20
       61.000000
 30
        0.000000
 11
      330.500000
 21
      -61.000000
 31
        0.000000
  0
CIRCLE
  8
LVL0000
 62
  3
 10
      305.000015
 20
       50.999985
 30
        0.000000
 40
        2.750000
  0
LINE
  8
LVL0000
 62
  3
 10
      303.200031
 20
       50.999975
 30
        0.000000
 11
      306.799999
 21
       50.999994
 31
        0.000000
  0
LINE
  8
LVL0000
 62
  3
 10
      305.000015
 20
       52.799994
 30
        0.000000
 11
      305.000015
 21
       49.199995
 31
        0.000000
  0
CIRCLE
  8
LVL0000
 62
  3
 10
      314.599987
 20
      -40.500015
 30
        0.000000
 40
        2.750000
  0
LINE
  8
LVL0000
 62
  3
 10
      312.800003
 20
      -40.500025
 30
        0.000000
 11
      316.399971
 21
      -40.500006
 31
        0.000000
  0
LINE
  8
LVL0000
 62
  3
 10
      314.599987
 20
      -38.700006
 30
        0.000000
 11
      314.599987
 21
      -42.300005
 31
        0.000000
  0
CIRCLE
  8
LVL0000
 62
  3
 10
      304.500031
 20
      -40.500000
 30
        0.000000
 40
        1.750000
  0
CIRCLE
  8
LVL0000
 62
  3
 10
      304.500015
 20
      -40.500015
 30
        0.000000
 40
        1.750000
  0
CIRCLE
  8
LVL0000
 62
  3
 10
      304.500015
 20
      -40.500015
 30
        0.000000
 40
        1.750000
  0
LINE
  8
LVL0000
 62
  3
 10
      328.500000
 20
      -63.000000
 30
        0.000000
 11
      330.500000
 21
      -61.000000
 31
        0.000000
  0
LINE
  8
LVL0000
 62
  3
 10
      -21.500000
 20
      -65.000000
 30
        0.000000
 11
      314.500000
 21
      -65.000000
 31
        0.000000
  0
CIRCLE
  8
LVL0000
 62
  3
 10
      322.500000
 20
       57.000000
 30
        0.000000
 40
        3.000000
  0
ARC
  8
LVL0000
 62
  3
 10
      322.500000
 20
      -61.000000
 30
        0.000000
 40
        3.000000
 50
        0.000000
 51
      179.999995
  0
LINE
  8
LVL0000
 62
  3
 10
      328.900000
 20
      -46.900000
 30
        0.000000
 11
      330.500000
 21
      -46.900000
 31
        0.000000
  0
LINE
  8
LVL0000
 62
  3
 10
      328.000000
 20
      -51.900000
 30
        0.000000
 11
      314.500000
 21
      -51.900000
 31
        0.000000
  0
CIRCLE
  8
LVL0000
 62
  3
 10
      309.500000
 20
       59.500000
 30
        0.000000
 40
        1.500000
  0
CIRCLE
  8
LVL0000
 62
  3
 10
      309.500000
 20
      -59.500000
 30
        0.000000
 40
        1.500000
  0
LINE
  8
LVL0000
 62
  3
 10
      330.500000
 20
       49.499985
 30
        0.000000
 11
      309.500000
 21
       49.499985
 31
        0.000000
  0
LINE
  8
LVL0000
 62
  3
 10
      330.500015
 20
      -44.000015
 30
        0.000000
 11
      330.500015
 21
       49.499969
 31
        0.000000
  0
LINE
  8
LVL0000
 62
  3
 10
      309.500015
 20
       49.499969
 30
        0.000000
 11
      309.500015
 21
       54.499969
 31
        0.000000
  0
LINE
  8
LVL0000
 62
  3
 10
      309.500015
 20
       49.499969
 30
        0.000000
 11
      330.500015
 21
       49.499969
 31
        0.000000
  0
LINE
  8
LVL0000
 62
  3
 10
      309.500015
 20
       49.499985
 30
        0.000000
 11
      330.500015
 21
       49.499985
 31
        0.000000
  0
LINE
  8
LVL0000
 62
  3
 10
      309.500000
 20
       54.499985
 30
        0.000000
 11
      309.500000
 21
       49.499985
 31
        0.000000
  0
LINE
  8
LVL0000
 62
  3
 10
      309.500015
 20
       49.499985
 30
        0.000000
 11
      309.500015
 21
       54.499985
 31
        0.000000
  0
LINE
  8
LVL0000
 62
  3
 10
      314.500000
 20
       65.000000
 30
        0.000000
 11
      314.500000
 21
       49.499985
 31
        0.000000
  0
LINE
  8
LVL0000
 62
  3
 10
      328.000000
 20
      -44.000015
 30
        0.000000
 11
      328.000000
 21
      -51.900000
 31
        0.000000
  0
LINE
  8
LVL0000
 62
  3
 10
      328.900000
 20
      -44.000015
 30
        0.000000
 11
      328.900000
 21
      -46.900000
 31
        0.000000
  0
CIRCLE
  8
LVL0000
 62
  3
 10
      309.500000
 20
      -59.500000
 30
        0.000000
 40
        2.000000
  0
CIRCLE
  8
LVL0000
 62
  3
 10
      309.500000
 20
       59.500000
 30
        0.000000
 40
        2.000000
  0
LINE
  8
LVL0000
 62
  3
 10
      314.500000
 20
      -51.900000
 30
        0.000000
 11
      314.500000
 21
      -56.500000
 31
        0.000000
  0
LINE
  8
LVL0000
 62
  3
 10
      -21.500000
 20
       65.000000
 30
        0.000000
 11
      314.500000
 21
       65.000000
 31
        0.000000
  0
LINE
  8
LVL0000
 62
  3
 10
      314.500000
 20
      -55.000000
 30
        0.000000
 11
      314.500000
 21
      -65.000000
 31
        0.000000
  0
LINE
  8
LVL0000
 62
  3
 10
      314.500000
 20
       63.000000
 30
        0.000000
 11
      328.500000
 21
       63.000000
 31
        0.000000
  0
LINE
  8
LVL0000
 62
  3
 10
      330.500000
 20
       61.000000
 30
        0.000000
 11
      328.500000
 21
       63.000000
 31
        0.000000
  0
LINE
  8
LVL0000
 62
  3
 10
      314.500000
 20
      -63.000000
 30
        0.000000
 11
      319.500000
 21
      -63.000000
 31
        0.000000
  0
LINE
  8
LVL0000
 62
  3
 10
      325.500000
 20
      -61.000000
 30
        0.000000
 11
      325.500000
 21
      -63.000000
 31
        0.000000
  0
LINE
  8
LVL0000
 62
  3
 10
      319.500000
 20
      -61.000000
 30
        0.000000
 11
      319.500000
 21
      -63.000000
 31
        0.000000
  0
LINE
  8
LVL0000
 62
  3
 10
      325.500000
 20
      -63.000000
 30
        0.000000
 11
      328.500000
 21
      -63.000000
 31
        0.000000
  0
LINE
  8
LVL0000
  6
CENTER
 62
  3
 10
       53.250000
 20
      -65.000000
 30
        0.000000
 11
       53.250000
 21
       65.000000
 31
        0.000000
  0
ENDSEC
  0
EOF
