  0
SECTION
  2
HEADER
  9
$ACADVER
  1
AC1006
  9
$INSBASE
 10
0.0
 20
0.0
 30
0.0
  9
$EXTMIN
 10
     -147.199997
 20
     -147.199997
  9
$EXTMAX
 10
      146.115005
 20
       90.000000
  9
$LIMMIN
 10
     -147.199997
 20
     -147.199997
  9
$LIMMAX
 10
      146.115005
 20
       90.000000
  9
$VIEWCTR
 10
       -0.542496
 20
       -0.542496
  9
$ORTHOMODE
 70
     0
  9
$ANGBASE
 50
0.0
  9
$ANGDIR
 70
     0
  9
$SPLINETYPE
 70
     6
  9
$SPLINESEGS
 70
     8
9
$DIMASZ
 40
        3.500000
9
$DIMEXE
 40
        0.700000
9
$DIMEXO
 40
        2.500000
9
$DIMTXT
 40
        3.000000
9
$DIMGAP
 40
        0.700000
9
$DIMTAD
 70
1
9
$DIMTIH
 70
0
9
$DIMTOH
 70
0
  0
ENDSEC
  0
SECTION
  2
TABLES
  0
TABLE
  2
LTYPE
 70
     5
  0
LTYPE
  2
CONTINUOUS
 70
    64
  3
SOLID LINE
 72
    65
 73
     0
 40
0.0
  0
LTYPE
  2
DASHED
 70
    64
  3
-- -- -- -- -- --
 72
    65
 73
     2
 40
  0.75  
 49
  0.50  
 49
 -0.25  
  0
LTYPE
  2
DOT
 70
    64
  3
....................
 72
    65
 73
     2
 40
  0.25  
 49
  0.02  
 49
 -0.23  
  0
LTYPE
  2
CENTER
 70
    64
  3
-- . -- . -- . -- .
 72
    65
 73
    4
 40
  2.00  
 49
  1.25  
 49
 -0.25  
 49
  0.25  
 49
 -0.25  
  0
LTYPE
  2
PHANTOM
 70
    64
  3
-- .. -- .. -- ..
 72
    65
 73
    6
 40
  2.50  
 49
  1.25  
 49
 -0.25  
 49
  0.25  
 49
 -0.25  
 49
  0.25  
 49
 -0.25  
  0
ENDTAB
  0
TABLE
  2
LAYER
 70
     1
  0
LAYER
  2
LVL0000
 70
    64
 62
     2
  6
CONTINUOUS
  0
ENDTAB
  0
TABLE
  2
STYLE
 70
     2
  0
STYLE
  2
STANDARD
 70
    64
 40
0.0
 41
1.0
 50
0.0
 71
     0
 42
5.0
  3
ROMANS
  4
BIGFONT
  0
STYLE
  2
BIGFONT
 70
    64
 40
0.0
 41
1.0
 50
0.0
 71
     0
 42
5.0
  3
ROMANS
  4
BIGFONT
  0
ENDTAB
  0
TABLE
  2
VIEW
 70
     0
  0
ENDTAB
  0
TABLE
  2
UCS
 70
     0
  0
ENDTAB
  0
TABLE
  2
DWGMGR
 70
     0
  0
ENDTAB
  0
ENDSEC
  0
SECTION
  2
BLOCKS
  0
BLOCK
  8
0
  2
BLK0001
 70
    64
 10
        0.000000
 20
        0.000000
  0
TEXT
  8
LVL0000
 10
       83.118378
 20
     -153.787704
 30
        0.000000
 40
        3.000000
  1
ＪＷ１６ＣＴ
 50
        0.000000
 41
        0.835000
 51
        0.000000
  7
BIGFONT
  0
LINE
  8
LVL0000
 10
       82.418381
 20
     -154.487701
 30
        0.000000
 11
      101.818375
 21
     -154.487701
 31
        0.000000
  0
LINE
  8
LVL0000
 10
      101.818375
 20
     -154.487701
 30
        0.000000
 11
      108.229759
 21
     -143.977325
 31
        0.000000
  0
LINE
  8
LVL0000
 10
      106.876442
 20
     -147.251587
 30
        0.000000
 11
      108.229759
 21
     -143.977325
 31
        0.000000
  0
LINE
  8
LVL0000
 10
      108.229759
 20
     -143.977325
 30
        0.000000
 11
      105.937744
 21
     -146.678970
 31
        0.000000
  0
ENDBLK
  0
BLOCK
  8
0
  2
BLK0002
 70
    64
 10
        0.000000
 20
        0.000000
  0
TEXT
  8
LVL0000
 10
      132.204468
 20
     -155.836182
 30
        0.000000
 40
        3.000000
  1
１７．１
 50
        0.000000
 41
        0.835000
 51
        0.000000
  7
BIGFONT
  0
LINE
  8
LVL0000
 10
      129.014999
 20
     -148.199997
 30
        0.000000
 11
      129.014999
 21
     -157.236176
 31
        0.000000
  0
LINE
  8
LVL0000
 10
      146.115005
 20
     -139.000000
 30
        0.000000
 11
      146.115005
 21
     -157.236176
 31
        0.000000
  0
LINE
  8
LVL0000
 10
      132.514999
 20
     -155.986404
 30
        0.000000
 11
      129.014999
 21
     -156.536179
 31
        0.000000
  0
LINE
  8
LVL0000
 10
      129.014999
 20
     -156.536179
 30
        0.000000
 11
      132.514999
 21
     -157.085953
 31
        0.000000
  0
LINE
  8
LVL0000
 10
      142.615005
 20
     -157.085953
 30
        0.000000
 11
      146.115005
 21
     -156.536179
 31
        0.000000
  0
LINE
  8
LVL0000
 10
      146.115005
 20
     -156.536179
 30
        0.000000
 11
      142.615005
 21
     -155.986404
 31
        0.000000
  0
LINE
  8
LVL0000
 10
      129.014999
 20
     -156.536179
 30
        0.000000
 11
      146.115005
 21
     -156.536179
 31
        0.000000
  0
ENDBLK
  0
BLOCK
  8
0
  2
BLK0003
 70
    64
 10
        0.000000
 20
        0.000000
  0
TEXT
  8
LVL0000
 10
      110.186790
 20
     -155.836182
 30
        0.000000
 40
        3.000000
  1
２３．２
 50
        0.000000
 41
        0.835000
 51
        0.000000
  7
BIGFONT
  0
LINE
  8
LVL0000
 10
      129.014999
 20
     -148.199997
 30
        0.000000
 11
      129.014999
 21
     -157.236176
 31
        0.000000
  0
LINE
  8
LVL0000
 10
      105.815002
 20
     -144.199997
 30
        0.000000
 11
      105.815002
 21
     -157.236176
 31
        0.000000
  0
LINE
  8
LVL0000
 10
      125.514999
 20
     -157.085953
 30
        0.000000
 11
      129.014999
 21
     -156.536179
 31
        0.000000
  0
LINE
  8
LVL0000
 10
      129.014999
 20
     -156.536179
 30
        0.000000
 11
      125.514999
 21
     -155.986404
 31
        0.000000
  0
LINE
  8
LVL0000
 10
      109.315002
 20
     -155.986404
 30
        0.000000
 11
      105.815002
 21
     -156.536179
 31
        0.000000
  0
LINE
  8
LVL0000
 10
      105.815002
 20
     -156.536179
 30
        0.000000
 11
      109.315002
 21
     -157.085953
 31
        0.000000
  0
LINE
  8
LVL0000
 10
      129.014999
 20
     -156.536179
 30
        0.000000
 11
      105.815002
 21
     -156.536179
 31
        0.000000
  0
ENDBLK
  0
BLOCK
  8
0
  2
BLK0004
 70
    64
 10
        0.000000
 20
        0.000000
  0
TEXT
  8
LVL0000
 10
       -5.011743
 20
     -163.911423
 30
        0.000000
 40
        3.000000
  1
１３５
 50
        0.000000
 41
        0.835000
 51
        0.000000
  7
BIGFONT
  0
LINE
  8
LVL0000
 10
      -67.500000
 20
     -147.199997
 30
        0.000000
 11
      -67.500000
 21
     -165.311417
 31
        0.000000
  0
LINE
  8
LVL0000
 10
       67.500000
 20
     -147.199997
 30
        0.000000
 11
       67.500000
 21
     -165.311417
 31
        0.000000
  0
LINE
  8
LVL0000
 10
      -64.000000
 20
     -164.061646
 30
        0.000000
 11
      -67.500000
 21
     -164.611420
 31
        0.000000
  0
LINE
  8
LVL0000
 10
      -67.500000
 20
     -164.611420
 30
        0.000000
 11
      -64.000000
 21
     -165.161194
 31
        0.000000
  0
LINE
  8
LVL0000
 10
       64.000000
 20
     -165.161194
 30
        0.000000
 11
       67.500000
 21
     -164.611420
 31
        0.000000
  0
LINE
  8
LVL0000
 10
       67.500000
 20
     -164.611420
 30
        0.000000
 11
       64.000000
 21
     -164.061646
 31
        0.000000
  0
LINE
  8
LVL0000
 10
      -67.500000
 20
     -164.611420
 30
        0.000000
 11
       67.500000
 21
     -164.611420
 31
        0.000000
  0
ENDBLK
  0
BLOCK
  8
0
  2
BLK0005
 70
    64
 10
        0.000000
 20
        0.000000
  0
TEXT
  8
LVL0000
 10
       77.206810
 20
     -121.312088
 30
        0.000000
 40
        3.000000
  1
６２．２
 50
       90.000000
 41
        0.835000
 51
        0.000000
  7
BIGFONT
  0
LINE
  8
LVL0000
 10
       67.500000
 20
     -147.199997
 30
        0.000000
 11
       78.606812
 21
     -147.199997
 31
        0.000000
  0
LINE
  8
LVL0000
 10
       65.000000
 20
      -85.000000
 30
        0.000000
 11
       78.606812
 21
      -85.000000
 31
        0.000000
  0
LINE
  8
LVL0000
 10
       77.357033
 20
     -143.699997
 30
        0.000000
 11
       77.906815
 21
     -147.199997
 31
        0.000000
  0
LINE
  8
LVL0000
 10
       77.906815
 20
     -147.199997
 30
        0.000000
 11
       78.456596
 21
     -143.699997
 31
        0.000000
  0
LINE
  8
LVL0000
 10
       78.456596
 20
      -88.500000
 30
        0.000000
 11
       77.906815
 21
      -85.000000
 31
        0.000000
  0
LINE
  8
LVL0000
 10
       77.906815
 20
      -85.000000
 30
        0.000000
 11
       77.357033
 21
      -88.500000
 31
        0.000000
  0
LINE
  8
LVL0000
 10
       77.906815
 20
     -147.199997
 30
        0.000000
 11
       77.906815
 21
      -85.000000
 31
        0.000000
  0
ENDBLK
  0
BLOCK
  8
0
  2
BLK0006
 70
    64
 10
        0.000000
 20
        0.000000
  0
TEXT
  8
LVL0000
 10
       -4.500000
 20
      -39.994183
 30
        0.000000
 40
        3.000000
  1
１３０
 50
        0.000000
 41
        0.835000
 51
        0.000000
  7
BIGFONT
  0
LINE
  8
LVL0000
 10
       65.000000
 20
      -26.000000
 30
        0.000000
 11
       65.000000
 21
      -41.394184
 31
        0.000000
  0
LINE
  8
LVL0000
 10
      -65.000000
 20
      -26.000000
 30
        0.000000
 11
      -65.000000
 21
      -41.394184
 31
        0.000000
  0
LINE
  8
LVL0000
 10
       62.000000
 20
      -41.165421
 30
        0.000000
 11
       65.000000
 21
      -40.694183
 31
        0.000000
  0
LINE
  8
LVL0000
 10
       65.000000
 20
      -40.694183
 30
        0.000000
 11
       62.000000
 21
      -40.222946
 31
        0.000000
  0
LINE
  8
LVL0000
 10
      -62.000000
 20
      -40.222946
 30
        0.000000
 11
      -65.000000
 21
      -40.694183
 31
        0.000000
  0
LINE
  8
LVL0000
 10
      -65.000000
 20
      -40.694183
 30
        0.000000
 11
      -62.000000
 21
      -41.165421
 31
        0.000000
  0
LINE
  8
LVL0000
 10
       65.000000
 20
      -40.694183
 30
        0.000000
 11
      -65.000000
 21
      -40.694183
 31
        0.000000
  0
ENDBLK
  0
BLOCK
  8
0
  2
BLK0007
 70
    64
 10
        0.000000
 20
        0.000000
  0
TEXT
  8
LVL0000
 10
       78.613770
 20
       -3.000000
 30
        0.000000
 40
        3.000000
  1
５０
 50
       90.000000
 41
        0.835000
 51
        0.000000
  7
BIGFONT
  0
LINE
  8
LVL0000
 10
       66.000000
 20
       25.000000
 30
        0.000000
 11
       80.013771
 21
       25.000000
 31
        0.000000
  0
LINE
  8
LVL0000
 10
       66.000000
 20
      -25.000000
 30
        0.000000
 11
       80.013771
 21
      -25.000000
 31
        0.000000
  0
LINE
  8
LVL0000
 10
       79.785011
 20
       22.000000
 30
        0.000000
 11
       79.313774
 21
       25.000000
 31
        0.000000
  0
LINE
  8
LVL0000
 10
       79.313774
 20
       25.000000
 30
        0.000000
 11
       78.842537
 21
       22.000000
 31
        0.000000
  0
LINE
  8
LVL0000
 10
       78.842537
 20
      -22.000000
 30
        0.000000
 11
       79.313774
 21
      -25.000000
 31
        0.000000
  0
LINE
  8
LVL0000
 10
       79.313774
 20
      -25.000000
 30
        0.000000
 11
       79.785011
 21
      -22.000000
 31
        0.000000
  0
LINE
  8
LVL0000
 10
       79.313774
 20
       25.000000
 30
        0.000000
 11
       79.313774
 21
      -25.000000
 31
        0.000000
  0
ENDBLK
  0
BLOCK
  8
0
  2
BLK0008
 70
    64
 10
        0.000000
 20
        0.000000
  0
TEXT
  8
LVL0000
 10
      115.614998
 20
      -41.153244
 30
        0.000000
 40
        3.000000
  1
５５
 50
        0.000000
 41
        0.835000
 51
        0.000000
  7
BIGFONT
  0
LINE
  8
LVL0000
 10
       91.114998
 20
      -26.000000
 30
        0.000000
 11
       91.114998
 21
      -42.553246
 31
        0.000000
  0
LINE
  8
LVL0000
 10
      146.115005
 20
      -29.000000
 30
        0.000000
 11
      146.115005
 21
      -42.553246
 31
        0.000000
  0
LINE
  8
LVL0000
 10
       94.114998
 20
      -41.382008
 30
        0.000000
 11
       91.114998
 21
      -41.853245
 31
        0.000000
  0
LINE
  8
LVL0000
 10
       91.114998
 20
      -41.853245
 30
        0.000000
 11
       94.114998
 21
      -42.324482
 31
        0.000000
  0
LINE
  8
LVL0000
 10
      143.115005
 20
      -42.324482
 30
        0.000000
 11
      146.115005
 21
      -41.853245
 31
        0.000000
  0
LINE
  8
LVL0000
 10
      146.115005
 20
      -41.853245
 30
        0.000000
 11
      143.115005
 21
      -41.382008
 31
        0.000000
  0
LINE
  8
LVL0000
 10
       91.114998
 20
      -41.853245
 30
        0.000000
 11
      146.115005
 21
      -41.853245
 31
        0.000000
  0
ENDBLK
  0
ENDSEC
  0
SECTION
  2
ENTITIES
  0
TEXT
  8
LVL0000
 10
       96.035106
 20
       61.322132
 30
        0.000000
 40
        4.000000
  1
ＪＷＤ１６５ＭＨ
 50
        0.000000
 41
        0.835000
 51
        0.000000
  7
BIGFONT
  0
TEXT
  8
LVL0000
 10
       96.035106
 20
       67.322132
 30
        0.000000
 40
        4.000000
  1
ＪＷＤ１６５ＳＨ
 50
        0.000000
 41
        0.835000
 51
        0.000000
  7
BIGFONT
  0
TEXT
  8
LVL0000
 10
       96.035106
 20
       73.322132
 30
        0.000000
 40
        4.000000
  1
ＪＷＤ１６２ＭＨ
 50
        0.000000
 41
        0.835000
 51
        0.000000
  7
BIGFONT
  0
TEXT
  8
LVL0000
 10
       96.035106
 20
       79.322132
 30
        0.000000
 40
        4.000000
  1
ＪＷＤ１６２ＳＨ
 50
        0.000000
 41
        0.835000
 51
        0.000000
  7
BIGFONT
  0
TEXT
  8
LVL0000
 10
       96.035106
 20
       85.322132
 30
        0.000000
 40
        4.000000
  1
ＪＷＤ１６４ＮＨ
 50
        0.000000
 41
        0.835000
 51
        0.000000
  7
BIGFONT
  0
INSERT
  8
LVL0000
 62
  5
  2
BLK0001
 10
        0.000000
 20
        0.000000
  0
LINE
  8
LVL0000
 62
  3
 10
      -65.000000
 20
     -125.133975
 30
        0.000000
 11
      -65.000000
 21
     -134.000000
 31
        0.000000
  0
LINE
  8
LVL0000
 62
  3
 10
      -64.500000
 20
     -125.000000
 30
        0.000000
 11
      -55.500000
 21
     -125.000000
 31
        0.000000
  0
LINE
  8
LVL0000
 62
  3
 10
      -31.400000
 20
      -98.075000
 30
        0.000000
 11
      -15.600000
 21
      -98.075000
 31
        0.000000
  0
LINE
  8
LVL0000
 62
  3
 10
      -31.400000
 20
     -100.475000
 30
        0.000000
 11
      -15.600000
 21
     -100.475000
 31
        0.000000
  0
LINE
  8
LVL0000
 62
  3
 10
      -15.600000
 20
     -100.475000
 30
        0.000000
 11
      -15.600000
 21
      -98.075000
 31
        0.000000
  0
LINE
  8
LVL0000
 62
  3
 10
      -31.400000
 20
     -100.475000
 30
        0.000000
 11
      -31.400000
 21
      -98.075000
 31
        0.000000
  0
LINE
  8
LVL0000
 62
  3
 10
      -60.599991
 20
     -100.800000
 30
        0.000000
 11
      -31.939991
 21
     -100.800000
 31
        0.000000
  0
LINE
  8
LVL0000
 62
  3
 10
      -31.939991
 20
     -107.800000
 30
        0.000000
 11
      -31.939991
 21
     -100.800000
 31
        0.000000
  0
LINE
  8
LVL0000
 62
  3
 10
      -60.599991
 20
     -100.800000
 30
        0.000000
 11
      -60.599991
 21
     -107.800000
 31
        0.000000
  0
LINE
  8
LVL0000
 62
  3
 10
      -13.850000
 20
     -100.475000
 30
        0.000000
 11
       19.050000
 21
     -100.475000
 31
        0.000000
  0
LINE
  8
LVL0000
 62
  3
 10
       19.050000
 20
     -100.475000
 30
        0.000000
 11
       19.050000
 21
      -98.075000
 31
        0.000000
  0
LINE
  8
LVL0000
 62
  3
 10
      -13.850000
 20
      -98.075000
 30
        0.000000
 11
       19.050000
 21
      -98.075000
 31
        0.000000
  0
LINE
  8
LVL0000
 62
  3
 10
      -13.850000
 20
     -100.475000
 30
        0.000000
 11
      -13.850000
 21
      -98.075000
 31
        0.000000
  0
LINE
  8
LVL0000
 62
  3
 10
       23.950000
 20
     -100.475000
 30
        0.000000
 11
       56.850000
 21
     -100.475000
 31
        0.000000
  0
LINE
  8
LVL0000
 62
  3
 10
       23.950000
 20
      -98.075000
 30
        0.000000
 11
       56.850000
 21
      -98.075000
 31
        0.000000
  0
LINE
  8
LVL0000
 62
  3
 10
       23.950000
 20
     -100.475000
 30
        0.000000
 11
       23.950000
 21
      -98.075000
 31
        0.000000
  0
LINE
  8
LVL0000
 62
  3
 10
      -13.350000
 20
      -99.975000
 30
        0.000000
 11
      -13.350000
 21
      -98.575000
 31
        0.000000
  0
LINE
  8
LVL0000
 62
  3
 10
      -10.850000
 20
      -99.975000
 30
        0.000000
 11
      -10.850000
 21
      -98.575000
 31
        0.000000
  0
LINE
  8
LVL0000
 62
  3
 10
       -9.150000
 20
      -99.975000
 30
        0.000000
 11
       -9.150000
 21
      -98.575000
 31
        0.000000
  0
LINE
  8
LVL0000
 62
  3
 10
       -6.650000
 20
      -99.975000
 30
        0.000000
 11
       -6.650000
 21
      -98.575000
 31
        0.000000
  0
LINE
  8
LVL0000
 62
  3
 10
       -4.950000
 20
      -99.975000
 30
        0.000000
 11
       -4.950000
 21
      -98.575000
 31
        0.000000
  0
LINE
  8
LVL0000
 62
  3
 10
       -0.750000
 20
      -99.975000
 30
        0.000000
 11
        1.750000
 21
      -99.975000
 31
        0.000000
  0
LINE
  8
LVL0000
 62
  3
 10
       -0.750000
 20
      -99.975000
 30
        0.000000
 11
       -0.750000
 21
      -98.575000
 31
        0.000000
  0
LINE
  8
LVL0000
 62
  3
 10
        1.750000
 20
      -99.975000
 30
        0.000000
 11
        1.750000
 21
      -98.575000
 31
        0.000000
  0
LINE
  8
LVL0000
 62
  3
 10
        3.450000
 20
      -98.575000
 30
        0.000000
 11
        5.950000
 21
      -98.575000
 31
        0.000000
  0
LINE
  8
LVL0000
 62
  3
 10
       10.150000
 20
      -99.975000
 30
        0.000000
 11
       10.150000
 21
      -98.575000
 31
        0.000000
  0
LINE
  8
LVL0000
 62
  3
 10
        7.650000
 20
      -99.975000
 30
        0.000000
 11
       10.150000
 21
      -99.975000
 31
        0.000000
  0
LINE
  8
LVL0000
 62
  3
 10
        7.650000
 20
      -98.575000
 30
        0.000000
 11
       10.150000
 21
      -98.575000
 31
        0.000000
  0
LINE
  8
LVL0000
 62
  3
 10
       11.850000
 20
      -99.975000
 30
        0.000000
 11
       14.350000
 21
      -99.975000
 31
        0.000000
  0
LINE
  8
LVL0000
 62
  3
 10
       14.350000
 20
      -99.975000
 30
        0.000000
 11
       14.350000
 21
      -98.575000
 31
        0.000000
  0
LINE
  8
LVL0000
 62
  3
 10
       16.050000
 20
      -99.975000
 30
        0.000000
 11
       16.050000
 21
      -98.575000
 31
        0.000000
  0
LINE
  8
LVL0000
 62
  3
 10
      -18.600000
 20
      -99.975000
 30
        0.000000
 11
      -18.600000
 21
      -98.575000
 31
        0.000000
  0
LINE
  8
LVL0000
 62
  3
 10
      -18.600000
 20
      -99.975000
 30
        0.000000
 11
      -16.100000
 21
      -99.975000
 31
        0.000000
  0
LINE
  8
LVL0000
 62
  3
 10
      -20.200000
 20
      -99.975000
 30
        0.000000
 11
      -20.200000
 21
      -98.575000
 31
        0.000000
  0
LINE
  8
LVL0000
 62
  3
 10
      -22.700000
 20
      -99.975000
 30
        0.000000
 11
      -20.200000
 21
      -99.975000
 31
        0.000000
  0
LINE
  8
LVL0000
 62
  3
 10
      -22.700000
 20
      -98.575000
 30
        0.000000
 11
      -20.200000
 21
      -98.575000
 31
        0.000000
  0
LINE
  8
LVL0000
 62
  3
 10
      -24.300000
 20
      -99.975000
 30
        0.000000
 11
      -24.300000
 21
      -98.575000
 31
        0.000000
  0
LINE
  8
LVL0000
 62
  3
 10
      -30.900000
 20
      -99.975000
 30
        0.000000
 11
      -30.900000
 21
      -98.575000
 31
        0.000000
  0
LINE
  8
LVL0000
 62
  3
 10
      -13.350000
 20
      -99.975000
 30
        0.000000
 11
      -10.850000
 21
      -99.975000
 31
        0.000000
  0
LINE
  8
LVL0000
 62
  3
 10
      -13.350000
 20
      -98.575000
 30
        0.000000
 11
      -10.850000
 21
      -98.575000
 31
        0.000000
  0
LINE
  8
LVL0000
 62
  3
 10
       -9.150000
 20
      -99.975000
 30
        0.000000
 11
       -6.650000
 21
      -99.975000
 31
        0.000000
  0
LINE
  8
LVL0000
 62
  3
 10
       -9.150000
 20
      -98.575000
 30
        0.000000
 11
       -6.650000
 21
      -98.575000
 31
        0.000000
  0
LINE
  8
LVL0000
 62
  3
 10
       -4.950000
 20
      -99.975000
 30
        0.000000
 11
       -2.450000
 21
      -99.975000
 31
        0.000000
  0
LINE
  8
LVL0000
 62
  3
 10
       -4.950000
 20
      -98.575000
 30
        0.000000
 11
       -2.450000
 21
      -98.575000
 31
        0.000000
  0
LINE
  8
LVL0000
 62
  3
 10
       -2.450000
 20
      -99.975000
 30
        0.000000
 11
       -2.450000
 21
      -98.575000
 31
        0.000000
  0
LINE
  8
LVL0000
 62
  3
 10
       -0.750000
 20
      -98.575000
 30
        0.000000
 11
        1.750000
 21
      -98.575000
 31
        0.000000
  0
LINE
  8
LVL0000
 62
  3
 10
        3.450000
 20
      -99.975000
 30
        0.000000
 11
        3.450000
 21
      -98.575000
 31
        0.000000
  0
LINE
  8
LVL0000
 62
  3
 10
        5.950000
 20
      -99.975000
 30
        0.000000
 11
        5.950000
 21
      -98.575000
 31
        0.000000
  0
LINE
  8
LVL0000
 62
  3
 10
        3.450000
 20
      -99.975000
 30
        0.000000
 11
        5.950000
 21
      -99.975000
 31
        0.000000
  0
LINE
  8
LVL0000
 62
  3
 10
        7.650000
 20
      -99.975000
 30
        0.000000
 11
        7.650000
 21
      -98.575000
 31
        0.000000
  0
LINE
  8
LVL0000
 62
  3
 10
       11.850000
 20
      -98.575000
 30
        0.000000
 11
       14.350000
 21
      -98.575000
 31
        0.000000
  0
LINE
  8
LVL0000
 62
  3
 10
       11.850000
 20
      -99.975000
 30
        0.000000
 11
       11.850000
 21
      -98.575000
 31
        0.000000
  0
LINE
  8
LVL0000
 62
  3
 10
       18.550000
 20
      -99.975000
 30
        0.000000
 11
       18.550000
 21
      -98.575000
 31
        0.000000
  0
LINE
  8
LVL0000
 62
  3
 10
       16.050000
 20
      -99.975000
 30
        0.000000
 11
       18.550000
 21
      -99.975000
 31
        0.000000
  0
LINE
  8
LVL0000
 62
  3
 10
       16.050000
 20
      -98.575000
 30
        0.000000
 11
       18.550000
 21
      -98.575000
 31
        0.000000
  0
LINE
  8
LVL0000
 62
  3
 10
      -16.100000
 20
      -99.975000
 30
        0.000000
 11
      -16.100000
 21
      -98.575000
 31
        0.000000
  0
LINE
  8
LVL0000
 62
  3
 10
      -18.600000
 20
      -98.575000
 30
        0.000000
 11
      -16.100000
 21
      -98.575000
 31
        0.000000
  0
LINE
  8
LVL0000
 62
  3
 10
      -22.700000
 20
      -99.975000
 30
        0.000000
 11
      -22.700000
 21
      -98.575000
 31
        0.000000
  0
LINE
  8
LVL0000
 62
  3
 10
      -26.800000
 20
      -98.575000
 30
        0.000000
 11
      -24.300000
 21
      -98.575000
 31
        0.000000
  0
LINE
  8
LVL0000
 62
  3
 10
      -26.800000
 20
      -99.975000
 30
        0.000000
 11
      -26.800000
 21
      -98.575000
 31
        0.000000
  0
LINE
  8
LVL0000
 62
  3
 10
      -26.800000
 20
      -99.975000
 30
        0.000000
 11
      -24.300000
 21
      -99.975000
 31
        0.000000
  0
LINE
  8
LVL0000
 62
  3
 10
      -28.400000
 20
      -99.975000
 30
        0.000000
 11
      -28.400000
 21
      -98.575000
 31
        0.000000
  0
LINE
  8
LVL0000
 62
  3
 10
      -30.900000
 20
      -99.975000
 30
        0.000000
 11
      -28.400000
 21
      -99.975000
 31
        0.000000
  0
LINE
  8
LVL0000
 62
  3
 10
      -30.900000
 20
      -98.575000
 30
        0.000000
 11
      -28.400000
 21
      -98.575000
 31
        0.000000
  0
LINE
  8
LVL0000
 62
  3
 10
       28.650000
 20
      -98.575000
 30
        0.000000
 11
       31.150000
 21
      -98.575000
 31
        0.000000
  0
LINE
  8
LVL0000
 62
  3
 10
       28.650000
 20
      -99.975000
 30
        0.000000
 11
       28.650000
 21
      -98.575000
 31
        0.000000
  0
LINE
  8
LVL0000
 62
  3
 10
       28.650000
 20
      -99.975000
 30
        0.000000
 11
       31.150000
 21
      -99.975000
 31
        0.000000
  0
LINE
  8
LVL0000
 62
  3
 10
       26.950000
 20
      -99.975000
 30
        0.000000
 11
       26.950000
 21
      -98.575000
 31
        0.000000
  0
LINE
  8
LVL0000
 62
  3
 10
       24.450000
 20
      -98.575000
 30
        0.000000
 11
       26.950000
 21
      -98.575000
 31
        0.000000
  0
LINE
  8
LVL0000
 62
  3
 10
       24.450000
 20
      -99.975000
 30
        0.000000
 11
       24.450000
 21
      -98.575000
 31
        0.000000
  0
LINE
  8
LVL0000
 62
  3
 10
       24.450000
 20
      -99.975000
 30
        0.000000
 11
       26.950000
 21
      -99.975000
 31
        0.000000
  0
LINE
  8
LVL0000
 62
  3
 10
       45.450000
 20
      -98.575000
 30
        0.000000
 11
       47.950000
 21
      -98.575000
 31
        0.000000
  0
LINE
  8
LVL0000
 62
  3
 10
       45.450000
 20
      -99.975000
 30
        0.000000
 11
       45.450000
 21
      -98.575000
 31
        0.000000
  0
LINE
  8
LVL0000
 62
  3
 10
       45.450000
 20
      -99.975000
 30
        0.000000
 11
       47.950000
 21
      -99.975000
 31
        0.000000
  0
LINE
  8
LVL0000
 62
  3
 10
       43.750000
 20
      -99.975000
 30
        0.000000
 11
       43.750000
 21
      -98.575000
 31
        0.000000
  0
LINE
  8
LVL0000
 62
  3
 10
       41.250000
 20
      -98.575000
 30
        0.000000
 11
       43.750000
 21
      -98.575000
 31
        0.000000
  0
LINE
  8
LVL0000
 62
  3
 10
       41.250000
 20
      -99.975000
 30
        0.000000
 11
       41.250000
 21
      -98.575000
 31
        0.000000
  0
LINE
  8
LVL0000
 62
  3
 10
       47.950000
 20
      -99.975000
 30
        0.000000
 11
       47.950000
 21
      -98.575000
 31
        0.000000
  0
LINE
  8
LVL0000
 62
  3
 10
       41.250000
 20
      -99.975000
 30
        0.000000
 11
       43.750000
 21
      -99.975000
 31
        0.000000
  0
LINE
  8
LVL0000
 62
  3
 10
       39.550000
 20
      -99.975000
 30
        0.000000
 11
       39.550000
 21
      -98.575000
 31
        0.000000
  0
LINE
  8
LVL0000
 62
  3
 10
       37.050000
 20
      -98.575000
 30
        0.000000
 11
       39.550000
 21
      -98.575000
 31
        0.000000
  0
LINE
  8
LVL0000
 62
  3
 10
       37.050000
 20
      -99.975000
 30
        0.000000
 11
       37.050000
 21
      -98.575000
 31
        0.000000
  0
LINE
  8
LVL0000
 62
  3
 10
       37.050000
 20
      -99.975000
 30
        0.000000
 11
       39.550000
 21
      -99.975000
 31
        0.000000
  0
LINE
  8
LVL0000
 62
  3
 10
       35.350000
 20
      -99.975000
 30
        0.000000
 11
       35.350000
 21
      -98.575000
 31
        0.000000
  0
LINE
  8
LVL0000
 62
  3
 10
       32.850000
 20
      -98.575000
 30
        0.000000
 11
       35.350000
 21
      -98.575000
 31
        0.000000
  0
LINE
  8
LVL0000
 62
  3
 10
       32.850000
 20
      -99.975000
 30
        0.000000
 11
       32.850000
 21
      -98.575000
 31
        0.000000
  0
LINE
  8
LVL0000
 62
  3
 10
       32.850000
 20
      -99.975000
 30
        0.000000
 11
       35.350000
 21
      -99.975000
 31
        0.000000
  0
LINE
  8
LVL0000
 62
  3
 10
       31.150000
 20
      -99.975000
 30
        0.000000
 11
       31.150000
 21
      -98.575000
 31
        0.000000
  0
LINE
  8
LVL0000
 62
  3
 10
      -59.599991
 20
     -101.800000
 30
        0.000000
 11
      -32.939991
 21
     -101.800000
 31
        0.000000
  0
LINE
  8
LVL0000
 62
  3
 10
      -59.599991
 20
     -106.800000
 30
        0.000000
 11
      -32.939991
 21
     -106.800000
 31
        0.000000
  0
LINE
  8
LVL0000
 62
  3
 10
      -59.599991
 20
     -106.800000
 30
        0.000000
 11
      -59.599991
 21
     -101.800000
 31
        0.000000
  0
LINE
  8
LVL0000
 62
  3
 10
      -32.939991
 20
     -106.800000
 30
        0.000000
 11
      -32.939991
 21
     -101.800000
 31
        0.000000
  0
LINE
  8
LVL0000
 62
  3
 10
      -60.599991
 20
     -107.800000
 30
        0.000000
 11
      -31.939991
 21
     -107.800000
 31
        0.000000
  0
LINE
  8
LVL0000
 62
  3
 10
      -59.599991
 20
     -103.900000
 30
        0.000000
 11
      -32.939991
 21
     -103.900000
 31
        0.000000
  0
LINE
  8
LVL0000
 62
  3
 10
      -58.400000
 20
     -101.900000
 30
        0.000000
 11
      -58.400000
 21
     -103.900000
 31
        0.000000
  0
LINE
  8
LVL0000
 62
  3
 10
      -57.000000
 20
     -101.900000
 30
        0.000000
 11
      -57.000000
 21
     -103.900000
 31
        0.000000
  0
LINE
  8
LVL0000
 62
  3
 10
      -58.400000
 20
     -101.900000
 30
        0.000000
 11
      -57.000000
 21
     -101.900000
 31
        0.000000
  0
LINE
  8
LVL0000
 62
  3
 10
      -58.400000
 20
     -103.100000
 30
        0.000000
 11
      -57.000000
 21
     -103.100000
 31
        0.000000
  0
LINE
  8
LVL0000
 62
  3
 10
      -55.860000
 20
     -101.900000
 30
        0.000000
 11
      -55.860000
 21
     -103.900000
 31
        0.000000
  0
LINE
  8
LVL0000
 62
  3
 10
      -53.320000
 20
     -101.900000
 30
        0.000000
 11
      -53.320000
 21
     -103.900000
 31
        0.000000
  0
LINE
  8
LVL0000
 62
  3
 10
      -50.780000
 20
     -101.900000
 30
        0.000000
 11
      -50.780000
 21
     -103.900000
 31
        0.000000
  0
LINE
  8
LVL0000
 62
  3
 10
      -48.240000
 20
     -101.900000
 30
        0.000000
 11
      -48.240000
 21
     -103.900000
 31
        0.000000
  0
LINE
  8
LVL0000
 62
  3
 10
      -45.700000
 20
     -101.900000
 30
        0.000000
 11
      -45.700000
 21
     -103.900000
 31
        0.000000
  0
LINE
  8
LVL0000
 62
  3
 10
      -43.160000
 20
     -101.900000
 30
        0.000000
 11
      -43.160000
 21
     -103.900000
 31
        0.000000
  0
LINE
  8
LVL0000
 62
  3
 10
      -40.620000
 20
     -101.900000
 30
        0.000000
 11
      -40.620000
 21
     -103.900000
 31
        0.000000
  0
LINE
  8
LVL0000
 62
  3
 10
      -38.080000
 20
     -101.900000
 30
        0.000000
 11
      -38.080000
 21
     -103.900000
 31
        0.000000
  0
LINE
  8
LVL0000
 62
  3
 10
      -35.540000
 20
     -101.900000
 30
        0.000000
 11
      -35.540000
 21
     -103.900000
 31
        0.000000
  0
LINE
  8
LVL0000
 62
  3
 10
      -55.860000
 20
     -103.100000
 30
        0.000000
 11
      -54.460000
 21
     -103.100000
 31
        0.000000
  0
LINE
  8
LVL0000
 62
  3
 10
      -53.320000
 20
     -103.100000
 30
        0.000000
 11
      -51.920000
 21
     -103.100000
 31
        0.000000
  0
LINE
  8
LVL0000
 62
  3
 10
      -50.780000
 20
     -103.100000
 30
        0.000000
 11
      -49.380000
 21
     -103.100000
 31
        0.000000
  0
LINE
  8
LVL0000
 62
  3
 10
      -48.240000
 20
     -103.100000
 30
        0.000000
 11
      -46.840000
 21
     -103.100000
 31
        0.000000
  0
LINE
  8
LVL0000
 62
  3
 10
      -45.700000
 20
     -103.100000
 30
        0.000000
 11
      -44.300000
 21
     -103.100000
 31
        0.000000
  0
LINE
  8
LVL0000
 62
  3
 10
      -43.160000
 20
     -103.100000
 30
        0.000000
 11
      -41.760000
 21
     -103.100000
 31
        0.000000
  0
LINE
  8
LVL0000
 62
  3
 10
      -40.620000
 20
     -103.100000
 30
        0.000000
 11
      -39.220000
 21
     -103.100000
 31
        0.000000
  0
LINE
  8
LVL0000
 62
  3
 10
      -38.080000
 20
     -103.100000
 30
        0.000000
 11
      -36.680000
 21
     -103.100000
 31
        0.000000
  0
LINE
  8
LVL0000
 62
  3
 10
      -35.540000
 20
     -103.100000
 30
        0.000000
 11
      -34.140000
 21
     -103.100000
 31
        0.000000
  0
LINE
  8
LVL0000
 62
  3
 10
      -55.860000
 20
     -101.900000
 30
        0.000000
 11
      -54.460000
 21
     -101.900000
 31
        0.000000
  0
LINE
  8
LVL0000
 62
  3
 10
      -53.320000
 20
     -101.900000
 30
        0.000000
 11
      -51.920000
 21
     -101.900000
 31
        0.000000
  0
LINE
  8
LVL0000
 62
  3
 10
      -50.780000
 20
     -101.900000
 30
        0.000000
 11
      -49.380000
 21
     -101.900000
 31
        0.000000
  0
LINE
  8
LVL0000
 62
  3
 10
      -48.240000
 20
     -101.900000
 30
        0.000000
 11
      -46.840000
 21
     -101.900000
 31
        0.000000
  0
LINE
  8
LVL0000
 62
  3
 10
      -45.700000
 20
     -101.900000
 30
        0.000000
 11
      -44.300000
 21
     -101.900000
 31
        0.000000
  0
LINE
  8
LVL0000
 62
  3
 10
      -43.160000
 20
     -101.900000
 30
        0.000000
 11
      -41.760000
 21
     -101.900000
 31
        0.000000
  0
LINE
  8
LVL0000
 62
  3
 10
      -40.620000
 20
     -101.900000
 30
        0.000000
 11
      -39.220000
 21
     -101.900000
 31
        0.000000
  0
LINE
  8
LVL0000
 62
  3
 10
      -38.080000
 20
     -101.900000
 30
        0.000000
 11
      -36.680000
 21
     -101.900000
 31
        0.000000
  0
LINE
  8
LVL0000
 62
  3
 10
      -35.540000
 20
     -101.900000
 30
        0.000000
 11
      -34.140000
 21
     -101.900000
 31
        0.000000
  0
LINE
  8
LVL0000
 62
  3
 10
      -54.460000
 20
     -101.900000
 30
        0.000000
 11
      -54.460000
 21
     -103.900000
 31
        0.000000
  0
LINE
  8
LVL0000
 62
  3
 10
      -51.920000
 20
     -101.900000
 30
        0.000000
 11
      -51.920000
 21
     -103.900000
 31
        0.000000
  0
LINE
  8
LVL0000
 62
  3
 10
      -49.380000
 20
     -101.900000
 30
        0.000000
 11
      -49.380000
 21
     -103.900000
 31
        0.000000
  0
LINE
  8
LVL0000
 62
  3
 10
      -46.840000
 20
     -101.900000
 30
        0.000000
 11
      -46.840000
 21
     -103.900000
 31
        0.000000
  0
LINE
  8
LVL0000
 62
  3
 10
      -44.300000
 20
     -101.900000
 30
        0.000000
 11
      -44.300000
 21
     -103.900000
 31
        0.000000
  0
LINE
  8
LVL0000
 62
  3
 10
      -41.760000
 20
     -101.900000
 30
        0.000000
 11
      -41.760000
 21
     -103.900000
 31
        0.000000
  0
LINE
  8
LVL0000
 62
  3
 10
      -39.220000
 20
     -101.900000
 30
        0.000000
 11
      -39.220000
 21
     -103.900000
 31
        0.000000
  0
LINE
  8
LVL0000
 62
  3
 10
      -36.680000
 20
     -101.900000
 30
        0.000000
 11
      -36.680000
 21
     -103.900000
 31
        0.000000
  0
LINE
  8
LVL0000
 62
  3
 10
      -34.140000
 20
     -101.900000
 30
        0.000000
 11
      -34.140000
 21
     -103.900000
 31
        0.000000
  0
LINE
  8
LVL0000
 62
  3
 10
       56.850000
 20
     -100.475000
 30
        0.000000
 11
       56.850000
 21
      -98.075000
 31
        0.000000
  0
LINE
  8
LVL0000
 62
  3
 10
       53.850000
 20
      -98.575000
 30
        0.000000
 11
       56.350000
 21
      -98.575000
 31
        0.000000
  0
LINE
  8
LVL0000
 62
  3
 10
       53.850000
 20
      -99.975000
 30
        0.000000
 11
       53.850000
 21
      -98.575000
 31
        0.000000
  0
LINE
  8
LVL0000
 62
  3
 10
       56.350000
 20
      -99.975000
 30
        0.000000
 11
       56.350000
 21
      -98.575000
 31
        0.000000
  0
LINE
  8
LVL0000
 62
  3
 10
       52.150000
 20
      -99.975000
 30
        0.000000
 11
       52.150000
 21
      -98.575000
 31
        0.000000
  0
LINE
  8
LVL0000
 62
  3
 10
       53.850000
 20
      -99.975000
 30
        0.000000
 11
       56.350000
 21
      -99.975000
 31
        0.000000
  0
LINE
  8
LVL0000
 62
  3
 10
       49.650000
 20
      -99.975000
 30
        0.000000
 11
       49.650000
 21
      -98.575000
 31
        0.000000
  0
LINE
  8
LVL0000
 62
  3
 10
       49.650000
 20
      -99.975000
 30
        0.000000
 11
       52.150000
 21
      -99.975000
 31
        0.000000
  0
LINE
  8
LVL0000
 62
  3
 10
       49.650000
 20
      -98.575000
 30
        0.000000
 11
       52.150000
 21
      -98.575000
 31
        0.000000
  0
LINE
  8
LVL0000
 62
  3
 10
      109.815000
 20
     -147.200000
 30
        0.000000
 11
      129.015000
 21
     -147.200000
 31
        0.000000
  0
LINE
  8
LVL0000
 62
  3
 10
      105.815000
 20
     -133.150000
 30
        0.000000
 11
      104.515000
 21
     -133.036265
 31
        0.000000
  0
LINE
  8
LVL0000
 62
  3
 10
      104.515000
 20
     -126.963735
 30
        0.000000
 11
      104.515000
 21
     -133.036265
 31
        0.000000
  0
LINE
  8
LVL0000
 62
  3
 10
      113.915000
 20
     -144.800000
 30
        0.000000
 11
      113.915000
 21
     -139.100000
 31
        0.000000
  0
LINE
  8
LVL0000
 62
  3
 10
      113.915000
 20
     -144.800000
 30
        0.000000
 11
      115.115000
 21
     -144.800000
 31
        0.000000
  0
LINE
  8
LVL0000
 62
  3
 10
      105.815000
 20
     -124.500000
 30
        0.000000
 11
      125.015000
 21
     -124.500000
 31
        0.000000
  0
LINE
  8
LVL0000
 62
  3
 10
      105.815000
 20
     -143.200000
 30
        0.000000
 11
      105.815000
 21
     -124.500000
 31
        0.000000
  0
LINE
  8
LVL0000
 62
  3
 10
        7.950000
 20
     -136.800000
 30
        0.000000
 11
        7.950000
 21
     -143.800000
 31
        0.000000
  0
LINE
  8
LVL0000
 62
  3
 10
        0.950000
 20
     -136.800000
 30
        0.000000
 11
        7.950000
 21
     -136.800000
 31
        0.000000
  0
LINE
  8
LVL0000
 62
  3
 10
        0.950000
 20
     -136.800000
 30
        0.000000
 11
        0.950000
 21
     -143.800000
 31
        0.000000
  0
LINE
  8
LVL0000
 62
  3
 10
        0.950000
 20
     -143.800000
 30
        0.000000
 11
        7.950000
 21
     -143.800000
 31
        0.000000
  0
CIRCLE
  8
LVL0000
 62
  3
 10
        4.450000
 20
     -140.300000
 30
        0.000000
 40
        2.750000
  0
LINE
  8
LVL0000
 62
  3
 10
        4.900000
 20
     -138.585999
 30
        0.000000
 11
        4.000000
 21
     -138.585999
 31
        0.000000
  0
LINE
  8
LVL0000
 62
  3
 10
        4.900000
 20
     -141.886000
 30
        0.000000
 11
        4.000000
 21
     -141.886000
 31
        0.000000
  0
LINE
  8
LVL0000
 62
  3
 10
        2.800000
 20
     -140.686000
 30
        0.000000
 11
        2.800000
 21
     -139.786002
 31
        0.000000
  0
LINE
  8
LVL0000
 62
  3
 10
        6.100000
 20
     -140.686000
 30
        0.000000
 11
        6.100000
 21
     -139.786002
 31
        0.000000
  0
LINE
  8
LVL0000
 62
  3
 10
        4.900000
 20
     -141.886000
 30
        0.000000
 11
        4.900000
 21
     -141.135999
 31
        0.000000
  0
LINE
  8
LVL0000
 62
  3
 10
        4.000000
 20
     -141.886000
 30
        0.000000
 11
        4.000000
 21
     -141.135999
 31
        0.000000
  0
LINE
  8
LVL0000
 62
  3
 10
        6.100000
 20
     -139.786002
 30
        0.000000
 11
        5.350000
 21
     -139.786002
 31
        0.000000
  0
LINE
  8
LVL0000
 62
  3
 10
        6.100000
 20
     -140.686000
 30
        0.000000
 11
        5.350000
 21
     -140.686000
 31
        0.000000
  0
LINE
  8
LVL0000
 62
  3
 10
        3.550000
 20
     -139.786002
 30
        0.000000
 11
        2.800000
 21
     -139.786002
 31
        0.000000
  0
LINE
  8
LVL0000
 62
  3
 10
        3.550000
 20
     -140.686000
 30
        0.000000
 11
        2.800000
 21
     -140.686000
 31
        0.000000
  0
LINE
  8
LVL0000
 62
  3
 10
        4.000000
 20
     -139.336003
 30
        0.000000
 11
        4.000000
 21
     -138.585999
 31
        0.000000
  0
LINE
  8
LVL0000
 62
  3
 10
        4.900000
 20
     -139.336003
 30
        0.000000
 11
        4.900000
 21
     -138.585999
 31
        0.000000
  0
ARC
  8
LVL0000
 62
  3
 10
        3.550000
 20
     -139.336003
 30
        0.000000
 40
        0.449999
 50
      270.000000
 51
      360.000000
  0
ARC
  8
LVL0000
 62
  3
 10
        5.350000
 20
     -139.336003
 30
        0.000000
 40
        0.450000
 50
      180.000010
 51
      270.000000
  0
ARC
  8
LVL0000
 62
  3
 10
        5.350000
 20
     -141.135999
 30
        0.000000
 40
        0.449999
 50
       90.000000
 51
      180.000010
  0
ARC
  8
LVL0000
 62
  3
 10
        3.550000
 20
     -141.135999
 30
        0.000000
 40
        0.450000
 50
        0.000000
 51
       90.000000
  0
LINE
  8
LVL0000
 62
  3
 10
       -7.950000
 20
     -136.800000
 30
        0.000000
 11
       -7.950000
 21
     -143.800000
 31
        0.000000
  0
LINE
  8
LVL0000
 62
  3
 10
       -0.950000
 20
     -136.800000
 30
        0.000000
 11
       -7.950000
 21
     -136.800000
 31
        0.000000
  0
LINE
  8
LVL0000
 62
  3
 10
       -0.950000
 20
     -136.800000
 30
        0.000000
 11
       -0.950000
 21
     -143.800000
 31
        0.000000
  0
LINE
  8
LVL0000
 62
  3
 10
       -0.950000
 20
     -143.800000
 30
        0.000000
 11
       -7.950000
 21
     -143.800000
 31
        0.000000
  0
CIRCLE
  8
LVL0000
 62
  3
 10
       -4.450000
 20
     -140.300000
 30
        0.000000
 40
        2.750000
  0
LINE
  8
LVL0000
 62
  3
 10
       -4.900000
 20
     -138.585999
 30
        0.000000
 11
       -4.000000
 21
     -138.585999
 31
        0.000000
  0
LINE
  8
LVL0000
 62
  3
 10
       -4.900000
 20
     -141.886000
 30
        0.000000
 11
       -4.000000
 21
     -141.886000
 31
        0.000000
  0
LINE
  8
LVL0000
 62
  3
 10
       -2.800000
 20
     -140.686000
 30
        0.000000
 11
       -2.800000
 21
     -139.786002
 31
        0.000000
  0
LINE
  8
LVL0000
 62
  3
 10
       -6.100000
 20
     -140.686000
 30
        0.000000
 11
       -6.100000
 21
     -139.786002
 31
        0.000000
  0
LINE
  8
LVL0000
 62
  3
 10
       -4.900000
 20
     -141.886000
 30
        0.000000
 11
       -4.900000
 21
     -141.135999
 31
        0.000000
  0
LINE
  8
LVL0000
 62
  3
 10
       -4.000000
 20
     -141.886000
 30
        0.000000
 11
       -4.000000
 21
     -141.135999
 31
        0.000000
  0
LINE
  8
LVL0000
 62
  3
 10
       -6.100000
 20
     -139.786002
 30
        0.000000
 11
       -5.350000
 21
     -139.786002
 31
        0.000000
  0
LINE
  8
LVL0000
 62
  3
 10
       -6.100000
 20
     -140.686000
 30
        0.000000
 11
       -5.350000
 21
     -140.686000
 31
        0.000000
  0
LINE
  8
LVL0000
 62
  3
 10
       -3.550000
 20
     -139.786002
 30
        0.000000
 11
       -2.800000
 21
     -139.786002
 31
        0.000000
  0
LINE
  8
LVL0000
 62
  3
 10
       -3.550000
 20
     -140.686000
 30
        0.000000
 11
       -2.800000
 21
     -140.686000
 31
        0.000000
  0
LINE
  8
LVL0000
 62
  3
 10
       -4.000000
 20
     -139.336003
 30
        0.000000
 11
       -4.000000
 21
     -138.585999
 31
        0.000000
  0
LINE
  8
LVL0000
 62
  3
 10
       -4.900000
 20
     -139.336003
 30
        0.000000
 11
       -4.900000
 21
     -138.585999
 31
        0.000000
  0
ARC
  8
LVL0000
 62
  3
 10
       -3.550000
 20
     -139.336003
 30
        0.000000
 40
        0.449999
 50
      179.999995
 51
      270.000000
  0
ARC
  8
LVL0000
 62
  3
 10
       -5.350000
 20
     -139.336003
 30
        0.000000
 40
        0.450000
 50
      270.000000
 51
      359.999995
  0
ARC
  8
LVL0000
 62
  3
 10
       -5.350000
 20
     -141.135999
 30
        0.000000
 40
        0.449999
 50
      359.999995
 51
      450.000000
  0
ARC
  8
LVL0000
 62
  3
 10
       -3.550000
 20
     -141.135999
 30
        0.000000
 40
        0.450000
 50
       90.000000
 51
      179.999995
  0
LINE
  8
LVL0000
 62
  3
 10
       19.000000
 20
     -136.800000
 30
        0.000000
 11
       19.000000
 21
     -143.800000
 31
        0.000000
  0
LINE
  8
LVL0000
 62
  3
 10
       12.000000
 20
     -136.800000
 30
        0.000000
 11
       19.000000
 21
     -136.800000
 31
        0.000000
  0
LINE
  8
LVL0000
 62
  3
 10
       12.000000
 20
     -136.800000
 30
        0.000000
 11
       12.000000
 21
     -143.800000
 31
        0.000000
  0
LINE
  8
LVL0000
 62
  3
 10
       12.000000
 20
     -143.800000
 30
        0.000000
 11
       19.000000
 21
     -143.800000
 31
        0.000000
  0
CIRCLE
  8
LVL0000
 62
  3
 10
       15.500000
 20
     -140.300000
 30
        0.000000
 40
        2.750000
  0
LINE
  8
LVL0000
 62
  3
 10
       15.950000
 20
     -138.585999
 30
        0.000000
 11
       15.050000
 21
     -138.585999
 31
        0.000000
  0
LINE
  8
LVL0000
 62
  3
 10
       15.950000
 20
     -141.886000
 30
        0.000000
 11
       15.050000
 21
     -141.886000
 31
        0.000000
  0
LINE
  8
LVL0000
 62
  3
 10
       13.850000
 20
     -140.686000
 30
        0.000000
 11
       13.850000
 21
     -139.786002
 31
        0.000000
  0
LINE
  8
LVL0000
 62
  3
 10
       17.150000
 20
     -140.686000
 30
        0.000000
 11
       17.150000
 21
     -139.786002
 31
        0.000000
  0
LINE
  8
LVL0000
 62
  3
 10
       15.950000
 20
     -141.886000
 30
        0.000000
 11
       15.950000
 21
     -141.135999
 31
        0.000000
  0
LINE
  8
LVL0000
 62
  3
 10
       15.050000
 20
     -141.886000
 30
        0.000000
 11
       15.050000
 21
     -141.135999
 31
        0.000000
  0
LINE
  8
LVL0000
 62
  3
 10
       17.150000
 20
     -139.786002
 30
        0.000000
 11
       16.400000
 21
     -139.786002
 31
        0.000000
  0
LINE
  8
LVL0000
 62
  3
 10
       17.150000
 20
     -140.686000
 30
        0.000000
 11
       16.400000
 21
     -140.686000
 31
        0.000000
  0
LINE
  8
LVL0000
 62
  3
 10
       14.600000
 20
     -139.786002
 30
        0.000000
 11
       13.850000
 21
     -139.786002
 31
        0.000000
  0
LINE
  8
LVL0000
 62
  3
 10
       14.600000
 20
     -140.686000
 30
        0.000000
 11
       13.850000
 21
     -140.686000
 31
        0.000000
  0
LINE
  8
LVL0000
 62
  3
 10
       15.050000
 20
     -139.336003
 30
        0.000000
 11
       15.050000
 21
     -138.585999
 31
        0.000000
  0
LINE
  8
LVL0000
 62
  3
 10
       15.950000
 20
     -139.336003
 30
        0.000000
 11
       15.950000
 21
     -138.585999
 31
        0.000000
  0
ARC
  8
LVL0000
 62
  3
 10
       14.600000
 20
     -139.336003
 30
        0.000000
 40
        0.449999
 50
      270.000000
 51
      360.000000
  0
ARC
  8
LVL0000
 62
  3
 10
       16.400000
 20
     -139.336003
 30
        0.000000
 40
        0.450000
 50
      180.000010
 51
      270.000000
  0
ARC
  8
LVL0000
 62
  3
 10
       16.400000
 20
     -141.135999
 30
        0.000000
 40
        0.449999
 50
       90.000000
 51
      180.000010
  0
ARC
  8
LVL0000
 62
  3
 10
       14.600000
 20
     -141.135999
 30
        0.000000
 40
        0.450000
 50
        0.000000
 51
       90.000000
  0
LINE
  8
LVL0000
 62
  3
 10
       26.500000
 20
     -136.800000
 30
        0.000000
 11
       26.500000
 21
     -143.800000
 31
        0.000000
  0
LINE
  8
LVL0000
 62
  3
 10
       19.500000
 20
     -136.800000
 30
        0.000000
 11
       26.500000
 21
     -136.800000
 31
        0.000000
  0
LINE
  8
LVL0000
 62
  3
 10
       19.500000
 20
     -136.800000
 30
        0.000000
 11
       19.500000
 21
     -143.800000
 31
        0.000000
  0
LINE
  8
LVL0000
 62
  3
 10
       19.500000
 20
     -143.800000
 30
        0.000000
 11
       26.500000
 21
     -143.800000
 31
        0.000000
  0
CIRCLE
  8
LVL0000
 62
  3
 10
       23.000000
 20
     -140.300000
 30
        0.000000
 40
        2.750000
  0
LINE
  8
LVL0000
 62
  3
 10
       23.450000
 20
     -138.585999
 30
        0.000000
 11
       22.550000
 21
     -138.585999
 31
        0.000000
  0
LINE
  8
LVL0000
 62
  3
 10
       23.450000
 20
     -141.886000
 30
        0.000000
 11
       22.550000
 21
     -141.886000
 31
        0.000000
  0
LINE
  8
LVL0000
 62
  3
 10
       21.350000
 20
     -140.686000
 30
        0.000000
 11
       21.350000
 21
     -139.786002
 31
        0.000000
  0
LINE
  8
LVL0000
 62
  3
 10
       24.650000
 20
     -140.686000
 30
        0.000000
 11
       24.650000
 21
     -139.786002
 31
        0.000000
  0
LINE
  8
LVL0000
 62
  3
 10
       23.450000
 20
     -141.886000
 30
        0.000000
 11
       23.450000
 21
     -141.135999
 31
        0.000000
  0
LINE
  8
LVL0000
 62
  3
 10
       22.550000
 20
     -141.886000
 30
        0.000000
 11
       22.550000
 21
     -141.135999
 31
        0.000000
  0
LINE
  8
LVL0000
 62
  3
 10
       24.650000
 20
     -139.786002
 30
        0.000000
 11
       23.900000
 21
     -139.786002
 31
        0.000000
  0
LINE
  8
LVL0000
 62
  3
 10
       24.650000
 20
     -140.686000
 30
        0.000000
 11
       23.900000
 21
     -140.686000
 31
        0.000000
  0
LINE
  8
LVL0000
 62
  3
 10
       22.100000
 20
     -139.786002
 30
        0.000000
 11
       21.350000
 21
     -139.786002
 31
        0.000000
  0
LINE
  8
LVL0000
 62
  3
 10
       22.100000
 20
     -140.686000
 30
        0.000000
 11
       21.350000
 21
     -140.686000
 31
        0.000000
  0
LINE
  8
LVL0000
 62
  3
 10
       22.550000
 20
     -139.336003
 30
        0.000000
 11
       22.550000
 21
     -138.585999
 31
        0.000000
  0
LINE
  8
LVL0000
 62
  3
 10
       23.450000
 20
     -139.336003
 30
        0.000000
 11
       23.450000
 21
     -138.585999
 31
        0.000000
  0
ARC
  8
LVL0000
 62
  3
 10
       22.100000
 20
     -139.336003
 30
        0.000000
 40
        0.449999
 50
      270.000000
 51
      360.000000
  0
ARC
  8
LVL0000
 62
  3
 10
       23.900000
 20
     -139.336003
 30
        0.000000
 40
        0.450000
 50
      180.000010
 51
      270.000000
  0
ARC
  8
LVL0000
 62
  3
 10
       23.900000
 20
     -141.135999
 30
        0.000000
 40
        0.449999
 50
       90.000000
 51
      180.000010
  0
ARC
  8
LVL0000
 62
  3
 10
       22.100000
 20
     -141.135999
 30
        0.000000
 40
        0.450000
 50
        0.000000
 51
       90.000000
  0
LINE
  8
LVL0000
 62
  3
 10
       34.000000
 20
     -136.800000
 30
        0.000000
 11
       34.000000
 21
     -143.800000
 31
        0.000000
  0
LINE
  8
LVL0000
 62
  3
 10
       27.000000
 20
     -136.800000
 30
        0.000000
 11
       34.000000
 21
     -136.800000
 31
        0.000000
  0
LINE
  8
LVL0000
 62
  3
 10
       27.000000
 20
     -136.800000
 30
        0.000000
 11
       27.000000
 21
     -143.800000
 31
        0.000000
  0
LINE
  8
LVL0000
 62
  3
 10
       27.000000
 20
     -143.800000
 30
        0.000000
 11
       34.000000
 21
     -143.800000
 31
        0.000000
  0
CIRCLE
  8
LVL0000
 62
  3
 10
       30.500000
 20
     -140.300000
 30
        0.000000
 40
        2.750000
  0
LINE
  8
LVL0000
 62
  3
 10
       30.950000
 20
     -138.585999
 30
        0.000000
 11
       30.050000
 21
     -138.585999
 31
        0.000000
  0
LINE
  8
LVL0000
 62
  3
 10
       30.950000
 20
     -141.886000
 30
        0.000000
 11
       30.050000
 21
     -141.886000
 31
        0.000000
  0
LINE
  8
LVL0000
 62
  3
 10
       28.850000
 20
     -140.686000
 30
        0.000000
 11
       28.850000
 21
     -139.786002
 31
        0.000000
  0
LINE
  8
LVL0000
 62
  3
 10
       32.150000
 20
     -140.686000
 30
        0.000000
 11
       32.150000
 21
     -139.786002
 31
        0.000000
  0
LINE
  8
LVL0000
 62
  3
 10
       30.950000
 20
     -141.886000
 30
        0.000000
 11
       30.950000
 21
     -141.135999
 31
        0.000000
  0
LINE
  8
LVL0000
 62
  3
 10
       30.050000
 20
     -141.886000
 30
        0.000000
 11
       30.050000
 21
     -141.135999
 31
        0.000000
  0
LINE
  8
LVL0000
 62
  3
 10
       32.150000
 20
     -139.786002
 30
        0.000000
 11
       31.400000
 21
     -139.786002
 31
        0.000000
  0
LINE
  8
LVL0000
 62
  3
 10
       32.150000
 20
     -140.686000
 30
        0.000000
 11
       31.400000
 21
     -140.686000
 31
        0.000000
  0
LINE
  8
LVL0000
 62
  3
 10
       29.600000
 20
     -139.786002
 30
        0.000000
 11
       28.850000
 21
     -139.786002
 31
        0.000000
  0
LINE
  8
LVL0000
 62
  3
 10
       29.600000
 20
     -140.686000
 30
        0.000000
 11
       28.850000
 21
     -140.686000
 31
        0.000000
  0
LINE
  8
LVL0000
 62
  3
 10
       30.050000
 20
     -139.336003
 30
        0.000000
 11
       30.050000
 21
     -138.585999
 31
        0.000000
  0
LINE
  8
LVL0000
 62
  3
 10
       30.950000
 20
     -139.336003
 30
        0.000000
 11
       30.950000
 21
     -138.585999
 31
        0.000000
  0
ARC
  8
LVL0000
 62
  3
 10
       29.600000
 20
     -139.336003
 30
        0.000000
 40
        0.449999
 50
      270.000000
 51
      360.000000
  0
ARC
  8
LVL0000
 62
  3
 10
       31.400000
 20
     -139.336003
 30
        0.000000
 40
        0.450000
 50
      180.000010
 51
      270.000000
  0
ARC
  8
LVL0000
 62
  3
 10
       31.400000
 20
     -141.135999
 30
        0.000000
 40
        0.449999
 50
       90.000000
 51
      180.000010
  0
ARC
  8
LVL0000
 62
  3
 10
       29.600000
 20
     -141.135999
 30
        0.000000
 40
        0.450000
 50
        0.000000
 51
       90.000000
  0
LINE
  8
LVL0000
 62
  3
 10
       41.500000
 20
     -136.800000
 30
        0.000000
 11
       41.500000
 21
     -143.800000
 31
        0.000000
  0
LINE
  8
LVL0000
 62
  3
 10
       34.500000
 20
     -136.800000
 30
        0.000000
 11
       41.500000
 21
     -136.800000
 31
        0.000000
  0
LINE
  8
LVL0000
 62
  3
 10
       34.500000
 20
     -136.800000
 30
        0.000000
 11
       34.500000
 21
     -143.800000
 31
        0.000000
  0
LINE
  8
LVL0000
 62
  3
 10
       34.500000
 20
     -143.800000
 30
        0.000000
 11
       41.500000
 21
     -143.800000
 31
        0.000000
  0
CIRCLE
  8
LVL0000
 62
  3
 10
       38.000000
 20
     -140.300000
 30
        0.000000
 40
        2.750000
  0
LINE
  8
LVL0000
 62
  3
 10
       38.450000
 20
     -138.585999
 30
        0.000000
 11
       37.550000
 21
     -138.585999
 31
        0.000000
  0
LINE
  8
LVL0000
 62
  3
 10
       38.450000
 20
     -141.886000
 30
        0.000000
 11
       37.550000
 21
     -141.886000
 31
        0.000000
  0
LINE
  8
LVL0000
 62
  3
 10
       36.350000
 20
     -140.686000
 30
        0.000000
 11
       36.350000
 21
     -139.786002
 31
        0.000000
  0
LINE
  8
LVL0000
 62
  3
 10
       39.650000
 20
     -140.686000
 30
        0.000000
 11
       39.650000
 21
     -139.786002
 31
        0.000000
  0
LINE
  8
LVL0000
 62
  3
 10
       38.450000
 20
     -141.886000
 30
        0.000000
 11
       38.450000
 21
     -141.135999
 31
        0.000000
  0
LINE
  8
LVL0000
 62
  3
 10
       37.550000
 20
     -141.886000
 30
        0.000000
 11
       37.550000
 21
     -141.135999
 31
        0.000000
  0
LINE
  8
LVL0000
 62
  3
 10
       39.650000
 20
     -139.786002
 30
        0.000000
 11
       38.900000
 21
     -139.786002
 31
        0.000000
  0
LINE
  8
LVL0000
 62
  3
 10
       39.650000
 20
     -140.686000
 30
        0.000000
 11
       38.900000
 21
     -140.686000
 31
        0.000000
  0
LINE
  8
LVL0000
 62
  3
 10
       37.100000
 20
     -139.786002
 30
        0.000000
 11
       36.350000
 21
     -139.786002
 31
        0.000000
  0
LINE
  8
LVL0000
 62
  3
 10
       37.100000
 20
     -140.686000
 30
        0.000000
 11
       36.350000
 21
     -140.686000
 31
        0.000000
  0
LINE
  8
LVL0000
 62
  3
 10
       37.550000
 20
     -139.336003
 30
        0.000000
 11
       37.550000
 21
     -138.585999
 31
        0.000000
  0
LINE
  8
LVL0000
 62
  3
 10
       38.450000
 20
     -139.336003
 30
        0.000000
 11
       38.450000
 21
     -138.585999
 31
        0.000000
  0
ARC
  8
LVL0000
 62
  3
 10
       37.100000
 20
     -139.336003
 30
        0.000000
 40
        0.449999
 50
      270.000000
 51
      360.000000
  0
ARC
  8
LVL0000
 62
  3
 10
       38.900000
 20
     -139.336003
 30
        0.000000
 40
        0.450000
 50
      180.000010
 51
      270.000000
  0
ARC
  8
LVL0000
 62
  3
 10
       38.900000
 20
     -141.135999
 30
        0.000000
 40
        0.449999
 50
       90.000000
 51
      180.000010
  0
ARC
  8
LVL0000
 62
  3
 10
       37.100000
 20
     -141.135999
 30
        0.000000
 40
        0.450000
 50
        0.000000
 51
       90.000000
  0
LINE
  8
LVL0000
 62
  3
 10
       49.000000
 20
     -136.800000
 30
        0.000000
 11
       49.000000
 21
     -143.800000
 31
        0.000000
  0
LINE
  8
LVL0000
 62
  3
 10
       42.000000
 20
     -136.800000
 30
        0.000000
 11
       49.000000
 21
     -136.800000
 31
        0.000000
  0
LINE
  8
LVL0000
 62
  3
 10
       42.000000
 20
     -136.800000
 30
        0.000000
 11
       42.000000
 21
     -143.800000
 31
        0.000000
  0
LINE
  8
LVL0000
 62
  3
 10
       42.000000
 20
     -143.800000
 30
        0.000000
 11
       49.000000
 21
     -143.800000
 31
        0.000000
  0
CIRCLE
  8
LVL0000
 62
  3
 10
       45.500000
 20
     -140.300000
 30
        0.000000
 40
        2.750000
  0
LINE
  8
LVL0000
 62
  3
 10
       45.950000
 20
     -138.585999
 30
        0.000000
 11
       45.050000
 21
     -138.585999
 31
        0.000000
  0
LINE
  8
LVL0000
 62
  3
 10
       45.950000
 20
     -141.886000
 30
        0.000000
 11
       45.050000
 21
     -141.886000
 31
        0.000000
  0
LINE
  8
LVL0000
 62
  3
 10
       43.850000
 20
     -140.686000
 30
        0.000000
 11
       43.850000
 21
     -139.786002
 31
        0.000000
  0
LINE
  8
LVL0000
 62
  3
 10
       47.150000
 20
     -140.686000
 30
        0.000000
 11
       47.150000
 21
     -139.786002
 31
        0.000000
  0
LINE
  8
LVL0000
 62
  3
 10
       45.950000
 20
     -141.886000
 30
        0.000000
 11
       45.950000
 21
     -141.135999
 31
        0.000000
  0
LINE
  8
LVL0000
 62
  3
 10
       45.050000
 20
     -141.886000
 30
        0.000000
 11
       45.050000
 21
     -141.135999
 31
        0.000000
  0
LINE
  8
LVL0000
 62
  3
 10
       47.150000
 20
     -139.786002
 30
        0.000000
 11
       46.400000
 21
     -139.786002
 31
        0.000000
  0
LINE
  8
LVL0000
 62
  3
 10
       47.150000
 20
     -140.686000
 30
        0.000000
 11
       46.400000
 21
     -140.686000
 31
        0.000000
  0
LINE
  8
LVL0000
 62
  3
 10
       44.600000
 20
     -139.786002
 30
        0.000000
 11
       43.850000
 21
     -139.786002
 31
        0.000000
  0
LINE
  8
LVL0000
 62
  3
 10
       44.600000
 20
     -140.686000
 30
        0.000000
 11
       43.850000
 21
     -140.686000
 31
        0.000000
  0
LINE
  8
LVL0000
 62
  3
 10
       45.050000
 20
     -139.336003
 30
        0.000000
 11
       45.050000
 21
     -138.585999
 31
        0.000000
  0
LINE
  8
LVL0000
 62
  3
 10
       45.950000
 20
     -139.336003
 30
        0.000000
 11
       45.950000
 21
     -138.585999
 31
        0.000000
  0
ARC
  8
LVL0000
 62
  3
 10
       44.600000
 20
     -139.336003
 30
        0.000000
 40
        0.449999
 50
      270.000000
 51
      360.000000
  0
ARC
  8
LVL0000
 62
  3
 10
       46.400000
 20
     -139.336003
 30
        0.000000
 40
        0.450000
 50
      180.000010
 51
      270.000000
  0
ARC
  8
LVL0000
 62
  3
 10
       46.400000
 20
     -141.135999
 30
        0.000000
 40
        0.449999
 50
       90.000000
 51
      180.000010
  0
ARC
  8
LVL0000
 62
  3
 10
       44.600000
 20
     -141.135999
 30
        0.000000
 40
        0.450000
 50
        0.000000
 51
       90.000000
  0
LINE
  8
LVL0000
 62
  3
 10
       56.500000
 20
     -136.800000
 30
        0.000000
 11
       56.500000
 21
     -143.800000
 31
        0.000000
  0
LINE
  8
LVL0000
 62
  3
 10
       49.500000
 20
     -136.800000
 30
        0.000000
 11
       56.500000
 21
     -136.800000
 31
        0.000000
  0
LINE
  8
LVL0000
 62
  3
 10
       49.500000
 20
     -136.800000
 30
        0.000000
 11
       49.500000
 21
     -143.800000
 31
        0.000000
  0
LINE
  8
LVL0000
 62
  3
 10
       49.500000
 20
     -143.800000
 30
        0.000000
 11
       56.500000
 21
     -143.800000
 31
        0.000000
  0
CIRCLE
  8
LVL0000
 62
  3
 10
       53.000000
 20
     -140.300000
 30
        0.000000
 40
        2.750000
  0
LINE
  8
LVL0000
 62
  3
 10
       53.450000
 20
     -138.585999
 30
        0.000000
 11
       52.550000
 21
     -138.585999
 31
        0.000000
  0
LINE
  8
LVL0000
 62
  3
 10
       53.450000
 20
     -141.886000
 30
        0.000000
 11
       52.550000
 21
     -141.886000
 31
        0.000000
  0
LINE
  8
LVL0000
 62
  3
 10
       51.350000
 20
     -140.686000
 30
        0.000000
 11
       51.350000
 21
     -139.786002
 31
        0.000000
  0
LINE
  8
LVL0000
 62
  3
 10
       54.650000
 20
     -140.686000
 30
        0.000000
 11
       54.650000
 21
     -139.786002
 31
        0.000000
  0
LINE
  8
LVL0000
 62
  3
 10
       53.450000
 20
     -141.886000
 30
        0.000000
 11
       53.450000
 21
     -141.135999
 31
        0.000000
  0
LINE
  8
LVL0000
 62
  3
 10
       52.550000
 20
     -141.886000
 30
        0.000000
 11
       52.550000
 21
     -141.135999
 31
        0.000000
  0
LINE
  8
LVL0000
 62
  3
 10
       54.650000
 20
     -139.786002
 30
        0.000000
 11
       53.900000
 21
     -139.786002
 31
        0.000000
  0
LINE
  8
LVL0000
 62
  3
 10
       54.650000
 20
     -140.686000
 30
        0.000000
 11
       53.900000
 21
     -140.686000
 31
        0.000000
  0
LINE
  8
LVL0000
 62
  3
 10
       52.100000
 20
     -139.786002
 30
        0.000000
 11
       51.350000
 21
     -139.786002
 31
        0.000000
  0
LINE
  8
LVL0000
 62
  3
 10
       52.100000
 20
     -140.686000
 30
        0.000000
 11
       51.350000
 21
     -140.686000
 31
        0.000000
  0
LINE
  8
LVL0000
 62
  3
 10
       52.550000
 20
     -139.336003
 30
        0.000000
 11
       52.550000
 21
     -138.585999
 31
        0.000000
  0
LINE
  8
LVL0000
 62
  3
 10
       53.450000
 20
     -139.336003
 30
        0.000000
 11
       53.450000
 21
     -138.585999
 31
        0.000000
  0
ARC
  8
LVL0000
 62
  3
 10
       52.100000
 20
     -139.336003
 30
        0.000000
 40
        0.449999
 50
      270.000000
 51
      360.000000
  0
ARC
  8
LVL0000
 62
  3
 10
       53.900000
 20
     -139.336003
 30
        0.000000
 40
        0.450000
 50
      180.000010
 51
      270.000000
  0
ARC
  8
LVL0000
 62
  3
 10
       53.900000
 20
     -141.135999
 30
        0.000000
 40
        0.449999
 50
       90.000000
 51
      180.000010
  0
ARC
  8
LVL0000
 62
  3
 10
       52.100000
 20
     -141.135999
 30
        0.000000
 40
        0.450000
 50
        0.000000
 51
       90.000000
  0
LINE
  8
LVL0000
 62
  3
 10
       64.000000
 20
     -136.800000
 30
        0.000000
 11
       64.000000
 21
     -143.800000
 31
        0.000000
  0
LINE
  8
LVL0000
 62
  3
 10
       57.000000
 20
     -136.800000
 30
        0.000000
 11
       64.000000
 21
     -136.800000
 31
        0.000000
  0
LINE
  8
LVL0000
 62
  3
 10
       57.000000
 20
     -136.800000
 30
        0.000000
 11
       57.000000
 21
     -143.800000
 31
        0.000000
  0
LINE
  8
LVL0000
 62
  3
 10
       57.000000
 20
     -143.800000
 30
        0.000000
 11
       64.000000
 21
     -143.800000
 31
        0.000000
  0
CIRCLE
  8
LVL0000
 62
  3
 10
       60.500000
 20
     -140.300000
 30
        0.000000
 40
        2.750000
  0
LINE
  8
LVL0000
 62
  3
 10
       60.950000
 20
     -138.585999
 30
        0.000000
 11
       60.050000
 21
     -138.585999
 31
        0.000000
  0
LINE
  8
LVL0000
 62
  3
 10
       60.950000
 20
     -141.886000
 30
        0.000000
 11
       60.050000
 21
     -141.886000
 31
        0.000000
  0
LINE
  8
LVL0000
 62
  3
 10
       58.850000
 20
     -140.686000
 30
        0.000000
 11
       58.850000
 21
     -139.786002
 31
        0.000000
  0
LINE
  8
LVL0000
 62
  3
 10
       62.150000
 20
     -140.686000
 30
        0.000000
 11
       62.150000
 21
     -139.786002
 31
        0.000000
  0
LINE
  8
LVL0000
 62
  3
 10
       60.950000
 20
     -141.886000
 30
        0.000000
 11
       60.950000
 21
     -141.135999
 31
        0.000000
  0
LINE
  8
LVL0000
 62
  3
 10
       60.050000
 20
     -141.886000
 30
        0.000000
 11
       60.050000
 21
     -141.135999
 31
        0.000000
  0
LINE
  8
LVL0000
 62
  3
 10
       62.150000
 20
     -139.786002
 30
        0.000000
 11
       61.400000
 21
     -139.786002
 31
        0.000000
  0
LINE
  8
LVL0000
 62
  3
 10
       62.150000
 20
     -140.686000
 30
        0.000000
 11
       61.400000
 21
     -140.686000
 31
        0.000000
  0
LINE
  8
LVL0000
 62
  3
 10
       59.600000
 20
     -139.786002
 30
        0.000000
 11
       58.850000
 21
     -139.786002
 31
        0.000000
  0
LINE
  8
LVL0000
 62
  3
 10
       59.600000
 20
     -140.686000
 30
        0.000000
 11
       58.850000
 21
     -140.686000
 31
        0.000000
  0
LINE
  8
LVL0000
 62
  3
 10
       60.050000
 20
     -139.336003
 30
        0.000000
 11
       60.050000
 21
     -138.585999
 31
        0.000000
  0
LINE
  8
LVL0000
 62
  3
 10
       60.950000
 20
     -139.336003
 30
        0.000000
 11
       60.950000
 21
     -138.585999
 31
        0.000000
  0
ARC
  8
LVL0000
 62
  3
 10
       59.600000
 20
     -139.336003
 30
        0.000000
 40
        0.449999
 50
      270.000000
 51
      360.000000
  0
ARC
  8
LVL0000
 62
  3
 10
       61.400000
 20
     -139.336003
 30
        0.000000
 40
        0.450000
 50
      180.000010
 51
      270.000000
  0
ARC
  8
LVL0000
 62
  3
 10
       61.400000
 20
     -141.135999
 30
        0.000000
 40
        0.449999
 50
       90.000000
 51
      180.000010
  0
ARC
  8
LVL0000
 62
  3
 10
       59.600000
 20
     -141.135999
 30
        0.000000
 40
        0.450000
 50
        0.000000
 51
       90.000000
  0
LINE
  8
LVL0000
 62
  3
 10
      -64.000000
 20
     -136.800000
 30
        0.000000
 11
      -64.000000
 21
     -143.800000
 31
        0.000000
  0
LINE
  8
LVL0000
 62
  3
 10
      -57.000000
 20
     -136.800000
 30
        0.000000
 11
      -64.000000
 21
     -136.800000
 31
        0.000000
  0
LINE
  8
LVL0000
 62
  3
 10
      -57.000000
 20
     -136.800000
 30
        0.000000
 11
      -57.000000
 21
     -143.800000
 31
        0.000000
  0
LINE
  8
LVL0000
 62
  3
 10
      -57.000000
 20
     -143.800000
 30
        0.000000
 11
      -64.000000
 21
     -143.800000
 31
        0.000000
  0
CIRCLE
  8
LVL0000
 62
  3
 10
      -60.500000
 20
     -140.300000
 30
        0.000000
 40
        2.750000
  0
LINE
  8
LVL0000
 62
  3
 10
      -60.950000
 20
     -138.585999
 30
        0.000000
 11
      -60.050000
 21
     -138.585999
 31
        0.000000
  0
LINE
  8
LVL0000
 62
  3
 10
      -60.950000
 20
     -141.886000
 30
        0.000000
 11
      -60.050000
 21
     -141.886000
 31
        0.000000
  0
LINE
  8
LVL0000
 62
  3
 10
      -58.850000
 20
     -140.686000
 30
        0.000000
 11
      -58.850000
 21
     -139.786002
 31
        0.000000
  0
LINE
  8
LVL0000
 62
  3
 10
      -62.150000
 20
     -140.686000
 30
        0.000000
 11
      -62.150000
 21
     -139.786002
 31
        0.000000
  0
LINE
  8
LVL0000
 62
  3
 10
      -60.950000
 20
     -141.886000
 30
        0.000000
 11
      -60.950000
 21
     -141.135999
 31
        0.000000
  0
LINE
  8
LVL0000
 62
  3
 10
      -60.050000
 20
     -141.886000
 30
        0.000000
 11
      -60.050000
 21
     -141.135999
 31
        0.000000
  0
LINE
  8
LVL0000
 62
  3
 10
      -62.150000
 20
     -139.786002
 30
        0.000000
 11
      -61.400000
 21
     -139.786002
 31
        0.000000
  0
LINE
  8
LVL0000
 62
  3
 10
      -62.150000
 20
     -140.686000
 30
        0.000000
 11
      -61.400000
 21
     -140.686000
 31
        0.000000
  0
LINE
  8
LVL0000
 62
  3
 10
      -59.600000
 20
     -139.786002
 30
        0.000000
 11
      -58.850000
 21
     -139.786002
 31
        0.000000
  0
LINE
  8
LVL0000
 62
  3
 10
      -59.600000
 20
     -140.686000
 30
        0.000000
 11
      -58.850000
 21
     -140.686000
 31
        0.000000
  0
LINE
  8
LVL0000
 62
  3
 10
      -60.050000
 20
     -139.336003
 30
        0.000000
 11
      -60.050000
 21
     -138.585999
 31
        0.000000
  0
LINE
  8
LVL0000
 62
  3
 10
      -60.950000
 20
     -139.336003
 30
        0.000000
 11
      -60.950000
 21
     -138.585999
 31
        0.000000
  0
ARC
  8
LVL0000
 62
  3
 10
      -59.600000
 20
     -139.336003
 30
        0.000000
 40
        0.449999
 50
      179.999995
 51
      270.000000
  0
ARC
  8
LVL0000
 62
  3
 10
      -61.400000
 20
     -139.336003
 30
        0.000000
 40
        0.450000
 50
      270.000000
 51
      359.999995
  0
ARC
  8
LVL0000
 62
  3
 10
      -61.400000
 20
     -141.135999
 30
        0.000000
 40
        0.449999
 50
      359.999995
 51
      450.000000
  0
ARC
  8
LVL0000
 62
  3
 10
      -59.600000
 20
     -141.135999
 30
        0.000000
 40
        0.450000
 50
       90.000000
 51
      179.999995
  0
LINE
  8
LVL0000
 62
  3
 10
      -56.500000
 20
     -136.800000
 30
        0.000000
 11
      -56.500000
 21
     -143.800000
 31
        0.000000
  0
LINE
  8
LVL0000
 62
  3
 10
      -49.500000
 20
     -136.800000
 30
        0.000000
 11
      -56.500000
 21
     -136.800000
 31
        0.000000
  0
LINE
  8
LVL0000
 62
  3
 10
      -49.500000
 20
     -136.800000
 30
        0.000000
 11
      -49.500000
 21
     -143.800000
 31
        0.000000
  0
LINE
  8
LVL0000
 62
  3
 10
      -49.500000
 20
     -143.800000
 30
        0.000000
 11
      -56.500000
 21
     -143.800000
 31
        0.000000
  0
CIRCLE
  8
LVL0000
 62
  3
 10
      -53.000000
 20
     -140.300000
 30
        0.000000
 40
        2.750000
  0
LINE
  8
LVL0000
 62
  3
 10
      -53.450000
 20
     -138.585999
 30
        0.000000
 11
      -52.550000
 21
     -138.585999
 31
        0.000000
  0
LINE
  8
LVL0000
 62
  3
 10
      -53.450000
 20
     -141.886000
 30
        0.000000
 11
      -52.550000
 21
     -141.886000
 31
        0.000000
  0
LINE
  8
LVL0000
 62
  3
 10
      -51.350000
 20
     -140.686000
 30
        0.000000
 11
      -51.350000
 21
     -139.786002
 31
        0.000000
  0
LINE
  8
LVL0000
 62
  3
 10
      -54.650000
 20
     -140.686000
 30
        0.000000
 11
      -54.650000
 21
     -139.786002
 31
        0.000000
  0
LINE
  8
LVL0000
 62
  3
 10
      -53.450000
 20
     -141.886000
 30
        0.000000
 11
      -53.450000
 21
     -141.135999
 31
        0.000000
  0
LINE
  8
LVL0000
 62
  3
 10
      -52.550000
 20
     -141.886000
 30
        0.000000
 11
      -52.550000
 21
     -141.135999
 31
        0.000000
  0
LINE
  8
LVL0000
 62
  3
 10
      -54.650000
 20
     -139.786002
 30
        0.000000
 11
      -53.900000
 21
     -139.786002
 31
        0.000000
  0
LINE
  8
LVL0000
 62
  3
 10
      -54.650000
 20
     -140.686000
 30
        0.000000
 11
      -53.900000
 21
     -140.686000
 31
        0.000000
  0
LINE
  8
LVL0000
 62
  3
 10
      -52.100000
 20
     -139.786002
 30
        0.000000
 11
      -51.350000
 21
     -139.786002
 31
        0.000000
  0
LINE
  8
LVL0000
 62
  3
 10
      -52.100000
 20
     -140.686000
 30
        0.000000
 11
      -51.350000
 21
     -140.686000
 31
        0.000000
  0
LINE
  8
LVL0000
 62
  3
 10
      -52.550000
 20
     -139.336003
 30
        0.000000
 11
      -52.550000
 21
     -138.585999
 31
        0.000000
  0
LINE
  8
LVL0000
 62
  3
 10
      -53.450000
 20
     -139.336003
 30
        0.000000
 11
      -53.450000
 21
     -138.585999
 31
        0.000000
  0
ARC
  8
LVL0000
 62
  3
 10
      -52.100000
 20
     -139.336003
 30
        0.000000
 40
        0.449999
 50
      179.999995
 51
      270.000000
  0
ARC
  8
LVL0000
 62
  3
 10
      -53.900000
 20
     -139.336003
 30
        0.000000
 40
        0.450000
 50
      270.000000
 51
      359.999995
  0
ARC
  8
LVL0000
 62
  3
 10
      -53.900000
 20
     -141.135999
 30
        0.000000
 40
        0.449999
 50
      359.999995
 51
      450.000000
  0
ARC
  8
LVL0000
 62
  3
 10
      -52.100000
 20
     -141.135999
 30
        0.000000
 40
        0.450000
 50
       90.000000
 51
      179.999995
  0
LINE
  8
LVL0000
 62
  3
 10
      -49.000000
 20
     -136.800000
 30
        0.000000
 11
      -49.000000
 21
     -143.800000
 31
        0.000000
  0
LINE
  8
LVL0000
 62
  3
 10
      -42.000000
 20
     -136.800000
 30
        0.000000
 11
      -49.000000
 21
     -136.800000
 31
        0.000000
  0
LINE
  8
LVL0000
 62
  3
 10
      -42.000000
 20
     -136.800000
 30
        0.000000
 11
      -42.000000
 21
     -143.800000
 31
        0.000000
  0
LINE
  8
LVL0000
 62
  3
 10
      -42.000000
 20
     -143.800000
 30
        0.000000
 11
      -49.000000
 21
     -143.800000
 31
        0.000000
  0
CIRCLE
  8
LVL0000
 62
  3
 10
      -45.500000
 20
     -140.300000
 30
        0.000000
 40
        2.750000
  0
LINE
  8
LVL0000
 62
  3
 10
      -45.950000
 20
     -138.585999
 30
        0.000000
 11
      -45.050000
 21
     -138.585999
 31
        0.000000
  0
LINE
  8
LVL0000
 62
  3
 10
      -45.950000
 20
     -141.886000
 30
        0.000000
 11
      -45.050000
 21
     -141.886000
 31
        0.000000
  0
LINE
  8
LVL0000
 62
  3
 10
      -43.850000
 20
     -140.686000
 30
        0.000000
 11
      -43.850000
 21
     -139.786002
 31
        0.000000
  0
LINE
  8
LVL0000
 62
  3
 10
      -47.150000
 20
     -140.686000
 30
        0.000000
 11
      -47.150000
 21
     -139.786002
 31
        0.000000
  0
LINE
  8
LVL0000
 62
  3
 10
      -45.950000
 20
     -141.886000
 30
        0.000000
 11
      -45.950000
 21
     -141.135999
 31
        0.000000
  0
LINE
  8
LVL0000
 62
  3
 10
      -45.050000
 20
     -141.886000
 30
        0.000000
 11
      -45.050000
 21
     -141.135999
 31
        0.000000
  0
LINE
  8
LVL0000
 62
  3
 10
      -47.150000
 20
     -139.786002
 30
        0.000000
 11
      -46.400000
 21
     -139.786002
 31
        0.000000
  0
LINE
  8
LVL0000
 62
  3
 10
      -47.150000
 20
     -140.686000
 30
        0.000000
 11
      -46.400000
 21
     -140.686000
 31
        0.000000
  0
LINE
  8
LVL0000
 62
  3
 10
      -44.600000
 20
     -139.786002
 30
        0.000000
 11
      -43.850000
 21
     -139.786002
 31
        0.000000
  0
LINE
  8
LVL0000
 62
  3
 10
      -44.600000
 20
     -140.686000
 30
        0.000000
 11
      -43.850000
 21
     -140.686000
 31
        0.000000
  0
LINE
  8
LVL0000
 62
  3
 10
      -45.050000
 20
     -139.336003
 30
        0.000000
 11
      -45.050000
 21
     -138.585999
 31
        0.000000
  0
LINE
  8
LVL0000
 62
  3
 10
      -45.950000
 20
     -139.336003
 30
        0.000000
 11
      -45.950000
 21
     -138.585999
 31
        0.000000
  0
ARC
  8
LVL0000
 62
  3
 10
      -44.600000
 20
     -139.336003
 30
        0.000000
 40
        0.449999
 50
      179.999995
 51
      270.000000
  0
ARC
  8
LVL0000
 62
  3
 10
      -46.400000
 20
     -139.336003
 30
        0.000000
 40
        0.450000
 50
      270.000000
 51
      359.999995
  0
ARC
  8
LVL0000
 62
  3
 10
      -46.400000
 20
     -141.135999
 30
        0.000000
 40
        0.449999
 50
      359.999995
 51
      450.000000
  0
ARC
  8
LVL0000
 62
  3
 10
      -44.600000
 20
     -141.135999
 30
        0.000000
 40
        0.450000
 50
       90.000000
 51
      179.999995
  0
LINE
  8
LVL0000
 62
  3
 10
      -41.500000
 20
     -136.800000
 30
        0.000000
 11
      -41.500000
 21
     -143.800000
 31
        0.000000
  0
LINE
  8
LVL0000
 62
  3
 10
      -34.500000
 20
     -136.800000
 30
        0.000000
 11
      -41.500000
 21
     -136.800000
 31
        0.000000
  0
LINE
  8
LVL0000
 62
  3
 10
      -34.500000
 20
     -136.800000
 30
        0.000000
 11
      -34.500000
 21
     -143.800000
 31
        0.000000
  0
LINE
  8
LVL0000
 62
  3
 10
      -34.500000
 20
     -143.800000
 30
        0.000000
 11
      -41.500000
 21
     -143.800000
 31
        0.000000
  0
CIRCLE
  8
LVL0000
 62
  3
 10
      -38.000000
 20
     -140.300000
 30
        0.000000
 40
        2.750000
  0
LINE
  8
LVL0000
 62
  3
 10
      -38.450000
 20
     -138.585999
 30
        0.000000
 11
      -37.550000
 21
     -138.585999
 31
        0.000000
  0
LINE
  8
LVL0000
 62
  3
 10
      -38.450000
 20
     -141.886000
 30
        0.000000
 11
      -37.550000
 21
     -141.886000
 31
        0.000000
  0
LINE
  8
LVL0000
 62
  3
 10
      -36.350000
 20
     -140.686000
 30
        0.000000
 11
      -36.350000
 21
     -139.786002
 31
        0.000000
  0
LINE
  8
LVL0000
 62
  3
 10
      -39.650000
 20
     -140.686000
 30
        0.000000
 11
      -39.650000
 21
     -139.786002
 31
        0.000000
  0
LINE
  8
LVL0000
 62
  3
 10
      -38.450000
 20
     -141.886000
 30
        0.000000
 11
      -38.450000
 21
     -141.135999
 31
        0.000000
  0
LINE
  8
LVL0000
 62
  3
 10
      -37.550000
 20
     -141.886000
 30
        0.000000
 11
      -37.550000
 21
     -141.135999
 31
        0.000000
  0
LINE
  8
LVL0000
 62
  3
 10
      -39.650000
 20
     -139.786002
 30
        0.000000
 11
      -38.900000
 21
     -139.786002
 31
        0.000000
  0
LINE
  8
LVL0000
 62
  3
 10
      -39.650000
 20
     -140.686000
 30
        0.000000
 11
      -38.900000
 21
     -140.686000
 31
        0.000000
  0
LINE
  8
LVL0000
 62
  3
 10
      -37.100000
 20
     -139.786002
 30
        0.000000
 11
      -36.350000
 21
     -139.786002
 31
        0.000000
  0
LINE
  8
LVL0000
 62
  3
 10
      -37.100000
 20
     -140.686000
 30
        0.000000
 11
      -36.350000
 21
     -140.686000
 31
        0.000000
  0
LINE
  8
LVL0000
 62
  3
 10
      -37.550000
 20
     -139.336003
 30
        0.000000
 11
      -37.550000
 21
     -138.585999
 31
        0.000000
  0
LINE
  8
LVL0000
 62
  3
 10
      -38.450000
 20
     -139.336003
 30
        0.000000
 11
      -38.450000
 21
     -138.585999
 31
        0.000000
  0
ARC
  8
LVL0000
 62
  3
 10
      -37.100000
 20
     -139.336003
 30
        0.000000
 40
        0.449999
 50
      179.999995
 51
      270.000000
  0
ARC
  8
LVL0000
 62
  3
 10
      -38.900000
 20
     -139.336003
 30
        0.000000
 40
        0.450000
 50
      270.000000
 51
      359.999995
  0
ARC
  8
LVL0000
 62
  3
 10
      -38.900000
 20
     -141.135999
 30
        0.000000
 40
        0.449999
 50
      359.999995
 51
      450.000000
  0
ARC
  8
LVL0000
 62
  3
 10
      -37.100000
 20
     -141.135999
 30
        0.000000
 40
        0.450000
 50
       90.000000
 51
      179.999995
  0
LINE
  8
LVL0000
 62
  3
 10
      -34.000000
 20
     -136.800000
 30
        0.000000
 11
      -34.000000
 21
     -143.800000
 31
        0.000000
  0
LINE
  8
LVL0000
 62
  3
 10
      -27.000000
 20
     -136.800000
 30
        0.000000
 11
      -34.000000
 21
     -136.800000
 31
        0.000000
  0
LINE
  8
LVL0000
 62
  3
 10
      -27.000000
 20
     -136.800000
 30
        0.000000
 11
      -27.000000
 21
     -143.800000
 31
        0.000000
  0
LINE
  8
LVL0000
 62
  3
 10
      -27.000000
 20
     -143.800000
 30
        0.000000
 11
      -34.000000
 21
     -143.800000
 31
        0.000000
  0
CIRCLE
  8
LVL0000
 62
  3
 10
      -30.500000
 20
     -140.300000
 30
        0.000000
 40
        2.750000
  0
LINE
  8
LVL0000
 62
  3
 10
      -30.950000
 20
     -138.585999
 30
        0.000000
 11
      -30.050000
 21
     -138.585999
 31
        0.000000
  0
LINE
  8
LVL0000
 62
  3
 10
      -30.950000
 20
     -141.886000
 30
        0.000000
 11
      -30.050000
 21
     -141.886000
 31
        0.000000
  0
LINE
  8
LVL0000
 62
  3
 10
      -28.850000
 20
     -140.686000
 30
        0.000000
 11
      -28.850000
 21
     -139.786002
 31
        0.000000
  0
LINE
  8
LVL0000
 62
  3
 10
      -32.150000
 20
     -140.686000
 30
        0.000000
 11
      -32.150000
 21
     -139.786002
 31
        0.000000
  0
LINE
  8
LVL0000
 62
  3
 10
      -30.950000
 20
     -141.886000
 30
        0.000000
 11
      -30.950000
 21
     -141.135999
 31
        0.000000
  0
LINE
  8
LVL0000
 62
  3
 10
      -30.050000
 20
     -141.886000
 30
        0.000000
 11
      -30.050000
 21
     -141.135999
 31
        0.000000
  0
LINE
  8
LVL0000
 62
  3
 10
      -32.150000
 20
     -139.786002
 30
        0.000000
 11
      -31.400000
 21
     -139.786002
 31
        0.000000
  0
LINE
  8
LVL0000
 62
  3
 10
      -32.150000
 20
     -140.686000
 30
        0.000000
 11
      -31.400000
 21
     -140.686000
 31
        0.000000
  0
LINE
  8
LVL0000
 62
  3
 10
      -29.600000
 20
     -139.786002
 30
        0.000000
 11
      -28.850000
 21
     -139.786002
 31
        0.000000
  0
LINE
  8
LVL0000
 62
  3
 10
      -29.600000
 20
     -140.686000
 30
        0.000000
 11
      -28.850000
 21
     -140.686000
 31
        0.000000
  0
LINE
  8
LVL0000
 62
  3
 10
      -30.050000
 20
     -139.336003
 30
        0.000000
 11
      -30.050000
 21
     -138.585999
 31
        0.000000
  0
LINE
  8
LVL0000
 62
  3
 10
      -30.950000
 20
     -139.336003
 30
        0.000000
 11
      -30.950000
 21
     -138.585999
 31
        0.000000
  0
ARC
  8
LVL0000
 62
  3
 10
      -29.600000
 20
     -139.336003
 30
        0.000000
 40
        0.449999
 50
      179.999995
 51
      270.000000
  0
ARC
  8
LVL0000
 62
  3
 10
      -31.400000
 20
     -139.336003
 30
        0.000000
 40
        0.450000
 50
      270.000000
 51
      359.999995
  0
ARC
  8
LVL0000
 62
  3
 10
      -31.400000
 20
     -141.135999
 30
        0.000000
 40
        0.449999
 50
      359.999995
 51
      450.000000
  0
ARC
  8
LVL0000
 62
  3
 10
      -29.600000
 20
     -141.135999
 30
        0.000000
 40
        0.450000
 50
       90.000000
 51
      179.999995
  0
LINE
  8
LVL0000
 62
  3
 10
      -26.500000
 20
     -136.800000
 30
        0.000000
 11
      -26.500000
 21
     -143.800000
 31
        0.000000
  0
LINE
  8
LVL0000
 62
  3
 10
      -19.500000
 20
     -136.800000
 30
        0.000000
 11
      -26.500000
 21
     -136.800000
 31
        0.000000
  0
LINE
  8
LVL0000
 62
  3
 10
      -19.500000
 20
     -136.800000
 30
        0.000000
 11
      -19.500000
 21
     -143.800000
 31
        0.000000
  0
LINE
  8
LVL0000
 62
  3
 10
      -19.500000
 20
     -143.800000
 30
        0.000000
 11
      -26.500000
 21
     -143.800000
 31
        0.000000
  0
CIRCLE
  8
LVL0000
 62
  3
 10
      -23.000000
 20
     -140.300000
 30
        0.000000
 40
        2.750000
  0
LINE
  8
LVL0000
 62
  3
 10
      -23.450000
 20
     -138.585999
 30
        0.000000
 11
      -22.550000
 21
     -138.585999
 31
        0.000000
  0
LINE
  8
LVL0000
 62
  3
 10
      -23.450000
 20
     -141.886000
 30
        0.000000
 11
      -22.550000
 21
     -141.886000
 31
        0.000000
  0
LINE
  8
LVL0000
 62
  3
 10
      -21.350000
 20
     -140.686000
 30
        0.000000
 11
      -21.350000
 21
     -139.786002
 31
        0.000000
  0
LINE
  8
LVL0000
 62
  3
 10
      -24.650000
 20
     -140.686000
 30
        0.000000
 11
      -24.650000
 21
     -139.786002
 31
        0.000000
  0
LINE
  8
LVL0000
 62
  3
 10
      -23.450000
 20
     -141.886000
 30
        0.000000
 11
      -23.450000
 21
     -141.135999
 31
        0.000000
  0
LINE
  8
LVL0000
 62
  3
 10
      -22.550000
 20
     -141.886000
 30
        0.000000
 11
      -22.550000
 21
     -141.135999
 31
        0.000000
  0
LINE
  8
LVL0000
 62
  3
 10
      -24.650000
 20
     -139.786002
 30
        0.000000
 11
      -23.900000
 21
     -139.786002
 31
        0.000000
  0
LINE
  8
LVL0000
 62
  3
 10
      -24.650000
 20
     -140.686000
 30
        0.000000
 11
      -23.900000
 21
     -140.686000
 31
        0.000000
  0
LINE
  8
LVL0000
 62
  3
 10
      -22.100000
 20
     -139.786002
 30
        0.000000
 11
      -21.350000
 21
     -139.786002
 31
        0.000000
  0
LINE
  8
LVL0000
 62
  3
 10
      -22.100000
 20
     -140.686000
 30
        0.000000
 11
      -21.350000
 21
     -140.686000
 31
        0.000000
  0
LINE
  8
LVL0000
 62
  3
 10
      -22.550000
 20
     -139.336003
 30
        0.000000
 11
      -22.550000
 21
     -138.585999
 31
        0.000000
  0
LINE
  8
LVL0000
 62
  3
 10
      -23.450000
 20
     -139.336003
 30
        0.000000
 11
      -23.450000
 21
     -138.585999
 31
        0.000000
  0
ARC
  8
LVL0000
 62
  3
 10
      -22.100000
 20
     -139.336003
 30
        0.000000
 40
        0.449999
 50
      179.999995
 51
      270.000000
  0
ARC
  8
LVL0000
 62
  3
 10
      -23.900000
 20
     -139.336003
 30
        0.000000
 40
        0.450000
 50
      270.000000
 51
      359.999995
  0
ARC
  8
LVL0000
 62
  3
 10
      -23.900000
 20
     -141.135999
 30
        0.000000
 40
        0.449999
 50
      359.999995
 51
      450.000000
  0
ARC
  8
LVL0000
 62
  3
 10
      -22.100000
 20
     -141.135999
 30
        0.000000
 40
        0.450000
 50
       90.000000
 51
      179.999995
  0
LINE
  8
LVL0000
 62
  3
 10
      -19.000000
 20
     -136.800000
 30
        0.000000
 11
      -19.000000
 21
     -143.800000
 31
        0.000000
  0
LINE
  8
LVL0000
 62
  3
 10
      -12.000000
 20
     -136.800000
 30
        0.000000
 11
      -19.000000
 21
     -136.800000
 31
        0.000000
  0
LINE
  8
LVL0000
 62
  3
 10
      -12.000000
 20
     -136.800000
 30
        0.000000
 11
      -12.000000
 21
     -143.800000
 31
        0.000000
  0
LINE
  8
LVL0000
 62
  3
 10
      -12.000000
 20
     -143.800000
 30
        0.000000
 11
      -19.000000
 21
     -143.800000
 31
        0.000000
  0
CIRCLE
  8
LVL0000
 62
  3
 10
      -15.500000
 20
     -140.300000
 30
        0.000000
 40
        2.750000
  0
LINE
  8
LVL0000
 62
  3
 10
      -15.950000
 20
     -138.585999
 30
        0.000000
 11
      -15.050000
 21
     -138.585999
 31
        0.000000
  0
LINE
  8
LVL0000
 62
  3
 10
      -15.950000
 20
     -141.886000
 30
        0.000000
 11
      -15.050000
 21
     -141.886000
 31
        0.000000
  0
LINE
  8
LVL0000
 62
  3
 10
      -13.850000
 20
     -140.686000
 30
        0.000000
 11
      -13.850000
 21
     -139.786002
 31
        0.000000
  0
LINE
  8
LVL0000
 62
  3
 10
      -17.150000
 20
     -140.686000
 30
        0.000000
 11
      -17.150000
 21
     -139.786002
 31
        0.000000
  0
LINE
  8
LVL0000
 62
  3
 10
      -15.950000
 20
     -141.886000
 30
        0.000000
 11
      -15.950000
 21
     -141.135999
 31
        0.000000
  0
LINE
  8
LVL0000
 62
  3
 10
      -15.050000
 20
     -141.886000
 30
        0.000000
 11
      -15.050000
 21
     -141.135999
 31
        0.000000
  0
LINE
  8
LVL0000
 62
  3
 10
      -17.150000
 20
     -139.786002
 30
        0.000000
 11
      -16.400000
 21
     -139.786002
 31
        0.000000
  0
LINE
  8
LVL0000
 62
  3
 10
      -17.150000
 20
     -140.686000
 30
        0.000000
 11
      -16.400000
 21
     -140.686000
 31
        0.000000
  0
LINE
  8
LVL0000
 62
  3
 10
      -14.600000
 20
     -139.786002
 30
        0.000000
 11
      -13.850000
 21
     -139.786002
 31
        0.000000
  0
LINE
  8
LVL0000
 62
  3
 10
      -14.600000
 20
     -140.686000
 30
        0.000000
 11
      -13.850000
 21
     -140.686000
 31
        0.000000
  0
LINE
  8
LVL0000
 62
  3
 10
      -15.050000
 20
     -139.336003
 30
        0.000000
 11
      -15.050000
 21
     -138.585999
 31
        0.000000
  0
LINE
  8
LVL0000
 62
  3
 10
      -15.950000
 20
     -139.336003
 30
        0.000000
 11
      -15.950000
 21
     -138.585999
 31
        0.000000
  0
ARC
  8
LVL0000
 62
  3
 10
      -14.600000
 20
     -139.336003
 30
        0.000000
 40
        0.449999
 50
      179.999995
 51
      270.000000
  0
ARC
  8
LVL0000
 62
  3
 10
      -16.400000
 20
     -139.336003
 30
        0.000000
 40
        0.450000
 50
      270.000000
 51
      359.999995
  0
ARC
  8
LVL0000
 62
  3
 10
      -16.400000
 20
     -141.135999
 30
        0.000000
 40
        0.449999
 50
      359.999995
 51
      450.000000
  0
ARC
  8
LVL0000
 62
  3
 10
      -14.600000
 20
     -141.135999
 30
        0.000000
 40
        0.450000
 50
       90.000000
 51
      179.999995
  0
LINE
  8
LVL0000
 62
  3
 10
      141.115000
 20
      -85.000000
 30
        0.000000
 11
      141.115000
 21
      -95.000000
 31
        0.000000
  0
LINE
  8
LVL0000
 62
  3
 10
       91.115000
 20
      -95.000000
 30
        0.000000
 11
      141.115000
 21
      -95.000000
 31
        0.000000
  0
LINE
  8
LVL0000
 62
  3
 10
      146.115000
 20
      -92.000000
 30
        0.000000
 11
      143.115000
 21
      -92.000000
 31
        0.000000
  0
LINE
  8
LVL0000
 62
  3
 10
      146.115000
 20
     -128.000000
 30
        0.000000
 11
      143.115000
 21
     -128.000000
 31
        0.000000
  0
LINE
  8
LVL0000
 62
  3
 10
      143.115000
 20
      -92.000000
 30
        0.000000
 11
      143.115000
 21
     -128.000000
 31
        0.000000
  0
LINE
  8
LVL0000
 62
  3
 10
       91.115000
 20
     -115.000000
 30
        0.000000
 11
       91.115000
 21
     -135.000000
 31
        0.000000
  0
LINE
  8
LVL0000
 62
  3
 10
       91.115000
 20
     -115.000000
 30
        0.000000
 11
      117.315000
 21
     -115.000000
 31
        0.000000
  0
LINE
  8
LVL0000
 62
  3
 10
       93.115000
 20
     -135.000000
 30
        0.000000
 11
       93.115000
 21
     -124.850000
 31
        0.000000
  0
LINE
  8
LVL0000
 62
  3
 10
      131.115000
 20
     -106.000000
 30
        0.000000
 11
      131.115000
 21
     -114.000000
 31
        0.000000
  0
LINE
  8
LVL0000
 62
  3
 10
      129.115000
 20
     -106.000000
 30
        0.000000
 11
      131.115000
 21
     -106.000000
 31
        0.000000
  0
LINE
  8
LVL0000
 62
  3
 10
      129.115000
 20
     -106.000000
 30
        0.000000
 11
      129.115000
 21
     -114.000000
 31
        0.000000
  0
LINE
  8
LVL0000
 62
  3
 10
      129.115000
 20
     -114.000000
 30
        0.000000
 11
      131.115000
 21
     -114.000000
 31
        0.000000
  0
LINE
  8
LVL0000
 62
  3
 10
       91.815000
 20
     -114.300000
 30
        0.000000
 11
       91.815000
 21
     -114.787937
 31
        0.000000
  0
LINE
  8
LVL0000
 62
  3
 10
       91.115000
 20
     -114.300000
 30
        0.000000
 11
       91.815000
 21
     -114.300000
 31
        0.000000
  0
LINE
  8
LVL0000
 62
  3
 10
       91.115000
 20
      -85.000000
 30
        0.000000
 11
       91.115000
 21
     -114.300000
 31
        0.000000
  0
ARC
  8
LVL0000
 62
  3
 10
      -60.000000
 20
     -130.000000
 30
        0.000000
 40
        5.000000
 50
        0.000000
 51
       90.000000
  0
LINE
  8
LVL0000
 62
  3
 10
       56.000000
 20
     -124.850000
 30
        0.000000
 11
       56.000000
 21
     -135.000000
 31
        0.000000
  0
LINE
  8
LVL0000
 62
  3
 10
      -55.000000
 20
     -115.000000
 30
        0.000000
 11
      -55.000000
 21
     -135.000000
 31
        0.000000
  0
LINE
  8
LVL0000
 62
  3
 10
      -65.000000
 20
     -115.000000
 30
        0.000000
 11
       65.000000
 21
     -115.000000
 31
        0.000000
  0
LINE
  8
LVL0000
 62
  3
 10
      -45.700000
 20
     -135.000000
 30
        0.000000
 11
      -45.700000
 21
     -124.850000
 31
        0.000000
  0
LINE
  8
LVL0000
 62
  3
 10
      -37.300000
 20
     -135.000000
 30
        0.000000
 11
      -37.300000
 21
     -124.850000
 31
        0.000000
  0
LINE
  8
LVL0000
 62
  3
 10
      -12.100000
 20
     -135.000000
 30
        0.000000
 11
      -12.100000
 21
     -124.850000
 31
        0.000000
  0
LINE
  8
LVL0000
 62
  3
 10
       -3.700000
 20
     -135.000000
 30
        0.000000
 11
       -3.700000
 21
     -124.850000
 31
        0.000000
  0
LINE
  8
LVL0000
 62
  3
 10
        4.700000
 20
     -135.000000
 30
        0.000000
 11
        4.700000
 21
     -124.850000
 31
        0.000000
  0
LINE
  8
LVL0000
 62
  3
 10
       13.100000
 20
     -135.000000
 30
        0.000000
 11
       13.100000
 21
     -124.850000
 31
        0.000000
  0
LINE
  8
LVL0000
 62
  3
 10
       38.300000
 20
     -135.000000
 30
        0.000000
 11
       38.300000
 21
     -124.850000
 31
        0.000000
  0
LINE
  8
LVL0000
 62
  3
 10
      -49.900000
 20
     -124.850000
 30
        0.000000
 11
      -49.900000
 21
     -115.000000
 31
        0.000000
  0
LINE
  8
LVL0000
 62
  3
 10
      -41.500000
 20
     -124.850000
 30
        0.000000
 11
      -41.500000
 21
     -115.000000
 31
        0.000000
  0
LINE
  8
LVL0000
 62
  3
 10
      -16.300000
 20
     -124.850000
 30
        0.000000
 11
      -16.300000
 21
     -115.000000
 31
        0.000000
  0
LINE
  8
LVL0000
 62
  3
 10
       -7.900000
 20
     -124.850000
 30
        0.000000
 11
       -7.900000
 21
     -115.000000
 31
        0.000000
  0
LINE
  8
LVL0000
 62
  3
 10
        0.500000
 20
     -124.850000
 30
        0.000000
 11
        0.500000
 21
     -115.000000
 31
        0.000000
  0
LINE
  8
LVL0000
 62
  3
 10
        8.900000
 20
     -124.850000
 30
        0.000000
 11
        8.900000
 21
     -115.000000
 31
        0.000000
  0
LINE
  8
LVL0000
 62
  3
 10
       34.100000
 20
     -124.850000
 30
        0.000000
 11
       34.100000
 21
     -115.000000
 31
        0.000000
  0
LINE
  8
LVL0000
 62
  3
 10
       42.500000
 20
     -124.850000
 30
        0.000000
 11
       42.500000
 21
     -115.000000
 31
        0.000000
  0
LINE
  8
LVL0000
 62
  3
 10
       50.900000
 20
     -124.850000
 30
        0.000000
 11
       50.900000
 21
     -115.000000
 31
        0.000000
  0
LINE
  8
LVL0000
 62
  3
 10
       46.700000
 20
     -135.000000
 30
        0.000000
 11
       46.700000
 21
     -124.850000
 31
        0.000000
  0
LINE
  8
LVL0000
 62
  3
 10
      -55.000000
 20
     -124.850000
 30
        0.000000
 11
      -33.100000
 21
     -124.850000
 31
        0.000000
  0
LINE
  8
LVL0000
 62
  3
 10
      -28.900000
 20
     -124.850000
 30
        0.000000
 11
      -24.700000
 21
     -124.850000
 31
        0.000000
  0
LINE
  8
LVL0000
 62
  3
 10
      -20.500000
 20
     -124.850000
 30
        0.000000
 11
       17.300000
 21
     -124.850000
 31
        0.000000
  0
LINE
  8
LVL0000
 62
  3
 10
       21.500000
 20
     -124.850000
 30
        0.000000
 11
       25.700000
 21
     -124.850000
 31
        0.000000
  0
LINE
  8
LVL0000
 62
  3
 10
       21.500000
 20
     -135.000000
 30
        0.000000
 11
       21.500000
 21
     -124.850000
 31
        0.000000
  0
LINE
  8
LVL0000
 62
  3
 10
       17.300000
 20
     -124.850000
 30
        0.000000
 11
       21.500000
 21
     -124.850000
 31
        0.000000
  0
LINE
  8
LVL0000
 62
  3
 10
       17.300000
 20
     -124.850000
 30
        0.000000
 11
       17.300000
 21
     -115.000000
 31
        0.000000
  0
LINE
  8
LVL0000
 62
  3
 10
      -24.700000
 20
     -124.850000
 30
        0.000000
 11
      -20.500000
 21
     -124.850000
 31
        0.000000
  0
LINE
  8
LVL0000
 62
  3
 10
      -24.700000
 20
     -124.850000
 30
        0.000000
 11
      -24.700000
 21
     -115.000000
 31
        0.000000
  0
LINE
  8
LVL0000
 62
  3
 10
      -20.500000
 20
     -135.000000
 30
        0.000000
 11
      -20.500000
 21
     -124.850000
 31
        0.000000
  0
LINE
  8
LVL0000
 62
  3
 10
      -28.900000
 20
     -135.000000
 30
        0.000000
 11
      -28.900000
 21
     -124.850000
 31
        0.000000
  0
LINE
  8
LVL0000
 62
  3
 10
      -33.100000
 20
     -124.850000
 30
        0.000000
 11
      -28.900000
 21
     -124.850000
 31
        0.000000
  0
LINE
  8
LVL0000
 62
  3
 10
      -33.100000
 20
     -124.850000
 30
        0.000000
 11
      -33.100000
 21
     -115.000000
 31
        0.000000
  0
CIRCLE
  8
LVL0000
 62
  3
 10
      -60.000000
 20
     -130.000000
 30
        0.000000
 40
        2.000000
  0
ARC
  8
LVL0000
 62
  3
 10
      -64.000000
 20
     -134.000000
 30
        0.000000
 40
        1.000000
 50
      179.999995
 51
      270.000000
  0
LINE
  8
LVL0000
 62
  3
 10
       60.000000
 20
      -95.000000
 30
        0.000000
 11
       65.000000
 21
      -95.000000
 31
        0.000000
  0
LINE
  8
LVL0000
 62
  3
 10
       55.000000
 20
      -85.000000
 30
        0.000000
 11
       55.000000
 21
      -90.000000
 31
        0.000000
  0
ARC
  8
LVL0000
 62
  3
 10
       60.000000
 20
      -90.000000
 30
        0.000000
 40
        5.000000
 50
      179.999995
 51
      270.000000
  0
ARC
  8
LVL0000
 62
  3
 10
       64.000000
 20
      -86.000000
 30
        0.000000
 40
        1.000000
 50
        0.000000
 51
       90.000000
  0
LINE
  8
LVL0000
 62
  3
 10
      -64.000000
 20
      -85.000000
 30
        0.000000
 11
       64.000000
 21
      -85.000000
 31
        0.000000
  0
ARC
  8
LVL0000
 62
  3
 10
      -64.000000
 20
      -86.000000
 30
        0.000000
 40
        1.000000
 50
       90.000000
 51
      179.999995
  0
CIRCLE
  8
LVL0000
 62
  3
 10
       60.000000
 20
      -90.000000
 30
        0.000000
 40
        2.000000
  0
LINE
  8
LVL0000
 62
  3
 10
       29.900000
 20
     -135.000000
 30
        0.000000
 11
       29.900000
 21
     -124.850000
 31
        0.000000
  0
LINE
  8
LVL0000
 62
  3
 10
       25.700000
 20
     -124.850000
 30
        0.000000
 11
       25.700000
 21
     -115.000000
 31
        0.000000
  0
LINE
  8
LVL0000
 62
  3
 10
       25.700000
 20
     -124.850000
 30
        0.000000
 11
       29.900000
 21
     -124.850000
 31
        0.000000
  0
LINE
  8
LVL0000
 62
  3
 10
      105.815000
 20
     -126.850000
 30
        0.000000
 11
      104.515000
 21
     -126.963735
 31
        0.000000
  0
ARC
  8
LVL0000
 62
  3
 10
      111.897419
 20
     -130.000000
 30
        0.000000
 40
        7.982419
 50
      157.643457
 51
      202.356548
  0
ARC
  8
LVL0000
 62
  3
 10
      109.815000
 20
     -143.200000
 30
        0.000000
 40
        4.000000
 50
      179.999995
 51
      270.000000
  0
ARC
  8
LVL0000
 62
  3
 10
      125.015000
 20
     -128.500000
 30
        0.000000
 40
        4.000000
 50
        0.000000
 51
       90.000000
  0
LINE
  8
LVL0000
 62
  3
 10
      115.115000
 20
     -144.800000
 30
        0.000000
 11
      115.115000
 21
     -139.100000
 31
        0.000000
  0
LINE
  8
LVL0000
 62
  3
 10
      113.915000
 20
     -139.100000
 30
        0.000000
 11
      115.115000
 21
     -139.100000
 31
        0.000000
  0
LINE
  8
LVL0000
 62
  3
 10
      129.015000
 20
     -147.200000
 30
        0.000000
 11
      129.015000
 21
     -128.500000
 31
        0.000000
  0
CIRCLE
  8
LVL0000
 62
  3
 10
      -10.000000
 20
     -140.300000
 30
        0.000000
 40
        1.200000
  0
CIRCLE
  8
LVL0000
 62
  3
 10
      -10.000000
 20
     -140.300000
 30
        0.000000
 40
        1.500000
  0
LINE
  8
LVL0000
 62
  3
 10
      -64.200000
 20
     -136.700000
 30
        0.000000
 11
      -64.200000
 21
     -147.200000
 31
        0.000000
  0
LINE
  8
LVL0000
 62
  3
 10
       -4.164195
 20
     -145.000000
 30
        0.000000
 11
      -64.200000
 21
     -145.000000
 31
        0.000000
  0
LINE
  8
LVL0000
 62
  3
 10
       -7.850000
 20
     -143.900000
 30
        0.000000
 11
      -64.200000
 21
     -143.900000
 31
        0.000000
  0
LINE
  8
LVL0000
 62
  3
 10
       64.200000
 20
     -136.700000
 30
        0.000000
 11
       64.200000
 21
     -147.200000
 31
        0.000000
  0
LINE
  8
LVL0000
 62
  3
 10
        4.164195
 20
     -145.000000
 30
        0.000000
 11
       64.200000
 21
     -145.000000
 31
        0.000000
  0
LINE
  8
LVL0000
 62
  3
 10
        7.850000
 20
     -143.900000
 30
        0.000000
 11
       64.200000
 21
     -143.900000
 31
        0.000000
  0
CIRCLE
  8
LVL0000
 62
  3
 10
       10.000000
 20
     -140.300000
 30
        0.000000
 40
        1.500000
  0
CIRCLE
  8
LVL0000
 62
  3
 10
       10.000000
 20
     -140.300000
 30
        0.000000
 40
        1.200000
  0
LINE
  8
LVL0000
 62
  3
 10
      -65.000000
 20
      -86.000000
 30
        0.000000
 11
      -65.000000
 21
     -115.200000
 31
        0.000000
  0
LINE
  8
LVL0000
 62
  3
 10
       58.700000
 20
     -124.500000
 30
        0.000000
 11
       58.700000
 21
     -115.000000
 31
        0.000000
  0
LINE
  8
LVL0000
 62
  3
 10
       29.900000
 20
     -124.850000
 30
        0.000000
 11
       56.500000
 21
     -124.850000
 31
        0.000000
  0
LINE
  8
LVL0000
 62
  3
 10
      -64.000000
 20
     -135.000000
 30
        0.000000
 11
       56.500000
 21
     -135.000000
 31
        0.000000
  0
LINE
  8
LVL0000
 62
  3
 10
       65.000000
 20
      -86.000000
 30
        0.000000
 11
       65.000000
 21
     -124.500000
 31
        0.000000
  0
DIMENSION
  8
LVL0000
 62
  5
  2
BLK0002
 10
      129.014999
 20
     -156.536179
 11
      132.204468
 21
     -155.836182
 13
      129.014999
 23
     -147.199997
 14
      146.115005
 24
     -138.000000
 50
        0.0
 70
  0
  0
DIMENSION
  8
LVL0000
 62
  5
  2
BLK0003
 10
      129.014999
 20
     -156.536179
 11
      110.186790
 21
     -155.836182
 13
      129.014999
 23
     -147.199997
 14
      105.815002
 24
     -143.199997
 50
        0.0
 70
  0
  0
DIMENSION
  8
LVL0000
 62
  5
  2
BLK0004
 10
      -67.500000
 20
     -164.611420
 11
       -5.011743
 21
     -163.911423
 13
      -67.500000
 23
     -146.199997
 14
       67.500000
 24
     -146.199997
 50
        0.0
 70
  0
  0
DIMENSION
  8
LVL0000
 62
  5
  2
BLK0005
 10
       77.906815
 20
     -147.199997
 11
       77.206810
 21
     -121.312088
 13
       66.500000
 23
     -147.199997
 14
       64.000000
 24
      -85.000000
 50
       90.0
 70
  0
  0
LINE
  8
LVL0000
 62
  3
 10
        6.350000
 20
     -137.650000
 30
        0.000000
 11
        6.350000
 21
     -138.311910
 31
        0.000000
  0
LINE
  8
LVL0000
 62
  3
 10
       -2.550000
 20
     -137.650000
 30
        0.000000
 11
       -2.550000
 21
     -138.311910
 31
        0.000000
  0
ARC
  8
LVL0000
 62
  3
 10
       -1.700000
 20
     -137.650000
 30
        0.000000
 40
        0.850000
 50
       90.000000
 51
      179.999995
  0
ARC
  8
LVL0000
 62
  3
 10
       -1.700000
 20
     -137.650000
 30
        0.000000
 40
        0.850000
 50
        0.000000
 51
       90.000000
  0
ARC
  8
LVL0000
 62
  3
 10
       -7.200000
 20
     -137.650000
 30
        0.000000
 40
        0.850000
 50
       90.000000
 51
      179.999995
  0
ARC
  8
LVL0000
 62
  3
 10
       -7.200000
 20
     -137.650000
 30
        0.000000
 40
        0.850000
 50
        0.000000
 51
       90.000000
  0
LINE
  8
LVL0000
 62
  3
 10
       -6.350000
 20
     -137.650000
 30
        0.000000
 11
       -6.350000
 21
     -138.311910
 31
        0.000000
  0
ARC
  8
LVL0000
 62
  3
 10
        1.700000
 20
     -137.650000
 30
        0.000000
 40
        0.850000
 50
        0.000000
 51
       90.000000
  0
LINE
  8
LVL0000
 62
  3
 10
        2.550000
 20
     -137.650000
 30
        0.000000
 11
        2.550000
 21
     -138.311910
 31
        0.000000
  0
ARC
  8
LVL0000
 62
  3
 10
        1.700000
 20
     -137.650000
 30
        0.000000
 40
        0.850000
 50
       90.000000
 51
      179.999995
  0
ARC
  8
LVL0000
 62
  3
 10
        7.200000
 20
     -137.650000
 30
        0.000000
 40
        0.850000
 50
       90.000000
 51
      179.999995
  0
ARC
  8
LVL0000
 62
  3
 10
        7.200000
 20
     -137.650000
 30
        0.000000
 40
        0.850000
 50
        0.000000
 51
       90.000000
  0
ARC
  8
LVL0000
 62
  3
 10
      -64.500000
 20
     -134.200000
 30
        0.000000
 40
        1.000000
 50
      179.999995
 51
      270.000000
  0
LINE
  8
LVL0000
 62
  3
 10
        0.000000
 20
     -147.200000
 30
        0.000000
 11
      -66.500000
 21
     -147.200000
 31
        0.000000
  0
LINE
  8
LVL0000
 62
  3
 10
        0.000000
 20
     -136.700000
 30
        0.000000
 11
      -65.500000
 21
     -136.700000
 31
        0.000000
  0
LINE
  8
LVL0000
 62
  3
 10
      -65.500000
 20
     -134.000000
 30
        0.000000
 11
      -65.500000
 21
     -147.200000
 31
        0.000000
  0
ARC
  8
LVL0000
 62
  3
 10
      -66.500000
 20
     -146.200000
 30
        0.000000
 40
        1.000000
 50
      179.999995
 51
      270.000000
  0
ARC
  8
LVL0000
 62
  3
 10
      -64.500000
 20
     -126.000000
 30
        0.000000
 40
        1.000000
 50
       90.000000
 51
      179.999995
  0
LINE
  8
LVL0000
 62
  3
 10
      -65.500000
 20
     -126.000000
 30
        0.000000
 11
      -65.500000
 21
     -134.000000
 31
        0.000000
  0
LINE
  8
LVL0000
 62
  3
 10
      -67.500000
 20
     -116.200000
 30
        0.000000
 11
      -67.500000
 21
     -146.200000
 31
        0.000000
  0
ARC
  8
LVL0000
 62
  3
 10
      -66.500000
 20
     -116.200000
 30
        0.000000
 40
        1.000000
 50
       90.000000
 51
      179.999995
  0
LINE
  8
LVL0000
 62
  3
 10
      -66.500000
 20
     -115.200000
 30
        0.000000
 11
      -55.500000
 21
     -115.200000
 31
        0.000000
  0
LINE
  8
LVL0000
 62
  3
 10
      -55.500000
 20
     -115.200000
 30
        0.000000
 11
      -55.500000
 21
     -125.000000
 31
        0.000000
  0
LINE
  8
LVL0000
 62
  3
 10
       56.500000
 20
     -135.200000
 30
        0.000000
 11
      -64.500000
 21
     -135.200000
 31
        0.000000
  0
LINE
  8
LVL0000
 62
  3
 10
        0.000000
 20
     -136.700000
 30
        0.000000
 11
       65.500000
 21
     -136.700000
 31
        0.000000
  0
LINE
  8
LVL0000
 62
  3
 10
        0.000000
 20
     -147.200000
 30
        0.000000
 11
       66.500000
 21
     -147.200000
 31
        0.000000
  0
ARC
  8
LVL0000
 62
  3
 10
       66.500000
 20
     -146.200000
 30
        0.000000
 40
        1.000000
 50
      270.000000
 51
      360.000000
  0
LINE
  8
LVL0000
 62
  3
 10
       65.500000
 20
     -136.700000
 30
        0.000000
 11
       65.500000
 21
     -147.200000
 31
        0.000000
  0
ARC
  8
LVL0000
 62
  3
 10
       66.500000
 20
     -125.500000
 30
        0.000000
 40
        1.000000
 50
        0.000000
 51
       90.000000
  0
LINE
  8
LVL0000
 62
  3
 10
       67.500000
 20
     -125.500000
 30
        0.000000
 11
       67.500000
 21
     -146.200000
 31
        0.000000
  0
LINE
  8
LVL0000
 62
  3
 10
       56.500000
 20
     -124.500000
 30
        0.000000
 11
       66.500000
 21
     -124.500000
 31
        0.000000
  0
LINE
  8
LVL0000
 62
  3
 10
       56.500000
 20
     -124.500000
 30
        0.000000
 11
       56.500000
 21
     -136.700000
 31
        0.000000
  0
LINE
  8
LVL0000
 62
  3
 10
        0.000000
 20
     -145.000000
 30
        0.000000
 11
        0.850000
 21
     -145.000000
 31
        0.000000
  0
LINE
  8
LVL0000
 62
  3
 10
        0.000000
 20
     -145.000000
 30
        0.000000
 11
       -0.850000
 21
     -145.000000
 31
        0.000000
  0
LINE
  8
LVL0000
 62
  3
 10
       -1.350000
 20
     -144.300000
 30
        0.000000
 11
       -1.350000
 21
     -145.850000
 31
        0.000000
  0
LINE
  8
LVL0000
 62
  3
 10
       -0.850000
 20
     -144.300000
 30
        0.000000
 11
       -1.350000
 21
     -144.300000
 31
        0.000000
  0
ARC
  8
LVL0000
 62
  3
 10
        0.000000
 20
     -145.850000
 30
        0.000000
 40
        0.850000
 50
      179.999995
 51
      270.000000
  0
LINE
  8
LVL0000
 62
  3
 10
       -0.850000
 20
     -137.650000
 30
        0.000000
 11
       -0.850000
 21
     -145.850000
 31
        0.000000
  0
LINE
  8
LVL0000
 62
  3
 10
       -8.050000
 20
     -137.650000
 30
        0.000000
 11
       -8.050000
 21
     -143.300000
 31
        0.000000
  0
ARC
  8
LVL0000
 62
  3
 10
       -7.050000
 20
     -143.300000
 30
        0.000000
 40
        1.000000
 50
      179.999995
 51
      270.000000
  0
LINE
  8
LVL0000
 62
  3
 10
       -4.450000
 20
     -144.300000
 30
        0.000000
 11
       -7.050000
 21
     -144.300000
 31
        0.000000
  0
LINE
  8
LVL0000
 62
  3
 10
       -4.450000
 20
     -144.300000
 30
        0.000000
 11
       -3.817147
 21
     -145.850000
 31
        0.000000
  0
LINE
  8
LVL0000
 62
  3
 10
       -1.350000
 20
     -145.850000
 30
        0.000000
 11
       -3.817147
 21
     -145.850000
 31
        0.000000
  0
ARC
  8
LVL0000
 62
  3
 10
        0.000000
 20
     -145.850000
 30
        0.000000
 40
        1.350000
 50
      179.999995
 51
      270.000000
  0
LINE
  8
LVL0000
 62
  3
 10
        1.350000
 20
     -144.300000
 30
        0.000000
 11
        1.350000
 21
     -145.850000
 31
        0.000000
  0
LINE
  8
LVL0000
 62
  3
 10
        0.850000
 20
     -144.300000
 30
        0.000000
 11
        1.350000
 21
     -144.300000
 31
        0.000000
  0
ARC
  8
LVL0000
 62
  3
 10
        0.000000
 20
     -145.850000
 30
        0.000000
 40
        0.850000
 50
      270.000000
 51
      360.000000
  0
LINE
  8
LVL0000
 62
  3
 10
        0.850000
 20
     -137.650000
 30
        0.000000
 11
        0.850000
 21
     -145.850000
 31
        0.000000
  0
LINE
  8
LVL0000
 62
  3
 10
        8.050000
 20
     -137.650000
 30
        0.000000
 11
        8.050000
 21
     -143.300000
 31
        0.000000
  0
ARC
  8
LVL0000
 62
  3
 10
        7.050000
 20
     -143.300000
 30
        0.000000
 40
        1.000000
 50
      270.000000
 51
      360.000000
  0
LINE
  8
LVL0000
 62
  3
 10
        4.450000
 20
     -144.300000
 30
        0.000000
 11
        7.050000
 21
     -144.300000
 31
        0.000000
  0
LINE
  8
LVL0000
 62
  3
 10
        4.450000
 20
     -144.300000
 30
        0.000000
 11
        3.817147
 21
     -145.850000
 31
        0.000000
  0
LINE
  8
LVL0000
 62
  3
 10
        1.350000
 20
     -145.850000
 30
        0.000000
 11
        3.817147
 21
     -145.850000
 31
        0.000000
  0
ARC
  8
LVL0000
 62
  3
 10
        0.000000
 20
     -145.850000
 30
        0.000000
 40
        1.350000
 50
      270.000000
 51
      360.000000
  0
LINE
  8
LVL0000
 62
  3
 10
        0.000000
 20
     -143.900000
 30
        0.000000
 11
        0.850000
 21
     -143.900000
 31
        0.000000
  0
LINE
  8
LVL0000
 62
  3
 10
        0.000000
 20
     -143.900000
 30
        0.000000
 11
       -0.850000
 21
     -143.900000
 31
        0.000000
  0
CIRCLE
  8
LVL0000
 62
  3
 10
       61.000000
 20
     -130.000000
 30
        0.000000
 40
        3.150000
  0
LINE
  8
LVL0000
 62
  3
 10
       60.614000
 20
     -128.350000
 30
        0.000000
 11
       61.513998
 21
     -128.350000
 31
        0.000000
  0
LINE
  8
LVL0000
 62
  3
 10
       60.614000
 20
     -131.650000
 30
        0.000000
 11
       61.513998
 21
     -131.650000
 31
        0.000000
  0
LINE
  8
LVL0000
 62
  3
 10
       61.513998
 20
     -131.650000
 30
        0.000000
 11
       61.513998
 21
     -130.900000
 31
        0.000000
  0
LINE
  8
LVL0000
 62
  3
 10
       60.614000
 20
     -131.650000
 30
        0.000000
 11
       60.614000
 21
     -130.900000
 31
        0.000000
  0
LINE
  8
LVL0000
 62
  3
 10
       61.513998
 20
     -129.100000
 30
        0.000000
 11
       61.513998
 21
     -128.350000
 31
        0.000000
  0
LINE
  8
LVL0000
 62
  3
 10
       60.614000
 20
     -129.100000
 30
        0.000000
 11
       60.614000
 21
     -128.350000
 31
        0.000000
  0
ARC
  8
LVL0000
 62
  3
 10
       61.963997
 20
     -129.100000
 30
        0.000000
 40
        0.449999
 50
      180.000006
 51
      270.000000
  0
ARC
  8
LVL0000
 62
  3
 10
       61.963997
 20
     -130.900000
 30
        0.000000
 40
        0.450000
 50
       90.000000
 51
      180.000006
  0
ARC
  8
LVL0000
 62
  3
 10
       60.164001
 20
     -130.900000
 30
        0.000000
 40
        0.449999
 50
        0.000003
 51
       90.000000
  0
ARC
  8
LVL0000
 62
  3
 10
       60.164001
 20
     -129.100000
 30
        0.000000
 40
        0.450000
 50
      270.000000
 51
      360.000003
  0
LINE
  8
LVL0000
 62
  3
 10
       61.963997
 20
     -129.550000
 30
        0.000000
 11
       64.117692
 21
     -129.550000
 31
        0.000000
  0
LINE
  8
LVL0000
 62
  3
 10
       61.963997
 20
     -130.450000
 30
        0.000000
 11
       64.117692
 21
     -130.450000
 31
        0.000000
  0
LINE
  8
LVL0000
 62
  3
 10
       57.882308
 20
     -129.550000
 30
        0.000000
 11
       60.164001
 21
     -129.550000
 31
        0.000000
  0
LINE
  8
LVL0000
 62
  3
 10
       57.882308
 20
     -130.450000
 30
        0.000000
 11
       60.164001
 21
     -130.450000
 31
        0.000000
  0
LINE
  8
LVL0000
 62
  3
 10
      -64.117692
 20
     -120.450000
 30
        0.000000
 11
      -61.835999
 21
     -120.450000
 31
        0.000000
  0
LINE
  8
LVL0000
 62
  3
 10
      -64.117692
 20
     -119.550000
 30
        0.000000
 11
      -61.835999
 21
     -119.550000
 31
        0.000000
  0
LINE
  8
LVL0000
 62
  3
 10
      -60.036003
 20
     -120.450000
 30
        0.000000
 11
      -57.882308
 21
     -120.450000
 31
        0.000000
  0
LINE
  8
LVL0000
 62
  3
 10
      -60.036003
 20
     -119.550000
 30
        0.000000
 11
      -57.882308
 21
     -119.550000
 31
        0.000000
  0
ARC
  8
LVL0000
 62
  3
 10
      -61.835999
 20
     -119.100000
 30
        0.000000
 40
        0.450000
 50
      270.000000
 51
      360.000003
  0
ARC
  8
LVL0000
 62
  3
 10
      -61.835999
 20
     -120.900000
 30
        0.000000
 40
        0.449999
 50
        0.000003
 51
       90.000000
  0
ARC
  8
LVL0000
 62
  3
 10
      -60.036003
 20
     -120.900000
 30
        0.000000
 40
        0.450000
 50
       90.000000
 51
      180.000006
  0
ARC
  8
LVL0000
 62
  3
 10
      -60.036003
 20
     -119.100000
 30
        0.000000
 40
        0.449999
 50
      180.000006
 51
      270.000000
  0
LINE
  8
LVL0000
 62
  3
 10
      -61.386000
 20
     -119.100000
 30
        0.000000
 11
      -61.386000
 21
     -118.350000
 31
        0.000000
  0
LINE
  8
LVL0000
 62
  3
 10
      -60.486002
 20
     -119.100000
 30
        0.000000
 11
      -60.486002
 21
     -118.350000
 31
        0.000000
  0
LINE
  8
LVL0000
 62
  3
 10
      -61.386000
 20
     -121.650000
 30
        0.000000
 11
      -61.386000
 21
     -120.900000
 31
        0.000000
  0
LINE
  8
LVL0000
 62
  3
 10
      -60.486002
 20
     -121.650000
 30
        0.000000
 11
      -60.486002
 21
     -120.900000
 31
        0.000000
  0
LINE
  8
LVL0000
 62
  3
 10
      -61.386000
 20
     -121.650000
 30
        0.000000
 11
      -60.486002
 21
     -121.650000
 31
        0.000000
  0
LINE
  8
LVL0000
 62
  3
 10
      -61.386000
 20
     -118.350000
 30
        0.000000
 11
      -60.486002
 21
     -118.350000
 31
        0.000000
  0
CIRCLE
  8
LVL0000
 62
  3
 10
      -61.000000
 20
     -120.000000
 30
        0.000000
 40
        3.150000
  0
LINE
  8
LVL0000
 62
  3
 10
       91.115000
 20
     -135.000000
 30
        0.000000
 11
      105.815000
 21
     -135.000000
 31
        0.000000
  0
LINE
  8
LVL0000
 62
  3
 10
      146.115000
 20
     -135.000000
 30
        0.000000
 11
      129.015000
 21
     -135.000000
 31
        0.000000
  0
LINE
  8
LVL0000
 62
  3
 10
       91.115000
 20
     -124.850000
 30
        0.000000
 11
      105.815000
 21
     -124.850000
 31
        0.000000
  0
LINE
  8
LVL0000
 62
  3
 10
      117.315000
 20
     -124.500000
 30
        0.000000
 11
      117.315000
 21
     -115.000000
 31
        0.000000
  0
LINE
  8
LVL0000
 62
  3
 10
      126.115000
 20
      -85.000000
 30
        0.000000
 11
      126.115000
 21
     -124.654223
 31
        0.000000
  0
LINE
  8
LVL0000
 62
  3
 10
       91.115000
 20
      -85.000000
 30
        0.000000
 11
      126.115000
 21
      -85.000000
 31
        0.000000
  0
LINE
  8
LVL0000
 62
  3
 10
      126.115000
 20
      -85.000000
 30
        0.000000
 11
      146.115000
 21
      -85.000000
 31
        0.000000
  0
LINE
  8
LVL0000
 62
  3
 10
       98.115000
 20
     -106.250000
 30
        0.000000
 11
      119.115000
 21
     -106.250000
 31
        0.000000
  0
LINE
  8
LVL0000
 62
  3
 10
       98.115000
 20
     -107.750000
 30
        0.000000
 11
      119.115000
 21
     -107.750000
 31
        0.000000
  0
LINE
  8
LVL0000
 62
  3
 10
      119.115000
 20
     -106.250000
 30
        0.000000
 11
      119.115000
 21
     -107.750000
 31
        0.000000
  0
LINE
  8
LVL0000
 62
  3
 10
       98.115000
 20
     -106.250000
 30
        0.000000
 11
       98.115000
 21
     -107.750000
 31
        0.000000
  0
LINE
  8
LVL0000
 62
  3
 10
       98.115000
 20
     -109.250000
 30
        0.000000
 11
       98.115000
 21
     -110.750000
 31
        0.000000
  0
LINE
  8
LVL0000
 62
  3
 10
      119.115000
 20
     -109.250000
 30
        0.000000
 11
      119.115000
 21
     -110.750000
 31
        0.000000
  0
LINE
  8
LVL0000
 62
  3
 10
       98.115000
 20
     -110.750000
 30
        0.000000
 11
      119.115000
 21
     -110.750000
 31
        0.000000
  0
LINE
  8
LVL0000
 62
  3
 10
       98.115000
 20
     -109.250000
 30
        0.000000
 11
      119.115000
 21
     -109.250000
 31
        0.000000
  0
LINE
  8
LVL0000
 62
  3
 10
      109.415000
 20
     -106.250000
 30
        0.000000
 11
      109.415000
 21
     -107.750000
 31
        0.000000
  0
LINE
  8
LVL0000
 62
  3
 10
      109.415000
 20
     -109.250000
 30
        0.000000
 11
      109.415000
 21
     -110.750000
 31
        0.000000
  0
LINE
  8
LVL0000
 62
  3
 10
      107.815000
 20
     -106.250000
 30
        0.000000
 11
      107.815000
 21
     -107.750000
 31
        0.000000
  0
LINE
  8
LVL0000
 62
  3
 10
      107.815000
 20
     -109.250000
 30
        0.000000
 11
      107.815000
 21
     -110.750000
 31
        0.000000
  0
LINE
  8
LVL0000
 62
  3
 10
      146.115000
 20
     -138.000000
 30
        0.000000
 11
      143.115000
 21
     -138.000000
 31
        0.000000
  0
LINE
  8
LVL0000
 62
  3
 10
      143.115000
 20
     -135.000000
 30
        0.000000
 11
      143.115000
 21
     -138.000000
 31
        0.000000
  0
LINE
  8
LVL0000
 62
  3
 10
      146.115000
 20
     -135.000000
 30
        0.000000
 11
      146.115000
 21
     -138.000000
 31
        0.000000
  0
LINE
  8
LVL0000
 62
  3
 10
      146.115000
 20
     -128.000000
 30
        0.000000
 11
      146.115000
 21
     -135.000000
 31
        0.000000
  0
LINE
  8
LVL0000
 62
  3
 10
      146.115000
 20
      -85.000000
 30
        0.000000
 11
      146.115000
 21
      -92.000000
 31
        0.000000
  0
LINE
  8
LVL0000
 62
  3
 10
      146.115000
 20
       18.000000
 30
        0.000000
 11
      143.115000
 21
       18.000000
 31
        0.000000
  0
LINE
  8
LVL0000
 62
  3
 10
      146.115000
 20
      -18.000000
 30
        0.000000
 11
      143.115000
 21
      -18.000000
 31
        0.000000
  0
LINE
  8
LVL0000
 62
  3
 10
      143.115000
 20
       18.000000
 30
        0.000000
 11
      143.115000
 21
      -18.000000
 31
        0.000000
  0
LINE
  8
LVL0000
 62
  3
 10
       91.115000
 20
       15.000000
 30
        0.000000
 11
      141.115000
 21
       15.000000
 31
        0.000000
  0
LINE
  8
LVL0000
 62
  3
 10
      141.115000
 20
       25.000000
 30
        0.000000
 11
      141.115000
 21
       15.000000
 31
        0.000000
  0
DIMENSION
  8
LVL0000
 62
  5
  2
BLK0006
 10
       65.000000
 20
      -40.694183
 11
       -4.500000
 21
      -39.994183
 13
       65.000000
 23
      -25.000000
 14
      -65.000000
 24
      -25.000000
 50
        0.0
 70
  0
  0
DIMENSION
  8
LVL0000
 62
  5
  2
BLK0007
 10
       79.313774
 20
       25.000000
 11
       78.613770
 21
       -3.000000
 13
       65.000000
 23
       25.000000
 14
       65.000000
 24
      -25.000000
 50
       90.0
 70
  0
  0
DIMENSION
  8
LVL0000
 62
  5
  2
BLK0008
 10
       91.114998
 20
      -41.853245
 11
      115.614998
 21
      -41.153244
 13
       91.114998
 23
      -25.000000
 14
      146.115005
 24
      -28.000000
 50
        0.0
 70
  0
  0
LINE
  8
LVL0000
 62
  3
 10
       25.700000
 20
      -14.850000
 30
        0.000000
 11
       29.900000
 21
      -14.850000
 31
        0.000000
  0
LINE
  8
LVL0000
 62
  3
 10
       25.700000
 20
      -14.850000
 30
        0.000000
 11
       25.700000
 21
       -5.000000
 31
        0.000000
  0
LINE
  8
LVL0000
 62
  3
 10
       29.900000
 20
      -25.000000
 30
        0.000000
 11
       29.900000
 21
      -14.850000
 31
        0.000000
  0
LINE
  8
LVL0000
 62
  3
 10
      107.115000
 20
      -17.250000
 30
        0.000000
 11
      106.267753
 21
      -17.324131
 31
        0.000000
  0
LINE
  8
LVL0000
 62
  3
 10
      107.115000
 20
      -22.750000
 30
        0.000000
 11
      106.267753
 21
      -22.675870
 31
        0.000000
  0
ARC
  8
LVL0000
 62
  3
 10
      106.354932
 20
      -18.320324
 30
        0.000000
 40
        1.000000
 50
       95.001326
 51
      163.741532
  0
ARC
  8
LVL0000
 62
  3
 10
      106.354932
 20
      -21.679678
 30
        0.000000
 40
        1.000000
 50
      196.255707
 51
      264.998684
  0
LINE
  8
LVL0000
 62
  3
 10
      107.115000
 20
      -17.000000
 30
        0.000000
 11
      107.115000
 21
      -23.000000
 31
        0.000000
  0
LINE
  8
LVL0000
 62
  3
 10
      107.115000
 20
      -23.000000
 30
        0.000000
 11
      108.315000
 21
      -23.000000
 31
        0.000000
  0
LINE
  8
LVL0000
 62
  3
 10
      107.115000
 20
      -17.000000
 30
        0.000000
 11
      108.315000
 21
      -17.000000
 31
        0.000000
  0
ARC
  8
LVL0000
 62
  3
 10
      112.115000
 20
      -20.000000
 30
        0.000000
 40
        7.000000
 50
      163.742720
 51
      196.257025
  0
CIRCLE
  8
LVL0000
 62
  3
 10
       60.000000
 20
       20.000000
 30
        0.000000
 40
        2.000000
  0
LINE
  8
LVL0000
 62
  3
 10
      -34.140000
 20
        8.100000
 30
        0.000000
 11
      -34.140000
 21
        6.100000
 31
        0.000000
  0
LINE
  8
LVL0000
 62
  3
 10
      -36.680000
 20
        8.100000
 30
        0.000000
 11
      -36.680000
 21
        6.100000
 31
        0.000000
  0
LINE
  8
LVL0000
 62
  3
 10
      -39.220000
 20
        8.100000
 30
        0.000000
 11
      -39.220000
 21
        6.100000
 31
        0.000000
  0
LINE
  8
LVL0000
 62
  3
 10
      -41.760000
 20
        8.100000
 30
        0.000000
 11
      -41.760000
 21
        6.100000
 31
        0.000000
  0
LINE
  8
LVL0000
 62
  3
 10
      -44.300000
 20
        8.100000
 30
        0.000000
 11
      -44.300000
 21
        6.100000
 31
        0.000000
  0
LINE
  8
LVL0000
 62
  3
 10
      -46.840000
 20
        8.100000
 30
        0.000000
 11
      -46.840000
 21
        6.100000
 31
        0.000000
  0
LINE
  8
LVL0000
 62
  3
 10
      -49.380000
 20
        8.100000
 30
        0.000000
 11
      -49.380000
 21
        6.100000
 31
        0.000000
  0
LINE
  8
LVL0000
 62
  3
 10
      -51.920000
 20
        8.100000
 30
        0.000000
 11
      -51.920000
 21
        6.100000
 31
        0.000000
  0
LINE
  8
LVL0000
 62
  3
 10
      -54.460000
 20
        8.100000
 30
        0.000000
 11
      -54.460000
 21
        6.100000
 31
        0.000000
  0
LINE
  8
LVL0000
 62
  3
 10
      -35.540000
 20
        8.100000
 30
        0.000000
 11
      -34.140000
 21
        8.100000
 31
        0.000000
  0
LINE
  8
LVL0000
 62
  3
 10
      -38.080000
 20
        8.100000
 30
        0.000000
 11
      -36.680000
 21
        8.100000
 31
        0.000000
  0
LINE
  8
LVL0000
 62
  3
 10
      -40.620000
 20
        8.100000
 30
        0.000000
 11
      -39.220000
 21
        8.100000
 31
        0.000000
  0
LINE
  8
LVL0000
 62
  3
 10
      -43.160000
 20
        8.100000
 30
        0.000000
 11
      -41.760000
 21
        8.100000
 31
        0.000000
  0
LINE
  8
LVL0000
 62
  3
 10
      -45.700000
 20
        8.100000
 30
        0.000000
 11
      -44.300000
 21
        8.100000
 31
        0.000000
  0
LINE
  8
LVL0000
 62
  3
 10
      -48.240000
 20
        8.100000
 30
        0.000000
 11
      -46.840000
 21
        8.100000
 31
        0.000000
  0
LINE
  8
LVL0000
 62
  3
 10
      -50.780000
 20
        8.100000
 30
        0.000000
 11
      -49.380000
 21
        8.100000
 31
        0.000000
  0
LINE
  8
LVL0000
 62
  3
 10
      -53.320000
 20
        8.100000
 30
        0.000000
 11
      -51.920000
 21
        8.100000
 31
        0.000000
  0
LINE
  8
LVL0000
 62
  3
 10
      -55.860000
 20
        8.100000
 30
        0.000000
 11
      -54.460000
 21
        8.100000
 31
        0.000000
  0
LINE
  8
LVL0000
 62
  3
 10
      -35.540000
 20
        6.900000
 30
        0.000000
 11
      -34.140000
 21
        6.900000
 31
        0.000000
  0
LINE
  8
LVL0000
 62
  3
 10
      -38.080000
 20
        6.900000
 30
        0.000000
 11
      -36.680000
 21
        6.900000
 31
        0.000000
  0
LINE
  8
LVL0000
 62
  3
 10
      -40.620000
 20
        6.900000
 30
        0.000000
 11
      -39.220000
 21
        6.900000
 31
        0.000000
  0
LINE
  8
LVL0000
 62
  3
 10
      -43.160000
 20
        6.900000
 30
        0.000000
 11
      -41.760000
 21
        6.900000
 31
        0.000000
  0
LINE
  8
LVL0000
 62
  3
 10
      -45.700000
 20
        6.900000
 30
        0.000000
 11
      -44.300000
 21
        6.900000
 31
        0.000000
  0
LINE
  8
LVL0000
 62
  3
 10
      -48.240000
 20
        6.900000
 30
        0.000000
 11
      -46.840000
 21
        6.900000
 31
        0.000000
  0
LINE
  8
LVL0000
 62
  3
 10
      -50.780000
 20
        6.900000
 30
        0.000000
 11
      -49.380000
 21
        6.900000
 31
        0.000000
  0
LINE
  8
LVL0000
 62
  3
 10
      -53.320000
 20
        6.900000
 30
        0.000000
 11
      -51.920000
 21
        6.900000
 31
        0.000000
  0
LINE
  8
LVL0000
 62
  3
 10
      -55.860000
 20
        6.900000
 30
        0.000000
 11
      -54.460000
 21
        6.900000
 31
        0.000000
  0
LINE
  8
LVL0000
 62
  3
 10
      -35.540000
 20
        8.100000
 30
        0.000000
 11
      -35.540000
 21
        6.100000
 31
        0.000000
  0
LINE
  8
LVL0000
 62
  3
 10
      -38.080000
 20
        8.100000
 30
        0.000000
 11
      -38.080000
 21
        6.100000
 31
        0.000000
  0
LINE
  8
LVL0000
 62
  3
 10
      -40.620000
 20
        8.100000
 30
        0.000000
 11
      -40.620000
 21
        6.100000
 31
        0.000000
  0
LINE
  8
LVL0000
 62
  3
 10
      -43.160000
 20
        8.100000
 30
        0.000000
 11
      -43.160000
 21
        6.100000
 31
        0.000000
  0
LINE
  8
LVL0000
 62
  3
 10
      -45.700000
 20
        8.100000
 30
        0.000000
 11
      -45.700000
 21
        6.100000
 31
        0.000000
  0
LINE
  8
LVL0000
 62
  3
 10
      -48.240000
 20
        8.100000
 30
        0.000000
 11
      -48.240000
 21
        6.100000
 31
        0.000000
  0
LINE
  8
LVL0000
 62
  3
 10
      -50.780000
 20
        8.100000
 30
        0.000000
 11
      -50.780000
 21
        6.100000
 31
        0.000000
  0
LINE
  8
LVL0000
 62
  3
 10
      -53.320000
 20
        8.100000
 30
        0.000000
 11
      -53.320000
 21
        6.100000
 31
        0.000000
  0
LINE
  8
LVL0000
 62
  3
 10
      -55.860000
 20
        8.100000
 30
        0.000000
 11
      -55.860000
 21
        6.100000
 31
        0.000000
  0
LINE
  8
LVL0000
 62
  3
 10
      -58.400000
 20
        6.900000
 30
        0.000000
 11
      -57.000000
 21
        6.900000
 31
        0.000000
  0
LINE
  8
LVL0000
 62
  3
 10
      -58.400000
 20
        8.100000
 30
        0.000000
 11
      -57.000000
 21
        8.100000
 31
        0.000000
  0
LINE
  8
LVL0000
 62
  3
 10
      -57.000000
 20
        8.100000
 30
        0.000000
 11
      -57.000000
 21
        6.100000
 31
        0.000000
  0
LINE
  8
LVL0000
 62
  3
 10
      -58.400000
 20
        8.100000
 30
        0.000000
 11
      -58.400000
 21
        6.100000
 31
        0.000000
  0
LINE
  8
LVL0000
 62
  3
 10
      -59.599991
 20
        6.100000
 30
        0.000000
 11
      -32.939991
 21
        6.100000
 31
        0.000000
  0
ARC
  8
LVL0000
 62
  3
 10
      -64.000000
 20
       24.000000
 30
        0.000000
 40
        1.000000
 50
       90.000000
 51
      179.999995
  0
LINE
  8
LVL0000
 62
  3
 10
      -64.000000
 20
       25.000000
 30
        0.000000
 11
       64.000000
 21
       25.000000
 31
        0.000000
  0
ARC
  8
LVL0000
 62
  3
 10
       64.000000
 20
       24.000000
 30
        0.000000
 40
        1.000000
 50
        0.000000
 51
       90.000000
  0
ARC
  8
LVL0000
 62
  3
 10
       60.000000
 20
       20.000000
 30
        0.000000
 40
        5.000000
 50
      179.999995
 51
      270.000000
  0
LINE
  8
LVL0000
 62
  3
 10
       55.000000
 20
       25.000000
 30
        0.000000
 11
       55.000000
 21
       20.000000
 31
        0.000000
  0
LINE
  8
LVL0000
 62
  3
 10
       60.000000
 20
       15.000000
 30
        0.000000
 11
       65.000000
 21
       15.000000
 31
        0.000000
  0
LINE
  8
LVL0000
 62
  3
 10
      -60.599991
 20
        2.200000
 30
        0.000000
 11
      -31.939991
 21
        2.200000
 31
        0.000000
  0
LINE
  8
LVL0000
 62
  3
 10
      -32.939991
 20
        3.200000
 30
        0.000000
 11
      -32.939991
 21
        8.200000
 31
        0.000000
  0
LINE
  8
LVL0000
 62
  3
 10
      -59.599991
 20
        3.200000
 30
        0.000000
 11
      -59.599991
 21
        8.200000
 31
        0.000000
  0
LINE
  8
LVL0000
 62
  3
 10
      -59.599991
 20
        3.200000
 30
        0.000000
 11
      -32.939991
 21
        3.200000
 31
        0.000000
  0
LINE
  8
LVL0000
 62
  3
 10
      -59.599991
 20
        8.200000
 30
        0.000000
 11
      -32.939991
 21
        8.200000
 31
        0.000000
  0
LINE
  8
LVL0000
 62
  3
 10
       31.150000
 20
       10.025000
 30
        0.000000
 11
       31.150000
 21
       11.425000
 31
        0.000000
  0
LINE
  8
LVL0000
 62
  3
 10
       32.850000
 20
       10.025000
 30
        0.000000
 11
       35.350000
 21
       10.025000
 31
        0.000000
  0
LINE
  8
LVL0000
 62
  3
 10
       32.850000
 20
       10.025000
 30
        0.000000
 11
       32.850000
 21
       11.425000
 31
        0.000000
  0
LINE
  8
LVL0000
 62
  3
 10
       32.850000
 20
       11.425000
 30
        0.000000
 11
       35.350000
 21
       11.425000
 31
        0.000000
  0
LINE
  8
LVL0000
 62
  3
 10
       35.350000
 20
       10.025000
 30
        0.000000
 11
       35.350000
 21
       11.425000
 31
        0.000000
  0
LINE
  8
LVL0000
 62
  3
 10
       37.050000
 20
       10.025000
 30
        0.000000
 11
       39.550000
 21
       10.025000
 31
        0.000000
  0
LINE
  8
LVL0000
 62
  3
 10
       37.050000
 20
       10.025000
 30
        0.000000
 11
       37.050000
 21
       11.425000
 31
        0.000000
  0
LINE
  8
LVL0000
 62
  3
 10
       37.050000
 20
       11.425000
 30
        0.000000
 11
       39.550000
 21
       11.425000
 31
        0.000000
  0
LINE
  8
LVL0000
 62
  3
 10
       39.550000
 20
       10.025000
 30
        0.000000
 11
       39.550000
 21
       11.425000
 31
        0.000000
  0
LINE
  8
LVL0000
 62
  3
 10
       41.250000
 20
       10.025000
 30
        0.000000
 11
       43.750000
 21
       10.025000
 31
        0.000000
  0
LINE
  8
LVL0000
 62
  3
 10
       47.950000
 20
       10.025000
 30
        0.000000
 11
       47.950000
 21
       11.425000
 31
        0.000000
  0
LINE
  8
LVL0000
 62
  3
 10
       49.650000
 20
       11.425000
 30
        0.000000
 11
       52.150000
 21
       11.425000
 31
        0.000000
  0
LINE
  8
LVL0000
 62
  3
 10
       49.650000
 20
       10.025000
 30
        0.000000
 11
       52.150000
 21
       10.025000
 31
        0.000000
  0
LINE
  8
LVL0000
 62
  3
 10
       41.250000
 20
       10.025000
 30
        0.000000
 11
       41.250000
 21
       11.425000
 31
        0.000000
  0
LINE
  8
LVL0000
 62
  3
 10
       41.250000
 20
       11.425000
 30
        0.000000
 11
       43.750000
 21
       11.425000
 31
        0.000000
  0
LINE
  8
LVL0000
 62
  3
 10
       43.750000
 20
       10.025000
 30
        0.000000
 11
       43.750000
 21
       11.425000
 31
        0.000000
  0
LINE
  8
LVL0000
 62
  3
 10
       45.450000
 20
       10.025000
 30
        0.000000
 11
       47.950000
 21
       10.025000
 31
        0.000000
  0
LINE
  8
LVL0000
 62
  3
 10
       45.450000
 20
       10.025000
 30
        0.000000
 11
       45.450000
 21
       11.425000
 31
        0.000000
  0
LINE
  8
LVL0000
 62
  3
 10
       45.450000
 20
       11.425000
 30
        0.000000
 11
       47.950000
 21
       11.425000
 31
        0.000000
  0
LINE
  8
LVL0000
 62
  3
 10
       49.650000
 20
       10.025000
 30
        0.000000
 11
       49.650000
 21
       11.425000
 31
        0.000000
  0
LINE
  8
LVL0000
 62
  3
 10
       24.450000
 20
       10.025000
 30
        0.000000
 11
       26.950000
 21
       10.025000
 31
        0.000000
  0
LINE
  8
LVL0000
 62
  3
 10
       24.450000
 20
       10.025000
 30
        0.000000
 11
       24.450000
 21
       11.425000
 31
        0.000000
  0
LINE
  8
LVL0000
 62
  3
 10
       24.450000
 20
       11.425000
 30
        0.000000
 11
       26.950000
 21
       11.425000
 31
        0.000000
  0
LINE
  8
LVL0000
 62
  3
 10
       26.950000
 20
       10.025000
 30
        0.000000
 11
       26.950000
 21
       11.425000
 31
        0.000000
  0
LINE
  8
LVL0000
 62
  3
 10
       28.650000
 20
       10.025000
 30
        0.000000
 11
       31.150000
 21
       10.025000
 31
        0.000000
  0
LINE
  8
LVL0000
 62
  3
 10
       28.650000
 20
       10.025000
 30
        0.000000
 11
       28.650000
 21
       11.425000
 31
        0.000000
  0
LINE
  8
LVL0000
 62
  3
 10
       28.650000
 20
       11.425000
 30
        0.000000
 11
       31.150000
 21
       11.425000
 31
        0.000000
  0
LINE
  8
LVL0000
 62
  3
 10
      -30.900000
 20
       11.425000
 30
        0.000000
 11
      -28.400000
 21
       11.425000
 31
        0.000000
  0
LINE
  8
LVL0000
 62
  3
 10
      -30.900000
 20
       10.025000
 30
        0.000000
 11
      -28.400000
 21
       10.025000
 31
        0.000000
  0
LINE
  8
LVL0000
 62
  3
 10
      -28.400000
 20
       10.025000
 30
        0.000000
 11
      -28.400000
 21
       11.425000
 31
        0.000000
  0
LINE
  8
LVL0000
 62
  3
 10
      -26.800000
 20
       10.025000
 30
        0.000000
 11
      -24.300000
 21
       10.025000
 31
        0.000000
  0
LINE
  8
LVL0000
 62
  3
 10
      -26.800000
 20
       10.025000
 30
        0.000000
 11
      -26.800000
 21
       11.425000
 31
        0.000000
  0
LINE
  8
LVL0000
 62
  3
 10
      -26.800000
 20
       11.425000
 30
        0.000000
 11
      -24.300000
 21
       11.425000
 31
        0.000000
  0
LINE
  8
LVL0000
 62
  3
 10
      -22.700000
 20
       10.025000
 30
        0.000000
 11
      -22.700000
 21
       11.425000
 31
        0.000000
  0
LINE
  8
LVL0000
 62
  3
 10
      -18.600000
 20
       11.425000
 30
        0.000000
 11
      -16.100000
 21
       11.425000
 31
        0.000000
  0
LINE
  8
LVL0000
 62
  3
 10
      -16.100000
 20
       10.025000
 30
        0.000000
 11
      -16.100000
 21
       11.425000
 31
        0.000000
  0
LINE
  8
LVL0000
 62
  3
 10
       16.050000
 20
       11.425000
 30
        0.000000
 11
       18.550000
 21
       11.425000
 31
        0.000000
  0
LINE
  8
LVL0000
 62
  3
 10
       16.050000
 20
       10.025000
 30
        0.000000
 11
       18.550000
 21
       10.025000
 31
        0.000000
  0
LINE
  8
LVL0000
 62
  3
 10
       18.550000
 20
       10.025000
 30
        0.000000
 11
       18.550000
 21
       11.425000
 31
        0.000000
  0
LINE
  8
LVL0000
 62
  3
 10
       11.850000
 20
       10.025000
 30
        0.000000
 11
       11.850000
 21
       11.425000
 31
        0.000000
  0
LINE
  8
LVL0000
 62
  3
 10
       11.850000
 20
       11.425000
 30
        0.000000
 11
       14.350000
 21
       11.425000
 31
        0.000000
  0
LINE
  8
LVL0000
 62
  3
 10
        7.650000
 20
       10.025000
 30
        0.000000
 11
        7.650000
 21
       11.425000
 31
        0.000000
  0
LINE
  8
LVL0000
 62
  3
 10
        3.450000
 20
       10.025000
 30
        0.000000
 11
        5.950000
 21
       10.025000
 31
        0.000000
  0
LINE
  8
LVL0000
 62
  3
 10
        5.950000
 20
       10.025000
 30
        0.000000
 11
        5.950000
 21
       11.425000
 31
        0.000000
  0
LINE
  8
LVL0000
 62
  3
 10
        3.450000
 20
       10.025000
 30
        0.000000
 11
        3.450000
 21
       11.425000
 31
        0.000000
  0
LINE
  8
LVL0000
 62
  3
 10
       -0.750000
 20
       11.425000
 30
        0.000000
 11
        1.750000
 21
       11.425000
 31
        0.000000
  0
LINE
  8
LVL0000
 62
  3
 10
       -2.450000
 20
       10.025000
 30
        0.000000
 11
       -2.450000
 21
       11.425000
 31
        0.000000
  0
LINE
  8
LVL0000
 62
  3
 10
       -4.950000
 20
       11.425000
 30
        0.000000
 11
       -2.450000
 21
       11.425000
 31
        0.000000
  0
LINE
  8
LVL0000
 62
  3
 10
       -4.950000
 20
       10.025000
 30
        0.000000
 11
       -2.450000
 21
       10.025000
 31
        0.000000
  0
LINE
  8
LVL0000
 62
  3
 10
       -9.150000
 20
       11.425000
 30
        0.000000
 11
       -6.650000
 21
       11.425000
 31
        0.000000
  0
LINE
  8
LVL0000
 62
  3
 10
       -9.150000
 20
       10.025000
 30
        0.000000
 11
       -6.650000
 21
       10.025000
 31
        0.000000
  0
LINE
  8
LVL0000
 62
  3
 10
      -13.350000
 20
       11.425000
 30
        0.000000
 11
      -10.850000
 21
       11.425000
 31
        0.000000
  0
LINE
  8
LVL0000
 62
  3
 10
      -13.350000
 20
       10.025000
 30
        0.000000
 11
      -10.850000
 21
       10.025000
 31
        0.000000
  0
LINE
  8
LVL0000
 62
  3
 10
      -30.900000
 20
       10.025000
 30
        0.000000
 11
      -30.900000
 21
       11.425000
 31
        0.000000
  0
LINE
  8
LVL0000
 62
  3
 10
      -24.300000
 20
       10.025000
 30
        0.000000
 11
      -24.300000
 21
       11.425000
 31
        0.000000
  0
LINE
  8
LVL0000
 62
  3
 10
      -22.700000
 20
       11.425000
 30
        0.000000
 11
      -20.200000
 21
       11.425000
 31
        0.000000
  0
LINE
  8
LVL0000
 62
  3
 10
      -22.700000
 20
       10.025000
 30
        0.000000
 11
      -20.200000
 21
       10.025000
 31
        0.000000
  0
LINE
  8
LVL0000
 62
  3
 10
      -20.200000
 20
       10.025000
 30
        0.000000
 11
      -20.200000
 21
       11.425000
 31
        0.000000
  0
LINE
  8
LVL0000
 62
  3
 10
      -18.600000
 20
       10.025000
 30
        0.000000
 11
      -16.100000
 21
       10.025000
 31
        0.000000
  0
LINE
  8
LVL0000
 62
  3
 10
      -18.600000
 20
       10.025000
 30
        0.000000
 11
      -18.600000
 21
       11.425000
 31
        0.000000
  0
LINE
  8
LVL0000
 62
  3
 10
       16.050000
 20
       10.025000
 30
        0.000000
 11
       16.050000
 21
       11.425000
 31
        0.000000
  0
LINE
  8
LVL0000
 62
  3
 10
       14.350000
 20
       10.025000
 30
        0.000000
 11
       14.350000
 21
       11.425000
 31
        0.000000
  0
LINE
  8
LVL0000
 62
  3
 10
       11.850000
 20
       10.025000
 30
        0.000000
 11
       14.350000
 21
       10.025000
 31
        0.000000
  0
LINE
  8
LVL0000
 62
  3
 10
        7.650000
 20
       11.425000
 30
        0.000000
 11
       10.150000
 21
       11.425000
 31
        0.000000
  0
LINE
  8
LVL0000
 62
  3
 10
        7.650000
 20
       10.025000
 30
        0.000000
 11
       10.150000
 21
       10.025000
 31
        0.000000
  0
LINE
  8
LVL0000
 62
  3
 10
       10.150000
 20
       10.025000
 30
        0.000000
 11
       10.150000
 21
       11.425000
 31
        0.000000
  0
LINE
  8
LVL0000
 62
  3
 10
        3.450000
 20
       11.425000
 30
        0.000000
 11
        5.950000
 21
       11.425000
 31
        0.000000
  0
LINE
  8
LVL0000
 62
  3
 10
        1.750000
 20
       10.025000
 30
        0.000000
 11
        1.750000
 21
       11.425000
 31
        0.000000
  0
LINE
  8
LVL0000
 62
  3
 10
       -0.750000
 20
       10.025000
 30
        0.000000
 11
       -0.750000
 21
       11.425000
 31
        0.000000
  0
LINE
  8
LVL0000
 62
  3
 10
       -0.750000
 20
       10.025000
 30
        0.000000
 11
        1.750000
 21
       10.025000
 31
        0.000000
  0
LINE
  8
LVL0000
 62
  3
 10
       -4.950000
 20
       10.025000
 30
        0.000000
 11
       -4.950000
 21
       11.425000
 31
        0.000000
  0
LINE
  8
LVL0000
 62
  3
 10
       -6.650000
 20
       10.025000
 30
        0.000000
 11
       -6.650000
 21
       11.425000
 31
        0.000000
  0
LINE
  8
LVL0000
 62
  3
 10
       -9.150000
 20
       10.025000
 30
        0.000000
 11
       -9.150000
 21
       11.425000
 31
        0.000000
  0
LINE
  8
LVL0000
 62
  3
 10
      -10.850000
 20
       10.025000
 30
        0.000000
 11
      -10.850000
 21
       11.425000
 31
        0.000000
  0
LINE
  8
LVL0000
 62
  3
 10
      -13.350000
 20
       10.025000
 30
        0.000000
 11
      -13.350000
 21
       11.425000
 31
        0.000000
  0
LINE
  8
LVL0000
 62
  3
 10
       23.950000
 20
        9.525000
 30
        0.000000
 11
       23.950000
 21
       11.925000
 31
        0.000000
  0
LINE
  8
LVL0000
 62
  3
 10
       23.950000
 20
       11.925000
 30
        0.000000
 11
       56.850000
 21
       11.925000
 31
        0.000000
  0
LINE
  8
LVL0000
 62
  3
 10
       23.950000
 20
        9.525000
 30
        0.000000
 11
       56.850000
 21
        9.525000
 31
        0.000000
  0
LINE
  8
LVL0000
 62
  3
 10
      -13.850000
 20
        9.525000
 30
        0.000000
 11
      -13.850000
 21
       11.925000
 31
        0.000000
  0
LINE
  8
LVL0000
 62
  3
 10
      -13.850000
 20
       11.925000
 30
        0.000000
 11
       19.050000
 21
       11.925000
 31
        0.000000
  0
LINE
  8
LVL0000
 62
  3
 10
       19.050000
 20
        9.525000
 30
        0.000000
 11
       19.050000
 21
       11.925000
 31
        0.000000
  0
LINE
  8
LVL0000
 62
  3
 10
      -13.850000
 20
        9.525000
 30
        0.000000
 11
       19.050000
 21
        9.525000
 31
        0.000000
  0
LINE
  8
LVL0000
 62
  3
 10
      -60.599991
 20
        9.200000
 30
        0.000000
 11
      -60.599991
 21
        2.200000
 31
        0.000000
  0
LINE
  8
LVL0000
 62
  3
 10
      -31.939991
 20
        2.200000
 30
        0.000000
 11
      -31.939991
 21
        9.200000
 31
        0.000000
  0
LINE
  8
LVL0000
 62
  3
 10
      -60.599991
 20
        9.200000
 30
        0.000000
 11
      -31.939991
 21
        9.200000
 31
        0.000000
  0
LINE
  8
LVL0000
 62
  3
 10
      -31.400000
 20
        9.525000
 30
        0.000000
 11
      -31.400000
 21
       11.925000
 31
        0.000000
  0
LINE
  8
LVL0000
 62
  3
 10
      -15.600000
 20
        9.525000
 30
        0.000000
 11
      -15.600000
 21
       11.925000
 31
        0.000000
  0
LINE
  8
LVL0000
 62
  3
 10
      -31.400000
 20
        9.525000
 30
        0.000000
 11
      -15.600000
 21
        9.525000
 31
        0.000000
  0
LINE
  8
LVL0000
 62
  3
 10
      -31.400000
 20
       11.925000
 30
        0.000000
 11
      -15.600000
 21
       11.925000
 31
        0.000000
  0
LINE
  8
LVL0000
 62
  3
 10
       53.850000
 20
       10.025000
 30
        0.000000
 11
       56.350000
 21
       10.025000
 31
        0.000000
  0
LINE
  8
LVL0000
 62
  3
 10
       52.150000
 20
       10.025000
 30
        0.000000
 11
       52.150000
 21
       11.425000
 31
        0.000000
  0
LINE
  8
LVL0000
 62
  3
 10
       56.350000
 20
       10.025000
 30
        0.000000
 11
       56.350000
 21
       11.425000
 31
        0.000000
  0
LINE
  8
LVL0000
 62
  3
 10
       53.850000
 20
       10.025000
 30
        0.000000
 11
       53.850000
 21
       11.425000
 31
        0.000000
  0
LINE
  8
LVL0000
 62
  3
 10
       53.850000
 20
       11.425000
 30
        0.000000
 11
       56.350000
 21
       11.425000
 31
        0.000000
  0
LINE
  8
LVL0000
 62
  3
 10
       56.850000
 20
        9.525000
 30
        0.000000
 11
       56.850000
 21
       11.925000
 31
        0.000000
  0
LINE
  8
LVL0000
 62
  3
 10
       65.000000
 20
       24.000000
 30
        0.000000
 11
       65.000000
 21
      -24.000000
 31
        0.000000
  0
LINE
  8
LVL0000
 62
  3
 10
      -64.000000
 20
      -25.000000
 30
        0.000000
 11
       64.000000
 21
      -25.000000
 31
        0.000000
  0
ARC
  8
LVL0000
 62
  3
 10
      -64.000000
 20
      -24.000000
 30
        0.000000
 40
        1.000000
 50
      179.999995
 51
      270.000000
  0
LINE
  8
LVL0000
 62
  3
 10
      -65.000000
 20
       24.000000
 30
        0.000000
 11
      -65.000000
 21
      -24.000000
 31
        0.000000
  0
ARC
  8
LVL0000
 62
  3
 10
      -60.000000
 20
      -20.000000
 30
        0.000000
 40
        5.000000
 50
        0.000000
 51
       90.000000
  0
CIRCLE
  8
LVL0000
 62
  3
 10
      -60.000000
 20
      -20.000000
 30
        0.000000
 40
        2.000000
  0
LINE
  8
LVL0000
 62
  3
 10
      -65.000000
 20
       -4.300000
 30
        0.000000
 11
       65.000000
 21
       -4.300000
 31
        0.000000
  0
LINE
  8
LVL0000
 62
  3
 10
       47.000000
 20
      -28.000000
 30
        0.000000
 11
       33.000000
 21
      -28.000000
 31
        0.000000
  0
LINE
  8
LVL0000
 62
  3
 10
       50.000000
 20
      -25.000000
 30
        0.000000
 11
       47.000000
 21
      -28.000000
 31
        0.000000
  0
LINE
  8
LVL0000
 62
  3
 10
       30.000000
 20
      -25.000000
 30
        0.000000
 11
       33.000000
 21
      -28.000000
 31
        0.000000
  0
LINE
  8
LVL0000
 62
  3
 10
      -50.000000
 20
      -25.000000
 30
        0.000000
 11
      -47.000000
 21
      -28.000000
 31
        0.000000
  0
LINE
  8
LVL0000
 62
  3
 10
      -30.000000
 20
      -25.000000
 30
        0.000000
 11
      -33.000000
 21
      -28.000000
 31
        0.000000
  0
LINE
  8
LVL0000
 62
  3
 10
      -33.000000
 20
      -28.000000
 30
        0.000000
 11
      -47.000000
 21
      -28.000000
 31
        0.000000
  0
LINE
  8
LVL0000
 62
  3
 10
      -33.100000
 20
      -14.850000
 30
        0.000000
 11
      -33.100000
 21
       -5.000000
 31
        0.000000
  0
LINE
  8
LVL0000
 62
  3
 10
      -33.100000
 20
      -14.850000
 30
        0.000000
 11
      -28.900000
 21
      -14.850000
 31
        0.000000
  0
LINE
  8
LVL0000
 62
  3
 10
      -28.900000
 20
      -25.000000
 30
        0.000000
 11
      -28.900000
 21
      -14.850000
 31
        0.000000
  0
LINE
  8
LVL0000
 62
  3
 10
      -20.500000
 20
      -25.000000
 30
        0.000000
 11
      -20.500000
 21
      -14.850000
 31
        0.000000
  0
LINE
  8
LVL0000
 62
  3
 10
      -24.700000
 20
      -14.850000
 30
        0.000000
 11
      -24.700000
 21
       -5.000000
 31
        0.000000
  0
LINE
  8
LVL0000
 62
  3
 10
      -24.700000
 20
      -14.850000
 30
        0.000000
 11
      -20.500000
 21
      -14.850000
 31
        0.000000
  0
LINE
  8
LVL0000
 62
  3
 10
       17.300000
 20
      -14.850000
 30
        0.000000
 11
       17.300000
 21
       -5.000000
 31
        0.000000
  0
LINE
  8
LVL0000
 62
  3
 10
       17.300000
 20
      -14.850000
 30
        0.000000
 11
       21.500000
 21
      -14.850000
 31
        0.000000
  0
LINE
  8
LVL0000
 62
  3
 10
       21.500000
 20
      -25.000000
 30
        0.000000
 11
       21.500000
 21
      -14.850000
 31
        0.000000
  0
LINE
  8
LVL0000
 62
  3
 10
       29.900000
 20
      -14.850000
 30
        0.000000
 11
       65.000000
 21
      -14.850000
 31
        0.000000
  0
LINE
  8
LVL0000
 62
  3
 10
       21.500000
 20
      -14.850000
 30
        0.000000
 11
       25.700000
 21
      -14.850000
 31
        0.000000
  0
LINE
  8
LVL0000
 62
  3
 10
      -20.500000
 20
      -14.850000
 30
        0.000000
 11
       17.300000
 21
      -14.850000
 31
        0.000000
  0
LINE
  8
LVL0000
 62
  3
 10
      -28.900000
 20
      -14.850000
 30
        0.000000
 11
      -24.700000
 21
      -14.850000
 31
        0.000000
  0
LINE
  8
LVL0000
 62
  3
 10
      -55.000000
 20
      -14.850000
 30
        0.000000
 11
      -33.100000
 21
      -14.850000
 31
        0.000000
  0
LINE
  8
LVL0000
 62
  3
 10
       46.700000
 20
      -25.000000
 30
        0.000000
 11
       46.700000
 21
      -14.850000
 31
        0.000000
  0
LINE
  8
LVL0000
 62
  3
 10
       50.900000
 20
      -14.850000
 30
        0.000000
 11
       50.900000
 21
       -5.000000
 31
        0.000000
  0
LINE
  8
LVL0000
 62
  3
 10
       42.500000
 20
      -14.850000
 30
        0.000000
 11
       42.500000
 21
       -5.000000
 31
        0.000000
  0
LINE
  8
LVL0000
 62
  3
 10
       34.100000
 20
      -14.850000
 30
        0.000000
 11
       34.100000
 21
       -5.000000
 31
        0.000000
  0
LINE
  8
LVL0000
 62
  3
 10
        8.900000
 20
      -14.850000
 30
        0.000000
 11
        8.900000
 21
       -5.000000
 31
        0.000000
  0
LINE
  8
LVL0000
 62
  3
 10
        0.500000
 20
      -14.850000
 30
        0.000000
 11
        0.500000
 21
       -5.000000
 31
        0.000000
  0
LINE
  8
LVL0000
 62
  3
 10
       -7.900000
 20
      -14.850000
 30
        0.000000
 11
       -7.900000
 21
       -5.000000
 31
        0.000000
  0
LINE
  8
LVL0000
 62
  3
 10
      -16.300000
 20
      -14.850000
 30
        0.000000
 11
      -16.300000
 21
       -5.000000
 31
        0.000000
  0
LINE
  8
LVL0000
 62
  3
 10
      -41.500000
 20
      -14.850000
 30
        0.000000
 11
      -41.500000
 21
       -5.000000
 31
        0.000000
  0
LINE
  8
LVL0000
 62
  3
 10
      -49.900000
 20
      -14.850000
 30
        0.000000
 11
      -49.900000
 21
       -5.000000
 31
        0.000000
  0
LINE
  8
LVL0000
 62
  3
 10
       38.300000
 20
      -25.000000
 30
        0.000000
 11
       38.300000
 21
      -14.850000
 31
        0.000000
  0
LINE
  8
LVL0000
 62
  3
 10
       13.100000
 20
      -25.000000
 30
        0.000000
 11
       13.100000
 21
      -14.850000
 31
        0.000000
  0
LINE
  8
LVL0000
 62
  3
 10
        4.700000
 20
      -25.000000
 30
        0.000000
 11
        4.700000
 21
      -14.850000
 31
        0.000000
  0
LINE
  8
LVL0000
 62
  3
 10
       -3.700000
 20
      -25.000000
 30
        0.000000
 11
       -3.700000
 21
      -14.850000
 31
        0.000000
  0
LINE
  8
LVL0000
 62
  3
 10
      -12.100000
 20
      -25.000000
 30
        0.000000
 11
      -12.100000
 21
      -14.850000
 31
        0.000000
  0
LINE
  8
LVL0000
 62
  3
 10
      -37.300000
 20
      -25.000000
 30
        0.000000
 11
      -37.300000
 21
      -14.850000
 31
        0.000000
  0
LINE
  8
LVL0000
 62
  3
 10
      -45.700000
 20
      -25.000000
 30
        0.000000
 11
      -45.700000
 21
      -14.850000
 31
        0.000000
  0
LINE
  8
LVL0000
 62
  3
 10
       58.700000
 20
      -14.850000
 30
        0.000000
 11
       58.700000
 21
       -5.000000
 31
        0.000000
  0
LINE
  8
LVL0000
 62
  3
 10
      -59.055456
 20
       -8.055456
 30
        0.000000
 11
      -62.944544
 21
      -11.944544
 31
        0.000000
  0
LINE
  8
LVL0000
 62
  3
 10
      -62.237437
 20
       -8.762563
 30
        0.000000
 11
      -59.762563
 21
      -11.237437
 31
        0.000000
  0
LINE
  8
LVL0000
 62
  3
 10
       59.762563
 20
      -18.762563
 30
        0.000000
 11
       62.237437
 21
      -21.237437
 31
        0.000000
  0
LINE
  8
LVL0000
 62
  3
 10
       62.944544
 20
      -18.055456
 30
        0.000000
 11
       59.055456
 21
      -21.944544
 31
        0.000000
  0
CIRCLE
  8
LVL0000
 62
  3
 10
      -61.000000
 20
      -10.000000
 30
        0.000000
 40
        2.750000
  0
CIRCLE
  8
LVL0000
 62
  3
 10
       61.000000
 20
      -20.000000
 30
        0.000000
 40
        2.750000
  0
LINE
  8
LVL0000
 62
  3
 10
      -65.000000
 20
       -5.000000
 30
        0.000000
 11
       65.000000
 21
       -5.000000
 31
        0.000000
  0
LINE
  8
LVL0000
 62
  3
 10
      -55.000000
 20
       -5.000000
 30
        0.000000
 11
      -55.000000
 21
      -25.000000
 31
        0.000000
  0
LINE
  8
LVL0000
 62
  3
 10
       56.000000
 20
      -14.850000
 30
        0.000000
 11
       56.000000
 21
      -25.000000
 31
        0.000000
  0
LINE
  8
LVL0000
 62
  3
 10
      -65.000000
 20
      -15.000000
 30
        0.000000
 11
      -60.000000
 21
      -15.000000
 31
        0.000000
  0
ARC
  8
LVL0000
 62
  3
 10
       64.000000
 20
      -24.000000
 30
        0.000000
 40
        1.000000
 50
      270.000000
 51
      360.000000
  0
LINE
  8
LVL0000
 62
  3
 10
       65.500000
 20
       70.000000
 30
        0.000000
 11
       65.500000
 21
       35.500000
 31
        0.000000
  0
ARC
  8
LVL0000
 62
  3
 10
       65.000000
 20
       35.500000
 30
        0.000000
 40
        0.500000
 50
      270.000000
 51
      360.000000
  0
LINE
  8
LVL0000
 62
  3
 10
      -64.500000
 20
       70.000000
 30
        0.000000
 11
      -64.500000
 21
       35.500000
 31
        0.000000
  0
ARC
  8
LVL0000
 62
  3
 10
      -64.000000
 20
       35.500000
 30
        0.000000
 40
        0.500000
 50
      179.999995
 51
      270.000000
  0
LINE
  8
LVL0000
 62
  3
 10
      -64.000000
 20
       35.000000
 30
        0.000000
 11
       65.000000
 21
       35.000000
 31
        0.000000
  0
LINE
  8
LVL0000
 62
  3
 10
       55.438174
 20
       70.000000
 30
        0.000000
 11
       55.438174
 21
       35.500000
 31
        0.000000
  0
ARC
  8
LVL0000
 62
  3
 10
       54.938174
 20
       35.500000
 30
        0.000000
 40
        0.500000
 50
      270.000000
 51
      360.000000
  0
LINE
  8
LVL0000
 62
  3
 10
      -64.500000
 20
       70.000000
 30
        0.000000
 11
       65.500000
 21
       70.000000
 31
        0.000000
  0
LINE
  8
LVL0000
 62
  3
 10
      -29.600000
 20
       65.100000
 30
        0.000000
 11
       20.600000
 21
       65.100000
 31
        0.000000
  0
LINE
  8
LVL0000
 62
  3
 10
      -29.600000
 20
       65.100000
 30
        0.000000
 11
      -29.600000
 21
       39.900000
 31
        0.000000
  0
LINE
  8
LVL0000
 62
  3
 10
      -29.600000
 20
       39.900000
 30
        0.000000
 11
       20.600000
 21
       39.900000
 31
        0.000000
  0
LINE
  8
LVL0000
 62
  3
 10
       20.600000
 20
       65.100000
 30
        0.000000
 11
       20.600000
 21
       39.900000
 31
        0.000000
  0
LINE
  8
LVL0000
 62
  3
 10
       36.250000
 20
       73.000000
 30
        0.000000
 11
       36.250000
 21
       75.000000
 31
        0.000000
  0
LINE
  8
LVL0000
 62
  3
 10
       36.250000
 20
       73.000000
 30
        0.000000
 11
       44.750000
 21
       73.000000
 31
        0.000000
  0
LINE
  8
LVL0000
 62
  3
 10
       36.250000
 20
       75.000000
 30
        0.000000
 11
       44.750000
 21
       75.000000
 31
        0.000000
  0
LINE
  8
LVL0000
 62
  3
 10
      -53.750000
 20
       73.000000
 30
        0.000000
 11
      -53.750000
 21
       75.000000
 31
        0.000000
  0
LINE
  8
LVL0000
 62
  3
 10
      -53.750000
 20
       73.000000
 30
        0.000000
 11
      -45.250000
 21
       73.000000
 31
        0.000000
  0
LINE
  8
LVL0000
 62
  3
 10
      -53.750000
 20
       75.000000
 30
        0.000000
 11
      -45.250000
 21
       75.000000
 31
        0.000000
  0
LINE
  8
LVL0000
 62
  3
 10
      -45.250000
 20
       73.000000
 30
        0.000000
 11
      -45.250000
 21
       75.000000
 31
        0.000000
  0
LINE
  8
LVL0000
 62
  3
 10
       44.750000
 20
       73.000000
 30
        0.000000
 11
       44.750000
 21
       75.000000
 31
        0.000000
  0
LINE
  8
LVL0000
 62
  3
 10
      -64.500000
 20
       90.000000
 30
        0.000000
 11
       65.500000
 21
       90.000000
 31
        0.000000
  0
LINE
  8
LVL0000
 62
  3
 10
       65.500000
 20
       90.000000
 30
        0.000000
 11
       65.500000
 21
       70.000000
 31
        0.000000
  0
LINE
  8
LVL0000
 62
  3
 10
      -64.500000
 20
       90.000000
 30
        0.000000
 11
      -64.500000
 21
       70.000000
 31
        0.000000
  0
LINE
  8
LVL0000
 62
  3
 10
       44.500000
 20
       78.250000
 30
        0.000000
 11
       44.500000
 21
       76.750000
 31
        0.000000
  0
LINE
  8
LVL0000
 62
  3
 10
       44.500000
 20
       81.250000
 30
        0.000000
 11
       44.500000
 21
       79.750000
 31
        0.000000
  0
LINE
  8
LVL0000
 62
  3
 10
       44.500000
 20
       84.250000
 30
        0.000000
 11
       44.500000
 21
       82.750000
 31
        0.000000
  0
LINE
  8
LVL0000
 62
  3
 10
      -15.500000
 20
       84.250000
 30
        0.000000
 11
      -15.500000
 21
       82.750000
 31
        0.000000
  0
LINE
  8
LVL0000
 62
  3
 10
      -13.500000
 20
       84.250000
 30
        0.000000
 11
      -13.500000
 21
       82.750000
 31
        0.000000
  0
LINE
  8
LVL0000
 62
  3
 10
        4.500000
 20
       84.250000
 30
        0.000000
 11
        4.500000
 21
       82.750000
 31
        0.000000
  0
LINE
  8
LVL0000
 62
  3
 10
        6.500000
 20
       84.250000
 30
        0.000000
 11
        6.500000
 21
       82.750000
 31
        0.000000
  0
LINE
  8
LVL0000
 62
  3
 10
       24.500000
 20
       84.250000
 30
        0.000000
 11
       24.500000
 21
       82.750000
 31
        0.000000
  0
LINE
  8
LVL0000
 62
  3
 10
       26.500000
 20
       84.250000
 30
        0.000000
 11
       26.500000
 21
       82.750000
 31
        0.000000
  0
LINE
  8
LVL0000
 62
  3
 10
       26.500000
 20
       81.250000
 30
        0.000000
 11
       26.500000
 21
       79.750000
 31
        0.000000
  0
LINE
  8
LVL0000
 62
  3
 10
       24.500000
 20
       81.250000
 30
        0.000000
 11
       24.500000
 21
       79.750000
 31
        0.000000
  0
LINE
  8
LVL0000
 62
  3
 10
        6.500000
 20
       81.250000
 30
        0.000000
 11
        6.500000
 21
       79.750000
 31
        0.000000
  0
LINE
  8
LVL0000
 62
  3
 10
        4.500000
 20
       81.250000
 30
        0.000000
 11
        4.500000
 21
       79.750000
 31
        0.000000
  0
LINE
  8
LVL0000
 62
  3
 10
      -13.500000
 20
       81.250000
 30
        0.000000
 11
      -13.500000
 21
       79.750000
 31
        0.000000
  0
LINE
  8
LVL0000
 62
  3
 10
      -15.500000
 20
       81.250000
 30
        0.000000
 11
      -15.500000
 21
       79.750000
 31
        0.000000
  0
LINE
  8
LVL0000
 62
  3
 10
      -15.500000
 20
       78.250000
 30
        0.000000
 11
      -15.500000
 21
       76.750000
 31
        0.000000
  0
LINE
  8
LVL0000
 62
  3
 10
      -13.500000
 20
       78.250000
 30
        0.000000
 11
      -13.500000
 21
       76.750000
 31
        0.000000
  0
LINE
  8
LVL0000
 62
  3
 10
        4.500000
 20
       78.250000
 30
        0.000000
 11
        4.500000
 21
       76.750000
 31
        0.000000
  0
LINE
  8
LVL0000
 62
  3
 10
        6.500000
 20
       78.250000
 30
        0.000000
 11
        6.500000
 21
       76.750000
 31
        0.000000
  0
LINE
  8
LVL0000
 62
  3
 10
       24.500000
 20
       78.250000
 30
        0.000000
 11
       24.500000
 21
       76.750000
 31
        0.000000
  0
LINE
  8
LVL0000
 62
  3
 10
       26.500000
 20
       78.250000
 30
        0.000000
 11
       26.500000
 21
       76.750000
 31
        0.000000
  0
LINE
  8
LVL0000
 62
  3
 10
      -53.500000
 20
       82.750000
 30
        0.000000
 11
       44.500000
 21
       82.750000
 31
        0.000000
  0
LINE
  8
LVL0000
 62
  3
 10
      -53.500000
 20
       78.250000
 30
        0.000000
 11
       44.500000
 21
       78.250000
 31
        0.000000
  0
LINE
  8
LVL0000
 62
  3
 10
      -53.500000
 20
       76.750000
 30
        0.000000
 11
       44.500000
 21
       76.750000
 31
        0.000000
  0
LINE
  8
LVL0000
 62
  3
 10
      -53.500000
 20
       79.750000
 30
        0.000000
 11
       44.500000
 21
       79.750000
 31
        0.000000
  0
LINE
  8
LVL0000
 62
  3
 10
      -53.500000
 20
       81.250000
 30
        0.000000
 11
       44.500000
 21
       81.250000
 31
        0.000000
  0
LINE
  8
LVL0000
 62
  3
 10
      -53.500000
 20
       84.250000
 30
        0.000000
 11
       44.500000
 21
       84.250000
 31
        0.000000
  0
LINE
  8
LVL0000
 62
  3
 10
      -53.500000
 20
       78.250000
 30
        0.000000
 11
      -53.500000
 21
       76.750000
 31
        0.000000
  0
LINE
  8
LVL0000
 62
  3
 10
      -53.500000
 20
       81.250000
 30
        0.000000
 11
      -53.500000
 21
       79.750000
 31
        0.000000
  0
LINE
  8
LVL0000
 62
  3
 10
      -53.500000
 20
       84.250000
 30
        0.000000
 11
      -53.500000
 21
       82.750000
 31
        0.000000
  0
LINE
  8
LVL0000
 62
  3
 10
      -35.500000
 20
       84.250000
 30
        0.000000
 11
      -35.500000
 21
       82.750000
 31
        0.000000
  0
LINE
  8
LVL0000
 62
  3
 10
      -33.500000
 20
       84.250000
 30
        0.000000
 11
      -33.500000
 21
       82.750000
 31
        0.000000
  0
LINE
  8
LVL0000
 62
  3
 10
      -33.500000
 20
       81.250000
 30
        0.000000
 11
      -33.500000
 21
       79.750000
 31
        0.000000
  0
LINE
  8
LVL0000
 62
  3
 10
      -35.500000
 20
       81.250000
 30
        0.000000
 11
      -35.500000
 21
       79.750000
 31
        0.000000
  0
LINE
  8
LVL0000
 62
  3
 10
      -35.500000
 20
       78.250000
 30
        0.000000
 11
      -35.500000
 21
       76.750000
 31
        0.000000
  0
LINE
  8
LVL0000
 62
  3
 10
      -33.500000
 20
       78.250000
 30
        0.000000
 11
      -33.500000
 21
       76.750000
 31
        0.000000
  0
LINE
  8
LVL0000
 62
  3
 10
       55.700000
 20
       85.000000
 30
        0.000000
 11
       65.500000
 21
       85.000000
 31
        0.000000
  0
LINE
  8
LVL0000
 62
  3
 10
       55.438174
 20
       70.000000
 30
        0.000000
 11
       55.700000
 21
       85.000000
 31
        0.000000
  0
LINE
  8
LVL0000
 62
  3
 10
       91.115000
 20
       25.000000
 30
        0.000000
 11
       91.115000
 21
       -4.300000
 31
        0.000000
  0
LINE
  8
LVL0000
 62
  3
 10
       91.115000
 20
       -4.300000
 30
        0.000000
 11
       91.815000
 21
       -4.300000
 31
        0.000000
  0
LINE
  8
LVL0000
 62
  3
 10
      126.115000
 20
       25.000000
 30
        0.000000
 11
      126.115000
 21
      -25.000000
 31
        0.000000
  0
LINE
  8
LVL0000
 62
  3
 10
       91.815000
 20
       -4.300000
 30
        0.000000
 11
       91.815000
 21
       -4.787937
 31
        0.000000
  0
LINE
  8
LVL0000
 62
  3
 10
      129.115000
 20
       -4.000000
 30
        0.000000
 11
      131.115000
 21
       -4.000000
 31
        0.000000
  0
LINE
  8
LVL0000
 62
  3
 10
      129.115000
 20
        4.000000
 30
        0.000000
 11
      129.115000
 21
       -4.000000
 31
        0.000000
  0
LINE
  8
LVL0000
 62
  3
 10
      129.115000
 20
        4.000000
 30
        0.000000
 11
      131.115000
 21
        4.000000
 31
        0.000000
  0
LINE
  8
LVL0000
 62
  3
 10
      131.115000
 20
        4.000000
 30
        0.000000
 11
      131.115000
 21
       -4.000000
 31
        0.000000
  0
LINE
  8
LVL0000
 62
  3
 10
      146.115000
 20
      -25.000000
 30
        0.000000
 11
      126.115000
 21
      -25.000000
 31
        0.000000
  0
LINE
  8
LVL0000
 62
  3
 10
      126.115000
 20
      -25.000000
 30
        0.000000
 11
      117.315000
 21
      -25.000000
 31
        0.000000
  0
LINE
  8
LVL0000
 62
  3
 10
       93.115000
 20
      -25.000000
 30
        0.000000
 11
       93.115000
 21
      -14.850000
 31
        0.000000
  0
LINE
  8
LVL0000
 62
  3
 10
       91.115000
 20
      -14.850000
 30
        0.000000
 11
      108.315000
 21
      -14.850000
 31
        0.000000
  0
LINE
  8
LVL0000
 62
  3
 10
       91.115000
 20
       -5.000000
 30
        0.000000
 11
      117.315000
 21
       -5.000000
 31
        0.000000
  0
LINE
  8
LVL0000
 62
  3
 10
      108.315000
 20
      -25.000000
 30
        0.000000
 11
      108.315000
 21
      -14.850000
 31
        0.000000
  0
LINE
  8
LVL0000
 62
  3
 10
       91.115000
 20
      -25.000000
 30
        0.000000
 11
      117.315000
 21
      -25.000000
 31
        0.000000
  0
LINE
  8
LVL0000
 62
  3
 10
      117.315000
 20
      -25.000000
 30
        0.000000
 11
      117.315000
 21
       -5.000000
 31
        0.000000
  0
LINE
  8
LVL0000
 62
  3
 10
       91.115000
 20
       -5.000000
 30
        0.000000
 11
       91.115000
 21
      -25.000000
 31
        0.000000
  0
LINE
  8
LVL0000
 62
  3
 10
      146.115000
 20
       25.000000
 30
        0.000000
 11
      146.115000
 21
       18.000000
 31
        0.000000
  0
LINE
  8
LVL0000
 62
  3
 10
      146.115000
 20
      -18.000000
 30
        0.000000
 11
      146.115000
 21
      -25.000000
 31
        0.000000
  0
LINE
  8
LVL0000
 62
  3
 10
      146.115000
 20
      -25.000000
 30
        0.000000
 11
      146.115000
 21
      -28.000000
 31
        0.000000
  0
LINE
  8
LVL0000
 62
  3
 10
      143.115000
 20
      -25.000000
 30
        0.000000
 11
      143.115000
 21
      -28.000000
 31
        0.000000
  0
LINE
  8
LVL0000
 62
  3
 10
      146.115000
 20
      -28.000000
 30
        0.000000
 11
      143.115000
 21
      -28.000000
 31
        0.000000
  0
LINE
  8
LVL0000
 62
  3
 10
      107.815000
 20
        0.750000
 30
        0.000000
 11
      107.815000
 21
       -0.750000
 31
        0.000000
  0
LINE
  8
LVL0000
 62
  3
 10
      107.815000
 20
        3.750000
 30
        0.000000
 11
      107.815000
 21
        2.250000
 31
        0.000000
  0
LINE
  8
LVL0000
 62
  3
 10
      109.415000
 20
        0.750000
 30
        0.000000
 11
      109.415000
 21
       -0.750000
 31
        0.000000
  0
LINE
  8
LVL0000
 62
  3
 10
      109.415000
 20
        3.750000
 30
        0.000000
 11
      109.415000
 21
        2.250000
 31
        0.000000
  0
LINE
  8
LVL0000
 62
  3
 10
       98.115000
 20
        0.750000
 30
        0.000000
 11
      119.115000
 21
        0.750000
 31
        0.000000
  0
LINE
  8
LVL0000
 62
  3
 10
       98.115000
 20
       -0.750000
 30
        0.000000
 11
      119.115000
 21
       -0.750000
 31
        0.000000
  0
LINE
  8
LVL0000
 62
  3
 10
      119.115000
 20
        0.750000
 30
        0.000000
 11
      119.115000
 21
       -0.750000
 31
        0.000000
  0
LINE
  8
LVL0000
 62
  3
 10
       98.115000
 20
        0.750000
 30
        0.000000
 11
       98.115000
 21
       -0.750000
 31
        0.000000
  0
LINE
  8
LVL0000
 62
  3
 10
       98.115000
 20
        3.750000
 30
        0.000000
 11
       98.115000
 21
        2.250000
 31
        0.000000
  0
LINE
  8
LVL0000
 62
  3
 10
      119.115000
 20
        3.750000
 30
        0.000000
 11
      119.115000
 21
        2.250000
 31
        0.000000
  0
LINE
  8
LVL0000
 62
  3
 10
       98.115000
 20
        2.250000
 30
        0.000000
 11
      119.115000
 21
        2.250000
 31
        0.000000
  0
LINE
  8
LVL0000
 62
  3
 10
       98.115000
 20
        3.750000
 30
        0.000000
 11
      119.115000
 21
        3.750000
 31
        0.000000
  0
LINE
  8
LVL0000
 62
  3
 10
      126.115000
 20
       25.000000
 30
        0.000000
 11
      146.115000
 21
       25.000000
 31
        0.000000
  0
LINE
  8
LVL0000
 62
  3
 10
       91.115000
 20
       25.000000
 30
        0.000000
 11
      126.115000
 21
       25.000000
 31
        0.000000
  0
ENDSEC
  0
EOF
