  0
SECTION
  2
HEADER
  9
$ACADVER
  1
AC1006
  9
$INSBASE
 10
0.0
 20
0.0
 30
0.0
  9
$EXTMIN
 10
     -195.000000
 20
     -127.199997
  9
$EXTMAX
 10
      162.754349
 20
       25.000000
  9
$LIMMIN
 10
     -195.000000
 20
     -127.199997
  9
$LIMMAX
 10
      162.754349
 20
       25.000000
  9
$VIEWCTR
 10
      -16.122826
 20
      -16.122826
  9
$ORTHOMODE
 70
     0
  9
$ANGBASE
 50
0.0
  9
$ANGDIR
 70
     0
  9
$SPLINETYPE
 70
     6
  9
$SPLINESEGS
 70
     8
9
$DIMASZ
 40
        3.500000
9
$DIMEXE
 40
        0.700000
9
$DIMEXO
 40
        1.000000
9
$DIMTXT
 40
        3.000000
9
$DIMGAP
 40
        0.700000
9
$DIMTAD
 70
1
9
$DIMTIH
 70
0
9
$DIMTOH
 70
0
  0
ENDSEC
  0
SECTION
  2
TABLES
  0
TABLE
  2
LTYPE
 70
     5
  0
LTYPE
  2
CONTINUOUS
 70
    64
  3
SOLID LINE
 72
    65
 73
     0
 40
0.0
  0
LTYPE
  2
DASHED
 70
    64
  3
-- -- -- -- -- --
 72
    65
 73
     2
 40
  0.75  
 49
  0.50  
 49
 -0.25  
  0
LTYPE
  2
DOT
 70
    64
  3
....................
 72
    65
 73
     2
 40
  0.25  
 49
  0.02  
 49
 -0.23  
  0
LTYPE
  2
CENTER
 70
    64
  3
-- . -- . -- . -- .
 72
    65
 73
    4
 40
  2.00  
 49
  1.25  
 49
 -0.25  
 49
  0.25  
 49
 -0.25  
  0
LTYPE
  2
PHANTOM
 70
    64
  3
-- .. -- .. -- ..
 72
    65
 73
    6
 40
  2.50  
 49
  1.25  
 49
 -0.25  
 49
  0.25  
 49
 -0.25  
 49
  0.25  
 49
 -0.25  
  0
ENDTAB
  0
TABLE
  2
LAYER
 70
     1
  0
LAYER
  2
LVL0000
 70
    64
 62
     2
  6
CONTINUOUS
  0
ENDTAB
  0
TABLE
  2
STYLE
 70
     2
  0
STYLE
  2
STANDARD
 70
    64
 40
0.0
 41
1.0
 50
0.0
 71
     0
 42
5.0
  3
ROMANS
  4
BIGFONT
  0
STYLE
  2
BIGFONT
 70
    64
 40
0.0
 41
1.0
 50
0.0
 71
     0
 42
5.0
  3
ROMANS
  4
BIGFONT
  0
ENDTAB
  0
TABLE
  2
VIEW
 70
     0
  0
ENDTAB
  0
TABLE
  2
UCS
 70
     0
  0
ENDTAB
  0
TABLE
  2
DWGMGR
 70
     0
  0
ENDTAB
  0
ENDSEC
  0
SECTION
  2
BLOCKS
  0
BLOCK
  8
0
  2
BLK0001
 70
    64
 10
        0.000000
 20
        0.000000
  0
TEXT
  8
LVL0000
 10
      109.114510
 20
       -3.137841
 30
        0.000000
 40
        3.000000
  1
５０
 50
       90.000000
 41
        0.835000
 51
        0.000000
  7
BIGFONT
  0
LINE
  8
LVL0000
 10
      100.000000
 20
      -25.000000
 30
        0.000000
 11
      110.514511
 21
      -25.000000
 31
        0.000000
  0
LINE
  8
LVL0000
 10
      100.000000
 20
       25.000000
 30
        0.000000
 11
      110.514511
 21
       25.000000
 31
        0.000000
  0
LINE
  8
LVL0000
 10
      109.264732
 20
      -21.500000
 30
        0.000000
 11
      109.814514
 21
      -25.000000
 31
        0.000000
  0
LINE
  8
LVL0000
 10
      109.814514
 20
      -25.000000
 30
        0.000000
 11
      110.364296
 21
      -21.500000
 31
        0.000000
  0
LINE
  8
LVL0000
 10
      110.364296
 20
       21.500000
 30
        0.000000
 11
      109.814514
 21
       25.000000
 31
        0.000000
  0
LINE
  8
LVL0000
 10
      109.814514
 20
       25.000000
 30
        0.000000
 11
      109.264732
 21
       21.500000
 31
        0.000000
  0
LINE
  8
LVL0000
 10
      109.814514
 20
      -25.000000
 30
        0.000000
 11
      109.814514
 21
       25.000000
 31
        0.000000
  0
ENDBLK
  0
BLOCK
  8
0
  2
BLK0002
 70
    64
 10
        0.000000
 20
        0.000000
  0
TEXT
  8
LVL0000
 10
     -164.790558
 20
      -36.640625
 30
        0.000000
 40
        3.000000
  1
７５．７
 50
        0.000000
 41
        0.835000
 51
        0.000000
  7
BIGFONT
  0
LINE
  8
LVL0000
 10
     -119.300003
 20
      -10.000000
 30
        0.000000
 11
     -119.300003
 21
      -38.040627
 31
        0.000000
  0
LINE
  8
LVL0000
 10
     -195.000000
 20
      -29.000000
 30
        0.000000
 11
     -195.000000
 21
      -38.040627
 31
        0.000000
  0
LINE
  8
LVL0000
 10
     -122.800003
 20
      -37.890404
 30
        0.000000
 11
     -119.300003
 21
      -37.340626
 31
        0.000000
  0
LINE
  8
LVL0000
 10
     -119.300003
 20
      -37.340626
 30
        0.000000
 11
     -122.800003
 21
      -36.790848
 31
        0.000000
  0
LINE
  8
LVL0000
 10
     -191.500000
 20
      -36.790848
 30
        0.000000
 11
     -195.000000
 21
      -37.340626
 31
        0.000000
  0
LINE
  8
LVL0000
 10
     -195.000000
 20
      -37.340626
 30
        0.000000
 11
     -191.500000
 21
      -37.890404
 31
        0.000000
  0
LINE
  8
LVL0000
 10
     -119.300003
 20
      -37.340626
 30
        0.000000
 11
     -195.000000
 21
      -37.340626
 31
        0.000000
  0
ENDBLK
  0
BLOCK
  8
0
  2
BLK0003
 70
    64
 10
        0.000000
 20
        0.000000
  0
TEXT
  8
LVL0000
 10
       -6.805609
 20
      -33.551590
 30
        0.000000
 40
        3.000000
  1
２００
 50
        0.000000
 41
        0.835000
 51
        0.000000
  7
BIGFONT
  0
LINE
  8
LVL0000
 10
     -100.000000
 20
      -26.000000
 30
        0.000000
 11
     -100.000000
 21
      -34.951591
 31
        0.000000
  0
LINE
  8
LVL0000
 10
      100.000000
 20
      -26.000000
 30
        0.000000
 11
      100.000000
 21
      -34.951591
 31
        0.000000
  0
LINE
  8
LVL0000
 10
      -96.500000
 20
      -33.701813
 30
        0.000000
 11
     -100.000000
 21
      -34.251591
 31
        0.000000
  0
LINE
  8
LVL0000
 10
     -100.000000
 20
      -34.251591
 30
        0.000000
 11
      -96.500000
 21
      -34.801369
 31
        0.000000
  0
LINE
  8
LVL0000
 10
       96.500000
 20
      -34.801369
 30
        0.000000
 11
      100.000000
 21
      -34.251591
 31
        0.000000
  0
LINE
  8
LVL0000
 10
      100.000000
 20
      -34.251591
 30
        0.000000
 11
       96.500000
 21
      -33.701813
 31
        0.000000
  0
LINE
  8
LVL0000
 10
     -100.000000
 20
      -34.251591
 30
        0.000000
 11
      100.000000
 21
      -34.251591
 31
        0.000000
  0
ENDBLK
  0
ENDSEC
  0
SECTION
  2
ENTITIES
  0
TEXT
  8
LVL0000
 10
      130.754352
 20
       12.562179
 30
        0.000000
 40
        4.000000
  1
ＪＷＤ３２５ＭＨ
 50
        0.000000
 41
        0.835000
 51
        0.000000
  7
BIGFONT
  0
LINE
  8
LVL0000
 62
  3
 10
     -100.000000
 20
      -24.000000
 30
        0.000000
 11
       90.000000
 21
      -24.000000
 31
        0.000000
  0
LINE
  8
LVL0000
 62
  3
 10
        2.900000
 20
      -87.000000
 30
        0.000000
 11
        2.900000
 21
      -94.200000
 31
        0.000000
  0
LINE
  8
LVL0000
 62
  3
 10
       -4.400000
 20
      -87.000000
 30
        0.000000
 11
       -4.400000
 21
      -94.200000
 31
        0.000000
  0
ARC
  8
LVL0000
 62
  3
 10
       -0.750000
 20
      -96.000000
 30
        0.000000
 40
        7.000000
 50
       73.742723
 51
      106.257018
  0
LINE
  8
LVL0000
 62
  3
 10
       -3.500000
 20
      -91.000000
 30
        0.000000
 11
       -3.425870
 21
      -90.152753
 31
        0.000000
  0
ARC
  8
LVL0000
 62
  3
 10
       -2.429678
 20
      -90.239932
 30
        0.000000
 40
        1.000000
 50
      106.255700
 51
      174.998676
  0
LINE
  8
LVL0000
 62
  3
 10
        2.250000
 20
      -91.000000
 30
        0.000000
 11
       -3.750000
 21
      -91.000000
 31
        0.000000
  0
LINE
  8
LVL0000
 62
  3
 10
        2.250000
 20
      -91.000000
 30
        0.000000
 11
        2.250000
 21
      -92.200000
 31
        0.000000
  0
LINE
  8
LVL0000
 62
  3
 10
        2.000000
 20
      -91.000000
 30
        0.000000
 11
        1.925869
 21
      -90.152753
 31
        0.000000
  0
ARC
  8
LVL0000
 62
  3
 10
        0.929676
 20
      -90.239932
 30
        0.000000
 40
        1.000000
 50
        5.001328
 51
       73.741534
  0
LINE
  8
LVL0000
 62
  3
 10
       -4.400000
 20
      -92.200000
 30
        0.000000
 11
        2.900000
 21
      -92.200000
 31
        0.000000
  0
LINE
  8
LVL0000
 62
  3
 10
       -4.400000
 20
      -94.200000
 30
        0.000000
 11
        2.900000
 21
      -94.200000
 31
        0.000000
  0
LINE
  8
LVL0000
 62
  3
 10
       -3.750000
 20
      -91.000000
 30
        0.000000
 11
       -3.750000
 21
      -92.200000
 31
        0.000000
  0
LINE
  8
LVL0000
 62
  3
 10
       -5.600000
 20
      -87.000000
 30
        0.000000
 11
       -5.600000
 21
      -94.200000
 31
        0.000000
  0
LINE
  8
LVL0000
 62
  3
 10
      -12.900000
 20
      -87.000000
 30
        0.000000
 11
      -12.900000
 21
      -94.200000
 31
        0.000000
  0
ARC
  8
LVL0000
 62
  3
 10
       -9.250000
 20
      -96.000000
 30
        0.000000
 40
        7.000000
 50
       73.742723
 51
      106.257018
  0
LINE
  8
LVL0000
 62
  3
 10
      -12.000000
 20
      -91.000000
 30
        0.000000
 11
      -11.925870
 21
      -90.152753
 31
        0.000000
  0
ARC
  8
LVL0000
 62
  3
 10
      -10.929678
 20
      -90.239932
 30
        0.000000
 40
        1.000000
 50
      106.255700
 51
      174.998676
  0
LINE
  8
LVL0000
 62
  3
 10
       -6.250000
 20
      -91.000000
 30
        0.000000
 11
      -12.250000
 21
      -91.000000
 31
        0.000000
  0
LINE
  8
LVL0000
 62
  3
 10
       -6.250000
 20
      -91.000000
 30
        0.000000
 11
       -6.250000
 21
      -92.200000
 31
        0.000000
  0
LINE
  8
LVL0000
 62
  3
 10
       -6.500000
 20
      -91.000000
 30
        0.000000
 11
       -6.574131
 21
      -90.152753
 31
        0.000000
  0
ARC
  8
LVL0000
 62
  3
 10
       -7.570324
 20
      -90.239932
 30
        0.000000
 40
        1.000000
 50
        5.001328
 51
       73.741534
  0
LINE
  8
LVL0000
 62
  3
 10
      -12.900000
 20
      -92.200000
 30
        0.000000
 11
       -5.600000
 21
      -92.200000
 31
        0.000000
  0
LINE
  8
LVL0000
 62
  3
 10
      -12.900000
 20
      -94.200000
 30
        0.000000
 11
       -5.600000
 21
      -94.200000
 31
        0.000000
  0
LINE
  8
LVL0000
 62
  3
 10
      -12.250000
 20
      -91.000000
 30
        0.000000
 11
      -12.250000
 21
      -92.200000
 31
        0.000000
  0
TEXT
  8
LVL0000
 10
      130.754352
 20
       18.562179
 30
        0.000000
 40
        4.000000
  1
ＪＷＤ３２２ＭＨ
 50
        0.000000
 41
        0.835000
 51
        0.000000
  7
BIGFONT
  0
DIMENSION
  8
LVL0000
 62
  5
  2
BLK0001
 10
      109.814514
 20
      -25.000000
 11
      109.114510
 21
       -3.137841
 13
       99.000000
 23
      -25.000000
 14
       99.000000
 24
       25.000000
 50
       90.0
 70
  0
  0
ARC
  8
LVL0000
 62
  3
 10
     -144.500000
 20
       -9.610308
 30
        0.000000
 40
        0.500000
 50
      271.193492
 51
      360.000000
  0
LINE
  8
LVL0000
 62
  3
 10
     -144.000000
 20
        7.700000
 30
        0.000000
 11
     -144.000000
 21
       -9.610308
 31
        0.000000
  0
LINE
  8
LVL0000
 62
  3
 10
     -168.000000
 20
      -10.600000
 30
        0.000000
 11
     -144.489586
 21
      -10.110200
 31
        0.000000
  0
ARC
  8
LVL0000
 62
  3
 10
     -168.500000
 20
      -24.500000
 30
        0.000000
 40
        0.500000
 50
      270.000000
 51
      360.000000
  0
LINE
  8
LVL0000
 62
  3
 10
     -168.000000
 20
      -24.500000
 30
        0.000000
 11
     -168.000000
 21
      -10.600000
 31
        0.000000
  0
LINE
  8
LVL0000
 62
  3
 10
     -175.000000
 20
      -25.000000
 30
        0.000000
 11
     -168.500000
 21
      -25.000000
 31
        0.000000
  0
LINE
  8
LVL0000
 62
  3
 10
     -152.900000
 20
      -24.000000
 30
        0.000000
 11
     -168.000000
 21
      -24.000000
 31
        0.000000
  0
LINE
  8
LVL0000
 62
  3
 10
     -159.000000
 20
      -24.000000
 30
        0.000000
 11
     -159.000000
 21
      -10.600000
 31
        0.000000
  0
LINE
  8
LVL0000
 62
  3
 10
     -152.900000
 20
      -24.000000
 30
        0.000000
 11
     -152.900000
 21
      -10.800000
 31
        0.000000
  0
ARC
  8
LVL0000
 62
  3
 10
     -157.039932
 20
      -19.279676
 30
        0.000000
 40
        1.000000
 50
      275.001331
 51
      343.741537
  0
LINE
  8
LVL0000
 62
  3
 10
     -157.800000
 20
      -20.350000
 30
        0.000000
 11
     -156.952753
 21
      -20.275869
 31
        0.000000
  0
ARC
  8
LVL0000
 62
  3
 10
     -157.039932
 20
      -15.920322
 30
        0.000000
 40
        1.000000
 50
       16.255702
 51
       84.998679
  0
LINE
  8
LVL0000
 62
  3
 10
     -157.800000
 20
      -14.850000
 30
        0.000000
 11
     -156.952753
 21
      -14.924130
 31
        0.000000
  0
ARC
  8
LVL0000
 62
  3
 10
     -162.800000
 20
      -17.600000
 30
        0.000000
 40
        7.000000
 50
      343.742725
 51
      376.257020
  0
LINE
  8
LVL0000
 62
  3
 10
     -157.800000
 20
      -20.600000
 30
        0.000000
 11
     -159.000000
 21
      -20.600000
 31
        0.000000
  0
LINE
  8
LVL0000
 62
  3
 10
     -157.800000
 20
      -20.600000
 30
        0.000000
 11
     -157.800000
 21
      -14.600000
 31
        0.000000
  0
LINE
  8
LVL0000
 62
  3
 10
     -157.800000
 20
      -14.600000
 30
        0.000000
 11
     -159.000000
 21
      -14.600000
 31
        0.000000
  0
LINE
  8
LVL0000
 62
  3
 10
     -168.000000
 20
      -10.800000
 30
        0.000000
 11
     -152.900000
 21
      -10.800000
 31
        0.000000
  0
DIMENSION
  8
LVL0000
 62
  5
  2
BLK0002
 10
     -119.300003
 20
      -37.340626
 11
     -164.790558
 21
      -36.640625
 13
     -119.300003
 23
       -9.000000
 14
     -195.000000
 24
      -28.000000
 50
        0.0
 70
  0
  0
LINE
  8
LVL0000
 62
  3
 10
     -119.300000
 20
        7.500000
 30
        0.000000
 11
     -119.300000
 21
      -10.000000
 31
        0.000000
  0
LINE
  8
LVL0000
 62
  3
 10
     -119.300000
 20
        7.500000
 30
        0.000000
 11
     -144.000000
 21
        7.500000
 31
        0.000000
  0
LINE
  8
LVL0000
 62
  3
 10
     -119.300000
 20
      -10.000000
 30
        0.000000
 11
     -144.000000
 21
      -10.000000
 31
        0.000000
  0
LINE
  8
LVL0000
 62
  3
 10
     -122.800000
 20
       24.000000
 30
        0.000000
 11
     -122.800000
 21
        8.868022
 31
        0.000000
  0
LINE
  8
LVL0000
 62
  3
 10
     -135.000000
 20
        7.500000
 30
        0.000000
 11
     -135.000000
 21
      -10.000000
 31
        0.000000
  0
LINE
  8
LVL0000
 62
  3
 10
     -133.800000
 20
        3.700000
 30
        0.000000
 11
     -135.000000
 21
        3.700000
 31
        0.000000
  0
ARC
  8
LVL0000
 62
  3
 10
     -138.800000
 20
        0.700000
 30
        0.000000
 40
        7.000000
 50
      343.742725
 51
      376.257020
  0
LINE
  8
LVL0000
 62
  3
 10
     -133.800000
 20
        3.450000
 30
        0.000000
 11
     -132.952753
 21
        3.375870
 31
        0.000000
  0
ARC
  8
LVL0000
 62
  3
 10
     -133.039932
 20
        2.379678
 30
        0.000000
 40
        1.000000
 50
       16.255702
 51
       84.998679
  0
LINE
  8
LVL0000
 62
  3
 10
     -133.800000
 20
       -2.300000
 30
        0.000000
 11
     -133.800000
 21
        3.700000
 31
        0.000000
  0
LINE
  8
LVL0000
 62
  3
 10
     -133.800000
 20
       -2.300000
 30
        0.000000
 11
     -135.000000
 21
       -2.300000
 31
        0.000000
  0
LINE
  8
LVL0000
 62
  3
 10
     -133.800000
 20
       -2.050000
 30
        0.000000
 11
     -132.952753
 21
       -1.975869
 31
        0.000000
  0
ARC
  8
LVL0000
 62
  3
 10
     -133.039932
 20
       -0.979676
 30
        0.000000
 40
        1.000000
 50
      275.001331
 51
      343.741537
  0
ARC
  8
LVL0000
 62
  3
 10
     -123.800000
 20
        8.868022
 30
        0.000000
 40
        1.000000
 50
      270.476474
 51
      360.000000
  0
LINE
  8
LVL0000
 62
  3
 10
     -144.000000
 20
        7.700000
 30
        0.000000
 11
     -123.791684
 21
        7.868056
 31
        0.000000
  0
ARC
  8
LVL0000
 62
  3
 10
     -141.800000
 20
        8.218313
 30
        0.000000
 40
        0.500000
 50
      270.476474
 51
      360.000000
  0
LINE
  8
LVL0000
 62
  3
 10
     -141.300000
 20
        8.218313
 30
        0.000000
 11
     -141.300000
 21
       24.500000
 31
        0.000000
  0
LINE
  8
LVL0000
 62
  3
 10
     -124.600000
 20
       20.600000
 30
        0.000000
 11
     -123.100000
 21
       20.600000
 31
        0.000000
  0
LINE
  8
LVL0000
 62
  3
 10
     -124.600000
 20
       20.600000
 30
        0.000000
 11
     -124.600000
 21
       19.700000
 31
        0.000000
  0
LINE
  8
LVL0000
 62
  3
 10
     -123.100000
 20
       10.500000
 30
        0.000000
 11
     -123.100000
 21
       20.600000
 31
        0.000000
  0
LINE
  8
LVL0000
 62
  3
 10
     -136.300000
 20
       22.200000
 30
        0.000000
 11
     -129.400000
 21
       22.200000
 31
        0.000000
  0
LINE
  8
LVL0000
 62
  3
 10
     -129.400000
 20
       22.200000
 30
        0.000000
 11
     -129.400000
 21
       21.200000
 31
        0.000000
  0
LINE
  8
LVL0000
 62
  3
 10
     -129.400000
 20
       21.200000
 30
        0.000000
 11
     -124.600000
 21
       19.700000
 31
        0.000000
  0
LINE
  8
LVL0000
 62
  3
 10
     -141.300000
 20
       23.100000
 30
        0.000000
 11
     -136.300000
 21
       23.100000
 31
        0.000000
  0
LINE
  8
LVL0000
 62
  3
 10
     -136.300000
 20
       23.100000
 30
        0.000000
 11
     -136.300000
 21
       22.200000
 31
        0.000000
  0
LINE
  8
LVL0000
 62
  3
 10
     -124.100000
 20
       10.500000
 30
        0.000000
 11
     -123.100000
 21
       10.500000
 31
        0.000000
  0
LINE
  8
LVL0000
 62
  3
 10
     -141.300000
 20
       10.500000
 30
        0.000000
 11
     -136.300000
 21
       10.500000
 31
        0.000000
  0
LINE
  8
LVL0000
 62
  3
 10
     -136.300000
 20
       11.400000
 30
        0.000000
 11
     -124.100000
 21
       11.400000
 31
        0.000000
  0
LINE
  8
LVL0000
 62
  3
 10
     -136.300000
 20
       10.500000
 30
        0.000000
 11
     -136.300000
 21
       11.400000
 31
        0.000000
  0
LINE
  8
LVL0000
 62
  3
 10
     -124.100000
 20
       10.500000
 30
        0.000000
 11
     -124.100000
 21
       11.400000
 31
        0.000000
  0
LINE
  8
LVL0000
 62
  3
 10
     -140.800000
 20
       13.900000
 30
        0.000000
 11
     -133.100000
 21
       13.900000
 31
        0.000000
  0
LINE
  8
LVL0000
 62
  3
 10
     -140.800000
 20
       19.700000
 30
        0.000000
 11
     -133.100000
 21
       19.700000
 31
        0.000000
  0
LINE
  8
LVL0000
 62
  3
 10
     -133.100000
 20
       13.900000
 30
        0.000000
 11
     -133.100000
 21
       19.700000
 31
        0.000000
  0
LINE
  8
LVL0000
 62
  3
 10
     -178.000000
 20
      -11.500000
 30
        0.000000
 11
     -180.000000
 21
      -11.500000
 31
        0.000000
  0
LINE
  8
LVL0000
 62
  3
 10
     -180.000000
 20
       -3.500000
 30
        0.000000
 11
     -180.000000
 21
      -11.500000
 31
        0.000000
  0
LINE
  8
LVL0000
 62
  3
 10
     -178.000000
 20
       -3.500000
 30
        0.000000
 11
     -180.000000
 21
       -3.500000
 31
        0.000000
  0
LINE
  8
LVL0000
 62
  3
 10
     -175.000000
 20
       -2.500000
 30
        0.000000
 11
     -178.000000
 21
       -2.500000
 31
        0.000000
  0
LINE
  8
LVL0000
 62
  3
 10
     -178.000000
 20
       -2.500000
 30
        0.000000
 11
     -178.000000
 21
      -12.500000
 31
        0.000000
  0
LINE
  8
LVL0000
 62
  3
 10
     -175.000000
 20
      -12.500000
 30
        0.000000
 11
     -178.000000
 21
      -12.500000
 31
        0.000000
  0
LINE
  8
LVL0000
 62
  3
 10
     -148.800000
 20
       -1.850000
 30
        0.000000
 11
     -169.800000
 21
       -1.850000
 31
        0.000000
  0
LINE
  8
LVL0000
 62
  3
 10
     -148.800000
 20
       -3.350000
 30
        0.000000
 11
     -169.800000
 21
       -3.350000
 31
        0.000000
  0
LINE
  8
LVL0000
 62
  3
 10
     -169.800000
 20
       -1.850000
 30
        0.000000
 11
     -169.800000
 21
       -3.350000
 31
        0.000000
  0
LINE
  8
LVL0000
 62
  3
 10
     -148.800000
 20
       -1.850000
 30
        0.000000
 11
     -148.800000
 21
       -3.350000
 31
        0.000000
  0
LINE
  8
LVL0000
 62
  3
 10
     -148.800000
 20
       -4.850000
 30
        0.000000
 11
     -148.800000
 21
       -6.350000
 31
        0.000000
  0
LINE
  8
LVL0000
 62
  3
 10
     -169.800000
 20
       -4.850000
 30
        0.000000
 11
     -169.800000
 21
       -6.350000
 31
        0.000000
  0
LINE
  8
LVL0000
 62
  3
 10
     -148.800000
 20
       -6.350000
 30
        0.000000
 11
     -169.800000
 21
       -6.350000
 31
        0.000000
  0
LINE
  8
LVL0000
 62
  3
 10
     -148.800000
 20
       -4.850000
 30
        0.000000
 11
     -169.800000
 21
       -4.850000
 31
        0.000000
  0
LINE
  8
LVL0000
 62
  3
 10
     -160.100000
 20
       -1.850000
 30
        0.000000
 11
     -160.100000
 21
       -3.350000
 31
        0.000000
  0
LINE
  8
LVL0000
 62
  3
 10
     -160.100000
 20
       -4.850000
 30
        0.000000
 11
     -160.100000
 21
       -6.350000
 31
        0.000000
  0
LINE
  8
LVL0000
 62
  3
 10
     -158.500000
 20
       -1.850000
 30
        0.000000
 11
     -158.500000
 21
       -3.350000
 31
        0.000000
  0
LINE
  8
LVL0000
 62
  3
 10
     -158.500000
 20
       -4.850000
 30
        0.000000
 11
     -158.500000
 21
       -6.350000
 31
        0.000000
  0
LINE
  8
LVL0000
 62
  3
 10
     -148.800000
 20
        4.150000
 30
        0.000000
 11
     -169.800000
 21
        4.150000
 31
        0.000000
  0
LINE
  8
LVL0000
 62
  3
 10
     -158.500000
 20
        7.150000
 30
        0.000000
 11
     -158.500000
 21
        8.650000
 31
        0.000000
  0
LINE
  8
LVL0000
 62
  3
 10
     -158.500000
 20
        4.150000
 30
        0.000000
 11
     -158.500000
 21
        5.650000
 31
        0.000000
  0
LINE
  8
LVL0000
 62
  3
 10
     -160.100000
 20
        7.150000
 30
        0.000000
 11
     -160.100000
 21
        8.650000
 31
        0.000000
  0
LINE
  8
LVL0000
 62
  3
 10
     -160.100000
 20
        4.150000
 30
        0.000000
 11
     -160.100000
 21
        5.650000
 31
        0.000000
  0
LINE
  8
LVL0000
 62
  3
 10
     -148.800000
 20
        7.150000
 30
        0.000000
 11
     -169.800000
 21
        7.150000
 31
        0.000000
  0
LINE
  8
LVL0000
 62
  3
 10
     -148.800000
 20
        8.650000
 30
        0.000000
 11
     -169.800000
 21
        8.650000
 31
        0.000000
  0
LINE
  8
LVL0000
 62
  3
 10
     -169.800000
 20
        7.150000
 30
        0.000000
 11
     -169.800000
 21
        8.650000
 31
        0.000000
  0
LINE
  8
LVL0000
 62
  3
 10
     -169.800000
 20
        4.150000
 30
        0.000000
 11
     -169.800000
 21
        5.650000
 31
        0.000000
  0
LINE
  8
LVL0000
 62
  3
 10
     -148.800000
 20
        5.650000
 30
        0.000000
 11
     -169.800000
 21
        5.650000
 31
        0.000000
  0
LINE
  8
LVL0000
 62
  3
 10
     -148.800000
 20
        7.150000
 30
        0.000000
 11
     -148.800000
 21
        8.650000
 31
        0.000000
  0
LINE
  8
LVL0000
 62
  3
 10
     -148.800000
 20
        4.150000
 30
        0.000000
 11
     -148.800000
 21
        5.650000
 31
        0.000000
  0
LINE
  8
LVL0000
 62
  3
 10
     -175.000000
 20
      -25.000000
 30
        0.000000
 11
     -175.000000
 21
       25.000000
 31
        0.000000
  0
LINE
  8
LVL0000
 62
  3
 10
     -192.000000
 20
      -28.000000
 30
        0.000000
 11
     -192.000000
 21
      -25.000000
 31
        0.000000
  0
LINE
  8
LVL0000
 62
  3
 10
     -195.000000
 20
      -28.000000
 30
        0.000000
 11
     -192.000000
 21
      -28.000000
 31
        0.000000
  0
LINE
  8
LVL0000
 62
  3
 10
     -195.000000
 20
      -25.000000
 30
        0.000000
 11
     -175.000000
 21
      -25.000000
 31
        0.000000
  0
LINE
  8
LVL0000
 62
  3
 10
     -190.000000
 20
       15.000000
 30
        0.000000
 11
     -190.000000
 21
       25.000000
 31
        0.000000
  0
LINE
  8
LVL0000
 62
  3
 10
     -195.000000
 20
      -28.000000
 30
        0.000000
 11
     -195.000000
 21
      -18.000000
 31
        0.000000
  0
LINE
  8
LVL0000
 62
  3
 10
     -195.000000
 20
      -18.000000
 30
        0.000000
 11
     -192.000000
 21
      -18.000000
 31
        0.000000
  0
LINE
  8
LVL0000
 62
  3
 10
     -192.000000
 20
       18.000000
 30
        0.000000
 11
     -195.000000
 21
       18.000000
 31
        0.000000
  0
LINE
  8
LVL0000
 62
  3
 10
     -192.000000
 20
      -18.000000
 30
        0.000000
 11
     -192.000000
 21
       18.000000
 31
        0.000000
  0
LINE
  8
LVL0000
 62
  3
 10
     -195.000000
 20
       18.000000
 30
        0.000000
 11
     -195.000000
 21
       25.000000
 31
        0.000000
  0
ARC
  8
LVL0000
 62
  3
 10
     -123.800000
 20
       24.000000
 30
        0.000000
 40
        1.000000
 50
        0.000000
 51
       90.000000
  0
LINE
  8
LVL0000
 62
  3
 10
     -140.800000
 20
       10.500000
 30
        0.000000
 11
     -140.800000
 21
       23.100000
 31
        0.000000
  0
LINE
  8
LVL0000
 62
  3
 10
     -190.000000
 20
       15.000000
 30
        0.000000
 11
     -141.300000
 21
       15.000000
 31
        0.000000
  0
ARC
  8
LVL0000
 62
  3
 10
     -141.800000
 20
       24.500000
 30
        0.000000
 40
        0.500000
 50
        0.000000
 51
       90.000000
  0
LINE
  8
LVL0000
 62
  3
 10
     -123.800000
 20
       25.000000
 30
        0.000000
 11
     -195.000000
 21
       25.000000
 31
        0.000000
  0
LINE
  8
LVL0000
 62
  3
 10
       81.050000
 20
      -91.200000
 30
        0.000000
 11
       90.000000
 21
      -91.200000
 31
        0.000000
  0
LINE
  8
LVL0000
 62
  3
 10
      -80.750000
 20
     -110.200000
 30
        0.000000
 11
      -80.750000
 21
     -112.200000
 31
        0.000000
  0
LINE
  8
LVL0000
 62
  3
 10
      -89.250000
 20
     -112.200000
 30
        0.000000
 11
      -80.750000
 21
     -112.200000
 31
        0.000000
  0
LINE
  8
LVL0000
 62
  3
 10
      -89.250000
 20
     -110.200000
 30
        0.000000
 11
      -89.250000
 21
     -112.200000
 31
        0.000000
  0
LINE
  8
LVL0000
 62
  3
 10
       -9.250000
 20
     -110.200000
 30
        0.000000
 11
       -9.250000
 21
     -112.200000
 31
        0.000000
  0
LINE
  8
LVL0000
 62
  3
 10
       -9.250000
 20
     -112.200000
 30
        0.000000
 11
       -0.750000
 21
     -112.200000
 31
        0.000000
  0
LINE
  8
LVL0000
 62
  3
 10
       -0.750000
 20
     -110.200000
 30
        0.000000
 11
       -0.750000
 21
     -112.200000
 31
        0.000000
  0
LINE
  8
LVL0000
 62
  3
 10
       82.200000
 20
     -125.700000
 30
        0.000000
 11
       82.200000
 21
     -124.200000
 31
        0.000000
  0
LINE
  8
LVL0000
 62
  3
 10
       82.200000
 20
     -125.700000
 30
        0.000000
 11
       80.000000
 21
     -125.700000
 31
        0.000000
  0
LINE
  8
LVL0000
 62
  3
 10
       74.000000
 20
     -123.200000
 30
        0.000000
 11
       74.000000
 21
     -124.200000
 31
        0.000000
  0
LINE
  8
LVL0000
 62
  3
 10
       66.000000
 20
     -123.200000
 30
        0.000000
 11
       66.000000
 21
     -124.200000
 31
        0.000000
  0
LINE
  8
LVL0000
 62
  3
 10
       74.000000
 20
     -123.200000
 30
        0.000000
 11
       66.000000
 21
     -123.200000
 31
        0.000000
  0
LINE
  8
LVL0000
 62
  3
 10
       79.250000
 20
     -110.200000
 30
        0.000000
 11
       79.250000
 21
     -112.200000
 31
        0.000000
  0
LINE
  8
LVL0000
 62
  3
 10
       70.750000
 20
     -112.200000
 30
        0.000000
 11
       79.250000
 21
     -112.200000
 31
        0.000000
  0
LINE
  8
LVL0000
 62
  3
 10
       70.750000
 20
     -110.200000
 30
        0.000000
 11
       70.750000
 21
     -112.200000
 31
        0.000000
  0
LINE
  8
LVL0000
 62
  3
 10
       80.250000
 20
     -110.200000
 30
        0.000000
 11
       80.250000
 21
     -107.200000
 31
        0.000000
  0
LINE
  8
LVL0000
 62
  3
 10
        0.250000
 20
     -110.200000
 30
        0.000000
 11
        0.250000
 21
     -107.200000
 31
        0.000000
  0
LINE
  8
LVL0000
 62
  3
 10
      -79.750000
 20
     -110.200000
 30
        0.000000
 11
      -79.750000
 21
     -107.200000
 31
        0.000000
  0
LINE
  8
LVL0000
 62
  3
 10
      -90.250000
 20
     -110.200000
 30
        0.000000
 11
      -90.250000
 21
     -107.200000
 31
        0.000000
  0
LINE
  8
LVL0000
 62
  3
 10
      -90.250000
 20
     -110.200000
 30
        0.000000
 11
      -79.750000
 21
     -110.200000
 31
        0.000000
  0
LINE
  8
LVL0000
 62
  3
 10
      -10.250000
 20
     -110.200000
 30
        0.000000
 11
      -10.250000
 21
     -107.200000
 31
        0.000000
  0
LINE
  8
LVL0000
 62
  3
 10
      -10.250000
 20
     -110.200000
 30
        0.000000
 11
        0.250000
 21
     -110.200000
 31
        0.000000
  0
LINE
  8
LVL0000
 62
  3
 10
       69.750000
 20
     -110.200000
 30
        0.000000
 11
       69.750000
 21
     -107.200000
 31
        0.000000
  0
LINE
  8
LVL0000
 62
  3
 10
       69.750000
 20
     -110.200000
 30
        0.000000
 11
       80.250000
 21
     -110.200000
 31
        0.000000
  0
LINE
  8
LVL0000
 62
  3
 10
      -78.000000
 20
     -119.950000
 30
        0.000000
 11
      -12.000000
 21
     -119.950000
 31
        0.000000
  0
LINE
  8
LVL0000
 62
  3
 10
      -78.000000
 20
     -115.450000
 30
        0.000000
 11
      -12.000000
 21
     -115.450000
 31
        0.000000
  0
LINE
  8
LVL0000
 62
  3
 10
      -78.000000
 20
     -116.950000
 30
        0.000000
 11
      -12.000000
 21
     -116.950000
 31
        0.000000
  0
LINE
  8
LVL0000
 62
  3
 10
      -78.000000
 20
     -118.450000
 30
        0.000000
 11
      -12.000000
 21
     -118.450000
 31
        0.000000
  0
LINE
  8
LVL0000
 62
  3
 10
      -78.000000
 20
     -121.450000
 30
        0.000000
 11
      -12.000000
 21
     -121.450000
 31
        0.000000
  0
LINE
  8
LVL0000
 62
  3
 10
      -78.000000
 20
     -113.950000
 30
        0.000000
 11
      -12.000000
 21
     -113.950000
 31
        0.000000
  0
LINE
  8
LVL0000
 62
  3
 10
      -12.000000
 20
     -115.450000
 30
        0.000000
 11
      -12.000000
 21
     -113.950000
 31
        0.000000
  0
LINE
  8
LVL0000
 62
  3
 10
      -12.000000
 20
     -118.450000
 30
        0.000000
 11
      -12.000000
 21
     -116.950000
 31
        0.000000
  0
LINE
  8
LVL0000
 62
  3
 10
      -12.000000
 20
     -121.450000
 30
        0.000000
 11
      -12.000000
 21
     -119.950000
 31
        0.000000
  0
LINE
  8
LVL0000
 62
  3
 10
       68.000000
 20
     -113.950000
 30
        0.000000
 11
        2.000000
 21
     -113.950000
 31
        0.000000
  0
LINE
  8
LVL0000
 62
  3
 10
       68.000000
 20
     -121.450000
 30
        0.000000
 11
        2.000000
 21
     -121.450000
 31
        0.000000
  0
LINE
  8
LVL0000
 62
  3
 10
       68.000000
 20
     -118.450000
 30
        0.000000
 11
        2.000000
 21
     -118.450000
 31
        0.000000
  0
LINE
  8
LVL0000
 62
  3
 10
       68.000000
 20
     -116.950000
 30
        0.000000
 11
        2.000000
 21
     -116.950000
 31
        0.000000
  0
LINE
  8
LVL0000
 62
  3
 10
       68.000000
 20
     -115.450000
 30
        0.000000
 11
        2.000000
 21
     -115.450000
 31
        0.000000
  0
LINE
  8
LVL0000
 62
  3
 10
       68.000000
 20
     -119.950000
 30
        0.000000
 11
        2.000000
 21
     -119.950000
 31
        0.000000
  0
LINE
  8
LVL0000
 62
  3
 10
       68.000000
 20
     -121.450000
 30
        0.000000
 11
       68.000000
 21
     -119.950000
 31
        0.000000
  0
LINE
  8
LVL0000
 62
  3
 10
       68.000000
 20
     -118.450000
 30
        0.000000
 11
       68.000000
 21
     -116.950000
 31
        0.000000
  0
LINE
  8
LVL0000
 62
  3
 10
       68.000000
 20
     -115.450000
 30
        0.000000
 11
       68.000000
 21
     -113.950000
 31
        0.000000
  0
LINE
  8
LVL0000
 62
  3
 10
      -78.000000
 20
     -115.450000
 30
        0.000000
 11
      -78.000000
 21
     -113.950000
 31
        0.000000
  0
LINE
  8
LVL0000
 62
  3
 10
      -78.000000
 20
     -118.450000
 30
        0.000000
 11
      -78.000000
 21
     -116.950000
 31
        0.000000
  0
LINE
  8
LVL0000
 62
  3
 10
      -78.000000
 20
     -121.450000
 30
        0.000000
 11
      -78.000000
 21
     -119.950000
 31
        0.000000
  0
LINE
  8
LVL0000
 62
  3
 10
        2.000000
 20
     -121.450000
 30
        0.000000
 11
        2.000000
 21
     -119.950000
 31
        0.000000
  0
LINE
  8
LVL0000
 62
  3
 10
        2.000000
 20
     -118.450000
 30
        0.000000
 11
        2.000000
 21
     -116.950000
 31
        0.000000
  0
LINE
  8
LVL0000
 62
  3
 10
        2.000000
 20
     -115.450000
 30
        0.000000
 11
        2.000000
 21
     -113.950000
 31
        0.000000
  0
LINE
  8
LVL0000
 62
  3
 10
      -67.000000
 20
     -118.450000
 30
        0.000000
 11
      -67.000000
 21
     -116.950000
 31
        0.000000
  0
LINE
  8
LVL0000
 62
  3
 10
      -65.000000
 20
     -118.450000
 30
        0.000000
 11
      -65.000000
 21
     -116.950000
 31
        0.000000
  0
LINE
  8
LVL0000
 62
  3
 10
      -65.000000
 20
     -121.450000
 30
        0.000000
 11
      -65.000000
 21
     -119.950000
 31
        0.000000
  0
LINE
  8
LVL0000
 62
  3
 10
      -67.000000
 20
     -121.450000
 30
        0.000000
 11
      -67.000000
 21
     -119.950000
 31
        0.000000
  0
LINE
  8
LVL0000
 62
  3
 10
      -67.000000
 20
     -115.450000
 30
        0.000000
 11
      -67.000000
 21
     -113.950000
 31
        0.000000
  0
LINE
  8
LVL0000
 62
  3
 10
      -65.000000
 20
     -115.450000
 30
        0.000000
 11
      -65.000000
 21
     -113.950000
 31
        0.000000
  0
LINE
  8
LVL0000
 62
  3
 10
      -53.000000
 20
     -121.450000
 30
        0.000000
 11
      -53.000000
 21
     -119.950000
 31
        0.000000
  0
LINE
  8
LVL0000
 62
  3
 10
      -51.000000
 20
     -121.450000
 30
        0.000000
 11
      -51.000000
 21
     -119.950000
 31
        0.000000
  0
LINE
  8
LVL0000
 62
  3
 10
      -51.000000
 20
     -115.450000
 30
        0.000000
 11
      -51.000000
 21
     -113.950000
 31
        0.000000
  0
LINE
  8
LVL0000
 62
  3
 10
      -53.000000
 20
     -115.450000
 30
        0.000000
 11
      -53.000000
 21
     -113.950000
 31
        0.000000
  0
LINE
  8
LVL0000
 62
  3
 10
      -37.000000
 20
     -115.450000
 30
        0.000000
 11
      -37.000000
 21
     -113.950000
 31
        0.000000
  0
LINE
  8
LVL0000
 62
  3
 10
      -39.000000
 20
     -118.450000
 30
        0.000000
 11
      -39.000000
 21
     -116.950000
 31
        0.000000
  0
LINE
  8
LVL0000
 62
  3
 10
      -37.000000
 20
     -118.450000
 30
        0.000000
 11
      -37.000000
 21
     -116.950000
 31
        0.000000
  0
LINE
  8
LVL0000
 62
  3
 10
      -37.000000
 20
     -121.450000
 30
        0.000000
 11
      -37.000000
 21
     -119.950000
 31
        0.000000
  0
LINE
  8
LVL0000
 62
  3
 10
      -39.000000
 20
     -121.450000
 30
        0.000000
 11
      -39.000000
 21
     -119.950000
 31
        0.000000
  0
LINE
  8
LVL0000
 62
  3
 10
      -39.000000
 20
     -115.450000
 30
        0.000000
 11
      -39.000000
 21
     -113.950000
 31
        0.000000
  0
LINE
  8
LVL0000
 62
  3
 10
      -51.000000
 20
     -118.450000
 30
        0.000000
 11
      -51.000000
 21
     -116.950000
 31
        0.000000
  0
LINE
  8
LVL0000
 62
  3
 10
      -53.000000
 20
     -118.450000
 30
        0.000000
 11
      -53.000000
 21
     -116.950000
 31
        0.000000
  0
LINE
  8
LVL0000
 62
  3
 10
      -25.000000
 20
     -115.450000
 30
        0.000000
 11
      -25.000000
 21
     -113.950000
 31
        0.000000
  0
LINE
  8
LVL0000
 62
  3
 10
      -23.000000
 20
     -115.450000
 30
        0.000000
 11
      -23.000000
 21
     -113.950000
 31
        0.000000
  0
LINE
  8
LVL0000
 62
  3
 10
      -23.000000
 20
     -121.450000
 30
        0.000000
 11
      -23.000000
 21
     -119.950000
 31
        0.000000
  0
LINE
  8
LVL0000
 62
  3
 10
      -25.000000
 20
     -121.450000
 30
        0.000000
 11
      -25.000000
 21
     -119.950000
 31
        0.000000
  0
LINE
  8
LVL0000
 62
  3
 10
      -25.000000
 20
     -118.450000
 30
        0.000000
 11
      -25.000000
 21
     -116.950000
 31
        0.000000
  0
LINE
  8
LVL0000
 62
  3
 10
      -23.000000
 20
     -118.450000
 30
        0.000000
 11
      -23.000000
 21
     -116.950000
 31
        0.000000
  0
LINE
  8
LVL0000
 62
  3
 10
       27.000000
 20
     -121.450000
 30
        0.000000
 11
       27.000000
 21
     -119.950000
 31
        0.000000
  0
LINE
  8
LVL0000
 62
  3
 10
       27.000000
 20
     -118.450000
 30
        0.000000
 11
       27.000000
 21
     -116.950000
 31
        0.000000
  0
LINE
  8
LVL0000
 62
  3
 10
       29.000000
 20
     -118.450000
 30
        0.000000
 11
       29.000000
 21
     -116.950000
 31
        0.000000
  0
LINE
  8
LVL0000
 62
  3
 10
       27.000000
 20
     -115.450000
 30
        0.000000
 11
       27.000000
 21
     -113.950000
 31
        0.000000
  0
LINE
  8
LVL0000
 62
  3
 10
       43.000000
 20
     -115.450000
 30
        0.000000
 11
       43.000000
 21
     -113.950000
 31
        0.000000
  0
LINE
  8
LVL0000
 62
  3
 10
       41.000000
 20
     -115.450000
 30
        0.000000
 11
       41.000000
 21
     -113.950000
 31
        0.000000
  0
LINE
  8
LVL0000
 62
  3
 10
       41.000000
 20
     -121.450000
 30
        0.000000
 11
       41.000000
 21
     -119.950000
 31
        0.000000
  0
LINE
  8
LVL0000
 62
  3
 10
       43.000000
 20
     -121.450000
 30
        0.000000
 11
       43.000000
 21
     -119.950000
 31
        0.000000
  0
LINE
  8
LVL0000
 62
  3
 10
       55.000000
 20
     -115.450000
 30
        0.000000
 11
       55.000000
 21
     -113.950000
 31
        0.000000
  0
LINE
  8
LVL0000
 62
  3
 10
       57.000000
 20
     -115.450000
 30
        0.000000
 11
       57.000000
 21
     -113.950000
 31
        0.000000
  0
LINE
  8
LVL0000
 62
  3
 10
       57.000000
 20
     -121.450000
 30
        0.000000
 11
       57.000000
 21
     -119.950000
 31
        0.000000
  0
LINE
  8
LVL0000
 62
  3
 10
       55.000000
 20
     -121.450000
 30
        0.000000
 11
       55.000000
 21
     -119.950000
 31
        0.000000
  0
LINE
  8
LVL0000
 62
  3
 10
       55.000000
 20
     -118.450000
 30
        0.000000
 11
       55.000000
 21
     -116.950000
 31
        0.000000
  0
LINE
  8
LVL0000
 62
  3
 10
       57.000000
 20
     -118.450000
 30
        0.000000
 11
       57.000000
 21
     -116.950000
 31
        0.000000
  0
LINE
  8
LVL0000
 62
  3
 10
       13.000000
 20
     -118.450000
 30
        0.000000
 11
       13.000000
 21
     -116.950000
 31
        0.000000
  0
LINE
  8
LVL0000
 62
  3
 10
       15.000000
 20
     -118.450000
 30
        0.000000
 11
       15.000000
 21
     -116.950000
 31
        0.000000
  0
LINE
  8
LVL0000
 62
  3
 10
       15.000000
 20
     -121.450000
 30
        0.000000
 11
       15.000000
 21
     -119.950000
 31
        0.000000
  0
LINE
  8
LVL0000
 62
  3
 10
       13.000000
 20
     -121.450000
 30
        0.000000
 11
       13.000000
 21
     -119.950000
 31
        0.000000
  0
LINE
  8
LVL0000
 62
  3
 10
       13.000000
 20
     -115.450000
 30
        0.000000
 11
       13.000000
 21
     -113.950000
 31
        0.000000
  0
LINE
  8
LVL0000
 62
  3
 10
       15.000000
 20
     -115.450000
 30
        0.000000
 11
       15.000000
 21
     -113.950000
 31
        0.000000
  0
LINE
  8
LVL0000
 62
  3
 10
       43.000000
 20
     -118.450000
 30
        0.000000
 11
       43.000000
 21
     -116.950000
 31
        0.000000
  0
LINE
  8
LVL0000
 62
  3
 10
       41.000000
 20
     -118.450000
 30
        0.000000
 11
       41.000000
 21
     -116.950000
 31
        0.000000
  0
LINE
  8
LVL0000
 62
  3
 10
       29.000000
 20
     -115.450000
 30
        0.000000
 11
       29.000000
 21
     -113.950000
 31
        0.000000
  0
LINE
  8
LVL0000
 62
  3
 10
       29.000000
 20
     -121.450000
 30
        0.000000
 11
       29.000000
 21
     -119.950000
 31
        0.000000
  0
LINE
  8
LVL0000
 62
  3
 10
      -57.800000
 20
     -125.700000
 30
        0.000000
 11
      -57.800000
 21
     -124.200000
 31
        0.000000
  0
LINE
  8
LVL0000
 62
  3
 10
      -57.800000
 20
     -125.700000
 30
        0.000000
 11
      -60.000000
 21
     -125.700000
 31
        0.000000
  0
LINE
  8
LVL0000
 62
  3
 10
      -66.000000
 20
     -123.200000
 30
        0.000000
 11
      -66.000000
 21
     -124.200000
 31
        0.000000
  0
LINE
  8
LVL0000
 62
  3
 10
      -57.800000
 20
     -124.200000
 30
        0.000000
 11
      -82.200000
 21
     -124.200000
 31
        0.000000
  0
LINE
  8
LVL0000
 62
  3
 10
      -82.200000
 20
     -125.700000
 30
        0.000000
 11
      -80.000000
 21
     -125.700000
 31
        0.000000
  0
LINE
  8
LVL0000
 62
  3
 10
      -82.200000
 20
     -125.700000
 30
        0.000000
 11
      -82.200000
 21
     -124.200000
 31
        0.000000
  0
LINE
  8
LVL0000
 62
  3
 10
      -66.000000
 20
     -123.200000
 30
        0.000000
 11
      -74.000000
 21
     -123.200000
 31
        0.000000
  0
LINE
  8
LVL0000
 62
  3
 10
      -74.000000
 20
     -123.200000
 30
        0.000000
 11
      -74.000000
 21
     -124.200000
 31
        0.000000
  0
LINE
  8
LVL0000
 62
  3
 10
       82.200000
 20
     -124.200000
 30
        0.000000
 11
       57.800000
 21
     -124.200000
 31
        0.000000
  0
LINE
  8
LVL0000
 62
  3
 10
       57.800000
 20
     -125.700000
 30
        0.000000
 11
       57.800000
 21
     -124.200000
 31
        0.000000
  0
LINE
  8
LVL0000
 62
  3
 10
       57.800000
 20
     -125.700000
 30
        0.000000
 11
       60.000000
 21
     -125.700000
 31
        0.000000
  0
LINE
  8
LVL0000
 62
  3
 10
       80.000000
 20
     -124.200000
 30
        0.000000
 11
       80.000000
 21
     -127.200000
 31
        0.000000
  0
LINE
  8
LVL0000
 62
  3
 10
       60.000000
 20
     -124.200000
 30
        0.000000
 11
       60.000000
 21
     -127.200000
 31
        0.000000
  0
LINE
  8
LVL0000
 62
  3
 10
       63.000000
 20
     -124.200000
 30
        0.000000
 11
       63.000000
 21
     -127.200000
 31
        0.000000
  0
LINE
  8
LVL0000
 62
  3
 10
       77.000000
 20
     -124.200000
 30
        0.000000
 11
       77.000000
 21
     -127.200000
 31
        0.000000
  0
LINE
  8
LVL0000
 62
  3
 10
      -77.000000
 20
     -124.200000
 30
        0.000000
 11
      -77.000000
 21
     -127.200000
 31
        0.000000
  0
LINE
  8
LVL0000
 62
  3
 10
      -63.000000
 20
     -124.200000
 30
        0.000000
 11
      -63.000000
 21
     -127.200000
 31
        0.000000
  0
LINE
  8
LVL0000
 62
  3
 10
      -60.000000
 20
     -124.200000
 30
        0.000000
 11
      -60.000000
 21
     -127.200000
 31
        0.000000
  0
LINE
  8
LVL0000
 62
  3
 10
      -80.000000
 20
     -124.200000
 30
        0.000000
 11
      -80.000000
 21
     -127.200000
 31
        0.000000
  0
LINE
  8
LVL0000
 62
  3
 10
     -100.000000
 20
     -107.200000
 30
        0.000000
 11
     -100.000000
 21
      -66.000000
 31
        0.000000
  0
LINE
  8
LVL0000
 62
  3
 10
     -100.000000
 20
      -66.000000
 30
        0.000000
 11
      -91.050000
 21
      -66.000000
 31
        0.000000
  0
LINE
  8
LVL0000
 62
  3
 10
     -100.000000
 20
      -91.200000
 30
        0.000000
 11
      -91.050000
 21
      -91.200000
 31
        0.000000
  0
LINE
  8
LVL0000
 62
  3
 10
       90.000000
 20
      -91.200000
 30
        0.000000
 11
       90.000000
 21
     -122.200000
 31
        0.000000
  0
LINE
  8
LVL0000
 62
  3
 10
      -91.050000
 20
      -85.100000
 30
        0.000000
 11
       81.050000
 21
      -85.100000
 31
        0.000000
  0
LINE
  8
LVL0000
 62
  3
 10
       81.050000
 20
      -85.100000
 30
        0.000000
 11
       81.050000
 21
      -91.200000
 31
        0.000000
  0
LINE
  8
LVL0000
 62
  3
 10
      -91.050000
 20
      -85.100000
 30
        0.000000
 11
      -91.050000
 21
      -91.200000
 31
        0.000000
  0
LINE
  8
LVL0000
 62
  3
 10
       87.750000
 20
      -90.000000
 30
        0.000000
 11
       87.675870
 21
      -89.152753
 31
        0.000000
  0
ARC
  8
LVL0000
 62
  3
 10
       86.679678
 20
      -89.239932
 30
        0.000000
 40
        1.000000
 50
        5.001319
 51
       73.744295
  0
LINE
  8
LVL0000
 62
  3
 10
       82.000000
 20
      -90.000000
 30
        0.000000
 11
       88.000000
 21
      -90.000000
 31
        0.000000
  0
LINE
  8
LVL0000
 62
  3
 10
       82.000000
 20
      -90.000000
 30
        0.000000
 11
       82.000000
 21
      -91.200000
 31
        0.000000
  0
LINE
  8
LVL0000
 62
  3
 10
       82.250000
 20
      -90.000000
 30
        0.000000
 11
       82.324131
 21
      -89.152753
 31
        0.000000
  0
ARC
  8
LVL0000
 62
  3
 10
       83.320324
 20
      -89.239932
 30
        0.000000
 40
        1.000000
 50
      106.258461
 51
      174.998667
  0
LINE
  8
LVL0000
 62
  3
 10
       88.000000
 20
      -90.000000
 30
        0.000000
 11
       88.000000
 21
      -91.200000
 31
        0.000000
  0
ARC
  8
LVL0000
 62
  3
 10
       85.000000
 20
      -95.000000
 30
        0.000000
 40
        7.000000
 50
       73.742977
 51
      106.257272
  0
ARC
  8
LVL0000
 62
  3
 10
      -95.000000
 20
      -95.000000
 30
        0.000000
 40
        7.000000
 50
       73.742723
 51
      106.257018
  0
LINE
  8
LVL0000
 62
  3
 10
      -98.000000
 20
      -90.000000
 30
        0.000000
 11
      -98.000000
 21
      -91.200000
 31
        0.000000
  0
ARC
  8
LVL0000
 62
  3
 10
      -93.320324
 20
      -89.239932
 30
        0.000000
 40
        1.000000
 50
        5.001328
 51
       73.741534
  0
LINE
  8
LVL0000
 62
  3
 10
      -92.250000
 20
      -90.000000
 30
        0.000000
 11
      -92.324131
 21
      -89.152753
 31
        0.000000
  0
LINE
  8
LVL0000
 62
  3
 10
      -92.000000
 20
      -90.000000
 30
        0.000000
 11
      -92.000000
 21
      -91.200000
 31
        0.000000
  0
LINE
  8
LVL0000
 62
  3
 10
      -92.000000
 20
      -90.000000
 30
        0.000000
 11
      -98.000000
 21
      -90.000000
 31
        0.000000
  0
ARC
  8
LVL0000
 62
  3
 10
      -96.679678
 20
      -89.239932
 30
        0.000000
 40
        1.000000
 50
      106.255700
 51
      174.998676
  0
LINE
  8
LVL0000
 62
  3
 10
      -97.750000
 20
      -90.000000
 30
        0.000000
 11
      -97.675870
 21
      -89.152753
 31
        0.000000
  0
LINE
  8
LVL0000
 62
  3
 10
     -100.000000
 20
      -76.200000
 30
        0.000000
 11
      100.000000
 21
      -76.200000
 31
        0.000000
  0
LINE
  8
LVL0000
 62
  3
 10
       90.000000
 20
      -67.200000
 30
        0.000000
 11
       90.000000
 21
      -76.200000
 31
        0.000000
  0
LINE
  8
LVL0000
 62
  3
 10
      100.000000
 20
      -55.000000
 30
        0.000000
 11
       81.050000
 21
      -55.000000
 31
        0.000000
  0
LINE
  8
LVL0000
 62
  3
 10
     -100.000000
 20
     -127.200000
 30
        0.000000
 11
      100.000000
 21
     -127.200000
 31
        0.000000
  0
LINE
  8
LVL0000
 62
  3
 10
       90.000000
 20
     -122.200000
 30
        0.000000
 11
      100.000000
 21
     -122.200000
 31
        0.000000
  0
LINE
  8
LVL0000
 62
  3
 10
     -100.000000
 20
     -100.200000
 30
        0.000000
 11
      100.000000
 21
     -100.200000
 31
        0.000000
  0
LINE
  8
LVL0000
 62
  3
 10
     -100.000000
 20
     -107.200000
 30
        0.000000
 11
      100.000000
 21
     -107.200000
 31
        0.000000
  0
LINE
  8
LVL0000
 62
  3
 10
      100.000000
 20
     -107.200000
 30
        0.000000
 11
      100.000000
 21
      -55.000000
 31
        0.000000
  0
LINE
  8
LVL0000
 62
  3
 10
      100.000000
 20
     -127.200000
 30
        0.000000
 11
      100.000000
 21
     -107.200000
 31
        0.000000
  0
LINE
  8
LVL0000
 62
  3
 10
     -100.000000
 20
     -127.200000
 30
        0.000000
 11
     -100.000000
 21
     -107.200000
 31
        0.000000
  0
LINE
  8
LVL0000
 62
  3
 10
       73.910000
 20
      -61.000000
 30
        0.000000
 11
      -88.190000
 21
      -61.000000
 31
        0.000000
  0
LINE
  8
LVL0000
 62
  3
 10
       78.210000
 20
      -51.500000
 30
        0.000000
 11
       78.210000
 21
      -69.800000
 31
        0.000000
  0
LINE
  8
LVL0000
 62
  3
 10
       73.260000
 20
      -57.800000
 30
        0.000000
 11
       73.260000
 21
      -59.000000
 31
        0.000000
  0
LINE
  8
LVL0000
 62
  3
 10
       73.010000
 20
      -57.800000
 30
        0.000000
 11
       72.935869
 21
      -56.952753
 31
        0.000000
  0
ARC
  8
LVL0000
 62
  3
 10
       71.939676
 20
      -57.039932
 30
        0.000000
 40
        1.000000
 50
        5.001328
 51
       73.741534
  0
LINE
  8
LVL0000
 62
  3
 10
       66.610000
 20
      -59.000000
 30
        0.000000
 11
       73.910000
 21
      -59.000000
 31
        0.000000
  0
ARC
  8
LVL0000
 62
  3
 10
       70.260000
 20
      -62.800000
 30
        0.000000
 40
        7.000000
 50
       73.742723
 51
      106.257018
  0
LINE
  8
LVL0000
 62
  3
 10
       73.260000
 20
      -57.800000
 30
        0.000000
 11
       67.260000
 21
      -57.800000
 31
        0.000000
  0
LINE
  8
LVL0000
 62
  3
 10
       70.910000
 20
      -62.000000
 30
        0.000000
 11
       70.910000
 21
      -69.800000
 31
        0.000000
  0
LINE
  8
LVL0000
 62
  3
 10
       70.910000
 20
      -69.800000
 30
        0.000000
 11
       78.210000
 21
      -69.800000
 31
        0.000000
  0
LINE
  8
LVL0000
 62
  3
 10
       71.560000
 20
      -66.600000
 30
        0.000000
 11
       71.560000
 21
      -67.800000
 31
        0.000000
  0
ARC
  8
LVL0000
 62
  3
 10
       74.560000
 20
      -71.600000
 30
        0.000000
 40
        7.000000
 50
       73.742723
 51
      106.257018
  0
LINE
  8
LVL0000
 62
  3
 10
       71.810000
 20
      -66.600000
 30
        0.000000
 11
       71.884130
 21
      -65.752753
 31
        0.000000
  0
ARC
  8
LVL0000
 62
  3
 10
       72.880322
 20
      -65.839932
 30
        0.000000
 40
        1.000000
 50
      106.255700
 51
      174.998676
  0
LINE
  8
LVL0000
 62
  3
 10
       77.560000
 20
      -66.600000
 30
        0.000000
 11
       71.560000
 21
      -66.600000
 31
        0.000000
  0
LINE
  8
LVL0000
 62
  3
 10
       77.560000
 20
      -66.600000
 30
        0.000000
 11
       77.560000
 21
      -67.800000
 31
        0.000000
  0
LINE
  8
LVL0000
 62
  3
 10
       77.310000
 20
      -66.600000
 30
        0.000000
 11
       77.235869
 21
      -65.752753
 31
        0.000000
  0
ARC
  8
LVL0000
 62
  3
 10
       76.239676
 20
      -65.839932
 30
        0.000000
 40
        1.000000
 50
        5.001328
 51
       73.741534
  0
LINE
  8
LVL0000
 62
  3
 10
       70.910000
 20
      -67.800000
 30
        0.000000
 11
       78.210000
 21
      -67.800000
 31
        0.000000
  0
LINE
  8
LVL0000
 62
  3
 10
       69.610000
 20
      -62.000000
 30
        0.000000
 11
       70.910000
 21
      -62.000000
 31
        0.000000
  0
LINE
  8
LVL0000
 62
  3
 10
       67.260000
 20
      -57.800000
 30
        0.000000
 11
       67.260000
 21
      -59.000000
 31
        0.000000
  0
LINE
  8
LVL0000
 62
  3
 10
       67.510000
 20
      -57.800000
 30
        0.000000
 11
       67.584130
 21
      -56.952753
 31
        0.000000
  0
ARC
  8
LVL0000
 62
  3
 10
       68.580322
 20
      -57.039932
 30
        0.000000
 40
        1.000000
 50
      106.255700
 51
      174.998676
  0
ARC
  8
LVL0000
 62
  3
 10
       59.980322
 20
      -57.039932
 30
        0.000000
 40
        1.000000
 50
      106.255700
 51
      174.998676
  0
LINE
  8
LVL0000
 62
  3
 10
       58.910000
 20
      -57.800000
 30
        0.000000
 11
       58.984130
 21
      -56.952753
 31
        0.000000
  0
LINE
  8
LVL0000
 62
  3
 10
       58.660000
 20
      -57.800000
 30
        0.000000
 11
       58.660000
 21
      -59.000000
 31
        0.000000
  0
LINE
  8
LVL0000
 62
  3
 10
       61.010000
 20
      -62.000000
 30
        0.000000
 11
       62.310000
 21
      -62.000000
 31
        0.000000
  0
LINE
  8
LVL0000
 62
  3
 10
       62.310000
 20
      -67.800000
 30
        0.000000
 11
       69.610000
 21
      -67.800000
 31
        0.000000
  0
ARC
  8
LVL0000
 62
  3
 10
       67.639676
 20
      -65.839932
 30
        0.000000
 40
        1.000000
 50
        5.001328
 51
       73.741534
  0
LINE
  8
LVL0000
 62
  3
 10
       68.710000
 20
      -66.600000
 30
        0.000000
 11
       68.635869
 21
      -65.752753
 31
        0.000000
  0
LINE
  8
LVL0000
 62
  3
 10
       68.960000
 20
      -66.600000
 30
        0.000000
 11
       68.960000
 21
      -67.800000
 31
        0.000000
  0
LINE
  8
LVL0000
 62
  3
 10
       68.960000
 20
      -66.600000
 30
        0.000000
 11
       62.960000
 21
      -66.600000
 31
        0.000000
  0
ARC
  8
LVL0000
 62
  3
 10
       64.280322
 20
      -65.839932
 30
        0.000000
 40
        1.000000
 50
      106.255700
 51
      174.998676
  0
LINE
  8
LVL0000
 62
  3
 10
       63.210000
 20
      -66.600000
 30
        0.000000
 11
       63.284130
 21
      -65.752753
 31
        0.000000
  0
ARC
  8
LVL0000
 62
  3
 10
       65.960000
 20
      -71.600000
 30
        0.000000
 40
        7.000000
 50
       73.742723
 51
      106.257018
  0
LINE
  8
LVL0000
 62
  3
 10
       62.960000
 20
      -66.600000
 30
        0.000000
 11
       62.960000
 21
      -67.800000
 31
        0.000000
  0
LINE
  8
LVL0000
 62
  3
 10
       62.310000
 20
      -69.800000
 30
        0.000000
 11
       69.610000
 21
      -69.800000
 31
        0.000000
  0
LINE
  8
LVL0000
 62
  3
 10
       62.310000
 20
      -62.000000
 30
        0.000000
 11
       62.310000
 21
      -69.800000
 31
        0.000000
  0
LINE
  8
LVL0000
 62
  3
 10
       69.610000
 20
      -62.000000
 30
        0.000000
 11
       69.610000
 21
      -69.800000
 31
        0.000000
  0
LINE
  8
LVL0000
 62
  3
 10
       64.660000
 20
      -57.800000
 30
        0.000000
 11
       58.660000
 21
      -57.800000
 31
        0.000000
  0
ARC
  8
LVL0000
 62
  3
 10
       61.660000
 20
      -62.800000
 30
        0.000000
 40
        7.000000
 50
       73.742723
 51
      106.257018
  0
LINE
  8
LVL0000
 62
  3
 10
       58.010000
 20
      -59.000000
 30
        0.000000
 11
       65.310000
 21
      -59.000000
 31
        0.000000
  0
ARC
  8
LVL0000
 62
  3
 10
       63.339676
 20
      -57.039932
 30
        0.000000
 40
        1.000000
 50
        5.001328
 51
       73.741534
  0
LINE
  8
LVL0000
 62
  3
 10
       64.410000
 20
      -57.800000
 30
        0.000000
 11
       64.335869
 21
      -56.952753
 31
        0.000000
  0
LINE
  8
LVL0000
 62
  3
 10
       64.660000
 20
      -57.800000
 30
        0.000000
 11
       64.660000
 21
      -59.000000
 31
        0.000000
  0
LINE
  8
LVL0000
 62
  3
 10
       56.060000
 20
      -57.800000
 30
        0.000000
 11
       56.060000
 21
      -59.000000
 31
        0.000000
  0
LINE
  8
LVL0000
 62
  3
 10
       55.810000
 20
      -57.800000
 30
        0.000000
 11
       55.735869
 21
      -56.952753
 31
        0.000000
  0
ARC
  8
LVL0000
 62
  3
 10
       54.739676
 20
      -57.039932
 30
        0.000000
 40
        1.000000
 50
        5.001328
 51
       73.741534
  0
LINE
  8
LVL0000
 62
  3
 10
       49.410000
 20
      -59.000000
 30
        0.000000
 11
       56.710000
 21
      -59.000000
 31
        0.000000
  0
ARC
  8
LVL0000
 62
  3
 10
       53.060000
 20
      -62.800000
 30
        0.000000
 40
        7.000000
 50
       73.742723
 51
      106.257018
  0
LINE
  8
LVL0000
 62
  3
 10
       56.060000
 20
      -57.800000
 30
        0.000000
 11
       50.060000
 21
      -57.800000
 31
        0.000000
  0
LINE
  8
LVL0000
 62
  3
 10
       61.010000
 20
      -62.000000
 30
        0.000000
 11
       61.010000
 21
      -69.800000
 31
        0.000000
  0
LINE
  8
LVL0000
 62
  3
 10
       53.710000
 20
      -62.000000
 30
        0.000000
 11
       53.710000
 21
      -69.800000
 31
        0.000000
  0
LINE
  8
LVL0000
 62
  3
 10
       53.710000
 20
      -69.800000
 30
        0.000000
 11
       61.010000
 21
      -69.800000
 31
        0.000000
  0
LINE
  8
LVL0000
 62
  3
 10
       54.360000
 20
      -66.600000
 30
        0.000000
 11
       54.360000
 21
      -67.800000
 31
        0.000000
  0
ARC
  8
LVL0000
 62
  3
 10
       57.360000
 20
      -71.600000
 30
        0.000000
 40
        7.000000
 50
       73.742723
 51
      106.257018
  0
LINE
  8
LVL0000
 62
  3
 10
       54.610000
 20
      -66.600000
 30
        0.000000
 11
       54.684130
 21
      -65.752753
 31
        0.000000
  0
ARC
  8
LVL0000
 62
  3
 10
       55.680322
 20
      -65.839932
 30
        0.000000
 40
        1.000000
 50
      106.255700
 51
      174.998676
  0
LINE
  8
LVL0000
 62
  3
 10
       60.360000
 20
      -66.600000
 30
        0.000000
 11
       54.360000
 21
      -66.600000
 31
        0.000000
  0
LINE
  8
LVL0000
 62
  3
 10
       60.360000
 20
      -66.600000
 30
        0.000000
 11
       60.360000
 21
      -67.800000
 31
        0.000000
  0
LINE
  8
LVL0000
 62
  3
 10
       60.110000
 20
      -66.600000
 30
        0.000000
 11
       60.035869
 21
      -65.752753
 31
        0.000000
  0
ARC
  8
LVL0000
 62
  3
 10
       59.039676
 20
      -65.839932
 30
        0.000000
 40
        1.000000
 50
        5.001328
 51
       73.741534
  0
LINE
  8
LVL0000
 62
  3
 10
       53.710000
 20
      -67.800000
 30
        0.000000
 11
       61.010000
 21
      -67.800000
 31
        0.000000
  0
LINE
  8
LVL0000
 62
  3
 10
       52.410000
 20
      -62.000000
 30
        0.000000
 11
       53.710000
 21
      -62.000000
 31
        0.000000
  0
LINE
  8
LVL0000
 62
  3
 10
       50.060000
 20
      -57.800000
 30
        0.000000
 11
       50.060000
 21
      -59.000000
 31
        0.000000
  0
LINE
  8
LVL0000
 62
  3
 10
       50.310000
 20
      -57.800000
 30
        0.000000
 11
       50.384130
 21
      -56.952753
 31
        0.000000
  0
ARC
  8
LVL0000
 62
  3
 10
       51.380322
 20
      -57.039932
 30
        0.000000
 40
        1.000000
 50
      106.255700
 51
      174.998676
  0
ARC
  8
LVL0000
 62
  3
 10
       42.780322
 20
      -57.039932
 30
        0.000000
 40
        1.000000
 50
      106.255700
 51
      174.998676
  0
LINE
  8
LVL0000
 62
  3
 10
       41.710000
 20
      -57.800000
 30
        0.000000
 11
       41.784130
 21
      -56.952753
 31
        0.000000
  0
LINE
  8
LVL0000
 62
  3
 10
       41.460000
 20
      -57.800000
 30
        0.000000
 11
       41.460000
 21
      -59.000000
 31
        0.000000
  0
LINE
  8
LVL0000
 62
  3
 10
       43.810000
 20
      -62.000000
 30
        0.000000
 11
       45.110000
 21
      -62.000000
 31
        0.000000
  0
LINE
  8
LVL0000
 62
  3
 10
       45.110000
 20
      -67.800000
 30
        0.000000
 11
       52.410000
 21
      -67.800000
 31
        0.000000
  0
ARC
  8
LVL0000
 62
  3
 10
       50.439676
 20
      -65.839932
 30
        0.000000
 40
        1.000000
 50
        5.001328
 51
       73.741534
  0
LINE
  8
LVL0000
 62
  3
 10
       51.510000
 20
      -66.600000
 30
        0.000000
 11
       51.435869
 21
      -65.752753
 31
        0.000000
  0
LINE
  8
LVL0000
 62
  3
 10
       51.760000
 20
      -66.600000
 30
        0.000000
 11
       51.760000
 21
      -67.800000
 31
        0.000000
  0
LINE
  8
LVL0000
 62
  3
 10
       51.760000
 20
      -66.600000
 30
        0.000000
 11
       45.760000
 21
      -66.600000
 31
        0.000000
  0
ARC
  8
LVL0000
 62
  3
 10
       47.080322
 20
      -65.839932
 30
        0.000000
 40
        1.000000
 50
      106.255700
 51
      174.998676
  0
LINE
  8
LVL0000
 62
  3
 10
       46.010000
 20
      -66.600000
 30
        0.000000
 11
       46.084130
 21
      -65.752753
 31
        0.000000
  0
ARC
  8
LVL0000
 62
  3
 10
       48.760000
 20
      -71.600000
 30
        0.000000
 40
        7.000000
 50
       73.742723
 51
      106.257018
  0
LINE
  8
LVL0000
 62
  3
 10
       45.760000
 20
      -66.600000
 30
        0.000000
 11
       45.760000
 21
      -67.800000
 31
        0.000000
  0
LINE
  8
LVL0000
 62
  3
 10
       45.110000
 20
      -69.800000
 30
        0.000000
 11
       52.410000
 21
      -69.800000
 31
        0.000000
  0
LINE
  8
LVL0000
 62
  3
 10
       45.110000
 20
      -62.000000
 30
        0.000000
 11
       45.110000
 21
      -69.800000
 31
        0.000000
  0
LINE
  8
LVL0000
 62
  3
 10
       52.410000
 20
      -62.000000
 30
        0.000000
 11
       52.410000
 21
      -69.800000
 31
        0.000000
  0
LINE
  8
LVL0000
 62
  3
 10
       47.460000
 20
      -57.800000
 30
        0.000000
 11
       41.460000
 21
      -57.800000
 31
        0.000000
  0
ARC
  8
LVL0000
 62
  3
 10
       44.460000
 20
      -62.800000
 30
        0.000000
 40
        7.000000
 50
       73.742723
 51
      106.257018
  0
LINE
  8
LVL0000
 62
  3
 10
       40.810000
 20
      -59.000000
 30
        0.000000
 11
       48.110000
 21
      -59.000000
 31
        0.000000
  0
ARC
  8
LVL0000
 62
  3
 10
       46.139676
 20
      -57.039932
 30
        0.000000
 40
        1.000000
 50
        5.001328
 51
       73.741534
  0
LINE
  8
LVL0000
 62
  3
 10
       47.210000
 20
      -57.800000
 30
        0.000000
 11
       47.135869
 21
      -56.952753
 31
        0.000000
  0
LINE
  8
LVL0000
 62
  3
 10
       47.460000
 20
      -57.800000
 30
        0.000000
 11
       47.460000
 21
      -59.000000
 31
        0.000000
  0
LINE
  8
LVL0000
 62
  3
 10
       38.860000
 20
      -57.800000
 30
        0.000000
 11
       38.860000
 21
      -59.000000
 31
        0.000000
  0
LINE
  8
LVL0000
 62
  3
 10
       38.610000
 20
      -57.800000
 30
        0.000000
 11
       38.535869
 21
      -56.952753
 31
        0.000000
  0
ARC
  8
LVL0000
 62
  3
 10
       37.539676
 20
      -57.039932
 30
        0.000000
 40
        1.000000
 50
        5.001328
 51
       73.741534
  0
LINE
  8
LVL0000
 62
  3
 10
       32.210000
 20
      -59.000000
 30
        0.000000
 11
       39.510000
 21
      -59.000000
 31
        0.000000
  0
ARC
  8
LVL0000
 62
  3
 10
       35.860000
 20
      -62.800000
 30
        0.000000
 40
        7.000000
 50
       73.742723
 51
      106.257018
  0
LINE
  8
LVL0000
 62
  3
 10
       38.860000
 20
      -57.800000
 30
        0.000000
 11
       32.860000
 21
      -57.800000
 31
        0.000000
  0
LINE
  8
LVL0000
 62
  3
 10
       43.810000
 20
      -62.000000
 30
        0.000000
 11
       43.810000
 21
      -69.800000
 31
        0.000000
  0
LINE
  8
LVL0000
 62
  3
 10
       36.510000
 20
      -62.000000
 30
        0.000000
 11
       36.510000
 21
      -69.800000
 31
        0.000000
  0
LINE
  8
LVL0000
 62
  3
 10
       36.510000
 20
      -69.800000
 30
        0.000000
 11
       43.810000
 21
      -69.800000
 31
        0.000000
  0
LINE
  8
LVL0000
 62
  3
 10
       37.160000
 20
      -66.600000
 30
        0.000000
 11
       37.160000
 21
      -67.800000
 31
        0.000000
  0
ARC
  8
LVL0000
 62
  3
 10
       40.160000
 20
      -71.600000
 30
        0.000000
 40
        7.000000
 50
       73.742723
 51
      106.257018
  0
LINE
  8
LVL0000
 62
  3
 10
       37.410000
 20
      -66.600000
 30
        0.000000
 11
       37.484130
 21
      -65.752753
 31
        0.000000
  0
ARC
  8
LVL0000
 62
  3
 10
       38.480322
 20
      -65.839932
 30
        0.000000
 40
        1.000000
 50
      106.255700
 51
      174.998676
  0
LINE
  8
LVL0000
 62
  3
 10
       43.160000
 20
      -66.600000
 30
        0.000000
 11
       37.160000
 21
      -66.600000
 31
        0.000000
  0
LINE
  8
LVL0000
 62
  3
 10
       43.160000
 20
      -66.600000
 30
        0.000000
 11
       43.160000
 21
      -67.800000
 31
        0.000000
  0
LINE
  8
LVL0000
 62
  3
 10
       42.910000
 20
      -66.600000
 30
        0.000000
 11
       42.835869
 21
      -65.752753
 31
        0.000000
  0
ARC
  8
LVL0000
 62
  3
 10
       41.839676
 20
      -65.839932
 30
        0.000000
 40
        1.000000
 50
        5.001328
 51
       73.741534
  0
LINE
  8
LVL0000
 62
  3
 10
       36.510000
 20
      -67.800000
 30
        0.000000
 11
       43.810000
 21
      -67.800000
 31
        0.000000
  0
LINE
  8
LVL0000
 62
  3
 10
       35.210000
 20
      -62.000000
 30
        0.000000
 11
       36.510000
 21
      -62.000000
 31
        0.000000
  0
LINE
  8
LVL0000
 62
  3
 10
       32.860000
 20
      -57.800000
 30
        0.000000
 11
       32.860000
 21
      -59.000000
 31
        0.000000
  0
LINE
  8
LVL0000
 62
  3
 10
       33.110000
 20
      -57.800000
 30
        0.000000
 11
       33.184130
 21
      -56.952753
 31
        0.000000
  0
ARC
  8
LVL0000
 62
  3
 10
       34.180322
 20
      -57.039932
 30
        0.000000
 40
        1.000000
 50
      106.255700
 51
      174.998676
  0
ARC
  8
LVL0000
 62
  3
 10
       25.580322
 20
      -57.039932
 30
        0.000000
 40
        1.000000
 50
      106.255700
 51
      174.998676
  0
LINE
  8
LVL0000
 62
  3
 10
       24.510000
 20
      -57.800000
 30
        0.000000
 11
       24.584130
 21
      -56.952753
 31
        0.000000
  0
LINE
  8
LVL0000
 62
  3
 10
       24.260000
 20
      -57.800000
 30
        0.000000
 11
       24.260000
 21
      -59.000000
 31
        0.000000
  0
LINE
  8
LVL0000
 62
  3
 10
       26.610000
 20
      -62.000000
 30
        0.000000
 11
       27.910000
 21
      -62.000000
 31
        0.000000
  0
LINE
  8
LVL0000
 62
  3
 10
       27.910000
 20
      -67.800000
 30
        0.000000
 11
       35.210000
 21
      -67.800000
 31
        0.000000
  0
ARC
  8
LVL0000
 62
  3
 10
       33.239676
 20
      -65.839932
 30
        0.000000
 40
        1.000000
 50
        5.001328
 51
       73.741534
  0
LINE
  8
LVL0000
 62
  3
 10
       34.310000
 20
      -66.600000
 30
        0.000000
 11
       34.235869
 21
      -65.752753
 31
        0.000000
  0
LINE
  8
LVL0000
 62
  3
 10
       34.560000
 20
      -66.600000
 30
        0.000000
 11
       34.560000
 21
      -67.800000
 31
        0.000000
  0
LINE
  8
LVL0000
 62
  3
 10
       34.560000
 20
      -66.600000
 30
        0.000000
 11
       28.560000
 21
      -66.600000
 31
        0.000000
  0
ARC
  8
LVL0000
 62
  3
 10
       29.880322
 20
      -65.839932
 30
        0.000000
 40
        1.000000
 50
      106.255700
 51
      174.998676
  0
LINE
  8
LVL0000
 62
  3
 10
       28.810000
 20
      -66.600000
 30
        0.000000
 11
       28.884130
 21
      -65.752753
 31
        0.000000
  0
ARC
  8
LVL0000
 62
  3
 10
       31.560000
 20
      -71.600000
 30
        0.000000
 40
        7.000000
 50
       73.742723
 51
      106.257018
  0
LINE
  8
LVL0000
 62
  3
 10
       28.560000
 20
      -66.600000
 30
        0.000000
 11
       28.560000
 21
      -67.800000
 31
        0.000000
  0
LINE
  8
LVL0000
 62
  3
 10
       27.910000
 20
      -69.800000
 30
        0.000000
 11
       35.210000
 21
      -69.800000
 31
        0.000000
  0
LINE
  8
LVL0000
 62
  3
 10
       27.910000
 20
      -62.000000
 30
        0.000000
 11
       27.910000
 21
      -69.800000
 31
        0.000000
  0
LINE
  8
LVL0000
 62
  3
 10
       35.210000
 20
      -62.000000
 30
        0.000000
 11
       35.210000
 21
      -69.800000
 31
        0.000000
  0
LINE
  8
LVL0000
 62
  3
 10
       30.260000
 20
      -57.800000
 30
        0.000000
 11
       24.260000
 21
      -57.800000
 31
        0.000000
  0
ARC
  8
LVL0000
 62
  3
 10
       27.260000
 20
      -62.800000
 30
        0.000000
 40
        7.000000
 50
       73.742723
 51
      106.257018
  0
LINE
  8
LVL0000
 62
  3
 10
       23.610000
 20
      -59.000000
 30
        0.000000
 11
       30.910000
 21
      -59.000000
 31
        0.000000
  0
ARC
  8
LVL0000
 62
  3
 10
       28.939676
 20
      -57.039932
 30
        0.000000
 40
        1.000000
 50
        5.001328
 51
       73.741534
  0
LINE
  8
LVL0000
 62
  3
 10
       30.010000
 20
      -57.800000
 30
        0.000000
 11
       29.935869
 21
      -56.952753
 31
        0.000000
  0
LINE
  8
LVL0000
 62
  3
 10
       30.260000
 20
      -57.800000
 30
        0.000000
 11
       30.260000
 21
      -59.000000
 31
        0.000000
  0
LINE
  8
LVL0000
 62
  3
 10
       21.660000
 20
      -57.800000
 30
        0.000000
 11
       21.660000
 21
      -59.000000
 31
        0.000000
  0
LINE
  8
LVL0000
 62
  3
 10
       21.410000
 20
      -57.800000
 30
        0.000000
 11
       21.335869
 21
      -56.952753
 31
        0.000000
  0
ARC
  8
LVL0000
 62
  3
 10
       20.339676
 20
      -57.039932
 30
        0.000000
 40
        1.000000
 50
        5.001328
 51
       73.741534
  0
LINE
  8
LVL0000
 62
  3
 10
       15.010000
 20
      -59.000000
 30
        0.000000
 11
       22.310000
 21
      -59.000000
 31
        0.000000
  0
ARC
  8
LVL0000
 62
  3
 10
       18.660000
 20
      -62.800000
 30
        0.000000
 40
        7.000000
 50
       73.742723
 51
      106.257018
  0
LINE
  8
LVL0000
 62
  3
 10
       21.660000
 20
      -57.800000
 30
        0.000000
 11
       15.660000
 21
      -57.800000
 31
        0.000000
  0
LINE
  8
LVL0000
 62
  3
 10
       26.610000
 20
      -62.000000
 30
        0.000000
 11
       26.610000
 21
      -69.800000
 31
        0.000000
  0
LINE
  8
LVL0000
 62
  3
 10
       19.310000
 20
      -62.000000
 30
        0.000000
 11
       19.310000
 21
      -69.800000
 31
        0.000000
  0
LINE
  8
LVL0000
 62
  3
 10
       19.310000
 20
      -69.800000
 30
        0.000000
 11
       26.610000
 21
      -69.800000
 31
        0.000000
  0
LINE
  8
LVL0000
 62
  3
 10
       19.960000
 20
      -66.600000
 30
        0.000000
 11
       19.960000
 21
      -67.800000
 31
        0.000000
  0
ARC
  8
LVL0000
 62
  3
 10
       22.960000
 20
      -71.600000
 30
        0.000000
 40
        7.000000
 50
       73.742723
 51
      106.257018
  0
LINE
  8
LVL0000
 62
  3
 10
       20.210000
 20
      -66.600000
 30
        0.000000
 11
       20.284130
 21
      -65.752753
 31
        0.000000
  0
ARC
  8
LVL0000
 62
  3
 10
       21.280322
 20
      -65.839932
 30
        0.000000
 40
        1.000000
 50
      106.255700
 51
      174.998676
  0
LINE
  8
LVL0000
 62
  3
 10
       25.960000
 20
      -66.600000
 30
        0.000000
 11
       19.960000
 21
      -66.600000
 31
        0.000000
  0
LINE
  8
LVL0000
 62
  3
 10
       25.960000
 20
      -66.600000
 30
        0.000000
 11
       25.960000
 21
      -67.800000
 31
        0.000000
  0
LINE
  8
LVL0000
 62
  3
 10
       25.710000
 20
      -66.600000
 30
        0.000000
 11
       25.635869
 21
      -65.752753
 31
        0.000000
  0
ARC
  8
LVL0000
 62
  3
 10
       24.639676
 20
      -65.839932
 30
        0.000000
 40
        1.000000
 50
        5.001328
 51
       73.741534
  0
LINE
  8
LVL0000
 62
  3
 10
       19.310000
 20
      -67.800000
 30
        0.000000
 11
       26.610000
 21
      -67.800000
 31
        0.000000
  0
LINE
  8
LVL0000
 62
  3
 10
       18.010000
 20
      -62.000000
 30
        0.000000
 11
       19.310000
 21
      -62.000000
 31
        0.000000
  0
LINE
  8
LVL0000
 62
  3
 10
       15.660000
 20
      -57.800000
 30
        0.000000
 11
       15.660000
 21
      -59.000000
 31
        0.000000
  0
LINE
  8
LVL0000
 62
  3
 10
       15.910000
 20
      -57.800000
 30
        0.000000
 11
       15.984130
 21
      -56.952753
 31
        0.000000
  0
ARC
  8
LVL0000
 62
  3
 10
       16.980322
 20
      -57.039932
 30
        0.000000
 40
        1.000000
 50
      106.255700
 51
      174.998676
  0
ARC
  8
LVL0000
 62
  3
 10
        8.380322
 20
      -57.039932
 30
        0.000000
 40
        1.000000
 50
      106.255700
 51
      174.998676
  0
LINE
  8
LVL0000
 62
  3
 10
        7.310000
 20
      -57.800000
 30
        0.000000
 11
        7.384130
 21
      -56.952753
 31
        0.000000
  0
LINE
  8
LVL0000
 62
  3
 10
        7.060000
 20
      -57.800000
 30
        0.000000
 11
        7.060000
 21
      -59.000000
 31
        0.000000
  0
LINE
  8
LVL0000
 62
  3
 10
        9.410000
 20
      -62.000000
 30
        0.000000
 11
       10.710000
 21
      -62.000000
 31
        0.000000
  0
LINE
  8
LVL0000
 62
  3
 10
       10.710000
 20
      -67.800000
 30
        0.000000
 11
       18.010000
 21
      -67.800000
 31
        0.000000
  0
ARC
  8
LVL0000
 62
  3
 10
       16.039676
 20
      -65.839932
 30
        0.000000
 40
        1.000000
 50
        5.001328
 51
       73.741534
  0
LINE
  8
LVL0000
 62
  3
 10
       17.110000
 20
      -66.600000
 30
        0.000000
 11
       17.035869
 21
      -65.752753
 31
        0.000000
  0
LINE
  8
LVL0000
 62
  3
 10
       17.360000
 20
      -66.600000
 30
        0.000000
 11
       17.360000
 21
      -67.800000
 31
        0.000000
  0
LINE
  8
LVL0000
 62
  3
 10
       17.360000
 20
      -66.600000
 30
        0.000000
 11
       11.360000
 21
      -66.600000
 31
        0.000000
  0
ARC
  8
LVL0000
 62
  3
 10
       12.680322
 20
      -65.839932
 30
        0.000000
 40
        1.000000
 50
      106.255700
 51
      174.998676
  0
LINE
  8
LVL0000
 62
  3
 10
       11.610000
 20
      -66.600000
 30
        0.000000
 11
       11.684130
 21
      -65.752753
 31
        0.000000
  0
ARC
  8
LVL0000
 62
  3
 10
       14.360000
 20
      -71.600000
 30
        0.000000
 40
        7.000000
 50
       73.742723
 51
      106.257018
  0
LINE
  8
LVL0000
 62
  3
 10
       11.360000
 20
      -66.600000
 30
        0.000000
 11
       11.360000
 21
      -67.800000
 31
        0.000000
  0
LINE
  8
LVL0000
 62
  3
 10
       10.710000
 20
      -69.800000
 30
        0.000000
 11
       18.010000
 21
      -69.800000
 31
        0.000000
  0
LINE
  8
LVL0000
 62
  3
 10
       10.710000
 20
      -62.000000
 30
        0.000000
 11
       10.710000
 21
      -69.800000
 31
        0.000000
  0
LINE
  8
LVL0000
 62
  3
 10
       18.010000
 20
      -62.000000
 30
        0.000000
 11
       18.010000
 21
      -69.800000
 31
        0.000000
  0
LINE
  8
LVL0000
 62
  3
 10
       13.060000
 20
      -57.800000
 30
        0.000000
 11
        7.060000
 21
      -57.800000
 31
        0.000000
  0
ARC
  8
LVL0000
 62
  3
 10
       10.060000
 20
      -62.800000
 30
        0.000000
 40
        7.000000
 50
       73.742723
 51
      106.257018
  0
LINE
  8
LVL0000
 62
  3
 10
        6.410000
 20
      -59.000000
 30
        0.000000
 11
       13.710000
 21
      -59.000000
 31
        0.000000
  0
ARC
  8
LVL0000
 62
  3
 10
       11.739676
 20
      -57.039932
 30
        0.000000
 40
        1.000000
 50
        5.001328
 51
       73.741534
  0
LINE
  8
LVL0000
 62
  3
 10
       12.810000
 20
      -57.800000
 30
        0.000000
 11
       12.735869
 21
      -56.952753
 31
        0.000000
  0
LINE
  8
LVL0000
 62
  3
 10
       13.060000
 20
      -57.800000
 30
        0.000000
 11
       13.060000
 21
      -59.000000
 31
        0.000000
  0
LINE
  8
LVL0000
 62
  3
 10
        4.460000
 20
      -57.800000
 30
        0.000000
 11
        4.460000
 21
      -59.000000
 31
        0.000000
  0
LINE
  8
LVL0000
 62
  3
 10
        4.210000
 20
      -57.800000
 30
        0.000000
 11
        4.135869
 21
      -56.952753
 31
        0.000000
  0
ARC
  8
LVL0000
 62
  3
 10
        3.139676
 20
      -57.039932
 30
        0.000000
 40
        1.000000
 50
        5.001328
 51
       73.741534
  0
LINE
  8
LVL0000
 62
  3
 10
       -2.190000
 20
      -59.000000
 30
        0.000000
 11
        5.110000
 21
      -59.000000
 31
        0.000000
  0
ARC
  8
LVL0000
 62
  3
 10
        1.460000
 20
      -62.800000
 30
        0.000000
 40
        7.000000
 50
       73.742723
 51
      106.257018
  0
LINE
  8
LVL0000
 62
  3
 10
        4.460000
 20
      -57.800000
 30
        0.000000
 11
       -1.540000
 21
      -57.800000
 31
        0.000000
  0
LINE
  8
LVL0000
 62
  3
 10
        9.410000
 20
      -62.000000
 30
        0.000000
 11
        9.410000
 21
      -69.800000
 31
        0.000000
  0
LINE
  8
LVL0000
 62
  3
 10
        2.110000
 20
      -62.000000
 30
        0.000000
 11
        2.110000
 21
      -69.800000
 31
        0.000000
  0
LINE
  8
LVL0000
 62
  3
 10
        2.110000
 20
      -69.800000
 30
        0.000000
 11
        9.410000
 21
      -69.800000
 31
        0.000000
  0
LINE
  8
LVL0000
 62
  3
 10
        2.760000
 20
      -66.600000
 30
        0.000000
 11
        2.760000
 21
      -67.800000
 31
        0.000000
  0
ARC
  8
LVL0000
 62
  3
 10
        5.760000
 20
      -71.600000
 30
        0.000000
 40
        7.000000
 50
       73.742723
 51
      106.257018
  0
LINE
  8
LVL0000
 62
  3
 10
        3.010000
 20
      -66.600000
 30
        0.000000
 11
        3.084130
 21
      -65.752753
 31
        0.000000
  0
ARC
  8
LVL0000
 62
  3
 10
        4.080322
 20
      -65.839932
 30
        0.000000
 40
        1.000000
 50
      106.255700
 51
      174.998676
  0
LINE
  8
LVL0000
 62
  3
 10
        8.760000
 20
      -66.600000
 30
        0.000000
 11
        2.760000
 21
      -66.600000
 31
        0.000000
  0
LINE
  8
LVL0000
 62
  3
 10
        8.760000
 20
      -66.600000
 30
        0.000000
 11
        8.760000
 21
      -67.800000
 31
        0.000000
  0
LINE
  8
LVL0000
 62
  3
 10
        8.510000
 20
      -66.600000
 30
        0.000000
 11
        8.435869
 21
      -65.752753
 31
        0.000000
  0
ARC
  8
LVL0000
 62
  3
 10
        7.439676
 20
      -65.839932
 30
        0.000000
 40
        1.000000
 50
        5.001328
 51
       73.741534
  0
LINE
  8
LVL0000
 62
  3
 10
        2.110000
 20
      -67.800000
 30
        0.000000
 11
        9.410000
 21
      -67.800000
 31
        0.000000
  0
LINE
  8
LVL0000
 62
  3
 10
        0.810000
 20
      -62.000000
 30
        0.000000
 11
        2.110000
 21
      -62.000000
 31
        0.000000
  0
LINE
  8
LVL0000
 62
  3
 10
       -1.540000
 20
      -57.800000
 30
        0.000000
 11
       -1.540000
 21
      -59.000000
 31
        0.000000
  0
LINE
  8
LVL0000
 62
  3
 10
       -1.290000
 20
      -57.800000
 30
        0.000000
 11
       -1.215870
 21
      -56.952753
 31
        0.000000
  0
ARC
  8
LVL0000
 62
  3
 10
       -0.219678
 20
      -57.039932
 30
        0.000000
 40
        1.000000
 50
      106.255700
 51
      174.998676
  0
ARC
  8
LVL0000
 62
  3
 10
       -8.819678
 20
      -57.039932
 30
        0.000000
 40
        1.000000
 50
      106.255700
 51
      174.998676
  0
LINE
  8
LVL0000
 62
  3
 10
       -9.890000
 20
      -57.800000
 30
        0.000000
 11
       -9.815870
 21
      -56.952753
 31
        0.000000
  0
LINE
  8
LVL0000
 62
  3
 10
      -10.140000
 20
      -57.800000
 30
        0.000000
 11
      -10.140000
 21
      -59.000000
 31
        0.000000
  0
LINE
  8
LVL0000
 62
  3
 10
       -7.790000
 20
      -62.000000
 30
        0.000000
 11
       -6.490000
 21
      -62.000000
 31
        0.000000
  0
LINE
  8
LVL0000
 62
  3
 10
       -6.490000
 20
      -67.800000
 30
        0.000000
 11
        0.810000
 21
      -67.800000
 31
        0.000000
  0
ARC
  8
LVL0000
 62
  3
 10
       -1.160324
 20
      -65.839932
 30
        0.000000
 40
        1.000000
 50
        5.001328
 51
       73.741534
  0
LINE
  8
LVL0000
 62
  3
 10
       -0.090000
 20
      -66.600000
 30
        0.000000
 11
       -0.164131
 21
      -65.752753
 31
        0.000000
  0
LINE
  8
LVL0000
 62
  3
 10
        0.160000
 20
      -66.600000
 30
        0.000000
 11
        0.160000
 21
      -67.800000
 31
        0.000000
  0
LINE
  8
LVL0000
 62
  3
 10
        0.160000
 20
      -66.600000
 30
        0.000000
 11
       -5.840000
 21
      -66.600000
 31
        0.000000
  0
ARC
  8
LVL0000
 62
  3
 10
       -4.519678
 20
      -65.839932
 30
        0.000000
 40
        1.000000
 50
      106.255700
 51
      174.998676
  0
LINE
  8
LVL0000
 62
  3
 10
       -5.590000
 20
      -66.600000
 30
        0.000000
 11
       -5.515870
 21
      -65.752753
 31
        0.000000
  0
ARC
  8
LVL0000
 62
  3
 10
       -2.840000
 20
      -71.600000
 30
        0.000000
 40
        7.000000
 50
       73.742723
 51
      106.257018
  0
LINE
  8
LVL0000
 62
  3
 10
       -5.840000
 20
      -66.600000
 30
        0.000000
 11
       -5.840000
 21
      -67.800000
 31
        0.000000
  0
LINE
  8
LVL0000
 62
  3
 10
       -6.490000
 20
      -69.800000
 30
        0.000000
 11
        0.810000
 21
      -69.800000
 31
        0.000000
  0
LINE
  8
LVL0000
 62
  3
 10
       -6.490000
 20
      -62.000000
 30
        0.000000
 11
       -6.490000
 21
      -69.800000
 31
        0.000000
  0
LINE
  8
LVL0000
 62
  3
 10
        0.810000
 20
      -62.000000
 30
        0.000000
 11
        0.810000
 21
      -69.800000
 31
        0.000000
  0
LINE
  8
LVL0000
 62
  3
 10
       -4.140000
 20
      -57.800000
 30
        0.000000
 11
      -10.140000
 21
      -57.800000
 31
        0.000000
  0
ARC
  8
LVL0000
 62
  3
 10
       -7.140000
 20
      -62.800000
 30
        0.000000
 40
        7.000000
 50
       73.742723
 51
      106.257018
  0
LINE
  8
LVL0000
 62
  3
 10
      -10.790000
 20
      -59.000000
 30
        0.000000
 11
       -3.490000
 21
      -59.000000
 31
        0.000000
  0
ARC
  8
LVL0000
 62
  3
 10
       -5.460324
 20
      -57.039932
 30
        0.000000
 40
        1.000000
 50
        5.001328
 51
       73.741534
  0
LINE
  8
LVL0000
 62
  3
 10
       -4.390000
 20
      -57.800000
 30
        0.000000
 11
       -4.464131
 21
      -56.952753
 31
        0.000000
  0
LINE
  8
LVL0000
 62
  3
 10
       -4.140000
 20
      -57.800000
 30
        0.000000
 11
       -4.140000
 21
      -59.000000
 31
        0.000000
  0
LINE
  8
LVL0000
 62
  3
 10
      -12.740000
 20
      -57.800000
 30
        0.000000
 11
      -12.740000
 21
      -59.000000
 31
        0.000000
  0
LINE
  8
LVL0000
 62
  3
 10
      -12.990000
 20
      -57.800000
 30
        0.000000
 11
      -13.064131
 21
      -56.952753
 31
        0.000000
  0
ARC
  8
LVL0000
 62
  3
 10
      -14.060324
 20
      -57.039932
 30
        0.000000
 40
        1.000000
 50
        5.001328
 51
       73.741534
  0
LINE
  8
LVL0000
 62
  3
 10
      -19.390000
 20
      -59.000000
 30
        0.000000
 11
      -12.090000
 21
      -59.000000
 31
        0.000000
  0
ARC
  8
LVL0000
 62
  3
 10
      -15.740000
 20
      -62.800000
 30
        0.000000
 40
        7.000000
 50
       73.742723
 51
      106.257018
  0
LINE
  8
LVL0000
 62
  3
 10
      -12.740000
 20
      -57.800000
 30
        0.000000
 11
      -18.740000
 21
      -57.800000
 31
        0.000000
  0
LINE
  8
LVL0000
 62
  3
 10
       -7.790000
 20
      -62.000000
 30
        0.000000
 11
       -7.790000
 21
      -69.800000
 31
        0.000000
  0
LINE
  8
LVL0000
 62
  3
 10
      -15.090000
 20
      -62.000000
 30
        0.000000
 11
      -15.090000
 21
      -69.800000
 31
        0.000000
  0
LINE
  8
LVL0000
 62
  3
 10
      -15.090000
 20
      -69.800000
 30
        0.000000
 11
       -7.790000
 21
      -69.800000
 31
        0.000000
  0
LINE
  8
LVL0000
 62
  3
 10
      -14.440000
 20
      -66.600000
 30
        0.000000
 11
      -14.440000
 21
      -67.800000
 31
        0.000000
  0
ARC
  8
LVL0000
 62
  3
 10
      -11.440000
 20
      -71.600000
 30
        0.000000
 40
        7.000000
 50
       73.742723
 51
      106.257018
  0
LINE
  8
LVL0000
 62
  3
 10
      -14.190000
 20
      -66.600000
 30
        0.000000
 11
      -14.115870
 21
      -65.752753
 31
        0.000000
  0
ARC
  8
LVL0000
 62
  3
 10
      -13.119678
 20
      -65.839932
 30
        0.000000
 40
        1.000000
 50
      106.255700
 51
      174.998676
  0
LINE
  8
LVL0000
 62
  3
 10
       -8.440000
 20
      -66.600000
 30
        0.000000
 11
      -14.440000
 21
      -66.600000
 31
        0.000000
  0
LINE
  8
LVL0000
 62
  3
 10
       -8.440000
 20
      -66.600000
 30
        0.000000
 11
       -8.440000
 21
      -67.800000
 31
        0.000000
  0
LINE
  8
LVL0000
 62
  3
 10
       -8.690000
 20
      -66.600000
 30
        0.000000
 11
       -8.764131
 21
      -65.752753
 31
        0.000000
  0
ARC
  8
LVL0000
 62
  3
 10
       -9.760324
 20
      -65.839932
 30
        0.000000
 40
        1.000000
 50
        5.001328
 51
       73.741534
  0
LINE
  8
LVL0000
 62
  3
 10
      -15.090000
 20
      -67.800000
 30
        0.000000
 11
       -7.790000
 21
      -67.800000
 31
        0.000000
  0
LINE
  8
LVL0000
 62
  3
 10
      -16.390000
 20
      -62.000000
 30
        0.000000
 11
      -15.090000
 21
      -62.000000
 31
        0.000000
  0
LINE
  8
LVL0000
 62
  3
 10
      -18.740000
 20
      -57.800000
 30
        0.000000
 11
      -18.740000
 21
      -59.000000
 31
        0.000000
  0
LINE
  8
LVL0000
 62
  3
 10
      -18.490000
 20
      -57.800000
 30
        0.000000
 11
      -18.415870
 21
      -56.952753
 31
        0.000000
  0
ARC
  8
LVL0000
 62
  3
 10
      -17.419678
 20
      -57.039932
 30
        0.000000
 40
        1.000000
 50
      106.255700
 51
      174.998676
  0
ARC
  8
LVL0000
 62
  3
 10
      -26.019678
 20
      -57.039932
 30
        0.000000
 40
        1.000000
 50
      106.255700
 51
      174.998676
  0
LINE
  8
LVL0000
 62
  3
 10
      -27.090000
 20
      -57.800000
 30
        0.000000
 11
      -27.015870
 21
      -56.952753
 31
        0.000000
  0
LINE
  8
LVL0000
 62
  3
 10
      -27.340000
 20
      -57.800000
 30
        0.000000
 11
      -27.340000
 21
      -59.000000
 31
        0.000000
  0
LINE
  8
LVL0000
 62
  3
 10
      -24.990000
 20
      -62.000000
 30
        0.000000
 11
      -23.690000
 21
      -62.000000
 31
        0.000000
  0
LINE
  8
LVL0000
 62
  3
 10
      -23.690000
 20
      -67.800000
 30
        0.000000
 11
      -16.390000
 21
      -67.800000
 31
        0.000000
  0
ARC
  8
LVL0000
 62
  3
 10
      -18.360324
 20
      -65.839932
 30
        0.000000
 40
        1.000000
 50
        5.001328
 51
       73.741534
  0
LINE
  8
LVL0000
 62
  3
 10
      -17.290000
 20
      -66.600000
 30
        0.000000
 11
      -17.364131
 21
      -65.752753
 31
        0.000000
  0
LINE
  8
LVL0000
 62
  3
 10
      -17.040000
 20
      -66.600000
 30
        0.000000
 11
      -17.040000
 21
      -67.800000
 31
        0.000000
  0
LINE
  8
LVL0000
 62
  3
 10
      -17.040000
 20
      -66.600000
 30
        0.000000
 11
      -23.040000
 21
      -66.600000
 31
        0.000000
  0
ARC
  8
LVL0000
 62
  3
 10
      -21.719678
 20
      -65.839932
 30
        0.000000
 40
        1.000000
 50
      106.255700
 51
      174.998676
  0
LINE
  8
LVL0000
 62
  3
 10
      -22.790000
 20
      -66.600000
 30
        0.000000
 11
      -22.715870
 21
      -65.752753
 31
        0.000000
  0
ARC
  8
LVL0000
 62
  3
 10
      -20.040000
 20
      -71.600000
 30
        0.000000
 40
        7.000000
 50
       73.742723
 51
      106.257018
  0
LINE
  8
LVL0000
 62
  3
 10
      -23.040000
 20
      -66.600000
 30
        0.000000
 11
      -23.040000
 21
      -67.800000
 31
        0.000000
  0
LINE
  8
LVL0000
 62
  3
 10
      -23.690000
 20
      -69.800000
 30
        0.000000
 11
      -16.390000
 21
      -69.800000
 31
        0.000000
  0
LINE
  8
LVL0000
 62
  3
 10
      -23.690000
 20
      -62.000000
 30
        0.000000
 11
      -23.690000
 21
      -69.800000
 31
        0.000000
  0
LINE
  8
LVL0000
 62
  3
 10
      -16.390000
 20
      -62.000000
 30
        0.000000
 11
      -16.390000
 21
      -69.800000
 31
        0.000000
  0
LINE
  8
LVL0000
 62
  3
 10
      -21.340000
 20
      -57.800000
 30
        0.000000
 11
      -27.340000
 21
      -57.800000
 31
        0.000000
  0
ARC
  8
LVL0000
 62
  3
 10
      -24.340000
 20
      -62.800000
 30
        0.000000
 40
        7.000000
 50
       73.742723
 51
      106.257018
  0
LINE
  8
LVL0000
 62
  3
 10
      -27.990000
 20
      -59.000000
 30
        0.000000
 11
      -20.690000
 21
      -59.000000
 31
        0.000000
  0
ARC
  8
LVL0000
 62
  3
 10
      -22.660324
 20
      -57.039932
 30
        0.000000
 40
        1.000000
 50
        5.001328
 51
       73.741534
  0
LINE
  8
LVL0000
 62
  3
 10
      -21.590000
 20
      -57.800000
 30
        0.000000
 11
      -21.664131
 21
      -56.952753
 31
        0.000000
  0
LINE
  8
LVL0000
 62
  3
 10
      -21.340000
 20
      -57.800000
 30
        0.000000
 11
      -21.340000
 21
      -59.000000
 31
        0.000000
  0
LINE
  8
LVL0000
 62
  3
 10
      -29.940000
 20
      -57.800000
 30
        0.000000
 11
      -29.940000
 21
      -59.000000
 31
        0.000000
  0
LINE
  8
LVL0000
 62
  3
 10
      -30.190000
 20
      -57.800000
 30
        0.000000
 11
      -30.264131
 21
      -56.952753
 31
        0.000000
  0
ARC
  8
LVL0000
 62
  3
 10
      -31.260324
 20
      -57.039932
 30
        0.000000
 40
        1.000000
 50
        5.001328
 51
       73.741534
  0
LINE
  8
LVL0000
 62
  3
 10
      -36.590000
 20
      -59.000000
 30
        0.000000
 11
      -29.290000
 21
      -59.000000
 31
        0.000000
  0
ARC
  8
LVL0000
 62
  3
 10
      -32.940000
 20
      -62.800000
 30
        0.000000
 40
        7.000000
 50
       73.742723
 51
      106.257018
  0
LINE
  8
LVL0000
 62
  3
 10
      -29.940000
 20
      -57.800000
 30
        0.000000
 11
      -35.940000
 21
      -57.800000
 31
        0.000000
  0
LINE
  8
LVL0000
 62
  3
 10
      -24.990000
 20
      -62.000000
 30
        0.000000
 11
      -24.990000
 21
      -69.800000
 31
        0.000000
  0
LINE
  8
LVL0000
 62
  3
 10
      -32.290000
 20
      -62.000000
 30
        0.000000
 11
      -32.290000
 21
      -69.800000
 31
        0.000000
  0
LINE
  8
LVL0000
 62
  3
 10
      -32.290000
 20
      -69.800000
 30
        0.000000
 11
      -24.990000
 21
      -69.800000
 31
        0.000000
  0
LINE
  8
LVL0000
 62
  3
 10
      -31.640000
 20
      -66.600000
 30
        0.000000
 11
      -31.640000
 21
      -67.800000
 31
        0.000000
  0
ARC
  8
LVL0000
 62
  3
 10
      -28.640000
 20
      -71.600000
 30
        0.000000
 40
        7.000000
 50
       73.742723
 51
      106.257018
  0
LINE
  8
LVL0000
 62
  3
 10
      -31.390000
 20
      -66.600000
 30
        0.000000
 11
      -31.315870
 21
      -65.752753
 31
        0.000000
  0
ARC
  8
LVL0000
 62
  3
 10
      -30.319678
 20
      -65.839932
 30
        0.000000
 40
        1.000000
 50
      106.255700
 51
      174.998676
  0
LINE
  8
LVL0000
 62
  3
 10
      -25.640000
 20
      -66.600000
 30
        0.000000
 11
      -31.640000
 21
      -66.600000
 31
        0.000000
  0
LINE
  8
LVL0000
 62
  3
 10
      -25.640000
 20
      -66.600000
 30
        0.000000
 11
      -25.640000
 21
      -67.800000
 31
        0.000000
  0
LINE
  8
LVL0000
 62
  3
 10
      -25.890000
 20
      -66.600000
 30
        0.000000
 11
      -25.964131
 21
      -65.752753
 31
        0.000000
  0
ARC
  8
LVL0000
 62
  3
 10
      -26.960324
 20
      -65.839932
 30
        0.000000
 40
        1.000000
 50
        5.001328
 51
       73.741534
  0
LINE
  8
LVL0000
 62
  3
 10
      -32.290000
 20
      -67.800000
 30
        0.000000
 11
      -24.990000
 21
      -67.800000
 31
        0.000000
  0
LINE
  8
LVL0000
 62
  3
 10
      -33.590000
 20
      -62.000000
 30
        0.000000
 11
      -32.290000
 21
      -62.000000
 31
        0.000000
  0
LINE
  8
LVL0000
 62
  3
 10
      -35.940000
 20
      -57.800000
 30
        0.000000
 11
      -35.940000
 21
      -59.000000
 31
        0.000000
  0
LINE
  8
LVL0000
 62
  3
 10
      -35.690000
 20
      -57.800000
 30
        0.000000
 11
      -35.615870
 21
      -56.952753
 31
        0.000000
  0
ARC
  8
LVL0000
 62
  3
 10
      -34.619678
 20
      -57.039932
 30
        0.000000
 40
        1.000000
 50
      106.255700
 51
      174.998676
  0
ARC
  8
LVL0000
 62
  3
 10
      -43.219678
 20
      -57.039932
 30
        0.000000
 40
        1.000000
 50
      106.255700
 51
      174.998676
  0
LINE
  8
LVL0000
 62
  3
 10
      -44.290000
 20
      -57.800000
 30
        0.000000
 11
      -44.215870
 21
      -56.952753
 31
        0.000000
  0
LINE
  8
LVL0000
 62
  3
 10
      -44.540000
 20
      -57.800000
 30
        0.000000
 11
      -44.540000
 21
      -59.000000
 31
        0.000000
  0
LINE
  8
LVL0000
 62
  3
 10
      -42.190000
 20
      -62.000000
 30
        0.000000
 11
      -40.890000
 21
      -62.000000
 31
        0.000000
  0
LINE
  8
LVL0000
 62
  3
 10
      -40.890000
 20
      -67.800000
 30
        0.000000
 11
      -33.590000
 21
      -67.800000
 31
        0.000000
  0
ARC
  8
LVL0000
 62
  3
 10
      -35.560324
 20
      -65.839932
 30
        0.000000
 40
        1.000000
 50
        5.001328
 51
       73.741534
  0
LINE
  8
LVL0000
 62
  3
 10
      -34.490000
 20
      -66.600000
 30
        0.000000
 11
      -34.564131
 21
      -65.752753
 31
        0.000000
  0
LINE
  8
LVL0000
 62
  3
 10
      -34.240000
 20
      -66.600000
 30
        0.000000
 11
      -34.240000
 21
      -67.800000
 31
        0.000000
  0
LINE
  8
LVL0000
 62
  3
 10
      -34.240000
 20
      -66.600000
 30
        0.000000
 11
      -40.240000
 21
      -66.600000
 31
        0.000000
  0
ARC
  8
LVL0000
 62
  3
 10
      -38.919678
 20
      -65.839932
 30
        0.000000
 40
        1.000000
 50
      106.255700
 51
      174.998676
  0
LINE
  8
LVL0000
 62
  3
 10
      -39.990000
 20
      -66.600000
 30
        0.000000
 11
      -39.915870
 21
      -65.752753
 31
        0.000000
  0
ARC
  8
LVL0000
 62
  3
 10
      -37.240000
 20
      -71.600000
 30
        0.000000
 40
        7.000000
 50
       73.742723
 51
      106.257018
  0
LINE
  8
LVL0000
 62
  3
 10
      -40.240000
 20
      -66.600000
 30
        0.000000
 11
      -40.240000
 21
      -67.800000
 31
        0.000000
  0
LINE
  8
LVL0000
 62
  3
 10
      -40.890000
 20
      -69.800000
 30
        0.000000
 11
      -33.590000
 21
      -69.800000
 31
        0.000000
  0
LINE
  8
LVL0000
 62
  3
 10
      -40.890000
 20
      -62.000000
 30
        0.000000
 11
      -40.890000
 21
      -69.800000
 31
        0.000000
  0
LINE
  8
LVL0000
 62
  3
 10
      -33.590000
 20
      -62.000000
 30
        0.000000
 11
      -33.590000
 21
      -69.800000
 31
        0.000000
  0
LINE
  8
LVL0000
 62
  3
 10
      -38.540000
 20
      -57.800000
 30
        0.000000
 11
      -44.540000
 21
      -57.800000
 31
        0.000000
  0
ARC
  8
LVL0000
 62
  3
 10
      -41.540000
 20
      -62.800000
 30
        0.000000
 40
        7.000000
 50
       73.742723
 51
      106.257018
  0
LINE
  8
LVL0000
 62
  3
 10
      -45.190000
 20
      -59.000000
 30
        0.000000
 11
      -37.890000
 21
      -59.000000
 31
        0.000000
  0
ARC
  8
LVL0000
 62
  3
 10
      -39.860324
 20
      -57.039932
 30
        0.000000
 40
        1.000000
 50
        5.001328
 51
       73.741534
  0
LINE
  8
LVL0000
 62
  3
 10
      -38.790000
 20
      -57.800000
 30
        0.000000
 11
      -38.864131
 21
      -56.952753
 31
        0.000000
  0
LINE
  8
LVL0000
 62
  3
 10
      -38.540000
 20
      -57.800000
 30
        0.000000
 11
      -38.540000
 21
      -59.000000
 31
        0.000000
  0
LINE
  8
LVL0000
 62
  3
 10
      -47.140000
 20
      -57.800000
 30
        0.000000
 11
      -47.140000
 21
      -59.000000
 31
        0.000000
  0
LINE
  8
LVL0000
 62
  3
 10
      -47.390000
 20
      -57.800000
 30
        0.000000
 11
      -47.464131
 21
      -56.952753
 31
        0.000000
  0
ARC
  8
LVL0000
 62
  3
 10
      -48.460324
 20
      -57.039932
 30
        0.000000
 40
        1.000000
 50
        5.001328
 51
       73.741534
  0
LINE
  8
LVL0000
 62
  3
 10
      -53.790000
 20
      -59.000000
 30
        0.000000
 11
      -46.490000
 21
      -59.000000
 31
        0.000000
  0
ARC
  8
LVL0000
 62
  3
 10
      -50.140000
 20
      -62.800000
 30
        0.000000
 40
        7.000000
 50
       73.742723
 51
      106.257018
  0
LINE
  8
LVL0000
 62
  3
 10
      -47.140000
 20
      -57.800000
 30
        0.000000
 11
      -53.140000
 21
      -57.800000
 31
        0.000000
  0
LINE
  8
LVL0000
 62
  3
 10
      -42.190000
 20
      -62.000000
 30
        0.000000
 11
      -42.190000
 21
      -69.800000
 31
        0.000000
  0
LINE
  8
LVL0000
 62
  3
 10
      -49.490000
 20
      -62.000000
 30
        0.000000
 11
      -49.490000
 21
      -69.800000
 31
        0.000000
  0
LINE
  8
LVL0000
 62
  3
 10
      -49.490000
 20
      -69.800000
 30
        0.000000
 11
      -42.190000
 21
      -69.800000
 31
        0.000000
  0
LINE
  8
LVL0000
 62
  3
 10
      -48.840000
 20
      -66.600000
 30
        0.000000
 11
      -48.840000
 21
      -67.800000
 31
        0.000000
  0
ARC
  8
LVL0000
 62
  3
 10
      -45.840000
 20
      -71.600000
 30
        0.000000
 40
        7.000000
 50
       73.742723
 51
      106.257018
  0
LINE
  8
LVL0000
 62
  3
 10
      -48.590000
 20
      -66.600000
 30
        0.000000
 11
      -48.515870
 21
      -65.752753
 31
        0.000000
  0
ARC
  8
LVL0000
 62
  3
 10
      -47.519678
 20
      -65.839932
 30
        0.000000
 40
        1.000000
 50
      106.255700
 51
      174.998676
  0
LINE
  8
LVL0000
 62
  3
 10
      -42.840000
 20
      -66.600000
 30
        0.000000
 11
      -48.840000
 21
      -66.600000
 31
        0.000000
  0
LINE
  8
LVL0000
 62
  3
 10
      -42.840000
 20
      -66.600000
 30
        0.000000
 11
      -42.840000
 21
      -67.800000
 31
        0.000000
  0
LINE
  8
LVL0000
 62
  3
 10
      -43.090000
 20
      -66.600000
 30
        0.000000
 11
      -43.164131
 21
      -65.752753
 31
        0.000000
  0
ARC
  8
LVL0000
 62
  3
 10
      -44.160324
 20
      -65.839932
 30
        0.000000
 40
        1.000000
 50
        5.001328
 51
       73.741534
  0
LINE
  8
LVL0000
 62
  3
 10
      -49.490000
 20
      -67.800000
 30
        0.000000
 11
      -42.190000
 21
      -67.800000
 31
        0.000000
  0
LINE
  8
LVL0000
 62
  3
 10
      -50.790000
 20
      -62.000000
 30
        0.000000
 11
      -49.490000
 21
      -62.000000
 31
        0.000000
  0
LINE
  8
LVL0000
 62
  3
 10
      -53.140000
 20
      -57.800000
 30
        0.000000
 11
      -53.140000
 21
      -59.000000
 31
        0.000000
  0
LINE
  8
LVL0000
 62
  3
 10
      -52.890000
 20
      -57.800000
 30
        0.000000
 11
      -52.815870
 21
      -56.952753
 31
        0.000000
  0
ARC
  8
LVL0000
 62
  3
 10
      -51.819678
 20
      -57.039932
 30
        0.000000
 40
        1.000000
 50
      106.255700
 51
      174.998676
  0
ARC
  8
LVL0000
 62
  3
 10
      -60.419678
 20
      -57.039932
 30
        0.000000
 40
        1.000000
 50
      106.255700
 51
      174.998676
  0
LINE
  8
LVL0000
 62
  3
 10
      -61.490000
 20
      -57.800000
 30
        0.000000
 11
      -61.415870
 21
      -56.952753
 31
        0.000000
  0
LINE
  8
LVL0000
 62
  3
 10
      -61.740000
 20
      -57.800000
 30
        0.000000
 11
      -61.740000
 21
      -59.000000
 31
        0.000000
  0
LINE
  8
LVL0000
 62
  3
 10
      -59.390000
 20
      -62.000000
 30
        0.000000
 11
      -58.090000
 21
      -62.000000
 31
        0.000000
  0
LINE
  8
LVL0000
 62
  3
 10
      -58.090000
 20
      -67.800000
 30
        0.000000
 11
      -50.790000
 21
      -67.800000
 31
        0.000000
  0
ARC
  8
LVL0000
 62
  3
 10
      -52.760324
 20
      -65.839932
 30
        0.000000
 40
        1.000000
 50
        5.001328
 51
       73.741534
  0
LINE
  8
LVL0000
 62
  3
 10
      -51.690000
 20
      -66.600000
 30
        0.000000
 11
      -51.764131
 21
      -65.752753
 31
        0.000000
  0
LINE
  8
LVL0000
 62
  3
 10
      -51.440000
 20
      -66.600000
 30
        0.000000
 11
      -51.440000
 21
      -67.800000
 31
        0.000000
  0
LINE
  8
LVL0000
 62
  3
 10
      -51.440000
 20
      -66.600000
 30
        0.000000
 11
      -57.440000
 21
      -66.600000
 31
        0.000000
  0
ARC
  8
LVL0000
 62
  3
 10
      -56.119678
 20
      -65.839932
 30
        0.000000
 40
        1.000000
 50
      106.255700
 51
      174.998676
  0
LINE
  8
LVL0000
 62
  3
 10
      -57.190000
 20
      -66.600000
 30
        0.000000
 11
      -57.115870
 21
      -65.752753
 31
        0.000000
  0
ARC
  8
LVL0000
 62
  3
 10
      -54.440000
 20
      -71.600000
 30
        0.000000
 40
        7.000000
 50
       73.742723
 51
      106.257018
  0
LINE
  8
LVL0000
 62
  3
 10
      -57.440000
 20
      -66.600000
 30
        0.000000
 11
      -57.440000
 21
      -67.800000
 31
        0.000000
  0
LINE
  8
LVL0000
 62
  3
 10
      -58.090000
 20
      -69.800000
 30
        0.000000
 11
      -50.790000
 21
      -69.800000
 31
        0.000000
  0
LINE
  8
LVL0000
 62
  3
 10
      -58.090000
 20
      -62.000000
 30
        0.000000
 11
      -58.090000
 21
      -69.800000
 31
        0.000000
  0
LINE
  8
LVL0000
 62
  3
 10
      -50.790000
 20
      -62.000000
 30
        0.000000
 11
      -50.790000
 21
      -69.800000
 31
        0.000000
  0
LINE
  8
LVL0000
 62
  3
 10
      -55.740000
 20
      -57.800000
 30
        0.000000
 11
      -61.740000
 21
      -57.800000
 31
        0.000000
  0
ARC
  8
LVL0000
 62
  3
 10
      -58.740000
 20
      -62.800000
 30
        0.000000
 40
        7.000000
 50
       73.742723
 51
      106.257018
  0
LINE
  8
LVL0000
 62
  3
 10
      -62.390000
 20
      -59.000000
 30
        0.000000
 11
      -55.090000
 21
      -59.000000
 31
        0.000000
  0
ARC
  8
LVL0000
 62
  3
 10
      -57.060324
 20
      -57.039932
 30
        0.000000
 40
        1.000000
 50
        5.001328
 51
       73.741534
  0
LINE
  8
LVL0000
 62
  3
 10
      -55.990000
 20
      -57.800000
 30
        0.000000
 11
      -56.064131
 21
      -56.952753
 31
        0.000000
  0
LINE
  8
LVL0000
 62
  3
 10
      -55.740000
 20
      -57.800000
 30
        0.000000
 11
      -55.740000
 21
      -59.000000
 31
        0.000000
  0
LINE
  8
LVL0000
 62
  3
 10
      -64.340000
 20
      -57.800000
 30
        0.000000
 11
      -64.340000
 21
      -59.000000
 31
        0.000000
  0
LINE
  8
LVL0000
 62
  3
 10
      -64.590000
 20
      -57.800000
 30
        0.000000
 11
      -64.664131
 21
      -56.952753
 31
        0.000000
  0
ARC
  8
LVL0000
 62
  3
 10
      -65.660324
 20
      -57.039932
 30
        0.000000
 40
        1.000000
 50
        5.001328
 51
       73.741534
  0
LINE
  8
LVL0000
 62
  3
 10
      -70.990000
 20
      -59.000000
 30
        0.000000
 11
      -63.690000
 21
      -59.000000
 31
        0.000000
  0
ARC
  8
LVL0000
 62
  3
 10
      -67.340000
 20
      -62.800000
 30
        0.000000
 40
        7.000000
 50
       73.742723
 51
      106.257018
  0
LINE
  8
LVL0000
 62
  3
 10
      -64.340000
 20
      -57.800000
 30
        0.000000
 11
      -70.340000
 21
      -57.800000
 31
        0.000000
  0
LINE
  8
LVL0000
 62
  3
 10
      -59.390000
 20
      -62.000000
 30
        0.000000
 11
      -59.390000
 21
      -69.800000
 31
        0.000000
  0
LINE
  8
LVL0000
 62
  3
 10
      -66.690000
 20
      -62.000000
 30
        0.000000
 11
      -66.690000
 21
      -69.800000
 31
        0.000000
  0
LINE
  8
LVL0000
 62
  3
 10
      -66.690000
 20
      -69.800000
 30
        0.000000
 11
      -59.390000
 21
      -69.800000
 31
        0.000000
  0
LINE
  8
LVL0000
 62
  3
 10
      -66.040000
 20
      -66.600000
 30
        0.000000
 11
      -66.040000
 21
      -67.800000
 31
        0.000000
  0
ARC
  8
LVL0000
 62
  3
 10
      -63.040000
 20
      -71.600000
 30
        0.000000
 40
        7.000000
 50
       73.742723
 51
      106.257018
  0
LINE
  8
LVL0000
 62
  3
 10
      -65.790000
 20
      -66.600000
 30
        0.000000
 11
      -65.715870
 21
      -65.752753
 31
        0.000000
  0
ARC
  8
LVL0000
 62
  3
 10
      -64.719678
 20
      -65.839932
 30
        0.000000
 40
        1.000000
 50
      106.255700
 51
      174.998676
  0
LINE
  8
LVL0000
 62
  3
 10
      -60.040000
 20
      -66.600000
 30
        0.000000
 11
      -66.040000
 21
      -66.600000
 31
        0.000000
  0
LINE
  8
LVL0000
 62
  3
 10
      -60.040000
 20
      -66.600000
 30
        0.000000
 11
      -60.040000
 21
      -67.800000
 31
        0.000000
  0
LINE
  8
LVL0000
 62
  3
 10
      -60.290000
 20
      -66.600000
 30
        0.000000
 11
      -60.364131
 21
      -65.752753
 31
        0.000000
  0
ARC
  8
LVL0000
 62
  3
 10
      -61.360324
 20
      -65.839932
 30
        0.000000
 40
        1.000000
 50
        5.001328
 51
       73.741534
  0
LINE
  8
LVL0000
 62
  3
 10
      -66.690000
 20
      -67.800000
 30
        0.000000
 11
      -59.390000
 21
      -67.800000
 31
        0.000000
  0
LINE
  8
LVL0000
 62
  3
 10
      -67.990000
 20
      -62.000000
 30
        0.000000
 11
      -66.690000
 21
      -62.000000
 31
        0.000000
  0
LINE
  8
LVL0000
 62
  3
 10
      -70.340000
 20
      -57.800000
 30
        0.000000
 11
      -70.340000
 21
      -59.000000
 31
        0.000000
  0
LINE
  8
LVL0000
 62
  3
 10
      -70.090000
 20
      -57.800000
 30
        0.000000
 11
      -70.015870
 21
      -56.952753
 31
        0.000000
  0
ARC
  8
LVL0000
 62
  3
 10
      -69.019678
 20
      -57.039932
 30
        0.000000
 40
        1.000000
 50
      106.255700
 51
      174.998676
  0
LINE
  8
LVL0000
 62
  3
 10
      -91.050000
 20
      -51.500000
 30
        0.000000
 11
       81.050000
 21
      -51.500000
 31
        0.000000
  0
ARC
  8
LVL0000
 62
  3
 10
       85.000000
 20
      -71.000000
 30
        0.000000
 40
        7.000000
 50
       73.742977
 51
      106.257272
  0
LINE
  8
LVL0000
 62
  3
 10
       88.000000
 20
      -66.000000
 30
        0.000000
 11
       88.000000
 21
      -67.200000
 31
        0.000000
  0
ARC
  8
LVL0000
 62
  3
 10
       83.320324
 20
      -65.239932
 30
        0.000000
 40
        1.000000
 50
      106.258461
 51
      174.998667
  0
LINE
  8
LVL0000
 62
  3
 10
       82.250000
 20
      -66.000000
 30
        0.000000
 11
       82.324131
 21
      -65.152753
 31
        0.000000
  0
LINE
  8
LVL0000
 62
  3
 10
       82.000000
 20
      -66.000000
 30
        0.000000
 11
       82.000000
 21
      -67.200000
 31
        0.000000
  0
LINE
  8
LVL0000
 62
  3
 10
       82.000000
 20
      -66.000000
 30
        0.000000
 11
       88.000000
 21
      -66.000000
 31
        0.000000
  0
ARC
  8
LVL0000
 62
  3
 10
       86.679678
 20
      -65.239932
 30
        0.000000
 40
        1.000000
 50
        5.001319
 51
       73.744295
  0
LINE
  8
LVL0000
 62
  3
 10
       87.750000
 20
      -66.000000
 30
        0.000000
 11
       87.675870
 21
      -65.152753
 31
        0.000000
  0
LINE
  8
LVL0000
 62
  3
 10
       81.050000
 20
      -51.500000
 30
        0.000000
 11
       81.050000
 21
      -67.200000
 31
        0.000000
  0
LINE
  8
LVL0000
 62
  3
 10
       90.000000
 20
      -67.200000
 30
        0.000000
 11
       81.050000
 21
      -67.200000
 31
        0.000000
  0
LINE
  8
LVL0000
 62
  3
 10
      -88.190000
 20
      -51.500000
 30
        0.000000
 11
      -88.190000
 21
      -62.000000
 31
        0.000000
  0
LINE
  8
LVL0000
 62
  3
 10
      -88.190000
 20
      -62.000000
 30
        0.000000
 11
      -83.890000
 21
      -62.000000
 31
        0.000000
  0
LINE
  8
LVL0000
 62
  3
 10
      -76.590000
 20
      -62.000000
 30
        0.000000
 11
      -75.290000
 21
      -62.000000
 31
        0.000000
  0
LINE
  8
LVL0000
 62
  3
 10
      -75.290000
 20
      -67.800000
 30
        0.000000
 11
      -67.990000
 21
      -67.800000
 31
        0.000000
  0
ARC
  8
LVL0000
 62
  3
 10
      -69.960324
 20
      -65.839932
 30
        0.000000
 40
        1.000000
 50
        5.001328
 51
       73.741534
  0
LINE
  8
LVL0000
 62
  3
 10
      -68.890000
 20
      -66.600000
 30
        0.000000
 11
      -68.964131
 21
      -65.752753
 31
        0.000000
  0
LINE
  8
LVL0000
 62
  3
 10
      -68.640000
 20
      -66.600000
 30
        0.000000
 11
      -68.640000
 21
      -67.800000
 31
        0.000000
  0
LINE
  8
LVL0000
 62
  3
 10
      -68.640000
 20
      -66.600000
 30
        0.000000
 11
      -74.640000
 21
      -66.600000
 31
        0.000000
  0
ARC
  8
LVL0000
 62
  3
 10
      -73.319678
 20
      -65.839932
 30
        0.000000
 40
        1.000000
 50
      106.255700
 51
      174.998676
  0
LINE
  8
LVL0000
 62
  3
 10
      -74.390000
 20
      -66.600000
 30
        0.000000
 11
      -74.315870
 21
      -65.752753
 31
        0.000000
  0
ARC
  8
LVL0000
 62
  3
 10
      -71.640000
 20
      -71.600000
 30
        0.000000
 40
        7.000000
 50
       73.742723
 51
      106.257018
  0
LINE
  8
LVL0000
 62
  3
 10
      -74.640000
 20
      -66.600000
 30
        0.000000
 11
      -74.640000
 21
      -67.800000
 31
        0.000000
  0
LINE
  8
LVL0000
 62
  3
 10
      -75.290000
 20
      -69.800000
 30
        0.000000
 11
      -67.990000
 21
      -69.800000
 31
        0.000000
  0
LINE
  8
LVL0000
 62
  3
 10
      -75.290000
 20
      -62.000000
 30
        0.000000
 11
      -75.290000
 21
      -69.800000
 31
        0.000000
  0
LINE
  8
LVL0000
 62
  3
 10
      -67.990000
 20
      -62.000000
 30
        0.000000
 11
      -67.990000
 21
      -69.800000
 31
        0.000000
  0
LINE
  8
LVL0000
 62
  3
 10
      -76.590000
 20
      -62.000000
 30
        0.000000
 11
      -76.590000
 21
      -69.800000
 31
        0.000000
  0
LINE
  8
LVL0000
 62
  3
 10
      -83.890000
 20
      -62.000000
 30
        0.000000
 11
      -83.890000
 21
      -69.800000
 31
        0.000000
  0
LINE
  8
LVL0000
 62
  3
 10
      -72.940000
 20
      -57.800000
 30
        0.000000
 11
      -78.940000
 21
      -57.800000
 31
        0.000000
  0
ARC
  8
LVL0000
 62
  3
 10
      -77.619678
 20
      -57.039932
 30
        0.000000
 40
        1.000000
 50
      106.255700
 51
      174.998676
  0
LINE
  8
LVL0000
 62
  3
 10
      -78.690000
 20
      -57.800000
 30
        0.000000
 11
      -78.615870
 21
      -56.952753
 31
        0.000000
  0
ARC
  8
LVL0000
 62
  3
 10
      -75.940000
 20
      -62.800000
 30
        0.000000
 40
        7.000000
 50
       73.742723
 51
      106.257018
  0
LINE
  8
LVL0000
 62
  3
 10
      -78.940000
 20
      -57.800000
 30
        0.000000
 11
      -78.940000
 21
      -59.000000
 31
        0.000000
  0
LINE
  8
LVL0000
 62
  3
 10
      -79.590000
 20
      -59.000000
 30
        0.000000
 11
      -72.290000
 21
      -59.000000
 31
        0.000000
  0
ARC
  8
LVL0000
 62
  3
 10
      -74.260324
 20
      -57.039932
 30
        0.000000
 40
        1.000000
 50
        5.001328
 51
       73.741534
  0
LINE
  8
LVL0000
 62
  3
 10
      -73.190000
 20
      -57.800000
 30
        0.000000
 11
      -73.264131
 21
      -56.952753
 31
        0.000000
  0
LINE
  8
LVL0000
 62
  3
 10
      -72.940000
 20
      -57.800000
 30
        0.000000
 11
      -72.940000
 21
      -59.000000
 31
        0.000000
  0
LINE
  8
LVL0000
 62
  3
 10
      -83.890000
 20
      -69.800000
 30
        0.000000
 11
      -76.590000
 21
      -69.800000
 31
        0.000000
  0
LINE
  8
LVL0000
 62
  3
 10
      -83.240000
 20
      -66.600000
 30
        0.000000
 11
      -83.240000
 21
      -67.800000
 31
        0.000000
  0
ARC
  8
LVL0000
 62
  3
 10
      -80.240000
 20
      -71.600000
 30
        0.000000
 40
        7.000000
 50
       73.742723
 51
      106.257018
  0
LINE
  8
LVL0000
 62
  3
 10
      -82.990000
 20
      -66.600000
 30
        0.000000
 11
      -82.915870
 21
      -65.752753
 31
        0.000000
  0
ARC
  8
LVL0000
 62
  3
 10
      -81.919678
 20
      -65.839932
 30
        0.000000
 40
        1.000000
 50
      106.255700
 51
      174.998676
  0
LINE
  8
LVL0000
 62
  3
 10
      -77.240000
 20
      -66.600000
 30
        0.000000
 11
      -83.240000
 21
      -66.600000
 31
        0.000000
  0
LINE
  8
LVL0000
 62
  3
 10
      -77.240000
 20
      -66.600000
 30
        0.000000
 11
      -77.240000
 21
      -67.800000
 31
        0.000000
  0
LINE
  8
LVL0000
 62
  3
 10
      -77.490000
 20
      -66.600000
 30
        0.000000
 11
      -77.564131
 21
      -65.752753
 31
        0.000000
  0
ARC
  8
LVL0000
 62
  3
 10
      -78.560324
 20
      -65.839932
 30
        0.000000
 40
        1.000000
 50
        5.001328
 51
       73.741534
  0
LINE
  8
LVL0000
 62
  3
 10
      -83.890000
 20
      -67.800000
 30
        0.000000
 11
      -76.590000
 21
      -67.800000
 31
        0.000000
  0
LINE
  8
LVL0000
 62
  3
 10
      -88.190000
 20
      -59.000000
 30
        0.000000
 11
      -80.890000
 21
      -59.000000
 31
        0.000000
  0
LINE
  8
LVL0000
 62
  3
 10
      -87.540000
 20
      -57.800000
 30
        0.000000
 11
      -87.540000
 21
      -59.000000
 31
        0.000000
  0
ARC
  8
LVL0000
 62
  3
 10
      -84.540000
 20
      -62.800000
 30
        0.000000
 40
        7.000000
 50
       73.742723
 51
      106.257018
  0
LINE
  8
LVL0000
 62
  3
 10
      -87.290000
 20
      -57.800000
 30
        0.000000
 11
      -87.215870
 21
      -56.952753
 31
        0.000000
  0
ARC
  8
LVL0000
 62
  3
 10
      -86.219678
 20
      -57.039932
 30
        0.000000
 40
        1.000000
 50
      106.255700
 51
      174.998676
  0
LINE
  8
LVL0000
 62
  3
 10
      -81.540000
 20
      -57.800000
 30
        0.000000
 11
      -87.540000
 21
      -57.800000
 31
        0.000000
  0
LINE
  8
LVL0000
 62
  3
 10
      -81.540000
 20
      -57.800000
 30
        0.000000
 11
      -81.540000
 21
      -59.000000
 31
        0.000000
  0
LINE
  8
LVL0000
 62
  3
 10
      -81.790000
 20
      -57.800000
 30
        0.000000
 11
      -81.864131
 21
      -56.952753
 31
        0.000000
  0
ARC
  8
LVL0000
 62
  3
 10
      -82.860324
 20
      -57.039932
 30
        0.000000
 40
        1.000000
 50
        5.001328
 51
       73.741534
  0
LINE
  8
LVL0000
 62
  3
 10
      -97.750000
 20
      -66.000000
 30
        0.000000
 11
      -97.675870
 21
      -65.152753
 31
        0.000000
  0
ARC
  8
LVL0000
 62
  3
 10
      -96.679678
 20
      -65.239932
 30
        0.000000
 40
        1.000000
 50
      106.255700
 51
      174.998676
  0
LINE
  8
LVL0000
 62
  3
 10
      -92.000000
 20
      -66.000000
 30
        0.000000
 11
      -92.000000
 21
      -67.200000
 31
        0.000000
  0
LINE
  8
LVL0000
 62
  3
 10
      -92.250000
 20
      -66.000000
 30
        0.000000
 11
      -92.324131
 21
      -65.152753
 31
        0.000000
  0
ARC
  8
LVL0000
 62
  3
 10
      -93.320324
 20
      -65.239932
 30
        0.000000
 40
        1.000000
 50
        5.001328
 51
       73.741534
  0
LINE
  8
LVL0000
 62
  3
 10
      -98.000000
 20
      -66.000000
 30
        0.000000
 11
      -98.000000
 21
      -67.200000
 31
        0.000000
  0
ARC
  8
LVL0000
 62
  3
 10
      -95.000000
 20
      -71.000000
 30
        0.000000
 40
        7.000000
 50
       73.742723
 51
      106.257018
  0
LINE
  8
LVL0000
 62
  3
 10
     -100.000000
 20
      -67.200000
 30
        0.000000
 11
      -91.050000
 21
      -67.200000
 31
        0.000000
  0
LINE
  8
LVL0000
 62
  3
 10
      -91.050000
 20
      -51.500000
 30
        0.000000
 11
      -91.050000
 21
      -67.200000
 31
        0.000000
  0
LINE
  8
LVL0000
 62
  3
 10
      -88.190000
 20
      -53.700000
 30
        0.000000
 11
       78.210000
 21
      -53.700000
 31
        0.000000
  0
LINE
  8
LVL0000
 62
  3
 10
      -70.990000
 20
      -53.700000
 30
        0.000000
 11
      -70.990000
 21
      -61.000000
 31
        0.000000
  0
LINE
  8
LVL0000
 62
  3
 10
      -63.690000
 20
      -53.700000
 30
        0.000000
 11
      -63.690000
 21
      -61.000000
 31
        0.000000
  0
LINE
  8
LVL0000
 62
  3
 10
      -55.090000
 20
      -53.700000
 30
        0.000000
 11
      -55.090000
 21
      -61.000000
 31
        0.000000
  0
LINE
  8
LVL0000
 62
  3
 10
      -62.390000
 20
      -53.700000
 30
        0.000000
 11
      -62.390000
 21
      -61.000000
 31
        0.000000
  0
LINE
  8
LVL0000
 62
  3
 10
      -53.790000
 20
      -53.700000
 30
        0.000000
 11
      -53.790000
 21
      -61.000000
 31
        0.000000
  0
LINE
  8
LVL0000
 62
  3
 10
      -46.490000
 20
      -53.700000
 30
        0.000000
 11
      -46.490000
 21
      -61.000000
 31
        0.000000
  0
LINE
  8
LVL0000
 62
  3
 10
      -37.890000
 20
      -53.700000
 30
        0.000000
 11
      -37.890000
 21
      -61.000000
 31
        0.000000
  0
LINE
  8
LVL0000
 62
  3
 10
      -45.190000
 20
      -53.700000
 30
        0.000000
 11
      -45.190000
 21
      -61.000000
 31
        0.000000
  0
LINE
  8
LVL0000
 62
  3
 10
      -36.590000
 20
      -53.700000
 30
        0.000000
 11
      -36.590000
 21
      -61.000000
 31
        0.000000
  0
LINE
  8
LVL0000
 62
  3
 10
      -29.290000
 20
      -53.700000
 30
        0.000000
 11
      -29.290000
 21
      -61.000000
 31
        0.000000
  0
LINE
  8
LVL0000
 62
  3
 10
      -20.690000
 20
      -53.700000
 30
        0.000000
 11
      -20.690000
 21
      -61.000000
 31
        0.000000
  0
LINE
  8
LVL0000
 62
  3
 10
      -27.990000
 20
      -53.700000
 30
        0.000000
 11
      -27.990000
 21
      -61.000000
 31
        0.000000
  0
LINE
  8
LVL0000
 62
  3
 10
      -19.390000
 20
      -53.700000
 30
        0.000000
 11
      -19.390000
 21
      -61.000000
 31
        0.000000
  0
LINE
  8
LVL0000
 62
  3
 10
      -12.090000
 20
      -53.700000
 30
        0.000000
 11
      -12.090000
 21
      -61.000000
 31
        0.000000
  0
LINE
  8
LVL0000
 62
  3
 10
       -3.490000
 20
      -53.700000
 30
        0.000000
 11
       -3.490000
 21
      -61.000000
 31
        0.000000
  0
LINE
  8
LVL0000
 62
  3
 10
      -10.790000
 20
      -53.700000
 30
        0.000000
 11
      -10.790000
 21
      -61.000000
 31
        0.000000
  0
LINE
  8
LVL0000
 62
  3
 10
       -2.190000
 20
      -53.700000
 30
        0.000000
 11
       -2.190000
 21
      -61.000000
 31
        0.000000
  0
LINE
  8
LVL0000
 62
  3
 10
        5.110000
 20
      -53.700000
 30
        0.000000
 11
        5.110000
 21
      -61.000000
 31
        0.000000
  0
LINE
  8
LVL0000
 62
  3
 10
       13.710000
 20
      -53.700000
 30
        0.000000
 11
       13.710000
 21
      -61.000000
 31
        0.000000
  0
LINE
  8
LVL0000
 62
  3
 10
        6.410000
 20
      -53.700000
 30
        0.000000
 11
        6.410000
 21
      -61.000000
 31
        0.000000
  0
LINE
  8
LVL0000
 62
  3
 10
       15.010000
 20
      -53.700000
 30
        0.000000
 11
       15.010000
 21
      -61.000000
 31
        0.000000
  0
LINE
  8
LVL0000
 62
  3
 10
       22.310000
 20
      -53.700000
 30
        0.000000
 11
       22.310000
 21
      -61.000000
 31
        0.000000
  0
LINE
  8
LVL0000
 62
  3
 10
       30.910000
 20
      -53.700000
 30
        0.000000
 11
       30.910000
 21
      -61.000000
 31
        0.000000
  0
LINE
  8
LVL0000
 62
  3
 10
       23.610000
 20
      -53.700000
 30
        0.000000
 11
       23.610000
 21
      -61.000000
 31
        0.000000
  0
LINE
  8
LVL0000
 62
  3
 10
       32.210000
 20
      -53.700000
 30
        0.000000
 11
       32.210000
 21
      -61.000000
 31
        0.000000
  0
LINE
  8
LVL0000
 62
  3
 10
       39.510000
 20
      -53.700000
 30
        0.000000
 11
       39.510000
 21
      -61.000000
 31
        0.000000
  0
LINE
  8
LVL0000
 62
  3
 10
       48.110000
 20
      -53.700000
 30
        0.000000
 11
       48.110000
 21
      -61.000000
 31
        0.000000
  0
LINE
  8
LVL0000
 62
  3
 10
       40.810000
 20
      -53.700000
 30
        0.000000
 11
       40.810000
 21
      -61.000000
 31
        0.000000
  0
LINE
  8
LVL0000
 62
  3
 10
       49.410000
 20
      -53.700000
 30
        0.000000
 11
       49.410000
 21
      -61.000000
 31
        0.000000
  0
LINE
  8
LVL0000
 62
  3
 10
       56.710000
 20
      -53.700000
 30
        0.000000
 11
       56.710000
 21
      -61.000000
 31
        0.000000
  0
LINE
  8
LVL0000
 62
  3
 10
       65.310000
 20
      -53.700000
 30
        0.000000
 11
       65.310000
 21
      -61.000000
 31
        0.000000
  0
LINE
  8
LVL0000
 62
  3
 10
       58.010000
 20
      -53.700000
 30
        0.000000
 11
       58.010000
 21
      -61.000000
 31
        0.000000
  0
LINE
  8
LVL0000
 62
  3
 10
       66.610000
 20
      -53.700000
 30
        0.000000
 11
       66.610000
 21
      -61.000000
 31
        0.000000
  0
LINE
  8
LVL0000
 62
  3
 10
       73.910000
 20
      -53.700000
 30
        0.000000
 11
       73.910000
 21
      -61.000000
 31
        0.000000
  0
LINE
  8
LVL0000
 62
  3
 10
      -72.290000
 20
      -53.700000
 30
        0.000000
 11
      -72.290000
 21
      -61.000000
 31
        0.000000
  0
LINE
  8
LVL0000
 62
  3
 10
      -79.590000
 20
      -53.700000
 30
        0.000000
 11
      -79.590000
 21
      -61.000000
 31
        0.000000
  0
LINE
  8
LVL0000
 62
  3
 10
      -80.890000
 20
      -53.700000
 30
        0.000000
 11
      -80.890000
 21
      -61.000000
 31
        0.000000
  0
LINE
  8
LVL0000
 62
  3
 10
      -89.400000
 20
      -87.000000
 30
        0.000000
 11
       79.400000
 21
      -87.000000
 31
        0.000000
  0
LINE
  8
LVL0000
 62
  3
 10
      -89.400000
 20
      -85.100000
 30
        0.000000
 11
      -89.400000
 21
      -94.200000
 31
        0.000000
  0
LINE
  8
LVL0000
 62
  3
 10
      -88.750000
 20
      -91.000000
 30
        0.000000
 11
      -88.750000
 21
      -92.200000
 31
        0.000000
  0
LINE
  8
LVL0000
 62
  3
 10
      -89.400000
 20
      -94.200000
 30
        0.000000
 11
      -82.100000
 21
      -94.200000
 31
        0.000000
  0
LINE
  8
LVL0000
 62
  3
 10
      -89.400000
 20
      -92.200000
 30
        0.000000
 11
      -82.100000
 21
      -92.200000
 31
        0.000000
  0
ARC
  8
LVL0000
 62
  3
 10
      -84.070324
 20
      -90.239932
 30
        0.000000
 40
        1.000000
 50
        5.001328
 51
       73.741534
  0
LINE
  8
LVL0000
 62
  3
 10
      -83.000000
 20
      -91.000000
 30
        0.000000
 11
      -83.074131
 21
      -90.152753
 31
        0.000000
  0
LINE
  8
LVL0000
 62
  3
 10
      -82.750000
 20
      -91.000000
 30
        0.000000
 11
      -82.750000
 21
      -92.200000
 31
        0.000000
  0
LINE
  8
LVL0000
 62
  3
 10
      -82.750000
 20
      -91.000000
 30
        0.000000
 11
      -88.750000
 21
      -91.000000
 31
        0.000000
  0
ARC
  8
LVL0000
 62
  3
 10
      -87.429678
 20
      -90.239932
 30
        0.000000
 40
        1.000000
 50
      106.255700
 51
      174.998676
  0
LINE
  8
LVL0000
 62
  3
 10
      -88.500000
 20
      -91.000000
 30
        0.000000
 11
      -88.425870
 21
      -90.152753
 31
        0.000000
  0
ARC
  8
LVL0000
 62
  3
 10
      -85.750000
 20
      -96.000000
 30
        0.000000
 40
        7.000000
 50
       73.742723
 51
      106.257018
  0
LINE
  8
LVL0000
 62
  3
 10
      -82.100000
 20
      -87.000000
 30
        0.000000
 11
      -82.100000
 21
      -94.200000
 31
        0.000000
  0
LINE
  8
LVL0000
 62
  3
 10
      -80.250000
 20
      -91.000000
 30
        0.000000
 11
      -80.250000
 21
      -92.200000
 31
        0.000000
  0
LINE
  8
LVL0000
 62
  3
 10
      -80.900000
 20
      -94.200000
 30
        0.000000
 11
      -73.600000
 21
      -94.200000
 31
        0.000000
  0
LINE
  8
LVL0000
 62
  3
 10
      -80.900000
 20
      -92.200000
 30
        0.000000
 11
      -73.600000
 21
      -92.200000
 31
        0.000000
  0
ARC
  8
LVL0000
 62
  3
 10
      -75.570324
 20
      -90.239932
 30
        0.000000
 40
        1.000000
 50
        5.001328
 51
       73.741534
  0
LINE
  8
LVL0000
 62
  3
 10
      -74.500000
 20
      -91.000000
 30
        0.000000
 11
      -74.574131
 21
      -90.152753
 31
        0.000000
  0
LINE
  8
LVL0000
 62
  3
 10
      -74.250000
 20
      -91.000000
 30
        0.000000
 11
      -74.250000
 21
      -92.200000
 31
        0.000000
  0
LINE
  8
LVL0000
 62
  3
 10
      -74.250000
 20
      -91.000000
 30
        0.000000
 11
      -80.250000
 21
      -91.000000
 31
        0.000000
  0
ARC
  8
LVL0000
 62
  3
 10
      -78.929678
 20
      -90.239932
 30
        0.000000
 40
        1.000000
 50
      106.255700
 51
      174.998676
  0
LINE
  8
LVL0000
 62
  3
 10
      -80.000000
 20
      -91.000000
 30
        0.000000
 11
      -79.925870
 21
      -90.152753
 31
        0.000000
  0
ARC
  8
LVL0000
 62
  3
 10
      -77.250000
 20
      -96.000000
 30
        0.000000
 40
        7.000000
 50
       73.742723
 51
      106.257018
  0
LINE
  8
LVL0000
 62
  3
 10
      -80.900000
 20
      -87.000000
 30
        0.000000
 11
      -80.900000
 21
      -94.200000
 31
        0.000000
  0
LINE
  8
LVL0000
 62
  3
 10
      -73.600000
 20
      -87.000000
 30
        0.000000
 11
      -73.600000
 21
      -94.200000
 31
        0.000000
  0
LINE
  8
LVL0000
 62
  3
 10
      -71.750000
 20
      -91.000000
 30
        0.000000
 11
      -71.750000
 21
      -92.200000
 31
        0.000000
  0
LINE
  8
LVL0000
 62
  3
 10
      -72.400000
 20
      -94.200000
 30
        0.000000
 11
      -65.100000
 21
      -94.200000
 31
        0.000000
  0
LINE
  8
LVL0000
 62
  3
 10
      -72.400000
 20
      -92.200000
 30
        0.000000
 11
      -65.100000
 21
      -92.200000
 31
        0.000000
  0
ARC
  8
LVL0000
 62
  3
 10
      -67.070324
 20
      -90.239932
 30
        0.000000
 40
        1.000000
 50
        5.001328
 51
       73.741534
  0
LINE
  8
LVL0000
 62
  3
 10
      -66.000000
 20
      -91.000000
 30
        0.000000
 11
      -66.074131
 21
      -90.152753
 31
        0.000000
  0
LINE
  8
LVL0000
 62
  3
 10
      -65.750000
 20
      -91.000000
 30
        0.000000
 11
      -65.750000
 21
      -92.200000
 31
        0.000000
  0
LINE
  8
LVL0000
 62
  3
 10
      -65.750000
 20
      -91.000000
 30
        0.000000
 11
      -71.750000
 21
      -91.000000
 31
        0.000000
  0
ARC
  8
LVL0000
 62
  3
 10
      -70.429678
 20
      -90.239932
 30
        0.000000
 40
        1.000000
 50
      106.255700
 51
      174.998676
  0
LINE
  8
LVL0000
 62
  3
 10
      -71.500000
 20
      -91.000000
 30
        0.000000
 11
      -71.425870
 21
      -90.152753
 31
        0.000000
  0
ARC
  8
LVL0000
 62
  3
 10
      -68.750000
 20
      -96.000000
 30
        0.000000
 40
        7.000000
 50
       73.742723
 51
      106.257018
  0
LINE
  8
LVL0000
 62
  3
 10
      -72.400000
 20
      -87.000000
 30
        0.000000
 11
      -72.400000
 21
      -94.200000
 31
        0.000000
  0
LINE
  8
LVL0000
 62
  3
 10
      -65.100000
 20
      -87.000000
 30
        0.000000
 11
      -65.100000
 21
      -94.200000
 31
        0.000000
  0
LINE
  8
LVL0000
 62
  3
 10
      -63.250000
 20
      -91.000000
 30
        0.000000
 11
      -63.250000
 21
      -92.200000
 31
        0.000000
  0
LINE
  8
LVL0000
 62
  3
 10
      -63.900000
 20
      -94.200000
 30
        0.000000
 11
      -56.600000
 21
      -94.200000
 31
        0.000000
  0
LINE
  8
LVL0000
 62
  3
 10
      -63.900000
 20
      -92.200000
 30
        0.000000
 11
      -56.600000
 21
      -92.200000
 31
        0.000000
  0
ARC
  8
LVL0000
 62
  3
 10
      -58.570324
 20
      -90.239932
 30
        0.000000
 40
        1.000000
 50
        5.001328
 51
       73.741534
  0
LINE
  8
LVL0000
 62
  3
 10
      -57.500000
 20
      -91.000000
 30
        0.000000
 11
      -57.574131
 21
      -90.152753
 31
        0.000000
  0
LINE
  8
LVL0000
 62
  3
 10
      -57.250000
 20
      -91.000000
 30
        0.000000
 11
      -57.250000
 21
      -92.200000
 31
        0.000000
  0
LINE
  8
LVL0000
 62
  3
 10
      -57.250000
 20
      -91.000000
 30
        0.000000
 11
      -63.250000
 21
      -91.000000
 31
        0.000000
  0
ARC
  8
LVL0000
 62
  3
 10
      -61.929678
 20
      -90.239932
 30
        0.000000
 40
        1.000000
 50
      106.255700
 51
      174.998676
  0
LINE
  8
LVL0000
 62
  3
 10
      -63.000000
 20
      -91.000000
 30
        0.000000
 11
      -62.925870
 21
      -90.152753
 31
        0.000000
  0
ARC
  8
LVL0000
 62
  3
 10
      -60.250000
 20
      -96.000000
 30
        0.000000
 40
        7.000000
 50
       73.742723
 51
      106.257018
  0
LINE
  8
LVL0000
 62
  3
 10
      -63.900000
 20
      -87.000000
 30
        0.000000
 11
      -63.900000
 21
      -94.200000
 31
        0.000000
  0
LINE
  8
LVL0000
 62
  3
 10
      -56.600000
 20
      -87.000000
 30
        0.000000
 11
      -56.600000
 21
      -94.200000
 31
        0.000000
  0
LINE
  8
LVL0000
 62
  3
 10
      -54.750000
 20
      -91.000000
 30
        0.000000
 11
      -54.750000
 21
      -92.200000
 31
        0.000000
  0
LINE
  8
LVL0000
 62
  3
 10
      -55.400000
 20
      -94.200000
 30
        0.000000
 11
      -48.100000
 21
      -94.200000
 31
        0.000000
  0
LINE
  8
LVL0000
 62
  3
 10
      -55.400000
 20
      -92.200000
 30
        0.000000
 11
      -48.100000
 21
      -92.200000
 31
        0.000000
  0
ARC
  8
LVL0000
 62
  3
 10
      -50.070324
 20
      -90.239932
 30
        0.000000
 40
        1.000000
 50
        5.001328
 51
       73.741534
  0
LINE
  8
LVL0000
 62
  3
 10
      -49.000000
 20
      -91.000000
 30
        0.000000
 11
      -49.074131
 21
      -90.152753
 31
        0.000000
  0
LINE
  8
LVL0000
 62
  3
 10
      -48.750000
 20
      -91.000000
 30
        0.000000
 11
      -48.750000
 21
      -92.200000
 31
        0.000000
  0
LINE
  8
LVL0000
 62
  3
 10
      -48.750000
 20
      -91.000000
 30
        0.000000
 11
      -54.750000
 21
      -91.000000
 31
        0.000000
  0
ARC
  8
LVL0000
 62
  3
 10
      -53.429678
 20
      -90.239932
 30
        0.000000
 40
        1.000000
 50
      106.255700
 51
      174.998676
  0
LINE
  8
LVL0000
 62
  3
 10
      -54.500000
 20
      -91.000000
 30
        0.000000
 11
      -54.425870
 21
      -90.152753
 31
        0.000000
  0
ARC
  8
LVL0000
 62
  3
 10
      -51.750000
 20
      -96.000000
 30
        0.000000
 40
        7.000000
 50
       73.742723
 51
      106.257018
  0
LINE
  8
LVL0000
 62
  3
 10
      -55.400000
 20
      -87.000000
 30
        0.000000
 11
      -55.400000
 21
      -94.200000
 31
        0.000000
  0
LINE
  8
LVL0000
 62
  3
 10
      -48.100000
 20
      -87.000000
 30
        0.000000
 11
      -48.100000
 21
      -94.200000
 31
        0.000000
  0
LINE
  8
LVL0000
 62
  3
 10
      -46.250000
 20
      -91.000000
 30
        0.000000
 11
      -46.250000
 21
      -92.200000
 31
        0.000000
  0
LINE
  8
LVL0000
 62
  3
 10
      -46.900000
 20
      -94.200000
 30
        0.000000
 11
      -39.600000
 21
      -94.200000
 31
        0.000000
  0
LINE
  8
LVL0000
 62
  3
 10
      -46.900000
 20
      -92.200000
 30
        0.000000
 11
      -39.600000
 21
      -92.200000
 31
        0.000000
  0
ARC
  8
LVL0000
 62
  3
 10
      -41.570324
 20
      -90.239932
 30
        0.000000
 40
        1.000000
 50
        5.001328
 51
       73.741534
  0
LINE
  8
LVL0000
 62
  3
 10
      -40.500000
 20
      -91.000000
 30
        0.000000
 11
      -40.574131
 21
      -90.152753
 31
        0.000000
  0
LINE
  8
LVL0000
 62
  3
 10
      -40.250000
 20
      -91.000000
 30
        0.000000
 11
      -40.250000
 21
      -92.200000
 31
        0.000000
  0
LINE
  8
LVL0000
 62
  3
 10
      -40.250000
 20
      -91.000000
 30
        0.000000
 11
      -46.250000
 21
      -91.000000
 31
        0.000000
  0
ARC
  8
LVL0000
 62
  3
 10
      -44.929678
 20
      -90.239932
 30
        0.000000
 40
        1.000000
 50
      106.255700
 51
      174.998676
  0
LINE
  8
LVL0000
 62
  3
 10
      -46.000000
 20
      -91.000000
 30
        0.000000
 11
      -45.925870
 21
      -90.152753
 31
        0.000000
  0
ARC
  8
LVL0000
 62
  3
 10
      -43.250000
 20
      -96.000000
 30
        0.000000
 40
        7.000000
 50
       73.742723
 51
      106.257018
  0
LINE
  8
LVL0000
 62
  3
 10
      -46.900000
 20
      -87.000000
 30
        0.000000
 11
      -46.900000
 21
      -94.200000
 31
        0.000000
  0
LINE
  8
LVL0000
 62
  3
 10
      -39.600000
 20
      -87.000000
 30
        0.000000
 11
      -39.600000
 21
      -94.200000
 31
        0.000000
  0
LINE
  8
LVL0000
 62
  3
 10
      -37.750000
 20
      -91.000000
 30
        0.000000
 11
      -37.750000
 21
      -92.200000
 31
        0.000000
  0
LINE
  8
LVL0000
 62
  3
 10
      -38.400000
 20
      -94.200000
 30
        0.000000
 11
      -31.100000
 21
      -94.200000
 31
        0.000000
  0
LINE
  8
LVL0000
 62
  3
 10
      -38.400000
 20
      -92.200000
 30
        0.000000
 11
      -31.100000
 21
      -92.200000
 31
        0.000000
  0
ARC
  8
LVL0000
 62
  3
 10
      -33.070324
 20
      -90.239932
 30
        0.000000
 40
        1.000000
 50
        5.001328
 51
       73.741534
  0
LINE
  8
LVL0000
 62
  3
 10
      -32.000000
 20
      -91.000000
 30
        0.000000
 11
      -32.074131
 21
      -90.152753
 31
        0.000000
  0
LINE
  8
LVL0000
 62
  3
 10
      -31.750000
 20
      -91.000000
 30
        0.000000
 11
      -31.750000
 21
      -92.200000
 31
        0.000000
  0
LINE
  8
LVL0000
 62
  3
 10
      -31.750000
 20
      -91.000000
 30
        0.000000
 11
      -37.750000
 21
      -91.000000
 31
        0.000000
  0
ARC
  8
LVL0000
 62
  3
 10
      -36.429678
 20
      -90.239932
 30
        0.000000
 40
        1.000000
 50
      106.255700
 51
      174.998676
  0
LINE
  8
LVL0000
 62
  3
 10
      -37.500000
 20
      -91.000000
 30
        0.000000
 11
      -37.425870
 21
      -90.152753
 31
        0.000000
  0
ARC
  8
LVL0000
 62
  3
 10
      -34.750000
 20
      -96.000000
 30
        0.000000
 40
        7.000000
 50
       73.742723
 51
      106.257018
  0
LINE
  8
LVL0000
 62
  3
 10
      -38.400000
 20
      -87.000000
 30
        0.000000
 11
      -38.400000
 21
      -94.200000
 31
        0.000000
  0
LINE
  8
LVL0000
 62
  3
 10
      -31.100000
 20
      -87.000000
 30
        0.000000
 11
      -31.100000
 21
      -94.200000
 31
        0.000000
  0
LINE
  8
LVL0000
 62
  3
 10
      -29.250000
 20
      -91.000000
 30
        0.000000
 11
      -29.250000
 21
      -92.200000
 31
        0.000000
  0
LINE
  8
LVL0000
 62
  3
 10
      -29.900000
 20
      -94.200000
 30
        0.000000
 11
      -22.600000
 21
      -94.200000
 31
        0.000000
  0
LINE
  8
LVL0000
 62
  3
 10
      -29.900000
 20
      -92.200000
 30
        0.000000
 11
      -22.600000
 21
      -92.200000
 31
        0.000000
  0
ARC
  8
LVL0000
 62
  3
 10
      -24.570324
 20
      -90.239932
 30
        0.000000
 40
        1.000000
 50
        5.001328
 51
       73.741534
  0
LINE
  8
LVL0000
 62
  3
 10
      -23.500000
 20
      -91.000000
 30
        0.000000
 11
      -23.574131
 21
      -90.152753
 31
        0.000000
  0
LINE
  8
LVL0000
 62
  3
 10
      -23.250000
 20
      -91.000000
 30
        0.000000
 11
      -23.250000
 21
      -92.200000
 31
        0.000000
  0
LINE
  8
LVL0000
 62
  3
 10
      -23.250000
 20
      -91.000000
 30
        0.000000
 11
      -29.250000
 21
      -91.000000
 31
        0.000000
  0
ARC
  8
LVL0000
 62
  3
 10
      -27.929678
 20
      -90.239932
 30
        0.000000
 40
        1.000000
 50
      106.255700
 51
      174.998676
  0
LINE
  8
LVL0000
 62
  3
 10
      -29.000000
 20
      -91.000000
 30
        0.000000
 11
      -28.925870
 21
      -90.152753
 31
        0.000000
  0
ARC
  8
LVL0000
 62
  3
 10
      -26.250000
 20
      -96.000000
 30
        0.000000
 40
        7.000000
 50
       73.742723
 51
      106.257018
  0
LINE
  8
LVL0000
 62
  3
 10
      -29.900000
 20
      -87.000000
 30
        0.000000
 11
      -29.900000
 21
      -94.200000
 31
        0.000000
  0
LINE
  8
LVL0000
 62
  3
 10
      -22.600000
 20
      -87.000000
 30
        0.000000
 11
      -22.600000
 21
      -94.200000
 31
        0.000000
  0
LINE
  8
LVL0000
 62
  3
 10
      -20.750000
 20
      -91.000000
 30
        0.000000
 11
      -20.750000
 21
      -92.200000
 31
        0.000000
  0
LINE
  8
LVL0000
 62
  3
 10
      -21.400000
 20
      -94.200000
 30
        0.000000
 11
      -14.100000
 21
      -94.200000
 31
        0.000000
  0
LINE
  8
LVL0000
 62
  3
 10
      -21.400000
 20
      -92.200000
 30
        0.000000
 11
      -14.100000
 21
      -92.200000
 31
        0.000000
  0
ARC
  8
LVL0000
 62
  3
 10
      -16.070324
 20
      -90.239932
 30
        0.000000
 40
        1.000000
 50
        5.001328
 51
       73.741534
  0
LINE
  8
LVL0000
 62
  3
 10
      -15.000000
 20
      -91.000000
 30
        0.000000
 11
      -15.074131
 21
      -90.152753
 31
        0.000000
  0
LINE
  8
LVL0000
 62
  3
 10
      -14.750000
 20
      -91.000000
 30
        0.000000
 11
      -14.750000
 21
      -92.200000
 31
        0.000000
  0
LINE
  8
LVL0000
 62
  3
 10
      -14.750000
 20
      -91.000000
 30
        0.000000
 11
      -20.750000
 21
      -91.000000
 31
        0.000000
  0
ARC
  8
LVL0000
 62
  3
 10
      -19.429678
 20
      -90.239932
 30
        0.000000
 40
        1.000000
 50
      106.255700
 51
      174.998676
  0
LINE
  8
LVL0000
 62
  3
 10
      -20.500000
 20
      -91.000000
 30
        0.000000
 11
      -20.425870
 21
      -90.152753
 31
        0.000000
  0
ARC
  8
LVL0000
 62
  3
 10
      -17.750000
 20
      -96.000000
 30
        0.000000
 40
        7.000000
 50
       73.742723
 51
      106.257018
  0
LINE
  8
LVL0000
 62
  3
 10
      -21.400000
 20
      -87.000000
 30
        0.000000
 11
      -21.400000
 21
      -94.200000
 31
        0.000000
  0
LINE
  8
LVL0000
 62
  3
 10
      -14.100000
 20
      -87.000000
 30
        0.000000
 11
      -14.100000
 21
      -94.200000
 31
        0.000000
  0
LINE
  8
LVL0000
 62
  3
 10
        4.750000
 20
      -91.000000
 30
        0.000000
 11
        4.750000
 21
      -92.200000
 31
        0.000000
  0
LINE
  8
LVL0000
 62
  3
 10
        4.100000
 20
      -94.200000
 30
        0.000000
 11
       11.400000
 21
      -94.200000
 31
        0.000000
  0
LINE
  8
LVL0000
 62
  3
 10
        4.100000
 20
      -92.200000
 30
        0.000000
 11
       11.400000
 21
      -92.200000
 31
        0.000000
  0
ARC
  8
LVL0000
 62
  3
 10
        9.429676
 20
      -90.239932
 30
        0.000000
 40
        1.000000
 50
        5.001328
 51
       73.741534
  0
LINE
  8
LVL0000
 62
  3
 10
       10.500000
 20
      -91.000000
 30
        0.000000
 11
       10.425869
 21
      -90.152753
 31
        0.000000
  0
LINE
  8
LVL0000
 62
  3
 10
       10.750000
 20
      -91.000000
 30
        0.000000
 11
       10.750000
 21
      -92.200000
 31
        0.000000
  0
LINE
  8
LVL0000
 62
  3
 10
       10.750000
 20
      -91.000000
 30
        0.000000
 11
        4.750000
 21
      -91.000000
 31
        0.000000
  0
ARC
  8
LVL0000
 62
  3
 10
        6.070322
 20
      -90.239932
 30
        0.000000
 40
        1.000000
 50
      106.255700
 51
      174.998676
  0
LINE
  8
LVL0000
 62
  3
 10
        5.000000
 20
      -91.000000
 30
        0.000000
 11
        5.074130
 21
      -90.152753
 31
        0.000000
  0
ARC
  8
LVL0000
 62
  3
 10
        7.750000
 20
      -96.000000
 30
        0.000000
 40
        7.000000
 50
       73.742723
 51
      106.257018
  0
LINE
  8
LVL0000
 62
  3
 10
        4.100000
 20
      -87.000000
 30
        0.000000
 11
        4.100000
 21
      -94.200000
 31
        0.000000
  0
LINE
  8
LVL0000
 62
  3
 10
       11.400000
 20
      -87.000000
 30
        0.000000
 11
       11.400000
 21
      -94.200000
 31
        0.000000
  0
LINE
  8
LVL0000
 62
  3
 10
       13.250000
 20
      -91.000000
 30
        0.000000
 11
       13.250000
 21
      -92.200000
 31
        0.000000
  0
LINE
  8
LVL0000
 62
  3
 10
       12.600000
 20
      -94.200000
 30
        0.000000
 11
       19.900000
 21
      -94.200000
 31
        0.000000
  0
LINE
  8
LVL0000
 62
  3
 10
       12.600000
 20
      -92.200000
 30
        0.000000
 11
       19.900000
 21
      -92.200000
 31
        0.000000
  0
ARC
  8
LVL0000
 62
  3
 10
       17.929676
 20
      -90.239932
 30
        0.000000
 40
        1.000000
 50
        5.001328
 51
       73.741534
  0
LINE
  8
LVL0000
 62
  3
 10
       19.000000
 20
      -91.000000
 30
        0.000000
 11
       18.925869
 21
      -90.152753
 31
        0.000000
  0
LINE
  8
LVL0000
 62
  3
 10
       19.250000
 20
      -91.000000
 30
        0.000000
 11
       19.250000
 21
      -92.200000
 31
        0.000000
  0
LINE
  8
LVL0000
 62
  3
 10
       19.250000
 20
      -91.000000
 30
        0.000000
 11
       13.250000
 21
      -91.000000
 31
        0.000000
  0
ARC
  8
LVL0000
 62
  3
 10
       14.570322
 20
      -90.239932
 30
        0.000000
 40
        1.000000
 50
      106.255700
 51
      174.998676
  0
LINE
  8
LVL0000
 62
  3
 10
       13.500000
 20
      -91.000000
 30
        0.000000
 11
       13.574130
 21
      -90.152753
 31
        0.000000
  0
ARC
  8
LVL0000
 62
  3
 10
       16.250000
 20
      -96.000000
 30
        0.000000
 40
        7.000000
 50
       73.742723
 51
      106.257018
  0
LINE
  8
LVL0000
 62
  3
 10
       12.600000
 20
      -87.000000
 30
        0.000000
 11
       12.600000
 21
      -94.200000
 31
        0.000000
  0
LINE
  8
LVL0000
 62
  3
 10
       19.900000
 20
      -87.000000
 30
        0.000000
 11
       19.900000
 21
      -94.200000
 31
        0.000000
  0
LINE
  8
LVL0000
 62
  3
 10
       21.750000
 20
      -91.000000
 30
        0.000000
 11
       21.750000
 21
      -92.200000
 31
        0.000000
  0
LINE
  8
LVL0000
 62
  3
 10
       21.100000
 20
      -94.200000
 30
        0.000000
 11
       28.400000
 21
      -94.200000
 31
        0.000000
  0
LINE
  8
LVL0000
 62
  3
 10
       21.100000
 20
      -92.200000
 30
        0.000000
 11
       28.400000
 21
      -92.200000
 31
        0.000000
  0
ARC
  8
LVL0000
 62
  3
 10
       26.429676
 20
      -90.239932
 30
        0.000000
 40
        1.000000
 50
        5.001328
 51
       73.741534
  0
LINE
  8
LVL0000
 62
  3
 10
       27.500000
 20
      -91.000000
 30
        0.000000
 11
       27.425869
 21
      -90.152753
 31
        0.000000
  0
LINE
  8
LVL0000
 62
  3
 10
       27.750000
 20
      -91.000000
 30
        0.000000
 11
       27.750000
 21
      -92.200000
 31
        0.000000
  0
LINE
  8
LVL0000
 62
  3
 10
       27.750000
 20
      -91.000000
 30
        0.000000
 11
       21.750000
 21
      -91.000000
 31
        0.000000
  0
ARC
  8
LVL0000
 62
  3
 10
       23.070322
 20
      -90.239932
 30
        0.000000
 40
        1.000000
 50
      106.255700
 51
      174.998676
  0
LINE
  8
LVL0000
 62
  3
 10
       22.000000
 20
      -91.000000
 30
        0.000000
 11
       22.074130
 21
      -90.152753
 31
        0.000000
  0
ARC
  8
LVL0000
 62
  3
 10
       24.750000
 20
      -96.000000
 30
        0.000000
 40
        7.000000
 50
       73.742723
 51
      106.257018
  0
LINE
  8
LVL0000
 62
  3
 10
       21.100000
 20
      -87.000000
 30
        0.000000
 11
       21.100000
 21
      -94.200000
 31
        0.000000
  0
LINE
  8
LVL0000
 62
  3
 10
       28.400000
 20
      -87.000000
 30
        0.000000
 11
       28.400000
 21
      -94.200000
 31
        0.000000
  0
LINE
  8
LVL0000
 62
  3
 10
       30.250000
 20
      -91.000000
 30
        0.000000
 11
       30.250000
 21
      -92.200000
 31
        0.000000
  0
LINE
  8
LVL0000
 62
  3
 10
       29.600000
 20
      -94.200000
 30
        0.000000
 11
       36.900000
 21
      -94.200000
 31
        0.000000
  0
LINE
  8
LVL0000
 62
  3
 10
       29.600000
 20
      -92.200000
 30
        0.000000
 11
       36.900000
 21
      -92.200000
 31
        0.000000
  0
ARC
  8
LVL0000
 62
  3
 10
       34.929676
 20
      -90.239932
 30
        0.000000
 40
        1.000000
 50
        5.001328
 51
       73.741534
  0
LINE
  8
LVL0000
 62
  3
 10
       36.000000
 20
      -91.000000
 30
        0.000000
 11
       35.925869
 21
      -90.152753
 31
        0.000000
  0
LINE
  8
LVL0000
 62
  3
 10
       36.250000
 20
      -91.000000
 30
        0.000000
 11
       36.250000
 21
      -92.200000
 31
        0.000000
  0
LINE
  8
LVL0000
 62
  3
 10
       36.250000
 20
      -91.000000
 30
        0.000000
 11
       30.250000
 21
      -91.000000
 31
        0.000000
  0
ARC
  8
LVL0000
 62
  3
 10
       31.570322
 20
      -90.239932
 30
        0.000000
 40
        1.000000
 50
      106.255700
 51
      174.998676
  0
LINE
  8
LVL0000
 62
  3
 10
       30.500000
 20
      -91.000000
 30
        0.000000
 11
       30.574130
 21
      -90.152753
 31
        0.000000
  0
ARC
  8
LVL0000
 62
  3
 10
       33.250000
 20
      -96.000000
 30
        0.000000
 40
        7.000000
 50
       73.742723
 51
      106.257018
  0
LINE
  8
LVL0000
 62
  3
 10
       29.600000
 20
      -87.000000
 30
        0.000000
 11
       29.600000
 21
      -94.200000
 31
        0.000000
  0
LINE
  8
LVL0000
 62
  3
 10
       36.900000
 20
      -87.000000
 30
        0.000000
 11
       36.900000
 21
      -94.200000
 31
        0.000000
  0
LINE
  8
LVL0000
 62
  3
 10
       38.750000
 20
      -91.000000
 30
        0.000000
 11
       38.750000
 21
      -92.200000
 31
        0.000000
  0
LINE
  8
LVL0000
 62
  3
 10
       38.100000
 20
      -94.200000
 30
        0.000000
 11
       45.400000
 21
      -94.200000
 31
        0.000000
  0
LINE
  8
LVL0000
 62
  3
 10
       38.100000
 20
      -92.200000
 30
        0.000000
 11
       45.400000
 21
      -92.200000
 31
        0.000000
  0
ARC
  8
LVL0000
 62
  3
 10
       43.429676
 20
      -90.239932
 30
        0.000000
 40
        1.000000
 50
        5.001328
 51
       73.741534
  0
LINE
  8
LVL0000
 62
  3
 10
       44.500000
 20
      -91.000000
 30
        0.000000
 11
       44.425869
 21
      -90.152753
 31
        0.000000
  0
LINE
  8
LVL0000
 62
  3
 10
       44.750000
 20
      -91.000000
 30
        0.000000
 11
       44.750000
 21
      -92.200000
 31
        0.000000
  0
LINE
  8
LVL0000
 62
  3
 10
       44.750000
 20
      -91.000000
 30
        0.000000
 11
       38.750000
 21
      -91.000000
 31
        0.000000
  0
ARC
  8
LVL0000
 62
  3
 10
       40.070322
 20
      -90.239932
 30
        0.000000
 40
        1.000000
 50
      106.255700
 51
      174.998676
  0
LINE
  8
LVL0000
 62
  3
 10
       39.000000
 20
      -91.000000
 30
        0.000000
 11
       39.074130
 21
      -90.152753
 31
        0.000000
  0
ARC
  8
LVL0000
 62
  3
 10
       41.750000
 20
      -96.000000
 30
        0.000000
 40
        7.000000
 50
       73.742723
 51
      106.257018
  0
LINE
  8
LVL0000
 62
  3
 10
       38.100000
 20
      -87.000000
 30
        0.000000
 11
       38.100000
 21
      -94.200000
 31
        0.000000
  0
LINE
  8
LVL0000
 62
  3
 10
       45.400000
 20
      -87.000000
 30
        0.000000
 11
       45.400000
 21
      -94.200000
 31
        0.000000
  0
LINE
  8
LVL0000
 62
  3
 10
       47.250000
 20
      -91.000000
 30
        0.000000
 11
       47.250000
 21
      -92.200000
 31
        0.000000
  0
LINE
  8
LVL0000
 62
  3
 10
       46.600000
 20
      -94.200000
 30
        0.000000
 11
       53.900000
 21
      -94.200000
 31
        0.000000
  0
LINE
  8
LVL0000
 62
  3
 10
       46.600000
 20
      -92.200000
 30
        0.000000
 11
       53.900000
 21
      -92.200000
 31
        0.000000
  0
ARC
  8
LVL0000
 62
  3
 10
       51.929676
 20
      -90.239932
 30
        0.000000
 40
        1.000000
 50
        5.001328
 51
       73.741534
  0
LINE
  8
LVL0000
 62
  3
 10
       53.000000
 20
      -91.000000
 30
        0.000000
 11
       52.925869
 21
      -90.152753
 31
        0.000000
  0
LINE
  8
LVL0000
 62
  3
 10
       53.250000
 20
      -91.000000
 30
        0.000000
 11
       53.250000
 21
      -92.200000
 31
        0.000000
  0
LINE
  8
LVL0000
 62
  3
 10
       53.250000
 20
      -91.000000
 30
        0.000000
 11
       47.250000
 21
      -91.000000
 31
        0.000000
  0
ARC
  8
LVL0000
 62
  3
 10
       48.570322
 20
      -90.239932
 30
        0.000000
 40
        1.000000
 50
      106.255700
 51
      174.998676
  0
LINE
  8
LVL0000
 62
  3
 10
       47.500000
 20
      -91.000000
 30
        0.000000
 11
       47.574130
 21
      -90.152753
 31
        0.000000
  0
ARC
  8
LVL0000
 62
  3
 10
       50.250000
 20
      -96.000000
 30
        0.000000
 40
        7.000000
 50
       73.742723
 51
      106.257018
  0
LINE
  8
LVL0000
 62
  3
 10
       46.600000
 20
      -87.000000
 30
        0.000000
 11
       46.600000
 21
      -94.200000
 31
        0.000000
  0
LINE
  8
LVL0000
 62
  3
 10
       53.900000
 20
      -87.000000
 30
        0.000000
 11
       53.900000
 21
      -94.200000
 31
        0.000000
  0
LINE
  8
LVL0000
 62
  3
 10
       55.750000
 20
      -91.000000
 30
        0.000000
 11
       55.750000
 21
      -92.200000
 31
        0.000000
  0
LINE
  8
LVL0000
 62
  3
 10
       55.100000
 20
      -94.200000
 30
        0.000000
 11
       62.400000
 21
      -94.200000
 31
        0.000000
  0
LINE
  8
LVL0000
 62
  3
 10
       55.100000
 20
      -92.200000
 30
        0.000000
 11
       62.400000
 21
      -92.200000
 31
        0.000000
  0
ARC
  8
LVL0000
 62
  3
 10
       60.429676
 20
      -90.239932
 30
        0.000000
 40
        1.000000
 50
        5.001328
 51
       73.741534
  0
LINE
  8
LVL0000
 62
  3
 10
       61.500000
 20
      -91.000000
 30
        0.000000
 11
       61.425869
 21
      -90.152753
 31
        0.000000
  0
LINE
  8
LVL0000
 62
  3
 10
       61.750000
 20
      -91.000000
 30
        0.000000
 11
       61.750000
 21
      -92.200000
 31
        0.000000
  0
LINE
  8
LVL0000
 62
  3
 10
       61.750000
 20
      -91.000000
 30
        0.000000
 11
       55.750000
 21
      -91.000000
 31
        0.000000
  0
ARC
  8
LVL0000
 62
  3
 10
       57.070322
 20
      -90.239932
 30
        0.000000
 40
        1.000000
 50
      106.255700
 51
      174.998676
  0
LINE
  8
LVL0000
 62
  3
 10
       56.000000
 20
      -91.000000
 30
        0.000000
 11
       56.074130
 21
      -90.152753
 31
        0.000000
  0
ARC
  8
LVL0000
 62
  3
 10
       58.750000
 20
      -96.000000
 30
        0.000000
 40
        7.000000
 50
       73.742723
 51
      106.257018
  0
LINE
  8
LVL0000
 62
  3
 10
       55.100000
 20
      -87.000000
 30
        0.000000
 11
       55.100000
 21
      -94.200000
 31
        0.000000
  0
LINE
  8
LVL0000
 62
  3
 10
       62.400000
 20
      -87.000000
 30
        0.000000
 11
       62.400000
 21
      -94.200000
 31
        0.000000
  0
LINE
  8
LVL0000
 62
  3
 10
       64.250000
 20
      -91.000000
 30
        0.000000
 11
       64.250000
 21
      -92.200000
 31
        0.000000
  0
LINE
  8
LVL0000
 62
  3
 10
       63.600000
 20
      -94.200000
 30
        0.000000
 11
       70.900000
 21
      -94.200000
 31
        0.000000
  0
LINE
  8
LVL0000
 62
  3
 10
       63.600000
 20
      -92.200000
 30
        0.000000
 11
       70.900000
 21
      -92.200000
 31
        0.000000
  0
ARC
  8
LVL0000
 62
  3
 10
       68.929676
 20
      -90.239932
 30
        0.000000
 40
        1.000000
 50
        5.001328
 51
       73.741534
  0
LINE
  8
LVL0000
 62
  3
 10
       70.000000
 20
      -91.000000
 30
        0.000000
 11
       69.925869
 21
      -90.152753
 31
        0.000000
  0
LINE
  8
LVL0000
 62
  3
 10
       70.250000
 20
      -91.000000
 30
        0.000000
 11
       70.250000
 21
      -92.200000
 31
        0.000000
  0
LINE
  8
LVL0000
 62
  3
 10
       70.250000
 20
      -91.000000
 30
        0.000000
 11
       64.250000
 21
      -91.000000
 31
        0.000000
  0
ARC
  8
LVL0000
 62
  3
 10
       65.570322
 20
      -90.239932
 30
        0.000000
 40
        1.000000
 50
      106.255700
 51
      174.998676
  0
LINE
  8
LVL0000
 62
  3
 10
       64.500000
 20
      -91.000000
 30
        0.000000
 11
       64.574130
 21
      -90.152753
 31
        0.000000
  0
ARC
  8
LVL0000
 62
  3
 10
       67.250000
 20
      -96.000000
 30
        0.000000
 40
        7.000000
 50
       73.742723
 51
      106.257018
  0
LINE
  8
LVL0000
 62
  3
 10
       63.600000
 20
      -87.000000
 30
        0.000000
 11
       63.600000
 21
      -94.200000
 31
        0.000000
  0
LINE
  8
LVL0000
 62
  3
 10
       70.900000
 20
      -87.000000
 30
        0.000000
 11
       70.900000
 21
      -94.200000
 31
        0.000000
  0
LINE
  8
LVL0000
 62
  3
 10
       79.400000
 20
      -85.100000
 30
        0.000000
 11
       79.400000
 21
      -94.200000
 31
        0.000000
  0
LINE
  8
LVL0000
 62
  3
 10
       72.750000
 20
      -91.000000
 30
        0.000000
 11
       72.750000
 21
      -92.200000
 31
        0.000000
  0
LINE
  8
LVL0000
 62
  3
 10
       72.100000
 20
      -94.200000
 30
        0.000000
 11
       79.400000
 21
      -94.200000
 31
        0.000000
  0
LINE
  8
LVL0000
 62
  3
 10
       72.100000
 20
      -92.200000
 30
        0.000000
 11
       79.400000
 21
      -92.200000
 31
        0.000000
  0
ARC
  8
LVL0000
 62
  3
 10
       77.429676
 20
      -90.239932
 30
        0.000000
 40
        1.000000
 50
        5.001328
 51
       73.741534
  0
LINE
  8
LVL0000
 62
  3
 10
       78.500000
 20
      -91.000000
 30
        0.000000
 11
       78.425869
 21
      -90.152753
 31
        0.000000
  0
LINE
  8
LVL0000
 62
  3
 10
       78.750000
 20
      -91.000000
 30
        0.000000
 11
       78.750000
 21
      -92.200000
 31
        0.000000
  0
LINE
  8
LVL0000
 62
  3
 10
       78.750000
 20
      -91.000000
 30
        0.000000
 11
       72.750000
 21
      -91.000000
 31
        0.000000
  0
ARC
  8
LVL0000
 62
  3
 10
       74.070322
 20
      -90.239932
 30
        0.000000
 40
        1.000000
 50
      106.255700
 51
      174.998676
  0
LINE
  8
LVL0000
 62
  3
 10
       73.000000
 20
      -91.000000
 30
        0.000000
 11
       73.074130
 21
      -90.152753
 31
        0.000000
  0
ARC
  8
LVL0000
 62
  3
 10
       75.750000
 20
      -96.000000
 30
        0.000000
 40
        7.000000
 50
       73.742723
 51
      106.257018
  0
LINE
  8
LVL0000
 62
  3
 10
       72.100000
 20
      -87.000000
 30
        0.000000
 11
       72.100000
 21
      -94.200000
 31
        0.000000
  0
LINE
  8
LVL0000
 62
  3
 10
      100.000000
 20
       24.000000
 30
        0.000000
 11
      100.000000
 21
      -24.000000
 31
        0.000000
  0
LINE
  8
LVL0000
 62
  3
 10
      -99.000000
 20
      -25.000000
 30
        0.000000
 11
       99.000000
 21
      -25.000000
 31
        0.000000
  0
ARC
  8
LVL0000
 62
  3
 10
      -99.000000
 20
      -24.000000
 30
        0.000000
 40
        1.000000
 50
      179.999995
 51
      270.000000
  0
LINE
  8
LVL0000
 62
  3
 10
     -100.000000
 20
       24.000000
 30
        0.000000
 11
     -100.000000
 21
      -24.000000
 31
        0.000000
  0
ARC
  8
LVL0000
 62
  3
 10
      -99.000000
 20
       24.000000
 30
        0.000000
 40
        1.000000
 50
       90.000000
 51
      179.999995
  0
LINE
  8
LVL0000
 62
  3
 10
      -99.000000
 20
       25.000000
 30
        0.000000
 11
       99.000000
 21
       25.000000
 31
        0.000000
  0
ARC
  8
LVL0000
 62
  3
 10
       99.000000
 20
       24.000000
 30
        0.000000
 40
        1.000000
 50
        0.000000
 51
       90.000000
  0
LINE
  8
LVL0000
 62
  3
 10
       -5.000000
 20
      -13.800000
 30
        0.000000
 11
       -5.000000
 21
      -22.000000
 31
        0.000000
  0
LINE
  8
LVL0000
 62
  3
 10
       77.250000
 20
      -13.800000
 30
        0.000000
 11
       77.250000
 21
      -22.000000
 31
        0.000000
  0
LINE
  8
LVL0000
 62
  3
 10
      -87.250000
 20
      -13.800000
 30
        0.000000
 11
      -87.250000
 21
      -22.000000
 31
        0.000000
  0
LINE
  8
LVL0000
 62
  3
 10
      -87.250000
 20
      -22.000000
 30
        0.000000
 11
       77.250000
 21
      -22.000000
 31
        0.000000
  0
LINE
  8
LVL0000
 62
  3
 10
      -87.250000
 20
      -13.800000
 30
        0.000000
 11
       77.250000
 21
      -13.800000
 31
        0.000000
  0
LINE
  8
LVL0000
 62
  3
 10
       45.450000
 20
       -1.750000
 30
        0.000000
 11
       73.550000
 21
       -1.750000
 31
        0.000000
  0
LINE
  8
LVL0000
 62
  3
 10
        2.450000
 20
       -1.750000
 30
        0.000000
 11
       30.550000
 21
       -1.750000
 31
        0.000000
  0
LINE
  8
LVL0000
 62
  3
 10
      -31.950000
 20
       -1.750000
 30
        0.000000
 11
       -3.850000
 21
       -1.750000
 31
        0.000000
  0
LINE
  8
LVL0000
 62
  3
 10
      -74.950000
 20
       -1.750000
 30
        0.000000
 11
      -46.850000
 21
       -1.750000
 31
        0.000000
  0
LINE
  8
LVL0000
 62
  3
 10
       79.250000
 20
       21.000000
 30
        0.000000
 11
       79.250000
 21
       13.100000
 31
        0.000000
  0
LINE
  8
LVL0000
 62
  3
 10
       86.750000
 20
       21.000000
 30
        0.000000
 11
       86.750000
 21
       13.100000
 31
        0.000000
  0
LINE
  8
LVL0000
 62
  3
 10
       87.250000
 20
       21.000000
 30
        0.000000
 11
       87.250000
 21
       13.100000
 31
        0.000000
  0
LINE
  8
LVL0000
 62
  3
 10
       94.750000
 20
       21.000000
 30
        0.000000
 11
       94.750000
 21
       13.100000
 31
        0.000000
  0
LINE
  8
LVL0000
 62
  3
 10
      -45.850000
 20
       -1.750000
 30
        0.000000
 11
      -41.550000
 21
       -1.750000
 31
        0.000000
  0
LINE
  8
LVL0000
 62
  3
 10
      -37.250000
 20
       -1.750000
 30
        0.000000
 11
      -32.950000
 21
       -1.750000
 31
        0.000000
  0
LINE
  8
LVL0000
 62
  3
 10
       31.550000
 20
       -1.750000
 30
        0.000000
 11
       35.850000
 21
       -1.750000
 31
        0.000000
  0
LINE
  8
LVL0000
 62
  3
 10
       40.150000
 20
       -1.750000
 30
        0.000000
 11
       44.450000
 21
       -1.750000
 31
        0.000000
  0
LINE
  8
LVL0000
 62
  3
 10
      -40.550000
 20
       -1.750000
 30
        0.000000
 11
      -38.250000
 21
       -1.750000
 31
        0.000000
  0
LINE
  8
LVL0000
 62
  3
 10
       36.850000
 20
       -1.750000
 30
        0.000000
 11
       39.150000
 21
       -1.750000
 31
        0.000000
  0
LINE
  8
LVL0000
 62
  3
 10
       -7.150000
 20
       -3.250000
 30
        0.000000
 11
       -7.150000
 21
       -8.000000
 31
        0.000000
  0
LINE
  8
LVL0000
 62
  3
 10
      -11.450000
 20
        4.500000
 30
        0.000000
 11
      -11.450000
 21
       -0.250000
 31
        0.000000
  0
LINE
  8
LVL0000
 62
  3
 10
       74.550000
 20
       -1.750000
 30
        0.000000
 11
       77.250000
 21
       -1.750000
 31
        0.000000
  0
LINE
  8
LVL0000
 62
  3
 10
       65.950000
 20
        4.500000
 30
        0.000000
 11
       65.950000
 21
       -0.250000
 31
        0.000000
  0
LINE
  8
LVL0000
 62
  3
 10
       70.250000
 20
       -3.250000
 30
        0.000000
 11
       70.250000
 21
       -8.000000
 31
        0.000000
  0
LINE
  8
LVL0000
 62
  3
 10
       40.150000
 20
        4.500000
 30
        0.000000
 11
       40.150000
 21
       -1.750000
 31
        0.000000
  0
LINE
  8
LVL0000
 62
  3
 10
       44.450000
 20
       -1.750000
 30
        0.000000
 11
       44.450000
 21
       -8.000000
 31
        0.000000
  0
LINE
  8
LVL0000
 62
  3
 10
      -37.250000
 20
        4.500000
 30
        0.000000
 11
      -37.250000
 21
       -1.750000
 31
        0.000000
  0
LINE
  8
LVL0000
 62
  3
 10
      -32.950000
 20
       -1.750000
 30
        0.000000
 11
      -32.950000
 21
       -8.000000
 31
        0.000000
  0
LINE
  8
LVL0000
 62
  3
 10
       -2.850000
 20
       -1.750000
 30
        0.000000
 11
        1.450000
 21
       -1.750000
 31
        0.000000
  0
LINE
  8
LVL0000
 62
  3
 10
      -71.650000
 20
        4.500000
 30
        0.000000
 11
      -71.650000
 21
       -0.250000
 31
        0.000000
  0
LINE
  8
LVL0000
 62
  3
 10
      -67.350000
 20
       -3.250000
 30
        0.000000
 11
      -67.350000
 21
       -8.000000
 31
        0.000000
  0
LINE
  8
LVL0000
 62
  3
 10
      -80.250000
 20
        4.500000
 30
        0.000000
 11
      -80.250000
 21
       -1.750000
 31
        0.000000
  0
LINE
  8
LVL0000
 62
  3
 10
      -75.950000
 20
       -1.750000
 30
        0.000000
 11
      -75.950000
 21
       -8.000000
 31
        0.000000
  0
LINE
  8
LVL0000
 62
  3
 10
      -87.250000
 20
       -1.750000
 30
        0.000000
 11
      -75.950000
 21
       -1.750000
 31
        0.000000
  0
LINE
  8
LVL0000
 62
  3
 10
       35.850000
 20
       -1.750000
 30
        0.000000
 11
       35.850000
 21
       -8.000000
 31
        0.000000
  0
LINE
  8
LVL0000
 62
  3
 10
       31.550000
 20
        4.500000
 30
        0.000000
 11
       31.550000
 21
       -1.750000
 31
        0.000000
  0
LINE
  8
LVL0000
 62
  3
 10
        1.450000
 20
       -1.750000
 30
        0.000000
 11
        1.450000
 21
       -8.000000
 31
        0.000000
  0
LINE
  8
LVL0000
 62
  3
 10
       -2.850000
 20
        4.500000
 30
        0.000000
 11
       -2.850000
 21
       -1.750000
 31
        0.000000
  0
LINE
  8
LVL0000
 62
  3
 10
      -41.550000
 20
       -1.750000
 30
        0.000000
 11
      -41.550000
 21
       -8.000000
 31
        0.000000
  0
LINE
  8
LVL0000
 62
  3
 10
      -45.850000
 20
        4.500000
 30
        0.000000
 11
      -45.850000
 21
       -1.750000
 31
        0.000000
  0
LINE
  8
LVL0000
 62
  3
 10
      -54.450000
 20
        4.500000
 30
        0.000000
 11
      -54.450000
 21
       -0.250000
 31
        0.000000
  0
LINE
  8
LVL0000
 62
  3
 10
      -63.050000
 20
        4.500000
 30
        0.000000
 11
      -63.050000
 21
       -0.250000
 31
        0.000000
  0
LINE
  8
LVL0000
 62
  3
 10
      -20.050000
 20
        4.500000
 30
        0.000000
 11
      -20.050000
 21
       -0.250000
 31
        0.000000
  0
LINE
  8
LVL0000
 62
  3
 10
      -28.650000
 20
        4.500000
 30
        0.000000
 11
      -28.650000
 21
       -0.250000
 31
        0.000000
  0
LINE
  8
LVL0000
 62
  3
 10
       22.950000
 20
        4.500000
 30
        0.000000
 11
       22.950000
 21
       -0.250000
 31
        0.000000
  0
LINE
  8
LVL0000
 62
  3
 10
       14.350000
 20
        4.500000
 30
        0.000000
 11
       14.350000
 21
       -0.250000
 31
        0.000000
  0
LINE
  8
LVL0000
 62
  3
 10
        5.750000
 20
        4.500000
 30
        0.000000
 11
        5.750000
 21
       -0.250000
 31
        0.000000
  0
LINE
  8
LVL0000
 62
  3
 10
       57.350000
 20
        4.500000
 30
        0.000000
 11
       57.350000
 21
       -0.250000
 31
        0.000000
  0
LINE
  8
LVL0000
 62
  3
 10
       48.750000
 20
        4.500000
 30
        0.000000
 11
       48.750000
 21
       -0.250000
 31
        0.000000
  0
LINE
  8
LVL0000
 62
  3
 10
      -50.150000
 20
       -3.250000
 30
        0.000000
 11
      -50.150000
 21
       -8.000000
 31
        0.000000
  0
LINE
  8
LVL0000
 62
  3
 10
      -58.750000
 20
       -3.250000
 30
        0.000000
 11
      -58.750000
 21
       -8.000000
 31
        0.000000
  0
LINE
  8
LVL0000
 62
  3
 10
      -15.750000
 20
       -3.250000
 30
        0.000000
 11
      -15.750000
 21
       -8.000000
 31
        0.000000
  0
LINE
  8
LVL0000
 62
  3
 10
      -24.350000
 20
       -3.250000
 30
        0.000000
 11
      -24.350000
 21
       -8.000000
 31
        0.000000
  0
LINE
  8
LVL0000
 62
  3
 10
       18.650000
 20
       -3.250000
 30
        0.000000
 11
       18.650000
 21
       -8.000000
 31
        0.000000
  0
LINE
  8
LVL0000
 62
  3
 10
       10.050000
 20
       -3.250000
 30
        0.000000
 11
       10.050000
 21
       -8.000000
 31
        0.000000
  0
LINE
  8
LVL0000
 62
  3
 10
       27.250000
 20
       -3.250000
 30
        0.000000
 11
       27.250000
 21
       -8.000000
 31
        0.000000
  0
LINE
  8
LVL0000
 62
  3
 10
       61.650000
 20
       -3.250000
 30
        0.000000
 11
       61.650000
 21
       -8.000000
 31
        0.000000
  0
LINE
  8
LVL0000
 62
  3
 10
       53.050000
 20
       -3.250000
 30
        0.000000
 11
       53.050000
 21
       -8.000000
 31
        0.000000
  0
LINE
  8
LVL0000
 62
  3
 10
      -87.250000
 20
        4.500000
 30
        0.000000
 11
      -87.250000
 21
       -8.000000
 31
        0.000000
  0
LINE
  8
LVL0000
 62
  3
 10
      -87.250000
 20
        4.500000
 30
        0.000000
 11
       77.250000
 21
        4.500000
 31
        0.000000
  0
LINE
  8
LVL0000
 62
  3
 10
      -87.250000
 20
       -8.000000
 30
        0.000000
 11
       77.250000
 21
       -8.000000
 31
        0.000000
  0
LINE
  8
LVL0000
 62
  3
 10
      -84.550000
 20
       -1.750000
 30
        0.000000
 11
      -84.550000
 21
       -8.000000
 31
        0.000000
  0
LINE
  8
LVL0000
 62
  3
 10
       74.550000
 20
        4.500000
 30
        0.000000
 11
       74.550000
 21
       -1.750000
 31
        0.000000
  0
LINE
  8
LVL0000
 62
  3
 10
       77.250000
 20
        4.500000
 30
        0.000000
 11
       77.250000
 21
       -8.000000
 31
        0.000000
  0
DIMENSION
  8
LVL0000
 62
  5
  2
BLK0003
 10
     -100.000000
 20
      -34.251591
 11
       -6.805609
 21
      -33.551590
 13
     -100.000000
 23
      -25.000000
 14
      100.000000
 24
      -25.000000
 50
        0.0
 70
  0
  0
LINE
  8
LVL0000
 62
  3
 10
      -23.100000
 20
       13.000000
 30
        0.000000
 11
      -21.100000
 21
       13.000000
 31
        0.000000
  0
LINE
  8
LVL0000
 62
  3
 10
      -23.100000
 20
       14.400000
 30
        0.000000
 11
      -21.100000
 21
       14.400000
 31
        0.000000
  0
LINE
  8
LVL0000
 62
  3
 10
      -21.100000
 20
       14.400000
 30
        0.000000
 11
      -21.100000
 21
       13.000000
 31
        0.000000
  0
LINE
  8
LVL0000
 62
  3
 10
      -21.000000
 20
       10.000000
 30
        0.000000
 11
      -19.000000
 21
       10.000000
 31
        0.000000
  0
LINE
  8
LVL0000
 62
  3
 10
      -21.000000
 20
       11.400000
 30
        0.000000
 11
      -19.000000
 21
       11.400000
 31
        0.000000
  0
LINE
  8
LVL0000
 62
  3
 10
      -19.000000
 20
       10.000000
 30
        0.000000
 11
      -19.000000
 21
       11.400000
 31
        0.000000
  0
LINE
  8
LVL0000
 62
  3
 10
      -14.800000
 20
       10.000000
 30
        0.000000
 11
      -14.800000
 21
       11.400000
 31
        0.000000
  0
LINE
  8
LVL0000
 62
  3
 10
      -16.800000
 20
       11.400000
 30
        0.000000
 11
      -14.800000
 21
       11.400000
 31
        0.000000
  0
LINE
  8
LVL0000
 62
  3
 10
      -16.800000
 20
       10.000000
 30
        0.000000
 11
      -14.800000
 21
       10.000000
 31
        0.000000
  0
LINE
  8
LVL0000
 62
  3
 10
      -16.800000
 20
       10.000000
 30
        0.000000
 11
      -16.800000
 21
       11.400000
 31
        0.000000
  0
LINE
  8
LVL0000
 62
  3
 10
      -12.600000
 20
       10.000000
 30
        0.000000
 11
      -12.600000
 21
       11.400000
 31
        0.000000
  0
LINE
  8
LVL0000
 62
  3
 10
      -12.600000
 20
       10.000000
 30
        0.000000
 11
      -10.600000
 21
       10.000000
 31
        0.000000
  0
LINE
  8
LVL0000
 62
  3
 10
      -12.600000
 20
       11.400000
 30
        0.000000
 11
      -10.600000
 21
       11.400000
 31
        0.000000
  0
LINE
  8
LVL0000
 62
  3
 10
      -10.600000
 20
       10.000000
 30
        0.000000
 11
      -10.600000
 21
       11.400000
 31
        0.000000
  0
LINE
  8
LVL0000
 62
  3
 10
       -6.400000
 20
       10.000000
 30
        0.000000
 11
       -6.400000
 21
       11.400000
 31
        0.000000
  0
LINE
  8
LVL0000
 62
  3
 10
       -8.400000
 20
       11.400000
 30
        0.000000
 11
       -6.400000
 21
       11.400000
 31
        0.000000
  0
LINE
  8
LVL0000
 62
  3
 10
       -8.400000
 20
       10.000000
 30
        0.000000
 11
       -6.400000
 21
       10.000000
 31
        0.000000
  0
LINE
  8
LVL0000
 62
  3
 10
       -8.400000
 20
       10.000000
 30
        0.000000
 11
       -8.400000
 21
       11.400000
 31
        0.000000
  0
LINE
  8
LVL0000
 62
  3
 10
      -18.900000
 20
       14.400000
 30
        0.000000
 11
      -18.900000
 21
       13.000000
 31
        0.000000
  0
LINE
  8
LVL0000
 62
  3
 10
      -16.900000
 20
       14.400000
 30
        0.000000
 11
      -16.900000
 21
       13.000000
 31
        0.000000
  0
LINE
  8
LVL0000
 62
  3
 10
      -18.900000
 20
       14.400000
 30
        0.000000
 11
      -16.900000
 21
       14.400000
 31
        0.000000
  0
LINE
  8
LVL0000
 62
  3
 10
      -18.900000
 20
       13.000000
 30
        0.000000
 11
      -16.900000
 21
       13.000000
 31
        0.000000
  0
LINE
  8
LVL0000
 62
  3
 10
      -14.700000
 20
       13.000000
 30
        0.000000
 11
      -12.700000
 21
       13.000000
 31
        0.000000
  0
LINE
  8
LVL0000
 62
  3
 10
      -14.700000
 20
       14.400000
 30
        0.000000
 11
      -12.700000
 21
       14.400000
 31
        0.000000
  0
LINE
  8
LVL0000
 62
  3
 10
      -12.700000
 20
       14.400000
 30
        0.000000
 11
      -12.700000
 21
       13.000000
 31
        0.000000
  0
LINE
  8
LVL0000
 62
  3
 10
      -14.700000
 20
       14.400000
 30
        0.000000
 11
      -14.700000
 21
       13.000000
 31
        0.000000
  0
LINE
  8
LVL0000
 62
  3
 10
      -10.500000
 20
       14.400000
 30
        0.000000
 11
      -10.500000
 21
       13.000000
 31
        0.000000
  0
LINE
  8
LVL0000
 62
  3
 10
       -8.500000
 20
       14.400000
 30
        0.000000
 11
       -8.500000
 21
       13.000000
 31
        0.000000
  0
LINE
  8
LVL0000
 62
  3
 10
      -10.500000
 20
       14.400000
 30
        0.000000
 11
       -8.500000
 21
       14.400000
 31
        0.000000
  0
LINE
  8
LVL0000
 62
  3
 10
      -10.500000
 20
       13.000000
 30
        0.000000
 11
       -8.500000
 21
       13.000000
 31
        0.000000
  0
LINE
  8
LVL0000
 62
  3
 10
       -5.100000
 20
       14.400000
 30
        0.000000
 11
       -5.100000
 21
       13.000000
 31
        0.000000
  0
LINE
  8
LVL0000
 62
  3
 10
        7.500000
 20
       13.000000
 30
        0.000000
 11
        9.500000
 21
       13.000000
 31
        0.000000
  0
LINE
  8
LVL0000
 62
  3
 10
        7.500000
 20
       14.400000
 30
        0.000000
 11
        9.500000
 21
       14.400000
 31
        0.000000
  0
LINE
  8
LVL0000
 62
  3
 10
        9.500000
 20
       14.400000
 30
        0.000000
 11
        9.500000
 21
       13.000000
 31
        0.000000
  0
LINE
  8
LVL0000
 62
  3
 10
        7.500000
 20
       14.400000
 30
        0.000000
 11
        7.500000
 21
       13.000000
 31
        0.000000
  0
LINE
  8
LVL0000
 62
  3
 10
        3.300000
 20
       14.400000
 30
        0.000000
 11
        3.300000
 21
       13.000000
 31
        0.000000
  0
LINE
  8
LVL0000
 62
  3
 10
        5.300000
 20
       14.400000
 30
        0.000000
 11
        5.300000
 21
       13.000000
 31
        0.000000
  0
LINE
  8
LVL0000
 62
  3
 10
        3.300000
 20
       14.400000
 30
        0.000000
 11
        5.300000
 21
       14.400000
 31
        0.000000
  0
LINE
  8
LVL0000
 62
  3
 10
        3.300000
 20
       13.000000
 30
        0.000000
 11
        5.300000
 21
       13.000000
 31
        0.000000
  0
LINE
  8
LVL0000
 62
  3
 10
       -0.900000
 20
       13.000000
 30
        0.000000
 11
        1.100000
 21
       13.000000
 31
        0.000000
  0
LINE
  8
LVL0000
 62
  3
 10
       -0.900000
 20
       14.400000
 30
        0.000000
 11
        1.100000
 21
       14.400000
 31
        0.000000
  0
LINE
  8
LVL0000
 62
  3
 10
        1.100000
 20
       14.400000
 30
        0.000000
 11
        1.100000
 21
       13.000000
 31
        0.000000
  0
LINE
  8
LVL0000
 62
  3
 10
       -0.900000
 20
       14.400000
 30
        0.000000
 11
       -0.900000
 21
       13.000000
 31
        0.000000
  0
LINE
  8
LVL0000
 62
  3
 10
        9.600000
 20
       10.000000
 30
        0.000000
 11
        9.600000
 21
       11.400000
 31
        0.000000
  0
LINE
  8
LVL0000
 62
  3
 10
        9.600000
 20
       10.000000
 30
        0.000000
 11
       11.600000
 21
       10.000000
 31
        0.000000
  0
LINE
  8
LVL0000
 62
  3
 10
        9.600000
 20
       11.400000
 30
        0.000000
 11
       11.600000
 21
       11.400000
 31
        0.000000
  0
LINE
  8
LVL0000
 62
  3
 10
       11.600000
 20
       10.000000
 30
        0.000000
 11
       11.600000
 21
       11.400000
 31
        0.000000
  0
LINE
  8
LVL0000
 62
  3
 10
        7.400000
 20
       10.000000
 30
        0.000000
 11
        7.400000
 21
       11.400000
 31
        0.000000
  0
LINE
  8
LVL0000
 62
  3
 10
        5.400000
 20
       11.400000
 30
        0.000000
 11
        7.400000
 21
       11.400000
 31
        0.000000
  0
LINE
  8
LVL0000
 62
  3
 10
        5.400000
 20
       10.000000
 30
        0.000000
 11
        7.400000
 21
       10.000000
 31
        0.000000
  0
LINE
  8
LVL0000
 62
  3
 10
        5.400000
 20
       10.000000
 30
        0.000000
 11
        5.400000
 21
       11.400000
 31
        0.000000
  0
LINE
  8
LVL0000
 62
  3
 10
        1.200000
 20
       10.000000
 30
        0.000000
 11
        1.200000
 21
       11.400000
 31
        0.000000
  0
LINE
  8
LVL0000
 62
  3
 10
        1.200000
 20
       10.000000
 30
        0.000000
 11
        3.200000
 21
       10.000000
 31
        0.000000
  0
LINE
  8
LVL0000
 62
  3
 10
        1.200000
 20
       11.400000
 30
        0.000000
 11
        3.200000
 21
       11.400000
 31
        0.000000
  0
LINE
  8
LVL0000
 62
  3
 10
        3.200000
 20
       10.000000
 30
        0.000000
 11
        3.200000
 21
       11.400000
 31
        0.000000
  0
LINE
  8
LVL0000
 62
  3
 10
       -1.000000
 20
       10.000000
 30
        0.000000
 11
       -1.000000
 21
       11.400000
 31
        0.000000
  0
LINE
  8
LVL0000
 62
  3
 10
       -3.000000
 20
       11.400000
 30
        0.000000
 11
       -1.000000
 21
       11.400000
 31
        0.000000
  0
LINE
  8
LVL0000
 62
  3
 10
       -3.000000
 20
       10.000000
 30
        0.000000
 11
       -1.000000
 21
       10.000000
 31
        0.000000
  0
LINE
  8
LVL0000
 62
  3
 10
       -3.100000
 20
       14.400000
 30
        0.000000
 11
       -3.100000
 21
       13.000000
 31
        0.000000
  0
LINE
  8
LVL0000
 62
  3
 10
       -5.100000
 20
       14.400000
 30
        0.000000
 11
       -3.100000
 21
       14.400000
 31
        0.000000
  0
LINE
  8
LVL0000
 62
  3
 10
       -5.100000
 20
       13.000000
 30
        0.000000
 11
       -3.100000
 21
       13.000000
 31
        0.000000
  0
LINE
  8
LVL0000
 62
  3
 10
       -3.000000
 20
       10.000000
 30
        0.000000
 11
       -3.000000
 21
       11.400000
 31
        0.000000
  0
LINE
  8
LVL0000
 62
  3
 10
       15.000000
 20
       10.000000
 30
        0.000000
 11
       15.000000
 21
       11.400000
 31
        0.000000
  0
LINE
  8
LVL0000
 62
  3
 10
       12.900000
 20
       13.000000
 30
        0.000000
 11
       14.900000
 21
       13.000000
 31
        0.000000
  0
LINE
  8
LVL0000
 62
  3
 10
       12.900000
 20
       14.400000
 30
        0.000000
 11
       14.900000
 21
       14.400000
 31
        0.000000
  0
LINE
  8
LVL0000
 62
  3
 10
       14.900000
 20
       14.400000
 30
        0.000000
 11
       14.900000
 21
       13.000000
 31
        0.000000
  0
LINE
  8
LVL0000
 62
  3
 10
       15.000000
 20
       10.000000
 30
        0.000000
 11
       17.000000
 21
       10.000000
 31
        0.000000
  0
LINE
  8
LVL0000
 62
  3
 10
       15.000000
 20
       11.400000
 30
        0.000000
 11
       17.000000
 21
       11.400000
 31
        0.000000
  0
LINE
  8
LVL0000
 62
  3
 10
       17.000000
 20
       10.000000
 30
        0.000000
 11
       17.000000
 21
       11.400000
 31
        0.000000
  0
LINE
  8
LVL0000
 62
  3
 10
       21.200000
 20
       10.000000
 30
        0.000000
 11
       21.200000
 21
       11.400000
 31
        0.000000
  0
LINE
  8
LVL0000
 62
  3
 10
       19.200000
 20
       11.400000
 30
        0.000000
 11
       21.200000
 21
       11.400000
 31
        0.000000
  0
LINE
  8
LVL0000
 62
  3
 10
       19.200000
 20
       10.000000
 30
        0.000000
 11
       21.200000
 21
       10.000000
 31
        0.000000
  0
LINE
  8
LVL0000
 62
  3
 10
       19.200000
 20
       10.000000
 30
        0.000000
 11
       19.200000
 21
       11.400000
 31
        0.000000
  0
LINE
  8
LVL0000
 62
  3
 10
       23.400000
 20
       10.000000
 30
        0.000000
 11
       23.400000
 21
       11.400000
 31
        0.000000
  0
LINE
  8
LVL0000
 62
  3
 10
       23.400000
 20
       10.000000
 30
        0.000000
 11
       25.400000
 21
       10.000000
 31
        0.000000
  0
LINE
  8
LVL0000
 62
  3
 10
       23.400000
 20
       11.400000
 30
        0.000000
 11
       25.400000
 21
       11.400000
 31
        0.000000
  0
LINE
  8
LVL0000
 62
  3
 10
       25.400000
 20
       10.000000
 30
        0.000000
 11
       25.400000
 21
       11.400000
 31
        0.000000
  0
LINE
  8
LVL0000
 62
  3
 10
       29.600000
 20
       10.000000
 30
        0.000000
 11
       29.600000
 21
       11.400000
 31
        0.000000
  0
LINE
  8
LVL0000
 62
  3
 10
       27.600000
 20
       11.400000
 30
        0.000000
 11
       29.600000
 21
       11.400000
 31
        0.000000
  0
LINE
  8
LVL0000
 62
  3
 10
       27.600000
 20
       10.000000
 30
        0.000000
 11
       29.600000
 21
       10.000000
 31
        0.000000
  0
LINE
  8
LVL0000
 62
  3
 10
       27.600000
 20
       10.000000
 30
        0.000000
 11
       27.600000
 21
       11.400000
 31
        0.000000
  0
LINE
  8
LVL0000
 62
  3
 10
       17.100000
 20
       14.400000
 30
        0.000000
 11
       17.100000
 21
       13.000000
 31
        0.000000
  0
LINE
  8
LVL0000
 62
  3
 10
       19.100000
 20
       14.400000
 30
        0.000000
 11
       19.100000
 21
       13.000000
 31
        0.000000
  0
LINE
  8
LVL0000
 62
  3
 10
       17.100000
 20
       14.400000
 30
        0.000000
 11
       19.100000
 21
       14.400000
 31
        0.000000
  0
LINE
  8
LVL0000
 62
  3
 10
       17.100000
 20
       13.000000
 30
        0.000000
 11
       19.100000
 21
       13.000000
 31
        0.000000
  0
LINE
  8
LVL0000
 62
  3
 10
       21.300000
 20
       13.000000
 30
        0.000000
 11
       23.300000
 21
       13.000000
 31
        0.000000
  0
LINE
  8
LVL0000
 62
  3
 10
       21.300000
 20
       14.400000
 30
        0.000000
 11
       23.300000
 21
       14.400000
 31
        0.000000
  0
LINE
  8
LVL0000
 62
  3
 10
       23.300000
 20
       14.400000
 30
        0.000000
 11
       23.300000
 21
       13.000000
 31
        0.000000
  0
LINE
  8
LVL0000
 62
  3
 10
       21.300000
 20
       14.400000
 30
        0.000000
 11
       21.300000
 21
       13.000000
 31
        0.000000
  0
LINE
  8
LVL0000
 62
  3
 10
       25.500000
 20
       14.400000
 30
        0.000000
 11
       25.500000
 21
       13.000000
 31
        0.000000
  0
LINE
  8
LVL0000
 62
  3
 10
       27.500000
 20
       14.400000
 30
        0.000000
 11
       27.500000
 21
       13.000000
 31
        0.000000
  0
LINE
  8
LVL0000
 62
  3
 10
       25.500000
 20
       14.400000
 30
        0.000000
 11
       27.500000
 21
       14.400000
 31
        0.000000
  0
LINE
  8
LVL0000
 62
  3
 10
       25.500000
 20
       13.000000
 30
        0.000000
 11
       27.500000
 21
       13.000000
 31
        0.000000
  0
LINE
  8
LVL0000
 62
  3
 10
       12.900000
 20
       14.400000
 30
        0.000000
 11
       12.900000
 21
       13.000000
 31
        0.000000
  0
LINE
  8
LVL0000
 62
  3
 10
       30.900000
 20
       14.400000
 30
        0.000000
 11
       30.900000
 21
       13.000000
 31
        0.000000
  0
LINE
  8
LVL0000
 62
  3
 10
       43.500000
 20
       13.000000
 30
        0.000000
 11
       45.500000
 21
       13.000000
 31
        0.000000
  0
LINE
  8
LVL0000
 62
  3
 10
       43.500000
 20
       14.400000
 30
        0.000000
 11
       45.500000
 21
       14.400000
 31
        0.000000
  0
LINE
  8
LVL0000
 62
  3
 10
       45.500000
 20
       14.400000
 30
        0.000000
 11
       45.500000
 21
       13.000000
 31
        0.000000
  0
LINE
  8
LVL0000
 62
  3
 10
       43.500000
 20
       14.400000
 30
        0.000000
 11
       43.500000
 21
       13.000000
 31
        0.000000
  0
LINE
  8
LVL0000
 62
  3
 10
       39.300000
 20
       14.400000
 30
        0.000000
 11
       39.300000
 21
       13.000000
 31
        0.000000
  0
LINE
  8
LVL0000
 62
  3
 10
       41.300000
 20
       14.400000
 30
        0.000000
 11
       41.300000
 21
       13.000000
 31
        0.000000
  0
LINE
  8
LVL0000
 62
  3
 10
       39.300000
 20
       14.400000
 30
        0.000000
 11
       41.300000
 21
       14.400000
 31
        0.000000
  0
LINE
  8
LVL0000
 62
  3
 10
       39.300000
 20
       13.000000
 30
        0.000000
 11
       41.300000
 21
       13.000000
 31
        0.000000
  0
LINE
  8
LVL0000
 62
  3
 10
       35.100000
 20
       13.000000
 30
        0.000000
 11
       37.100000
 21
       13.000000
 31
        0.000000
  0
LINE
  8
LVL0000
 62
  3
 10
       35.100000
 20
       14.400000
 30
        0.000000
 11
       37.100000
 21
       14.400000
 31
        0.000000
  0
LINE
  8
LVL0000
 62
  3
 10
       37.100000
 20
       14.400000
 30
        0.000000
 11
       37.100000
 21
       13.000000
 31
        0.000000
  0
LINE
  8
LVL0000
 62
  3
 10
       35.100000
 20
       14.400000
 30
        0.000000
 11
       35.100000
 21
       13.000000
 31
        0.000000
  0
LINE
  8
LVL0000
 62
  3
 10
       45.600000
 20
       10.000000
 30
        0.000000
 11
       45.600000
 21
       11.400000
 31
        0.000000
  0
LINE
  8
LVL0000
 62
  3
 10
       45.600000
 20
       10.000000
 30
        0.000000
 11
       47.600000
 21
       10.000000
 31
        0.000000
  0
LINE
  8
LVL0000
 62
  3
 10
       45.600000
 20
       11.400000
 30
        0.000000
 11
       47.600000
 21
       11.400000
 31
        0.000000
  0
LINE
  8
LVL0000
 62
  3
 10
       47.600000
 20
       10.000000
 30
        0.000000
 11
       47.600000
 21
       11.400000
 31
        0.000000
  0
LINE
  8
LVL0000
 62
  3
 10
       43.400000
 20
       10.000000
 30
        0.000000
 11
       43.400000
 21
       11.400000
 31
        0.000000
  0
LINE
  8
LVL0000
 62
  3
 10
       41.400000
 20
       11.400000
 30
        0.000000
 11
       43.400000
 21
       11.400000
 31
        0.000000
  0
LINE
  8
LVL0000
 62
  3
 10
       41.400000
 20
       10.000000
 30
        0.000000
 11
       43.400000
 21
       10.000000
 31
        0.000000
  0
LINE
  8
LVL0000
 62
  3
 10
       41.400000
 20
       10.000000
 30
        0.000000
 11
       41.400000
 21
       11.400000
 31
        0.000000
  0
LINE
  8
LVL0000
 62
  3
 10
       37.200000
 20
       10.000000
 30
        0.000000
 11
       37.200000
 21
       11.400000
 31
        0.000000
  0
LINE
  8
LVL0000
 62
  3
 10
       37.200000
 20
       10.000000
 30
        0.000000
 11
       39.200000
 21
       10.000000
 31
        0.000000
  0
LINE
  8
LVL0000
 62
  3
 10
       37.200000
 20
       11.400000
 30
        0.000000
 11
       39.200000
 21
       11.400000
 31
        0.000000
  0
LINE
  8
LVL0000
 62
  3
 10
       39.200000
 20
       10.000000
 30
        0.000000
 11
       39.200000
 21
       11.400000
 31
        0.000000
  0
LINE
  8
LVL0000
 62
  3
 10
       35.000000
 20
       10.000000
 30
        0.000000
 11
       35.000000
 21
       11.400000
 31
        0.000000
  0
LINE
  8
LVL0000
 62
  3
 10
       33.000000
 20
       11.400000
 30
        0.000000
 11
       35.000000
 21
       11.400000
 31
        0.000000
  0
LINE
  8
LVL0000
 62
  3
 10
       33.000000
 20
       10.000000
 30
        0.000000
 11
       35.000000
 21
       10.000000
 31
        0.000000
  0
LINE
  8
LVL0000
 62
  3
 10
       32.900000
 20
       14.400000
 30
        0.000000
 11
       32.900000
 21
       13.000000
 31
        0.000000
  0
LINE
  8
LVL0000
 62
  3
 10
       30.900000
 20
       14.400000
 30
        0.000000
 11
       32.900000
 21
       14.400000
 31
        0.000000
  0
LINE
  8
LVL0000
 62
  3
 10
       30.900000
 20
       13.000000
 30
        0.000000
 11
       32.900000
 21
       13.000000
 31
        0.000000
  0
LINE
  8
LVL0000
 62
  3
 10
       33.000000
 20
       10.000000
 30
        0.000000
 11
       33.000000
 21
       11.400000
 31
        0.000000
  0
LINE
  8
LVL0000
 62
  3
 10
      -23.100000
 20
       14.400000
 30
        0.000000
 11
      -23.100000
 21
       13.000000
 31
        0.000000
  0
LINE
  8
LVL0000
 62
  3
 10
      -21.000000
 20
       10.000000
 30
        0.000000
 11
      -21.000000
 21
       11.400000
 31
        0.000000
  0
LINE
  8
LVL0000
 62
  3
 10
      -36.050000
 20
       11.400000
 30
        0.000000
 11
      -33.550000
 21
       11.400000
 31
        0.000000
  0
LINE
  8
LVL0000
 62
  3
 10
      -36.050000
 20
       10.000000
 30
        0.000000
 11
      -33.550000
 21
       10.000000
 31
        0.000000
  0
LINE
  8
LVL0000
 62
  3
 10
      -36.050000
 20
       14.400000
 30
        0.000000
 11
      -33.550000
 21
       14.400000
 31
        0.000000
  0
LINE
  8
LVL0000
 62
  3
 10
      -30.450000
 20
       14.400000
 30
        0.000000
 11
      -27.950000
 21
       14.400000
 31
        0.000000
  0
LINE
  8
LVL0000
 62
  3
 10
      -36.050000
 20
       13.000000
 30
        0.000000
 11
      -33.550000
 21
       13.000000
 31
        0.000000
  0
LINE
  8
LVL0000
 62
  3
 10
      -30.450000
 20
       13.000000
 30
        0.000000
 11
      -27.950000
 21
       13.000000
 31
        0.000000
  0
LINE
  8
LVL0000
 62
  3
 10
       67.880000
 20
       16.200000
 30
        0.000000
 11
       67.880000
 21
       18.200000
 31
        0.000000
  0
LINE
  8
LVL0000
 62
  3
 10
       70.420000
 20
       16.200000
 30
        0.000000
 11
       70.420000
 21
       18.200000
 31
        0.000000
  0
LINE
  8
LVL0000
 62
  3
 10
       72.960000
 20
       16.200000
 30
        0.000000
 11
       72.960000
 21
       18.200000
 31
        0.000000
  0
LINE
  8
LVL0000
 62
  3
 10
       69.280000
 20
       16.200000
 30
        0.000000
 11
       67.880000
 21
       16.200000
 31
        0.000000
  0
LINE
  8
LVL0000
 62
  3
 10
       71.820000
 20
       16.200000
 30
        0.000000
 11
       70.420000
 21
       16.200000
 31
        0.000000
  0
LINE
  8
LVL0000
 62
  3
 10
       74.360000
 20
       16.200000
 30
        0.000000
 11
       72.960000
 21
       16.200000
 31
        0.000000
  0
LINE
  8
LVL0000
 62
  3
 10
       69.280000
 20
       17.400000
 30
        0.000000
 11
       67.880000
 21
       17.400000
 31
        0.000000
  0
LINE
  8
LVL0000
 62
  3
 10
       71.820000
 20
       17.400000
 30
        0.000000
 11
       70.420000
 21
       17.400000
 31
        0.000000
  0
LINE
  8
LVL0000
 62
  3
 10
       74.360000
 20
       17.400000
 30
        0.000000
 11
       72.960000
 21
       17.400000
 31
        0.000000
  0
LINE
  8
LVL0000
 62
  3
 10
       69.280000
 20
       16.200000
 30
        0.000000
 11
       69.280000
 21
       18.200000
 31
        0.000000
  0
LINE
  8
LVL0000
 62
  3
 10
       71.820000
 20
       16.200000
 30
        0.000000
 11
       71.820000
 21
       18.200000
 31
        0.000000
  0
LINE
  8
LVL0000
 62
  3
 10
       74.360000
 20
       16.200000
 30
        0.000000
 11
       74.360000
 21
       18.200000
 31
        0.000000
  0
LINE
  8
LVL0000
 62
  3
 10
       75.300000
 20
       18.200000
 30
        0.000000
 11
       66.564996
 21
       18.200000
 31
        0.000000
  0
LINE
  8
LVL0000
 62
  3
 10
       66.564996
 20
       18.200000
 30
        0.000000
 11
       66.564996
 21
       16.100000
 31
        0.000000
  0
LINE
  8
LVL0000
 62
  3
 10
       87.250000
 20
       21.000000
 30
        0.000000
 11
       94.750000
 21
       21.000000
 31
        0.000000
  0
LINE
  8
LVL0000
 62
  3
 10
       79.250000
 20
       21.000000
 30
        0.000000
 11
       86.750000
 21
       21.000000
 31
        0.000000
  0
CIRCLE
  8
LVL0000
 62
  3
 10
       91.000000
 20
       17.150000
 30
        0.000000
 40
        3.500000
  0
CIRCLE
  8
LVL0000
 62
  3
 10
       83.000000
 20
       17.150000
 30
        0.000000
 40
        3.500000
  0
LINE
  8
LVL0000
 62
  3
 10
     -100.000000
 20
        7.500000
 30
        0.000000
 11
       90.000000
 21
        7.500000
 31
        0.000000
  0
LINE
  8
LVL0000
 62
  3
 10
     -100.000000
 20
        7.915554
 30
        0.000000
 11
      100.000000
 21
        7.915554
 31
        0.000000
  0
LINE
  8
LVL0000
 62
  3
 10
       81.050000
 20
      -10.800000
 30
        0.000000
 11
       81.050000
 21
      -24.000000
 31
        0.000000
  0
LINE
  8
LVL0000
 62
  3
 10
      -91.050000
 20
      -10.800000
 30
        0.000000
 11
      -91.050000
 21
      -24.000000
 31
        0.000000
  0
LINE
  8
LVL0000
 62
  3
 10
     -100.000000
 20
      -10.800000
 30
        0.000000
 11
      100.000000
 21
      -10.800000
 31
        0.000000
  0
LINE
  8
LVL0000
 62
  3
 10
       90.000000
 20
        7.500000
 30
        0.000000
 11
       90.000000
 21
      -10.000000
 31
        0.000000
  0
LINE
  8
LVL0000
 62
  3
 10
     -100.000000
 20
      -10.000000
 30
        0.000000
 11
       90.000000
 21
      -10.000000
 31
        0.000000
  0
LINE
  8
LVL0000
 62
  3
 10
       81.050000
 20
        7.500000
 30
        0.000000
 11
       81.050000
 21
      -10.000000
 31
        0.000000
  0
LINE
  8
LVL0000
 62
  3
 10
      -91.050000
 20
        7.500000
 30
        0.000000
 11
      -91.050000
 21
      -10.000000
 31
        0.000000
  0
LINE
  8
LVL0000
 62
  3
 10
       90.000000
 20
      -10.800000
 30
        0.000000
 11
       90.000000
 21
      -25.000000
 31
        0.000000
  0
LINE
  8
LVL0000
 62
  3
 10
      -77.000000
 20
      -28.000000
 30
        0.000000
 11
      -63.000000
 21
      -28.000000
 31
        0.000000
  0
LINE
  8
LVL0000
 62
  3
 10
      -80.000000
 20
      -25.000000
 30
        0.000000
 11
      -77.000000
 21
      -28.000000
 31
        0.000000
  0
LINE
  8
LVL0000
 62
  3
 10
      -60.000000
 20
      -25.000000
 30
        0.000000
 11
      -63.000000
 21
      -28.000000
 31
        0.000000
  0
LINE
  8
LVL0000
 62
  3
 10
       60.000000
 20
      -25.000000
 30
        0.000000
 11
       63.000000
 21
      -28.000000
 31
        0.000000
  0
LINE
  8
LVL0000
 62
  3
 10
       80.000000
 20
      -25.000000
 30
        0.000000
 11
       77.000000
 21
      -28.000000
 31
        0.000000
  0
LINE
  8
LVL0000
 62
  3
 10
       77.000000
 20
      -28.000000
 30
        0.000000
 11
       63.000000
 21
      -28.000000
 31
        0.000000
  0
LINE
  8
LVL0000
 62
  3
 10
      -41.000000
 20
       25.000000
 30
        0.000000
 11
      -41.000000
 21
        7.915554
 31
        0.000000
  0
LINE
  8
LVL0000
 62
  3
 10
     -100.000000
 20
        7.700000
 30
        0.000000
 11
      100.000000
 21
        7.700000
 31
        0.000000
  0
LINE
  8
LVL0000
 62
  3
 10
       97.499982
 20
       22.600000
 30
        0.000000
 11
       97.499982
 21
       13.100000
 31
        0.000000
  0
LINE
  8
LVL0000
 62
  3
 10
       64.999973
 20
       22.600000
 30
        0.000000
 11
       64.999973
 21
       13.100000
 31
        0.000000
  0
LINE
  8
LVL0000
 62
  3
 10
       65.999973
 20
       14.000000
 30
        0.000000
 11
       64.999973
 21
       14.000000
 31
        0.000000
  0
LINE
  8
LVL0000
 62
  3
 10
       99.999982
 20
       22.600000
 30
        0.000000
 11
       64.999973
 21
       22.600000
 31
        0.000000
  0
LINE
  8
LVL0000
 62
  3
 10
       65.999973
 20
       21.100000
 30
        0.000000
 11
       65.999973
 21
       21.700000
 31
        0.000000
  0
LINE
  8
LVL0000
 62
  3
 10
       65.999973
 20
       21.700000
 30
        0.000000
 11
       64.999973
 21
       21.700000
 31
        0.000000
  0
LINE
  8
LVL0000
 62
  3
 10
       94.999982
 20
       22.600000
 30
        0.000000
 11
       94.999982
 21
       21.300000
 31
        0.000000
  0
LINE
  8
LVL0000
 62
  3
 10
      -30.450000
 20
       14.400000
 30
        0.000000
 11
      -30.450000
 21
       13.000000
 31
        0.000000
  0
LINE
  8
LVL0000
 62
  3
 10
      -27.950000
 20
       14.400000
 30
        0.000000
 11
      -27.950000
 21
       13.000000
 31
        0.000000
  0
LINE
  8
LVL0000
 62
  3
 10
      -33.550000
 20
       14.400000
 30
        0.000000
 11
      -33.550000
 21
       13.000000
 31
        0.000000
  0
LINE
  8
LVL0000
 62
  3
 10
      -36.050000
 20
       14.400000
 30
        0.000000
 11
      -36.050000
 21
       13.000000
 31
        0.000000
  0
LINE
  8
LVL0000
 62
  3
 10
      -36.050000
 20
       11.400000
 30
        0.000000
 11
      -36.050000
 21
       10.000000
 31
        0.000000
  0
LINE
  8
LVL0000
 62
  3
 10
      -33.550000
 20
       11.400000
 30
        0.000000
 11
      -33.550000
 21
       10.000000
 31
        0.000000
  0
LINE
  8
LVL0000
 62
  3
 10
       78.300000
 20
       13.100000
 30
        0.000000
 11
       64.999973
 21
       13.100000
 31
        0.000000
  0
LINE
  8
LVL0000
 62
  3
 10
       99.999982
 20
       13.100000
 30
        0.000000
 11
       78.300000
 21
       13.100000
 31
        0.000000
  0
LINE
  8
LVL0000
 62
  3
 10
       75.300000
 20
       21.100000
 30
        0.000000
 11
       65.999973
 21
       21.100000
 31
        0.000000
  0
LINE
  8
LVL0000
 62
  3
 10
       94.999982
 20
       21.300000
 30
        0.000000
 11
       78.300000
 21
       21.300000
 31
        0.000000
  0
LINE
  8
LVL0000
 62
  3
 10
       78.300000
 20
       21.300000
 30
        0.000000
 11
       78.300000
 21
       13.100000
 31
        0.000000
  0
LINE
  8
LVL0000
 62
  3
 10
       65.999973
 20
       16.100000
 30
        0.000000
 11
       65.999973
 21
       14.000000
 31
        0.000000
  0
LINE
  8
LVL0000
 62
  3
 10
       75.300000
 20
       16.100000
 30
        0.000000
 11
       65.999973
 21
       16.100000
 31
        0.000000
  0
LINE
  8
LVL0000
 62
  3
 10
       75.300000
 20
       21.100000
 30
        0.000000
 11
       75.300000
 21
       16.100000
 31
        0.000000
  0
LINE
  8
LVL0000
 62
  3
 10
      -90.000000
 20
       25.000000
 30
        0.000000
 11
      -90.000000
 21
       20.000000
 31
        0.000000
  0
ARC
  8
LVL0000
 62
  3
 10
      -95.000000
 20
       20.000000
 30
        0.000000
 40
        5.000000
 50
      270.000000
 51
      360.000000
  0
LINE
  8
LVL0000
 62
  3
 10
     -100.000000
 20
       15.000000
 30
        0.000000
 11
      -95.000000
 21
       15.000000
 31
        0.000000
  0
LINE
  8
LVL0000
 62
  3
 10
       95.000000
 20
      -15.000000
 30
        0.000000
 11
      100.000000
 21
      -15.000000
 31
        0.000000
  0
ARC
  8
LVL0000
 62
  3
 10
       95.000000
 20
      -20.000000
 30
        0.000000
 40
        5.000000
 50
       90.000000
 51
      179.999995
  0
LINE
  8
LVL0000
 62
  3
 10
      -56.300000
 20
       10.500000
 30
        0.000000
 11
      -56.300000
 21
       23.100000
 31
        0.000000
  0
ARC
  8
LVL0000
 62
  3
 10
      -85.800000
 20
       18.900000
 30
        0.000000
 40
        0.800000
 50
       90.000000
 51
      179.999995
  0
LINE
  8
LVL0000
 62
  3
 10
      -86.600000
 20
       14.700000
 30
        0.000000
 11
      -86.600000
 21
       18.900000
 31
        0.000000
  0
ARC
  8
LVL0000
 62
  3
 10
      -85.800000
 20
       14.700000
 30
        0.000000
 40
        0.800000
 50
      179.999995
 51
      270.000000
  0
ARC
  8
LVL0000
 62
  3
 10
      -52.200000
 20
       18.900000
 30
        0.000000
 40
        0.800000
 50
        0.000000
 51
       90.000000
  0
LINE
  8
LVL0000
 62
  3
 10
      -51.400000
 20
       14.700000
 30
        0.000000
 11
      -51.400000
 21
       18.900000
 31
        0.000000
  0
ARC
  8
LVL0000
 62
  3
 10
      -52.200000
 20
       14.700000
 30
        0.000000
 40
        0.800000
 50
      270.000000
 51
      360.000000
  0
LINE
  8
LVL0000
 62
  3
 10
      -85.800000
 20
       13.900000
 30
        0.000000
 11
      -81.700000
 21
       13.900000
 31
        0.000000
  0
LINE
  8
LVL0000
 62
  3
 10
      -56.300000
 20
       13.900000
 30
        0.000000
 11
      -52.200000
 21
       13.900000
 31
        0.000000
  0
LINE
  8
LVL0000
 62
  3
 10
      -85.800000
 20
       19.700000
 30
        0.000000
 11
      -81.700000
 21
       19.700000
 31
        0.000000
  0
LINE
  8
LVL0000
 62
  3
 10
      -56.300000
 20
       19.700000
 30
        0.000000
 11
      -52.200000
 21
       19.700000
 31
        0.000000
  0
LINE
  8
LVL0000
 62
  3
 10
      -84.640000
 20
       18.750000
 30
        0.000000
 11
      -84.640000
 21
       14.891467
 31
        0.000000
  0
LINE
  8
LVL0000
 62
  3
 10
      -83.840000
 20
       18.750000
 30
        0.000000
 11
      -83.840000
 21
       14.891467
 31
        0.000000
  0
LINE
  8
LVL0000
 62
  3
 10
      -53.360000
 20
       18.750000
 30
        0.000000
 11
      -53.360000
 21
       14.891467
 31
        0.000000
  0
LINE
  8
LVL0000
 62
  3
 10
      -54.160000
 20
       18.750000
 30
        0.000000
 11
      -54.160000
 21
       14.891467
 31
        0.000000
  0
CIRCLE
  8
LVL0000
 62
  3
 10
      -84.240000
 20
       16.800000
 30
        0.000000
 40
        1.950000
  0
CIRCLE
  8
LVL0000
 62
  3
 10
      -53.760000
 20
       16.800000
 30
        0.000000
 40
        1.950000
  0
LINE
  8
LVL0000
 62
  3
 10
      -51.220000
 20
       13.000000
 30
        0.000000
 11
      -51.220000
 21
       21.300000
 31
        0.000000
  0
LINE
  8
LVL0000
 62
  3
 10
      -86.780000
 20
       13.000000
 30
        0.000000
 11
      -86.780000
 21
       21.300000
 31
        0.000000
  0
LINE
  8
LVL0000
 62
  3
 10
      -81.700000
 20
       22.200000
 30
        0.000000
 11
      -56.300000
 21
       22.200000
 31
        0.000000
  0
LINE
  8
LVL0000
 62
  3
 10
      -81.700000
 20
       20.600000
 30
        0.000000
 11
      -56.300000
 21
       20.600000
 31
        0.000000
  0
LINE
  8
LVL0000
 62
  3
 10
      -62.258299
 20
       18.596016
 30
        0.000000
 11
      -64.986694
 21
       15.867620
 31
        0.000000
  0
LINE
  8
LVL0000
 62
  3
 10
      -62.823984
 20
       19.161701
 30
        0.000000
 11
      -65.552380
 21
       16.433306
 31
        0.000000
  0
CIRCLE
  8
LVL0000
 62
  3
 10
      -63.920000
 20
       17.500000
 30
        0.000000
 40
        1.950000
  0
CIRCLE
  8
LVL0000
 62
  3
 10
      -69.000000
 20
       17.500000
 30
        0.000000
 40
        1.950000
  0
LINE
  8
LVL0000
 62
  3
 10
      -67.903984
 20
       19.161701
 30
        0.000000
 11
      -70.632380
 21
       16.433306
 31
        0.000000
  0
LINE
  8
LVL0000
 62
  3
 10
      -67.338299
 20
       18.596016
 30
        0.000000
 11
      -70.066694
 21
       15.867620
 31
        0.000000
  0
LINE
  8
LVL0000
 62
  3
 10
      -72.418299
 20
       18.596016
 30
        0.000000
 11
      -75.146694
 21
       15.867620
 31
        0.000000
  0
LINE
  8
LVL0000
 62
  3
 10
      -72.983984
 20
       19.161701
 30
        0.000000
 11
      -75.712380
 21
       16.433306
 31
        0.000000
  0
CIRCLE
  8
LVL0000
 62
  3
 10
      -74.080000
 20
       17.500000
 30
        0.000000
 40
        1.950000
  0
CIRCLE
  8
LVL0000
 62
  3
 10
      -79.160000
 20
       17.500000
 30
        0.000000
 40
        1.950000
  0
LINE
  8
LVL0000
 62
  3
 10
      -78.063984
 20
       19.161701
 30
        0.000000
 11
      -80.792380
 21
       16.433306
 31
        0.000000
  0
LINE
  8
LVL0000
 62
  3
 10
      -77.498299
 20
       18.596016
 30
        0.000000
 11
      -80.226694
 21
       15.867620
 31
        0.000000
  0
CIRCLE
  8
LVL0000
 62
  3
 10
      -58.840000
 20
       17.500000
 30
        0.000000
 40
        1.950000
  0
LINE
  8
LVL0000
 62
  3
 10
      -57.743984
 20
       19.161701
 30
        0.000000
 11
      -60.472380
 21
       16.433306
 31
        0.000000
  0
LINE
  8
LVL0000
 62
  3
 10
      -57.178299
 20
       18.596016
 30
        0.000000
 11
      -59.906694
 21
       15.867620
 31
        0.000000
  0
LINE
  8
LVL0000
 62
  3
 10
      -81.700000
 20
       14.500000
 30
        0.000000
 11
      -56.300000
 21
       14.500000
 31
        0.000000
  0
LINE
  8
LVL0000
 62
  3
 10
      -56.300000
 20
       12.500000
 30
        0.000000
 11
      -51.200000
 21
       12.500000
 31
        0.000000
  0
LINE
  8
LVL0000
 62
  3
 10
      -86.800000
 20
       12.500000
 30
        0.000000
 11
      -81.700000
 21
       12.500000
 31
        0.000000
  0
LINE
  8
LVL0000
 62
  3
 10
      -78.600000
 20
       23.800000
 30
        0.000000
 11
      -78.600000
 21
       23.100000
 31
        0.000000
  0
LINE
  8
LVL0000
 62
  3
 10
      -76.400000
 20
       23.800000
 30
        0.000000
 11
      -76.400000
 21
       23.100000
 31
        0.000000
  0
LINE
  8
LVL0000
 62
  3
 10
      -59.400000
 20
       23.800000
 30
        0.000000
 11
      -59.400000
 21
       23.100000
 31
        0.000000
  0
LINE
  8
LVL0000
 62
  3
 10
      -61.600000
 20
       23.800000
 30
        0.000000
 11
      -61.600000
 21
       23.100000
 31
        0.000000
  0
LINE
  8
LVL0000
 62
  3
 10
      -86.800000
 20
       21.800000
 30
        0.000000
 11
      -81.700000
 21
       21.800000
 31
        0.000000
  0
LINE
  8
LVL0000
 62
  3
 10
      -56.300000
 20
       21.800000
 30
        0.000000
 11
      -51.200000
 21
       21.800000
 31
        0.000000
  0
LINE
  8
LVL0000
 62
  3
 10
      -56.300000
 20
       21.300000
 30
        0.000000
 11
      -51.220000
 21
       21.300000
 31
        0.000000
  0
LINE
  8
LVL0000
 62
  3
 10
      -86.780000
 20
       21.300000
 30
        0.000000
 11
      -81.700000
 21
       21.300000
 31
        0.000000
  0
LINE
  8
LVL0000
 62
  3
 10
      -56.300000
 20
       13.000000
 30
        0.000000
 11
      -51.220000
 21
       13.000000
 31
        0.000000
  0
LINE
  8
LVL0000
 62
  3
 10
      -86.780000
 20
       13.000000
 30
        0.000000
 11
      -81.700000
 21
       13.000000
 31
        0.000000
  0
ARC
  8
LVL0000
 62
  3
 10
      -51.200000
 20
       21.300000
 30
        0.000000
 40
        0.500000
 50
        0.000000
 51
       90.000000
  0
ARC
  8
LVL0000
 62
  3
 10
      -86.800000
 20
       21.300000
 30
        0.000000
 40
        0.500000
 50
       90.000000
 51
      179.999995
  0
LINE
  8
LVL0000
 62
  3
 10
      -87.300000
 20
       21.300000
 30
        0.000000
 11
      -87.300000
 21
       13.000000
 31
        0.000000
  0
LINE
  8
LVL0000
 62
  3
 10
      -50.700000
 20
       21.300000
 30
        0.000000
 11
      -50.700000
 21
       13.000000
 31
        0.000000
  0
ARC
  8
LVL0000
 62
  3
 10
      -86.800000
 20
       13.000000
 30
        0.000000
 40
        0.500000
 50
      179.999995
 51
      270.000000
  0
ARC
  8
LVL0000
 62
  3
 10
      -51.200000
 20
       13.000000
 30
        0.000000
 40
        0.500000
 50
      270.000000
 51
      360.000000
  0
LINE
  8
LVL0000
 62
  3
 10
      -76.400000
 20
       23.800000
 30
        0.000000
 11
      -78.600000
 21
       23.800000
 31
        0.000000
  0
LINE
  8
LVL0000
 62
  3
 10
      -61.600000
 20
       23.800000
 30
        0.000000
 11
      -59.400000
 21
       23.800000
 31
        0.000000
  0
LINE
  8
LVL0000
 62
  3
 10
      -81.700000
 20
       23.100000
 30
        0.000000
 11
      -56.300000
 21
       23.100000
 31
        0.000000
  0
LINE
  8
LVL0000
 62
  3
 10
      -81.700000
 20
       10.500000
 30
        0.000000
 11
      -56.300000
 21
       10.500000
 31
        0.000000
  0
LINE
  8
LVL0000
 62
  3
 10
      -81.700000
 20
       10.500000
 30
        0.000000
 11
      -81.700000
 21
       23.100000
 31
        0.000000
  0
CIRCLE
  8
LVL0000
 62
  3
 10
       95.000000
 20
      -20.000000
 30
        0.000000
 40
        2.000000
  0
CIRCLE
  8
LVL0000
 62
  3
 10
      -95.000000
 20
       20.000000
 30
        0.000000
 40
        2.000000
  0
ARC
  8
LVL0000
 62
  3
 10
       99.000000
 20
      -24.000000
 30
        0.000000
 40
        1.000000
 50
      270.000000
 51
      360.000000
  0
ARC
  8
LVL0000
 62
  3
 10
       84.100000
 20
       -0.135999
 30
        0.000000
 40
        0.450000
 50
        0.000000
 51
       90.000000
  0
ARC
  8
LVL0000
 62
  3
 10
       85.900000
 20
       -0.135999
 30
        0.000000
 40
        0.449999
 50
       90.000000
 51
      180.000010
  0
ARC
  8
LVL0000
 62
  3
 10
       85.900000
 20
        1.663997
 30
        0.000000
 40
        0.450000
 50
      180.000010
 51
      270.000000
  0
ARC
  8
LVL0000
 62
  3
 10
       84.100000
 20
        1.663997
 30
        0.000000
 40
        0.449999
 50
      270.000000
 51
      360.000000
  0
LINE
  8
LVL0000
 62
  3
 10
       85.450000
 20
        1.663997
 30
        0.000000
 11
       85.450000
 21
        2.414001
 31
        0.000000
  0
LINE
  8
LVL0000
 62
  3
 10
       84.550000
 20
        1.663997
 30
        0.000000
 11
       84.550000
 21
        2.414001
 31
        0.000000
  0
LINE
  8
LVL0000
 62
  3
 10
       84.100000
 20
        0.314000
 30
        0.000000
 11
       83.350000
 21
        0.314000
 31
        0.000000
  0
LINE
  8
LVL0000
 62
  3
 10
       84.100000
 20
        1.213998
 30
        0.000000
 11
       83.350000
 21
        1.213998
 31
        0.000000
  0
LINE
  8
LVL0000
 62
  3
 10
       86.650000
 20
        0.314000
 30
        0.000000
 11
       85.900000
 21
        0.314000
 31
        0.000000
  0
LINE
  8
LVL0000
 62
  3
 10
       86.650000
 20
        1.213998
 30
        0.000000
 11
       85.900000
 21
        1.213998
 31
        0.000000
  0
LINE
  8
LVL0000
 62
  3
 10
       84.550000
 20
       -0.886000
 30
        0.000000
 11
       84.550000
 21
       -0.135999
 31
        0.000000
  0
LINE
  8
LVL0000
 62
  3
 10
       85.450000
 20
       -0.886000
 30
        0.000000
 11
       85.450000
 21
       -0.135999
 31
        0.000000
  0
LINE
  8
LVL0000
 62
  3
 10
       86.650000
 20
        0.314000
 30
        0.000000
 11
       86.650000
 21
        1.213998
 31
        0.000000
  0
LINE
  8
LVL0000
 62
  3
 10
       83.350000
 20
        0.314000
 30
        0.000000
 11
       83.350000
 21
        1.213998
 31
        0.000000
  0
LINE
  8
LVL0000
 62
  3
 10
       85.450000
 20
       -0.886000
 30
        0.000000
 11
       84.550000
 21
       -0.886000
 31
        0.000000
  0
LINE
  8
LVL0000
 62
  3
 10
       85.450000
 20
        2.414001
 30
        0.000000
 11
       84.550000
 21
        2.414001
 31
        0.000000
  0
CIRCLE
  8
LVL0000
 62
  3
 10
       85.000000
 20
        0.700000
 30
        0.000000
 40
        2.750000
  0
LINE
  8
LVL0000
 62
  3
 10
      -95.900000
 20
        0.314000
 30
        0.000000
 11
      -96.650000
 21
        0.314000
 31
        0.000000
  0
LINE
  8
LVL0000
 62
  3
 10
      -96.650000
 20
        1.213998
 30
        0.000000
 11
      -96.650000
 21
        0.314000
 31
        0.000000
  0
CIRCLE
  8
LVL0000
 62
  3
 10
      -95.000000
 20
        0.700000
 30
        0.000000
 40
        2.750000
  0
LINE
  8
LVL0000
 62
  3
 10
      -94.550000
 20
        2.414001
 30
        0.000000
 11
      -95.450000
 21
        2.414001
 31
        0.000000
  0
LINE
  8
LVL0000
 62
  3
 10
      -94.550000
 20
       -0.886000
 30
        0.000000
 11
      -95.450000
 21
       -0.886000
 31
        0.000000
  0
LINE
  8
LVL0000
 62
  3
 10
      -93.350000
 20
        0.314000
 30
        0.000000
 11
      -93.350000
 21
        1.213998
 31
        0.000000
  0
LINE
  8
LVL0000
 62
  3
 10
      -94.550000
 20
       -0.886000
 30
        0.000000
 11
      -94.550000
 21
       -0.135999
 31
        0.000000
  0
LINE
  8
LVL0000
 62
  3
 10
      -93.350000
 20
        1.213998
 30
        0.000000
 11
      -94.100000
 21
        1.213998
 31
        0.000000
  0
LINE
  8
LVL0000
 62
  3
 10
      -93.350000
 20
        0.314000
 30
        0.000000
 11
      -94.100000
 21
        0.314000
 31
        0.000000
  0
LINE
  8
LVL0000
 62
  3
 10
      -94.550000
 20
        1.663997
 30
        0.000000
 11
      -94.550000
 21
        2.414001
 31
        0.000000
  0
ARC
  8
LVL0000
 62
  3
 10
      -94.100000
 20
        1.663997
 30
        0.000000
 40
        0.450000
 50
      180.000010
 51
      270.000000
  0
ARC
  8
LVL0000
 62
  3
 10
      -94.100000
 20
       -0.135999
 30
        0.000000
 40
        0.449999
 50
       90.000000
 51
      180.000010
  0
LINE
  8
LVL0000
 62
  3
 10
      -95.450000
 20
       -0.886000
 30
        0.000000
 11
      -95.450000
 21
       -0.135999
 31
        0.000000
  0
LINE
  8
LVL0000
 62
  3
 10
      -95.450000
 20
        1.663997
 30
        0.000000
 11
      -95.450000
 21
        2.414001
 31
        0.000000
  0
ARC
  8
LVL0000
 62
  3
 10
      -95.900000
 20
        1.663997
 30
        0.000000
 40
        0.449999
 50
      270.000000
 51
      360.000000
  0
ARC
  8
LVL0000
 62
  3
 10
      -95.900000
 20
       -0.135999
 30
        0.000000
 40
        0.450000
 50
        0.000000
 51
       90.000000
  0
LINE
  8
LVL0000
 62
  3
 10
      -95.900000
 20
        1.213998
 30
        0.000000
 11
      -96.650000
 21
        1.213998
 31
        0.000000
  0
LINE
  8
LVL0000
 62
  3
 10
      -95.900000
 20
      -17.986000
 30
        0.000000
 11
      -96.650000
 21
      -17.986000
 31
        0.000000
  0
LINE
  8
LVL0000
 62
  3
 10
      -96.650000
 20
      -17.086002
 30
        0.000000
 11
      -96.650000
 21
      -17.986000
 31
        0.000000
  0
CIRCLE
  8
LVL0000
 62
  3
 10
      -95.000000
 20
      -17.600000
 30
        0.000000
 40
        2.750000
  0
LINE
  8
LVL0000
 62
  3
 10
      -94.550000
 20
      -15.885999
 30
        0.000000
 11
      -95.450000
 21
      -15.885999
 31
        0.000000
  0
LINE
  8
LVL0000
 62
  3
 10
      -94.550000
 20
      -19.186000
 30
        0.000000
 11
      -95.450000
 21
      -19.186000
 31
        0.000000
  0
LINE
  8
LVL0000
 62
  3
 10
      -93.350000
 20
      -17.986000
 30
        0.000000
 11
      -93.350000
 21
      -17.086002
 31
        0.000000
  0
LINE
  8
LVL0000
 62
  3
 10
      -94.550000
 20
      -19.186000
 30
        0.000000
 11
      -94.550000
 21
      -18.435999
 31
        0.000000
  0
LINE
  8
LVL0000
 62
  3
 10
      -93.350000
 20
      -17.086002
 30
        0.000000
 11
      -94.100000
 21
      -17.086002
 31
        0.000000
  0
LINE
  8
LVL0000
 62
  3
 10
      -93.350000
 20
      -17.986000
 30
        0.000000
 11
      -94.100000
 21
      -17.986000
 31
        0.000000
  0
LINE
  8
LVL0000
 62
  3
 10
      -94.550000
 20
      -16.636003
 30
        0.000000
 11
      -94.550000
 21
      -15.885999
 31
        0.000000
  0
ARC
  8
LVL0000
 62
  3
 10
      -94.100000
 20
      -16.636003
 30
        0.000000
 40
        0.450000
 50
      180.000010
 51
      270.000000
  0
ARC
  8
LVL0000
 62
  3
 10
      -94.100000
 20
      -18.435999
 30
        0.000000
 40
        0.449999
 50
       90.000000
 51
      180.000010
  0
LINE
  8
LVL0000
 62
  3
 10
      -95.450000
 20
      -19.186000
 30
        0.000000
 11
      -95.450000
 21
      -18.435999
 31
        0.000000
  0
LINE
  8
LVL0000
 62
  3
 10
      -95.450000
 20
      -16.636003
 30
        0.000000
 11
      -95.450000
 21
      -15.885999
 31
        0.000000
  0
ARC
  8
LVL0000
 62
  3
 10
      -95.900000
 20
      -16.636003
 30
        0.000000
 40
        0.449999
 50
      270.000000
 51
      360.000000
  0
ARC
  8
LVL0000
 62
  3
 10
      -95.900000
 20
      -18.435999
 30
        0.000000
 40
        0.450000
 50
        0.000000
 51
       90.000000
  0
LINE
  8
LVL0000
 62
  3
 10
      -95.900000
 20
      -17.086002
 30
        0.000000
 11
      -96.650000
 21
      -17.086002
 31
        0.000000
  0
LINE
  8
LVL0000
 62
  3
 10
       85.900000
 20
      -17.986000
 30
        0.000000
 11
       86.650000
 21
      -17.986000
 31
        0.000000
  0
LINE
  8
LVL0000
 62
  3
 10
       86.650000
 20
      -17.086002
 30
        0.000000
 11
       86.650000
 21
      -17.986000
 31
        0.000000
  0
CIRCLE
  8
LVL0000
 62
  3
 10
       85.000000
 20
      -17.600000
 30
        0.000000
 40
        2.750000
  0
LINE
  8
LVL0000
 62
  3
 10
       84.550000
 20
      -15.885999
 30
        0.000000
 11
       85.450000
 21
      -15.885999
 31
        0.000000
  0
LINE
  8
LVL0000
 62
  3
 10
       84.550000
 20
      -19.186000
 30
        0.000000
 11
       85.450000
 21
      -19.186000
 31
        0.000000
  0
LINE
  8
LVL0000
 62
  3
 10
       83.350000
 20
      -17.986000
 30
        0.000000
 11
       83.350000
 21
      -17.086002
 31
        0.000000
  0
LINE
  8
LVL0000
 62
  3
 10
       84.550000
 20
      -19.186000
 30
        0.000000
 11
       84.550000
 21
      -18.435999
 31
        0.000000
  0
LINE
  8
LVL0000
 62
  3
 10
       83.350000
 20
      -17.086002
 30
        0.000000
 11
       84.100000
 21
      -17.086002
 31
        0.000000
  0
LINE
  8
LVL0000
 62
  3
 10
       83.350000
 20
      -17.986000
 30
        0.000000
 11
       84.100000
 21
      -17.986000
 31
        0.000000
  0
LINE
  8
LVL0000
 62
  3
 10
       84.550000
 20
      -16.636003
 30
        0.000000
 11
       84.550000
 21
      -15.885999
 31
        0.000000
  0
ARC
  8
LVL0000
 62
  3
 10
       84.100000
 20
      -16.636003
 30
        0.000000
 40
        0.450000
 50
      270.000000
 51
      359.999995
  0
ARC
  8
LVL0000
 62
  3
 10
       84.100000
 20
      -18.435999
 30
        0.000000
 40
        0.449999
 50
      359.999995
 51
      450.000000
  0
LINE
  8
LVL0000
 62
  3
 10
       85.450000
 20
      -19.186000
 30
        0.000000
 11
       85.450000
 21
      -18.435999
 31
        0.000000
  0
LINE
  8
LVL0000
 62
  3
 10
       85.450000
 20
      -16.636003
 30
        0.000000
 11
       85.450000
 21
      -15.885999
 31
        0.000000
  0
ARC
  8
LVL0000
 62
  3
 10
       85.900000
 20
      -16.636003
 30
        0.000000
 40
        0.449999
 50
      179.999995
 51
      270.000000
  0
ARC
  8
LVL0000
 62
  3
 10
       85.900000
 20
      -18.435999
 30
        0.000000
 40
        0.450000
 50
       90.000000
 51
      179.999995
  0
LINE
  8
LVL0000
 62
  3
 10
       85.900000
 20
      -17.086002
 30
        0.000000
 11
       86.650000
 21
      -17.086002
 31
        0.000000
  0
ENDSEC
  0
EOF
