  0
SECTION
  2
HEADER
  9
$ACADVER
  1
AC1006
  9
$INSBASE
 10
0.0
 20
0.0
 30
0.0
  9
$EXTMIN
 10
      -95.754021
 20
      -44.500244
  9
$EXTMAX
 10
      171.205322
 20
       82.061493
  9
$LIMMIN
 10
      -95.754021
 20
      -44.500244
  9
$LIMMAX
 10
      171.205322
 20
       82.061493
  9
$VIEWCTR
 10
       37.725651
 20
       37.725651
  9
$ORTHOMODE
 70
     0
  9
$ANGBASE
 50
0.0
  9
$ANGDIR
 70
     0
  9
$SPLINETYPE
 70
     6
  9
$SPLINESEGS
 70
     8
9
$DIMASZ
 40
        3.500000
9
$DIMEXE
 40
        0.700000
9
$DIMEXO
 40
        1.000000
9
$DIMTXT
 40
        3.000000
9
$DIMGAP
 40
        0.700000
9
$DIMTAD
 70
1
9
$DIMTIH
 70
0
9
$DIMTOH
 70
0
  0
ENDSEC
  0
SECTION
  2
TABLES
  0
TABLE
  2
LTYPE
 70
     5
  0
LTYPE
  2
CONTINUOUS
 70
    64
  3
SOLID LINE
 72
    65
 73
     0
 40
0.0
  0
LTYPE
  2
DASHED
 70
    64
  3
-- -- -- -- -- --
 72
    65
 73
     2
 40
  0.75  
 49
  0.50  
 49
 -0.25  
  0
LTYPE
  2
DOT
 70
    64
  3
....................
 72
    65
 73
     2
 40
  0.25  
 49
  0.02  
 49
 -0.23  
  0
LTYPE
  2
CENTER
 70
    64
  3
-- . -- . -- . -- .
 72
    65
 73
    4
 40
  2.00  
 49
  1.25  
 49
 -0.25  
 49
  0.25  
 49
 -0.25  
  0
LTYPE
  2
PHANTOM
 70
    64
  3
-- .. -- .. -- ..
 72
    65
 73
    6
 40
  2.50  
 49
  1.25  
 49
 -0.25  
 49
  0.25  
 49
 -0.25  
 49
  0.25  
 49
 -0.25  
  0
ENDTAB
  0
TABLE
  2
LAYER
 70
     1
  0
LAYER
  2
LVL0000
 70
    64
 62
     2
  6
CONTINUOUS
  0
ENDTAB
  0
TABLE
  2
STYLE
 70
     2
  0
STYLE
  2
STANDARD
 70
    64
 40
0.0
 41
1.0
 50
0.0
 71
     0
 42
5.0
  3
ROMANS
  4
BIGFONT
  0
STYLE
  2
BIGFONT
 70
    64
 40
0.0
 41
1.0
 50
0.0
 71
     0
 42
5.0
  3
ROMANS
  4
BIGFONT
  0
ENDTAB
  0
TABLE
  2
VIEW
 70
     0
  0
ENDTAB
  0
TABLE
  2
UCS
 70
     0
  0
ENDTAB
  0
TABLE
  2
DWGMGR
 70
     0
  0
ENDTAB
  0
ENDSEC
  0
SECTION
  2
BLOCKS
  0
BLOCK
  8
0
  2
BLK0001
 70
    64
 10
        0.000000
 20
        0.000000
  0
TEXT
  8
LVL0000
 10
      103.990669
 20
       -4.043507
 30
        0.000000
 40
        3.000000
  1
８０
 50
       90.000000
 41
        0.835000
 51
        0.000000
  7
BIGFONT
  0
LINE
  8
LVL0000
 10
       95.500038
 20
      -40.000000
 30
        0.000000
 11
      105.390671
 21
      -40.000000
 31
        0.000000
  0
LINE
  8
LVL0000
 10
       95.500038
 20
       40.000000
 30
        0.000000
 11
      105.390671
 21
       40.000000
 31
        0.000000
  0
LINE
  8
LVL0000
 10
      104.140892
 20
      -36.500000
 30
        0.000000
 11
      104.690674
 21
      -40.000000
 31
        0.000000
  0
LINE
  8
LVL0000
 10
      104.690674
 20
      -40.000000
 30
        0.000000
 11
      105.240456
 21
      -36.500000
 31
        0.000000
  0
LINE
  8
LVL0000
 10
      105.240456
 20
       36.500000
 30
        0.000000
 11
      104.690674
 21
       40.000000
 31
        0.000000
  0
LINE
  8
LVL0000
 10
      104.690674
 20
       40.000000
 30
        0.000000
 11
      104.140892
 21
       36.500000
 31
        0.000000
  0
LINE
  8
LVL0000
 10
      104.690674
 20
      -40.000000
 30
        0.000000
 11
      104.690674
 21
       40.000000
 31
        0.000000
  0
ENDBLK
  0
BLOCK
  8
0
  2
BLK0002
 70
    64
 10
        0.000000
 20
        0.000000
  0
TEXT
  8
LVL0000
 10
       -4.499950
 20
      -55.497219
 30
        0.000000
 40
        3.000000
  1
１９０
 50
        0.000000
 41
        0.835000
 51
        0.000000
  7
BIGFONT
  0
LINE
  8
LVL0000
 10
      -94.999939
 20
      -40.500000
 30
        0.000000
 11
      -94.999939
 21
      -56.897221
 31
        0.000000
  0
LINE
  8
LVL0000
 10
       95.000038
 20
      -40.500000
 30
        0.000000
 11
       95.000038
 21
      -56.897221
 31
        0.000000
  0
LINE
  8
LVL0000
 10
      -91.499939
 20
      -55.647442
 30
        0.000000
 11
      -94.999939
 21
      -56.197220
 31
        0.000000
  0
LINE
  8
LVL0000
 10
      -94.999939
 20
      -56.197220
 30
        0.000000
 11
      -91.499939
 21
      -56.746998
 31
        0.000000
  0
LINE
  8
LVL0000
 10
       91.500038
 20
      -56.746998
 30
        0.000000
 11
       95.000038
 21
      -56.197220
 31
        0.000000
  0
LINE
  8
LVL0000
 10
       95.000038
 20
      -56.197220
 30
        0.000000
 11
       91.500038
 21
      -55.647442
 31
        0.000000
  0
LINE
  8
LVL0000
 10
      -94.999939
 20
      -56.197220
 30
        0.000000
 11
       95.000038
 21
      -56.197220
 31
        0.000000
  0
ENDBLK
  0
BLOCK
  8
0
  2
BLK0003
 70
    64
 10
        0.000000
 20
        0.000000
  0
TEXT
  8
LVL0000
 10
      140.205338
 20
      -53.563972
 30
        0.000000
 40
        3.000000
  1
５６
 50
        0.000000
 41
        0.835000
 51
        0.000000
  7
BIGFONT
  0
LINE
  8
LVL0000
 10
      115.205360
 20
       -9.293213
 30
        0.000000
 11
      115.205360
 21
      -54.963974
 31
        0.000000
  0
LINE
  8
LVL0000
 10
      171.205322
 20
      -45.500244
 30
        0.000000
 11
      171.205322
 21
      -54.963974
 31
        0.000000
  0
LINE
  8
LVL0000
 10
      118.705360
 20
      -53.714195
 30
        0.000000
 11
      115.205360
 21
      -54.263973
 31
        0.000000
  0
LINE
  8
LVL0000
 10
      115.205360
 20
      -54.263973
 30
        0.000000
 11
      118.705360
 21
      -54.813751
 31
        0.000000
  0
LINE
  8
LVL0000
 10
      167.705322
 20
      -54.813751
 30
        0.000000
 11
      171.205322
 21
      -54.263973
 31
        0.000000
  0
LINE
  8
LVL0000
 10
      171.205322
 20
      -54.263973
 30
        0.000000
 11
      167.705322
 21
      -53.714195
 31
        0.000000
  0
LINE
  8
LVL0000
 10
      115.205360
 20
      -54.263973
 30
        0.000000
 11
      171.205322
 21
      -54.263973
 31
        0.000000
  0
ENDBLK
  0
ENDSEC
  0
SECTION
  2
ENTITIES
  0
TEXT
  8
LVL0000
 10
      -95.754020
 20
       54.061491
 30
        0.000000
 40
        5.000000
  1
ＺＷ１６４Ｓ
 50
        0.000000
 41
        0.835000
 51
        0.000000
  7
BIGFONT
  0
TEXT
  8
LVL0000
 10
      -95.754020
 20
       47.061491
 30
        0.000000
 40
        5.000000
  1
ＺＷ１６２Ｍ
 50
        0.000000
 41
        0.835000
 51
        0.000000
  7
BIGFONT
  0
TEXT
  8
LVL0000
 10
      -95.754020
 20
       61.061491
 30
        0.000000
 40
        5.000000
  1
ＺＷ１６２Ｓ
 50
        0.000000
 41
        0.835000
 51
        0.000000
  7
BIGFONT
  0
TEXT
  8
LVL0000
 10
      -95.754020
 20
       68.061491
 30
        0.000000
 40
        5.000000
  1
ＺＷ１６１Ｓ
 50
        0.000000
 41
        0.835000
 51
        0.000000
  7
BIGFONT
  0
TEXT
  8
LVL0000
 10
      -95.754020
 20
       75.061491
 30
        0.000000
 40
        5.000000
  1
ＺＷ１６２Ｎ
 50
        0.000000
 41
        0.835000
 51
        0.000000
  7
BIGFONT
  0
TEXT
  8
LVL0000
 10
      -95.754020
 20
       82.061491
 30
        0.000000
 40
        5.000000
  1
ＺＷ１６１Ｎ
 50
        0.000000
 41
        0.835000
 51
        0.000000
  7
BIGFONT
  0
CIRCLE
  8
LVL0000
 62
  3
 10
       78.999939
 20
       -4.800049
 30
        0.000000
 40
        1.650024
  0
CIRCLE
  8
LVL0000
 62
  3
 10
       70.499939
 20
       -4.800049
 30
        0.000000
 40
        1.650024
  0
CIRCLE
  8
LVL0000
 62
  3
 10
       61.999939
 20
       -4.800049
 30
        0.000000
 40
        1.650024
  0
CIRCLE
  8
LVL0000
 62
  3
 10
       53.499939
 20
       -4.800049
 30
        0.000000
 40
        1.650024
  0
CIRCLE
  8
LVL0000
 62
  3
 10
       44.999939
 20
       -4.800049
 30
        0.000000
 40
        1.650024
  0
CIRCLE
  8
LVL0000
 62
  3
 10
       36.499939
 20
       -4.800049
 30
        0.000000
 40
        1.650024
  0
CIRCLE
  8
LVL0000
 62
  3
 10
       27.999939
 20
       -4.800049
 30
        0.000000
 40
        1.650024
  0
CIRCLE
  8
LVL0000
 62
  3
 10
       19.499939
 20
       -4.800049
 30
        0.000000
 40
        1.650024
  0
CIRCLE
  8
LVL0000
 62
  3
 10
        2.499939
 20
       -4.800049
 30
        0.000000
 40
        1.650024
  0
CIRCLE
  8
LVL0000
 62
  3
 10
       -6.000061
 20
       -4.800049
 30
        0.000000
 40
        1.650024
  0
CIRCLE
  8
LVL0000
 62
  3
 10
      -14.500061
 20
       -4.800049
 30
        0.000000
 40
        1.650024
  0
CIRCLE
  8
LVL0000
 62
  3
 10
      -23.000061
 20
       -4.800049
 30
        0.000000
 40
        1.650024
  0
CIRCLE
  8
LVL0000
 62
  3
 10
      -31.500061
 20
       -4.800049
 30
        0.000000
 40
        1.650024
  0
CIRCLE
  8
LVL0000
 62
  3
 10
      -40.000061
 20
       -4.800049
 30
        0.000000
 40
        1.650024
  0
CIRCLE
  8
LVL0000
 62
  3
 10
      -48.500061
 20
       -4.800049
 30
        0.000000
 40
        1.650024
  0
CIRCLE
  8
LVL0000
 62
  3
 10
      -57.000061
 20
       -4.800049
 30
        0.000000
 40
        1.650024
  0
CIRCLE
  8
LVL0000
 62
  3
 10
      -74.000061
 20
       -4.800049
 30
        0.000000
 40
        1.650024
  0
DIMENSION
  8
LVL0000
 62
  5
  2
BLK0001
 10
      104.690674
 20
      -40.000000
 11
      103.990669
 21
       -4.043507
 13
       94.500038
 23
      -40.000000
 14
       94.500038
 24
       40.000000
 50
       90.0
 70
  0
  0
DIMENSION
  8
LVL0000
 62
  5
  2
BLK0002
 10
      -94.999939
 20
      -56.197220
 11
       -4.499950
 21
      -55.497219
 13
      -94.999939
 23
      -39.500000
 14
       95.000038
 24
      -39.500000
 50
        0.0
 70
  0
  0
LINE
  8
LVL0000
 62
  3
 10
      -94.999939
 20
       37.792480
 30
        0.000000
 11
       85.000039
 21
       37.792480
 31
        0.000000
  0
LINE
  8
LVL0000
 62
  3
 10
       84.999917
 20
       30.000000
 30
        0.000000
 11
       84.999917
 21
       40.000000
 31
        0.000000
  0
LINE
  8
LVL0000
 62
  3
 10
       95.000039
 20
      -39.500000
 30
        0.000000
 11
       95.000039
 21
       39.500000
 31
        0.000000
  0
LINE
  8
LVL0000
 62
  3
 10
      -95.000061
 20
       40.000000
 30
        0.000000
 11
       94.500039
 21
       40.000000
 31
        0.000000
  0
ARC
  8
LVL0000
 62
  3
 10
       94.500039
 20
       39.500000
 30
        0.000000
 40
        0.500000
 50
        0.000000
 51
       90.000000
  0
ARC
  8
LVL0000
 62
  3
 10
       94.500039
 20
      -39.500000
 30
        0.000000
 40
        0.500000
 50
      270.000000
 51
      360.000000
  0
LINE
  8
LVL0000
 62
  3
 10
       89.949890
 20
      -38.000000
 30
        0.000000
 11
       95.000039
 21
      -38.000000
 31
        0.000000
  0
LINE
  8
LVL0000
 62
  3
 10
      -95.000061
 20
      -10.500000
 30
        0.000000
 11
       95.000039
 21
      -10.500000
 31
        0.000000
  0
LINE
  8
LVL0000
 62
  3
 10
      -95.000061
 20
       -8.500000
 30
        0.000000
 11
       94.999917
 21
       -8.500000
 31
        0.000000
  0
LINE
  8
LVL0000
 62
  3
 10
      -94.499939
 20
      -40.000000
 30
        0.000000
 11
       94.500039
 21
      -40.000000
 31
        0.000000
  0
CIRCLE
  8
LVL0000
 62
  3
 10
       90.000039
 20
       35.000000
 30
        0.000000
 40
        2.250000
  0
LINE
  8
LVL0000
 62
  3
 10
       85.000039
 20
       30.000000
 30
        0.000000
 11
       95.000039
 21
       30.000000
 31
        0.000000
  0
DIMENSION
  8
LVL0000
 62
  5
  2
BLK0003
 10
      115.205360
 20
      -54.263973
 11
      140.205338
 21
      -53.563972
 13
      115.205360
 23
       -8.293213
 14
      171.205322
 24
      -44.500244
 50
        0.0
 70
  0
  0
LINE
  8
LVL0000
 62
  3
 10
      115.205361
 20
       -8.293213
 30
        0.000000
 11
      115.205361
 21
       37.792480
 31
        0.000000
  0
ARC
  8
LVL0000
 62
  3
 10
      115.705361
 20
       37.792480
 30
        0.000000
 40
        0.500076
 50
      134.995052
 51
      180.000010
  0
ARC
  8
LVL0000
 62
  3
 10
      117.412515
 20
       39.499756
 30
        0.000000
 40
        0.500000
 50
       90.000000
 51
      135.004327
  0
LINE
  8
LVL0000
 62
  3
 10
      115.351785
 20
       38.146118
 30
        0.000000
 11
      117.058938
 21
       39.853271
 31
        0.000000
  0
ARC
  8
LVL0000
 62
  3
 10
      117.412515
 20
      -10.000244
 30
        0.000000
 40
        0.500076
 50
      225.004958
 51
      270.000000
  0
ARC
  8
LVL0000
 62
  3
 10
      115.705361
 20
       -8.293213
 30
        0.000000
 40
        0.500000
 50
      180.000010
 51
      224.995997
  0
LINE
  8
LVL0000
 62
  3
 10
      115.351785
 20
       -8.646729
 30
        0.000000
 11
      117.058938
 21
      -10.353882
 31
        0.000000
  0
LINE
  8
LVL0000
 62
  3
 10
      117.412515
 20
       39.999756
 30
        0.000000
 11
      171.205322
 21
       39.999756
 31
        0.000000
  0
LINE
  8
LVL0000
 62
  3
 10
      117.412515
 20
      -10.500244
 30
        0.000000
 11
      133.605286
 21
      -10.500244
 31
        0.000000
  0
CIRCLE
  8
LVL0000
 62
  3
 10
      -77.500122
 20
       32.199951
 30
        0.000000
 40
        3.000000
  0
LINE
  8
LVL0000
 62
  3
 10
      -76.792969
 20
       32.199951
 30
        0.000000
 11
      -75.054932
 21
       30.461914
 31
        0.000000
  0
LINE
  8
LVL0000
 62
  3
 10
      -77.500122
 20
       31.492798
 30
        0.000000
 11
      -75.761963
 21
       29.754761
 31
        0.000000
  0
LINE
  8
LVL0000
 62
  3
 10
      -78.914307
 20
       31.492798
 30
        0.000000
 11
      -78.207153
 21
       30.785767
 31
        0.000000
  0
LINE
  8
LVL0000
 62
  3
 10
      -76.792969
 20
       33.614136
 30
        0.000000
 11
      -76.085938
 21
       32.907104
 31
        0.000000
  0
LINE
  8
LVL0000
 62
  3
 10
      -77.500122
 20
       32.907104
 30
        0.000000
 11
      -76.792969
 21
       33.614136
 31
        0.000000
  0
LINE
  8
LVL0000
 62
  3
 10
      -76.792969
 20
       32.199951
 30
        0.000000
 11
      -76.085938
 21
       32.907104
 31
        0.000000
  0
LINE
  8
LVL0000
 62
  3
 10
      -78.207153
 20
       30.785767
 30
        0.000000
 11
      -77.500122
 21
       31.492798
 31
        0.000000
  0
LINE
  8
LVL0000
 62
  3
 10
      -78.914307
 20
       31.492798
 30
        0.000000
 11
      -78.207153
 21
       32.199951
 31
        0.000000
  0
LINE
  8
LVL0000
 62
  3
 10
      -79.238159
 20
       34.645142
 30
        0.000000
 11
      -77.500122
 21
       32.907104
 31
        0.000000
  0
LINE
  8
LVL0000
 62
  3
 10
      -79.945313
 20
       33.937988
 30
        0.000000
 11
      -78.207153
 21
       32.199951
 31
        0.000000
  0
CIRCLE
  8
LVL0000
 62
  3
 10
      -69.000122
 20
       32.199951
 30
        0.000000
 40
        3.000000
  0
LINE
  8
LVL0000
 62
  3
 10
      -68.292969
 20
       33.614136
 30
        0.000000
 11
      -67.585938
 21
       32.907104
 31
        0.000000
  0
LINE
  8
LVL0000
 62
  3
 10
      -69.000122
 20
       32.907104
 30
        0.000000
 11
      -68.292969
 21
       33.614136
 31
        0.000000
  0
LINE
  8
LVL0000
 62
  3
 10
      -68.292969
 20
       32.199951
 30
        0.000000
 11
      -67.585938
 21
       32.907104
 31
        0.000000
  0
LINE
  8
LVL0000
 62
  3
 10
      -70.738159
 20
       34.645142
 30
        0.000000
 11
      -69.000122
 21
       32.907104
 31
        0.000000
  0
LINE
  8
LVL0000
 62
  3
 10
      -71.445313
 20
       33.937988
 30
        0.000000
 11
      -69.707153
 21
       32.199951
 31
        0.000000
  0
LINE
  8
LVL0000
 62
  3
 10
      -68.292969
 20
       32.199951
 30
        0.000000
 11
      -66.554932
 21
       30.461914
 31
        0.000000
  0
LINE
  8
LVL0000
 62
  3
 10
      -69.000122
 20
       31.492798
 30
        0.000000
 11
      -67.261963
 21
       29.754761
 31
        0.000000
  0
LINE
  8
LVL0000
 62
  3
 10
      -70.414307
 20
       31.492798
 30
        0.000000
 11
      -69.707153
 21
       30.785767
 31
        0.000000
  0
LINE
  8
LVL0000
 62
  3
 10
      -69.707153
 20
       30.785767
 30
        0.000000
 11
      -69.000122
 21
       31.492798
 31
        0.000000
  0
LINE
  8
LVL0000
 62
  3
 10
      -70.414307
 20
       31.492798
 30
        0.000000
 11
      -69.707153
 21
       32.199951
 31
        0.000000
  0
CIRCLE
  8
LVL0000
 62
  3
 10
      -60.500122
 20
       32.199951
 30
        0.000000
 40
        3.000000
  0
LINE
  8
LVL0000
 62
  3
 10
      -59.792969
 20
       33.614136
 30
        0.000000
 11
      -59.085938
 21
       32.907104
 31
        0.000000
  0
LINE
  8
LVL0000
 62
  3
 10
      -60.500122
 20
       32.907104
 30
        0.000000
 11
      -59.792969
 21
       33.614136
 31
        0.000000
  0
LINE
  8
LVL0000
 62
  3
 10
      -59.792969
 20
       32.199951
 30
        0.000000
 11
      -59.085938
 21
       32.907104
 31
        0.000000
  0
LINE
  8
LVL0000
 62
  3
 10
      -62.238159
 20
       34.645142
 30
        0.000000
 11
      -60.500122
 21
       32.907104
 31
        0.000000
  0
LINE
  8
LVL0000
 62
  3
 10
      -62.945313
 20
       33.937988
 30
        0.000000
 11
      -61.207153
 21
       32.199951
 31
        0.000000
  0
LINE
  8
LVL0000
 62
  3
 10
      -59.792969
 20
       32.199951
 30
        0.000000
 11
      -58.054932
 21
       30.461914
 31
        0.000000
  0
LINE
  8
LVL0000
 62
  3
 10
      -60.500122
 20
       31.492798
 30
        0.000000
 11
      -58.761963
 21
       29.754761
 31
        0.000000
  0
LINE
  8
LVL0000
 62
  3
 10
      -61.914307
 20
       31.492798
 30
        0.000000
 11
      -61.207153
 21
       30.785767
 31
        0.000000
  0
LINE
  8
LVL0000
 62
  3
 10
      -61.207153
 20
       30.785767
 30
        0.000000
 11
      -60.500122
 21
       31.492798
 31
        0.000000
  0
LINE
  8
LVL0000
 62
  3
 10
      -61.914307
 20
       31.492798
 30
        0.000000
 11
      -61.207153
 21
       32.199951
 31
        0.000000
  0
CIRCLE
  8
LVL0000
 62
  3
 10
      -52.000122
 20
       32.199951
 30
        0.000000
 40
        3.000000
  0
LINE
  8
LVL0000
 62
  3
 10
      -51.292969
 20
       33.614136
 30
        0.000000
 11
      -50.585938
 21
       32.907104
 31
        0.000000
  0
LINE
  8
LVL0000
 62
  3
 10
      -52.000122
 20
       32.907104
 30
        0.000000
 11
      -51.292969
 21
       33.614136
 31
        0.000000
  0
LINE
  8
LVL0000
 62
  3
 10
      -51.292969
 20
       32.199951
 30
        0.000000
 11
      -50.585938
 21
       32.907104
 31
        0.000000
  0
LINE
  8
LVL0000
 62
  3
 10
      -53.738159
 20
       34.645142
 30
        0.000000
 11
      -52.000122
 21
       32.907104
 31
        0.000000
  0
LINE
  8
LVL0000
 62
  3
 10
      -54.445313
 20
       33.937988
 30
        0.000000
 11
      -52.707153
 21
       32.199951
 31
        0.000000
  0
LINE
  8
LVL0000
 62
  3
 10
      -51.292969
 20
       32.199951
 30
        0.000000
 11
      -49.554932
 21
       30.461914
 31
        0.000000
  0
LINE
  8
LVL0000
 62
  3
 10
      -52.000122
 20
       31.492798
 30
        0.000000
 11
      -50.261963
 21
       29.754761
 31
        0.000000
  0
LINE
  8
LVL0000
 62
  3
 10
      -53.414307
 20
       31.492798
 30
        0.000000
 11
      -52.707153
 21
       30.785767
 31
        0.000000
  0
LINE
  8
LVL0000
 62
  3
 10
      -52.707153
 20
       30.785767
 30
        0.000000
 11
      -52.000122
 21
       31.492798
 31
        0.000000
  0
LINE
  8
LVL0000
 62
  3
 10
      -53.414307
 20
       31.492798
 30
        0.000000
 11
      -52.707153
 21
       32.199951
 31
        0.000000
  0
CIRCLE
  8
LVL0000
 62
  3
 10
      -43.500122
 20
       32.199951
 30
        0.000000
 40
        3.000000
  0
LINE
  8
LVL0000
 62
  3
 10
      -42.792969
 20
       33.614136
 30
        0.000000
 11
      -42.085938
 21
       32.907104
 31
        0.000000
  0
LINE
  8
LVL0000
 62
  3
 10
      -43.500122
 20
       32.907104
 30
        0.000000
 11
      -42.792969
 21
       33.614136
 31
        0.000000
  0
LINE
  8
LVL0000
 62
  3
 10
      -42.792969
 20
       32.199951
 30
        0.000000
 11
      -42.085938
 21
       32.907104
 31
        0.000000
  0
LINE
  8
LVL0000
 62
  3
 10
      -45.238159
 20
       34.645142
 30
        0.000000
 11
      -43.500122
 21
       32.907104
 31
        0.000000
  0
LINE
  8
LVL0000
 62
  3
 10
      -45.945313
 20
       33.937988
 30
        0.000000
 11
      -44.207153
 21
       32.199951
 31
        0.000000
  0
LINE
  8
LVL0000
 62
  3
 10
      -42.792969
 20
       32.199951
 30
        0.000000
 11
      -41.054932
 21
       30.461914
 31
        0.000000
  0
LINE
  8
LVL0000
 62
  3
 10
      -43.500122
 20
       31.492798
 30
        0.000000
 11
      -41.761963
 21
       29.754761
 31
        0.000000
  0
LINE
  8
LVL0000
 62
  3
 10
      -44.914307
 20
       31.492798
 30
        0.000000
 11
      -44.207153
 21
       30.785767
 31
        0.000000
  0
LINE
  8
LVL0000
 62
  3
 10
      -44.207153
 20
       30.785767
 30
        0.000000
 11
      -43.500122
 21
       31.492798
 31
        0.000000
  0
LINE
  8
LVL0000
 62
  3
 10
      -44.914307
 20
       31.492798
 30
        0.000000
 11
      -44.207153
 21
       32.199951
 31
        0.000000
  0
LINE
  8
LVL0000
 62
  3
 10
      -73.292908
 20
      -23.285889
 30
        0.000000
 11
      -72.585876
 21
      -23.992920
 31
        0.000000
  0
CIRCLE
  8
LVL0000
 62
  3
 10
      -74.000061
 20
      -24.700073
 30
        0.000000
 40
        3.000000
  0
LINE
  8
LVL0000
 62
  3
 10
      -74.000061
 20
      -23.992920
 30
        0.000000
 11
      -73.292908
 21
      -23.285889
 31
        0.000000
  0
LINE
  8
LVL0000
 62
  3
 10
      -73.292908
 20
      -24.700073
 30
        0.000000
 11
      -72.585876
 21
      -23.992920
 31
        0.000000
  0
LINE
  8
LVL0000
 62
  3
 10
      -75.738098
 20
      -22.254883
 30
        0.000000
 11
      -74.000061
 21
      -23.992920
 31
        0.000000
  0
LINE
  8
LVL0000
 62
  3
 10
      -76.445251
 20
      -22.962036
 30
        0.000000
 11
      -74.707092
 21
      -24.700073
 31
        0.000000
  0
LINE
  8
LVL0000
 62
  3
 10
      -73.292908
 20
      -24.700073
 30
        0.000000
 11
      -71.554871
 21
      -26.438110
 31
        0.000000
  0
LINE
  8
LVL0000
 62
  3
 10
      -74.000061
 20
      -25.407227
 30
        0.000000
 11
      -72.261902
 21
      -27.145264
 31
        0.000000
  0
LINE
  8
LVL0000
 62
  3
 10
      -75.414246
 20
      -25.407227
 30
        0.000000
 11
      -74.707092
 21
      -26.114258
 31
        0.000000
  0
LINE
  8
LVL0000
 62
  3
 10
      -74.707092
 20
      -26.114258
 30
        0.000000
 11
      -74.000061
 21
      -25.407227
 31
        0.000000
  0
LINE
  8
LVL0000
 62
  3
 10
      -75.414246
 20
      -25.407227
 30
        0.000000
 11
      -74.707092
 21
      -24.700073
 31
        0.000000
  0
LINE
  8
LVL0000
 62
  3
 10
      -64.792908
 20
      -23.285889
 30
        0.000000
 11
      -64.085876
 21
      -23.992920
 31
        0.000000
  0
CIRCLE
  8
LVL0000
 62
  3
 10
      -65.500061
 20
      -24.700073
 30
        0.000000
 40
        3.000000
  0
LINE
  8
LVL0000
 62
  3
 10
      -65.500061
 20
      -23.992920
 30
        0.000000
 11
      -64.792908
 21
      -23.285889
 31
        0.000000
  0
LINE
  8
LVL0000
 62
  3
 10
      -64.792908
 20
      -24.700073
 30
        0.000000
 11
      -64.085876
 21
      -23.992920
 31
        0.000000
  0
LINE
  8
LVL0000
 62
  3
 10
      -67.238098
 20
      -22.254883
 30
        0.000000
 11
      -65.500061
 21
      -23.992920
 31
        0.000000
  0
LINE
  8
LVL0000
 62
  3
 10
      -67.945251
 20
      -22.962036
 30
        0.000000
 11
      -66.207092
 21
      -24.700073
 31
        0.000000
  0
LINE
  8
LVL0000
 62
  3
 10
      -64.792908
 20
      -24.700073
 30
        0.000000
 11
      -63.054871
 21
      -26.438110
 31
        0.000000
  0
LINE
  8
LVL0000
 62
  3
 10
      -65.500061
 20
      -25.407227
 30
        0.000000
 11
      -63.761902
 21
      -27.145264
 31
        0.000000
  0
LINE
  8
LVL0000
 62
  3
 10
      -66.914246
 20
      -25.407227
 30
        0.000000
 11
      -66.207092
 21
      -26.114258
 31
        0.000000
  0
LINE
  8
LVL0000
 62
  3
 10
      -66.207092
 20
      -26.114258
 30
        0.000000
 11
      -65.500061
 21
      -25.407227
 31
        0.000000
  0
LINE
  8
LVL0000
 62
  3
 10
      -66.914246
 20
      -25.407227
 30
        0.000000
 11
      -66.207092
 21
      -24.700073
 31
        0.000000
  0
LINE
  8
LVL0000
 62
  3
 10
      -56.292908
 20
      -23.285889
 30
        0.000000
 11
      -55.585876
 21
      -23.992920
 31
        0.000000
  0
CIRCLE
  8
LVL0000
 62
  3
 10
      -57.000061
 20
      -24.700073
 30
        0.000000
 40
        3.000000
  0
LINE
  8
LVL0000
 62
  3
 10
      -57.000061
 20
      -23.992920
 30
        0.000000
 11
      -56.292908
 21
      -23.285889
 31
        0.000000
  0
LINE
  8
LVL0000
 62
  3
 10
      -56.292908
 20
      -24.700073
 30
        0.000000
 11
      -55.585876
 21
      -23.992920
 31
        0.000000
  0
LINE
  8
LVL0000
 62
  3
 10
      -58.738098
 20
      -22.254883
 30
        0.000000
 11
      -57.000061
 21
      -23.992920
 31
        0.000000
  0
LINE
  8
LVL0000
 62
  3
 10
      -59.445251
 20
      -22.962036
 30
        0.000000
 11
      -57.707092
 21
      -24.700073
 31
        0.000000
  0
LINE
  8
LVL0000
 62
  3
 10
      -56.292908
 20
      -24.700073
 30
        0.000000
 11
      -54.554871
 21
      -26.438110
 31
        0.000000
  0
LINE
  8
LVL0000
 62
  3
 10
      -57.000061
 20
      -25.407227
 30
        0.000000
 11
      -55.261902
 21
      -27.145264
 31
        0.000000
  0
LINE
  8
LVL0000
 62
  3
 10
      -58.414246
 20
      -25.407227
 30
        0.000000
 11
      -57.707092
 21
      -26.114258
 31
        0.000000
  0
LINE
  8
LVL0000
 62
  3
 10
      -57.707092
 20
      -26.114258
 30
        0.000000
 11
      -57.000061
 21
      -25.407227
 31
        0.000000
  0
LINE
  8
LVL0000
 62
  3
 10
      -58.414246
 20
      -25.407227
 30
        0.000000
 11
      -57.707092
 21
      -24.700073
 31
        0.000000
  0
LINE
  8
LVL0000
 62
  3
 10
      -47.792908
 20
      -23.285889
 30
        0.000000
 11
      -47.085876
 21
      -23.992920
 31
        0.000000
  0
CIRCLE
  8
LVL0000
 62
  3
 10
      -48.500061
 20
      -24.700073
 30
        0.000000
 40
        3.000000
  0
LINE
  8
LVL0000
 62
  3
 10
      -48.500061
 20
      -23.992920
 30
        0.000000
 11
      -47.792908
 21
      -23.285889
 31
        0.000000
  0
LINE
  8
LVL0000
 62
  3
 10
      -47.792908
 20
      -24.700073
 30
        0.000000
 11
      -47.085876
 21
      -23.992920
 31
        0.000000
  0
LINE
  8
LVL0000
 62
  3
 10
      -50.238098
 20
      -22.254883
 30
        0.000000
 11
      -48.500061
 21
      -23.992920
 31
        0.000000
  0
LINE
  8
LVL0000
 62
  3
 10
      -50.945251
 20
      -22.962036
 30
        0.000000
 11
      -49.207092
 21
      -24.700073
 31
        0.000000
  0
LINE
  8
LVL0000
 62
  3
 10
      -47.792908
 20
      -24.700073
 30
        0.000000
 11
      -46.054871
 21
      -26.438110
 31
        0.000000
  0
LINE
  8
LVL0000
 62
  3
 10
      -48.500061
 20
      -25.407227
 30
        0.000000
 11
      -46.761902
 21
      -27.145264
 31
        0.000000
  0
LINE
  8
LVL0000
 62
  3
 10
      -49.914246
 20
      -25.407227
 30
        0.000000
 11
      -49.207092
 21
      -26.114258
 31
        0.000000
  0
LINE
  8
LVL0000
 62
  3
 10
      -49.207092
 20
      -26.114258
 30
        0.000000
 11
      -48.500061
 21
      -25.407227
 31
        0.000000
  0
LINE
  8
LVL0000
 62
  3
 10
      -49.914246
 20
      -25.407227
 30
        0.000000
 11
      -49.207092
 21
      -24.700073
 31
        0.000000
  0
LINE
  8
LVL0000
 62
  3
 10
      -39.292908
 20
      -23.285889
 30
        0.000000
 11
      -38.585876
 21
      -23.992920
 31
        0.000000
  0
CIRCLE
  8
LVL0000
 62
  3
 10
      -40.000061
 20
      -24.700073
 30
        0.000000
 40
        3.000000
  0
LINE
  8
LVL0000
 62
  3
 10
      -40.000061
 20
      -23.992920
 30
        0.000000
 11
      -39.292908
 21
      -23.285889
 31
        0.000000
  0
LINE
  8
LVL0000
 62
  3
 10
      -39.292908
 20
      -24.700073
 30
        0.000000
 11
      -38.585876
 21
      -23.992920
 31
        0.000000
  0
LINE
  8
LVL0000
 62
  3
 10
      -41.738098
 20
      -22.254883
 30
        0.000000
 11
      -40.000061
 21
      -23.992920
 31
        0.000000
  0
LINE
  8
LVL0000
 62
  3
 10
      -42.445251
 20
      -22.962036
 30
        0.000000
 11
      -40.707092
 21
      -24.700073
 31
        0.000000
  0
LINE
  8
LVL0000
 62
  3
 10
      -39.292908
 20
      -24.700073
 30
        0.000000
 11
      -37.554871
 21
      -26.438110
 31
        0.000000
  0
LINE
  8
LVL0000
 62
  3
 10
      -40.000061
 20
      -25.407227
 30
        0.000000
 11
      -38.261902
 21
      -27.145264
 31
        0.000000
  0
LINE
  8
LVL0000
 62
  3
 10
      -41.414246
 20
      -25.407227
 30
        0.000000
 11
      -40.707092
 21
      -26.114258
 31
        0.000000
  0
LINE
  8
LVL0000
 62
  3
 10
      -40.707092
 20
      -26.114258
 30
        0.000000
 11
      -40.000061
 21
      -25.407227
 31
        0.000000
  0
LINE
  8
LVL0000
 62
  3
 10
      -41.414246
 20
      -25.407227
 30
        0.000000
 11
      -40.707092
 21
      -24.700073
 31
        0.000000
  0
LINE
  8
LVL0000
 62
  3
 10
      -30.792908
 20
      -23.285889
 30
        0.000000
 11
      -30.085876
 21
      -23.992920
 31
        0.000000
  0
CIRCLE
  8
LVL0000
 62
  3
 10
      -31.500061
 20
      -24.700073
 30
        0.000000
 40
        3.000000
  0
LINE
  8
LVL0000
 62
  3
 10
      -31.500061
 20
      -23.992920
 30
        0.000000
 11
      -30.792908
 21
      -23.285889
 31
        0.000000
  0
LINE
  8
LVL0000
 62
  3
 10
      -30.792908
 20
      -24.700073
 30
        0.000000
 11
      -30.085876
 21
      -23.992920
 31
        0.000000
  0
LINE
  8
LVL0000
 62
  3
 10
      -33.238098
 20
      -22.254883
 30
        0.000000
 11
      -31.500061
 21
      -23.992920
 31
        0.000000
  0
LINE
  8
LVL0000
 62
  3
 10
      -33.945251
 20
      -22.962036
 30
        0.000000
 11
      -32.207092
 21
      -24.700073
 31
        0.000000
  0
LINE
  8
LVL0000
 62
  3
 10
      -30.792908
 20
      -24.700073
 30
        0.000000
 11
      -29.054871
 21
      -26.438110
 31
        0.000000
  0
LINE
  8
LVL0000
 62
  3
 10
      -31.500061
 20
      -25.407227
 30
        0.000000
 11
      -29.761902
 21
      -27.145264
 31
        0.000000
  0
LINE
  8
LVL0000
 62
  3
 10
      -32.914246
 20
      -25.407227
 30
        0.000000
 11
      -32.207092
 21
      -26.114258
 31
        0.000000
  0
LINE
  8
LVL0000
 62
  3
 10
      -32.207092
 20
      -26.114258
 30
        0.000000
 11
      -31.500061
 21
      -25.407227
 31
        0.000000
  0
LINE
  8
LVL0000
 62
  3
 10
      -32.914246
 20
      -25.407227
 30
        0.000000
 11
      -32.207092
 21
      -24.700073
 31
        0.000000
  0
LINE
  8
LVL0000
 62
  3
 10
      -22.292908
 20
      -23.285889
 30
        0.000000
 11
      -21.585876
 21
      -23.992920
 31
        0.000000
  0
CIRCLE
  8
LVL0000
 62
  3
 10
      -23.000061
 20
      -24.700073
 30
        0.000000
 40
        3.000000
  0
LINE
  8
LVL0000
 62
  3
 10
      -23.000061
 20
      -23.992920
 30
        0.000000
 11
      -22.292908
 21
      -23.285889
 31
        0.000000
  0
LINE
  8
LVL0000
 62
  3
 10
      -22.292908
 20
      -24.700073
 30
        0.000000
 11
      -21.585876
 21
      -23.992920
 31
        0.000000
  0
LINE
  8
LVL0000
 62
  3
 10
      -24.738098
 20
      -22.254883
 30
        0.000000
 11
      -23.000061
 21
      -23.992920
 31
        0.000000
  0
LINE
  8
LVL0000
 62
  3
 10
      -25.445251
 20
      -22.962036
 30
        0.000000
 11
      -23.707092
 21
      -24.700073
 31
        0.000000
  0
LINE
  8
LVL0000
 62
  3
 10
      -22.292908
 20
      -24.700073
 30
        0.000000
 11
      -20.554871
 21
      -26.438110
 31
        0.000000
  0
LINE
  8
LVL0000
 62
  3
 10
      -23.000061
 20
      -25.407227
 30
        0.000000
 11
      -21.261902
 21
      -27.145264
 31
        0.000000
  0
LINE
  8
LVL0000
 62
  3
 10
      -24.414246
 20
      -25.407227
 30
        0.000000
 11
      -23.707092
 21
      -26.114258
 31
        0.000000
  0
LINE
  8
LVL0000
 62
  3
 10
      -23.707092
 20
      -26.114258
 30
        0.000000
 11
      -23.000061
 21
      -25.407227
 31
        0.000000
  0
LINE
  8
LVL0000
 62
  3
 10
      -24.414246
 20
      -25.407227
 30
        0.000000
 11
      -23.707092
 21
      -24.700073
 31
        0.000000
  0
LINE
  8
LVL0000
 62
  3
 10
      -13.792908
 20
      -23.285889
 30
        0.000000
 11
      -13.085876
 21
      -23.992920
 31
        0.000000
  0
CIRCLE
  8
LVL0000
 62
  3
 10
      -14.500061
 20
      -24.700073
 30
        0.000000
 40
        3.000000
  0
LINE
  8
LVL0000
 62
  3
 10
      -14.500061
 20
      -23.992920
 30
        0.000000
 11
      -13.792908
 21
      -23.285889
 31
        0.000000
  0
LINE
  8
LVL0000
 62
  3
 10
      -13.792908
 20
      -24.700073
 30
        0.000000
 11
      -13.085876
 21
      -23.992920
 31
        0.000000
  0
LINE
  8
LVL0000
 62
  3
 10
      -16.238098
 20
      -22.254883
 30
        0.000000
 11
      -14.500061
 21
      -23.992920
 31
        0.000000
  0
LINE
  8
LVL0000
 62
  3
 10
      -16.945251
 20
      -22.962036
 30
        0.000000
 11
      -15.207092
 21
      -24.700073
 31
        0.000000
  0
LINE
  8
LVL0000
 62
  3
 10
      -13.792908
 20
      -24.700073
 30
        0.000000
 11
      -12.054871
 21
      -26.438110
 31
        0.000000
  0
LINE
  8
LVL0000
 62
  3
 10
      -14.500061
 20
      -25.407227
 30
        0.000000
 11
      -12.761902
 21
      -27.145264
 31
        0.000000
  0
LINE
  8
LVL0000
 62
  3
 10
      -15.914246
 20
      -25.407227
 30
        0.000000
 11
      -15.207092
 21
      -26.114258
 31
        0.000000
  0
LINE
  8
LVL0000
 62
  3
 10
      -15.207092
 20
      -26.114258
 30
        0.000000
 11
      -14.500061
 21
      -25.407227
 31
        0.000000
  0
LINE
  8
LVL0000
 62
  3
 10
      -15.914246
 20
      -25.407227
 30
        0.000000
 11
      -15.207092
 21
      -24.700073
 31
        0.000000
  0
LINE
  8
LVL0000
 62
  3
 10
       -5.292908
 20
      -23.285889
 30
        0.000000
 11
       -4.585876
 21
      -23.992920
 31
        0.000000
  0
CIRCLE
  8
LVL0000
 62
  3
 10
       -6.000061
 20
      -24.700073
 30
        0.000000
 40
        3.000000
  0
LINE
  8
LVL0000
 62
  3
 10
       -6.000061
 20
      -23.992920
 30
        0.000000
 11
       -5.292908
 21
      -23.285889
 31
        0.000000
  0
LINE
  8
LVL0000
 62
  3
 10
       -5.292908
 20
      -24.700073
 30
        0.000000
 11
       -4.585876
 21
      -23.992920
 31
        0.000000
  0
LINE
  8
LVL0000
 62
  3
 10
       -7.738098
 20
      -22.254883
 30
        0.000000
 11
       -6.000061
 21
      -23.992920
 31
        0.000000
  0
LINE
  8
LVL0000
 62
  3
 10
       -8.445251
 20
      -22.962036
 30
        0.000000
 11
       -6.707092
 21
      -24.700073
 31
        0.000000
  0
LINE
  8
LVL0000
 62
  3
 10
       -5.292908
 20
      -24.700073
 30
        0.000000
 11
       -3.554871
 21
      -26.438110
 31
        0.000000
  0
LINE
  8
LVL0000
 62
  3
 10
       -6.000061
 20
      -25.407227
 30
        0.000000
 11
       -4.261902
 21
      -27.145264
 31
        0.000000
  0
LINE
  8
LVL0000
 62
  3
 10
       -7.414246
 20
      -25.407227
 30
        0.000000
 11
       -6.707092
 21
      -26.114258
 31
        0.000000
  0
LINE
  8
LVL0000
 62
  3
 10
       -6.707092
 20
      -26.114258
 30
        0.000000
 11
       -6.000061
 21
      -25.407227
 31
        0.000000
  0
LINE
  8
LVL0000
 62
  3
 10
       -7.414246
 20
      -25.407227
 30
        0.000000
 11
       -6.707092
 21
      -24.700073
 31
        0.000000
  0
LINE
  8
LVL0000
 62
  3
 10
        3.207092
 20
      -23.285889
 30
        0.000000
 11
        3.914124
 21
      -23.992920
 31
        0.000000
  0
CIRCLE
  8
LVL0000
 62
  3
 10
        2.499939
 20
      -24.700073
 30
        0.000000
 40
        3.000000
  0
LINE
  8
LVL0000
 62
  3
 10
        2.499939
 20
      -23.992920
 30
        0.000000
 11
        3.207092
 21
      -23.285889
 31
        0.000000
  0
LINE
  8
LVL0000
 62
  3
 10
        3.207092
 20
      -24.700073
 30
        0.000000
 11
        3.914124
 21
      -23.992920
 31
        0.000000
  0
LINE
  8
LVL0000
 62
  3
 10
        0.761902
 20
      -22.254883
 30
        0.000000
 11
        2.499939
 21
      -23.992920
 31
        0.000000
  0
LINE
  8
LVL0000
 62
  3
 10
        0.054749
 20
      -22.962036
 30
        0.000000
 11
        1.792908
 21
      -24.700073
 31
        0.000000
  0
LINE
  8
LVL0000
 62
  3
 10
        3.207092
 20
      -24.700073
 30
        0.000000
 11
        4.945129
 21
      -26.438110
 31
        0.000000
  0
LINE
  8
LVL0000
 62
  3
 10
        2.499939
 20
      -25.407227
 30
        0.000000
 11
        4.238098
 21
      -27.145264
 31
        0.000000
  0
LINE
  8
LVL0000
 62
  3
 10
        1.085754
 20
      -25.407227
 30
        0.000000
 11
        1.792908
 21
      -26.114258
 31
        0.000000
  0
LINE
  8
LVL0000
 62
  3
 10
        1.792908
 20
      -26.114258
 30
        0.000000
 11
        2.499939
 21
      -25.407227
 31
        0.000000
  0
LINE
  8
LVL0000
 62
  3
 10
        1.085754
 20
      -25.407227
 30
        0.000000
 11
        1.792908
 21
      -24.700073
 31
        0.000000
  0
LINE
  8
LVL0000
 62
  3
 10
       11.707092
 20
      -23.285889
 30
        0.000000
 11
       12.414124
 21
      -23.992920
 31
        0.000000
  0
CIRCLE
  8
LVL0000
 62
  3
 10
       10.999939
 20
      -24.700073
 30
        0.000000
 40
        3.000000
  0
LINE
  8
LVL0000
 62
  3
 10
       10.999939
 20
      -23.992920
 30
        0.000000
 11
       11.707092
 21
      -23.285889
 31
        0.000000
  0
LINE
  8
LVL0000
 62
  3
 10
       11.707092
 20
      -24.700073
 30
        0.000000
 11
       12.414124
 21
      -23.992920
 31
        0.000000
  0
LINE
  8
LVL0000
 62
  3
 10
        9.261902
 20
      -22.254883
 30
        0.000000
 11
       10.999939
 21
      -23.992920
 31
        0.000000
  0
LINE
  8
LVL0000
 62
  3
 10
        8.554749
 20
      -22.962036
 30
        0.000000
 11
       10.292908
 21
      -24.700073
 31
        0.000000
  0
LINE
  8
LVL0000
 62
  3
 10
       11.707092
 20
      -24.700073
 30
        0.000000
 11
       13.445129
 21
      -26.438110
 31
        0.000000
  0
LINE
  8
LVL0000
 62
  3
 10
       10.999939
 20
      -25.407227
 30
        0.000000
 11
       12.738098
 21
      -27.145264
 31
        0.000000
  0
LINE
  8
LVL0000
 62
  3
 10
        9.585754
 20
      -25.407227
 30
        0.000000
 11
       10.292908
 21
      -26.114258
 31
        0.000000
  0
LINE
  8
LVL0000
 62
  3
 10
       10.292908
 20
      -26.114258
 30
        0.000000
 11
       10.999939
 21
      -25.407227
 31
        0.000000
  0
LINE
  8
LVL0000
 62
  3
 10
        9.585754
 20
      -25.407227
 30
        0.000000
 11
       10.292908
 21
      -24.700073
 31
        0.000000
  0
LINE
  8
LVL0000
 62
  3
 10
       20.207092
 20
      -23.285889
 30
        0.000000
 11
       20.914124
 21
      -23.992920
 31
        0.000000
  0
CIRCLE
  8
LVL0000
 62
  3
 10
       19.499939
 20
      -24.700073
 30
        0.000000
 40
        3.000000
  0
LINE
  8
LVL0000
 62
  3
 10
       19.499939
 20
      -23.992920
 30
        0.000000
 11
       20.207092
 21
      -23.285889
 31
        0.000000
  0
LINE
  8
LVL0000
 62
  3
 10
       20.207092
 20
      -24.700073
 30
        0.000000
 11
       20.914124
 21
      -23.992920
 31
        0.000000
  0
LINE
  8
LVL0000
 62
  3
 10
       17.761902
 20
      -22.254883
 30
        0.000000
 11
       19.499939
 21
      -23.992920
 31
        0.000000
  0
LINE
  8
LVL0000
 62
  3
 10
       17.054749
 20
      -22.962036
 30
        0.000000
 11
       18.792908
 21
      -24.700073
 31
        0.000000
  0
LINE
  8
LVL0000
 62
  3
 10
       20.207092
 20
      -24.700073
 30
        0.000000
 11
       21.945129
 21
      -26.438110
 31
        0.000000
  0
LINE
  8
LVL0000
 62
  3
 10
       19.499939
 20
      -25.407227
 30
        0.000000
 11
       21.238098
 21
      -27.145264
 31
        0.000000
  0
LINE
  8
LVL0000
 62
  3
 10
       18.085754
 20
      -25.407227
 30
        0.000000
 11
       18.792908
 21
      -26.114258
 31
        0.000000
  0
LINE
  8
LVL0000
 62
  3
 10
       18.792908
 20
      -26.114258
 30
        0.000000
 11
       19.499939
 21
      -25.407227
 31
        0.000000
  0
LINE
  8
LVL0000
 62
  3
 10
       18.085754
 20
      -25.407227
 30
        0.000000
 11
       18.792908
 21
      -24.700073
 31
        0.000000
  0
LINE
  8
LVL0000
 62
  3
 10
       28.707092
 20
      -23.285889
 30
        0.000000
 11
       29.414124
 21
      -23.992920
 31
        0.000000
  0
CIRCLE
  8
LVL0000
 62
  3
 10
       27.999939
 20
      -24.700073
 30
        0.000000
 40
        3.000000
  0
LINE
  8
LVL0000
 62
  3
 10
       27.999939
 20
      -23.992920
 30
        0.000000
 11
       28.707092
 21
      -23.285889
 31
        0.000000
  0
LINE
  8
LVL0000
 62
  3
 10
       28.707092
 20
      -24.700073
 30
        0.000000
 11
       29.414124
 21
      -23.992920
 31
        0.000000
  0
LINE
  8
LVL0000
 62
  3
 10
       26.261902
 20
      -22.254883
 30
        0.000000
 11
       27.999939
 21
      -23.992920
 31
        0.000000
  0
LINE
  8
LVL0000
 62
  3
 10
       25.554749
 20
      -22.962036
 30
        0.000000
 11
       27.292908
 21
      -24.700073
 31
        0.000000
  0
LINE
  8
LVL0000
 62
  3
 10
       28.707092
 20
      -24.700073
 30
        0.000000
 11
       30.445129
 21
      -26.438110
 31
        0.000000
  0
LINE
  8
LVL0000
 62
  3
 10
       27.999939
 20
      -25.407227
 30
        0.000000
 11
       29.738098
 21
      -27.145264
 31
        0.000000
  0
LINE
  8
LVL0000
 62
  3
 10
       26.585754
 20
      -25.407227
 30
        0.000000
 11
       27.292908
 21
      -26.114258
 31
        0.000000
  0
LINE
  8
LVL0000
 62
  3
 10
       27.292908
 20
      -26.114258
 30
        0.000000
 11
       27.999939
 21
      -25.407227
 31
        0.000000
  0
LINE
  8
LVL0000
 62
  3
 10
       26.585754
 20
      -25.407227
 30
        0.000000
 11
       27.292908
 21
      -24.700073
 31
        0.000000
  0
LINE
  8
LVL0000
 62
  3
 10
       37.207092
 20
      -23.285889
 30
        0.000000
 11
       37.914124
 21
      -23.992920
 31
        0.000000
  0
CIRCLE
  8
LVL0000
 62
  3
 10
       36.499939
 20
      -24.700073
 30
        0.000000
 40
        3.000000
  0
LINE
  8
LVL0000
 62
  3
 10
       36.499939
 20
      -23.992920
 30
        0.000000
 11
       37.207092
 21
      -23.285889
 31
        0.000000
  0
LINE
  8
LVL0000
 62
  3
 10
       37.207092
 20
      -24.700073
 30
        0.000000
 11
       37.914124
 21
      -23.992920
 31
        0.000000
  0
LINE
  8
LVL0000
 62
  3
 10
       34.761902
 20
      -22.254883
 30
        0.000000
 11
       36.499939
 21
      -23.992920
 31
        0.000000
  0
LINE
  8
LVL0000
 62
  3
 10
       34.054749
 20
      -22.962036
 30
        0.000000
 11
       35.792908
 21
      -24.700073
 31
        0.000000
  0
LINE
  8
LVL0000
 62
  3
 10
       37.207092
 20
      -24.700073
 30
        0.000000
 11
       38.945129
 21
      -26.438110
 31
        0.000000
  0
LINE
  8
LVL0000
 62
  3
 10
       36.499939
 20
      -25.407227
 30
        0.000000
 11
       38.238098
 21
      -27.145264
 31
        0.000000
  0
LINE
  8
LVL0000
 62
  3
 10
       35.085754
 20
      -25.407227
 30
        0.000000
 11
       35.792908
 21
      -26.114258
 31
        0.000000
  0
LINE
  8
LVL0000
 62
  3
 10
       35.792908
 20
      -26.114258
 30
        0.000000
 11
       36.499939
 21
      -25.407227
 31
        0.000000
  0
LINE
  8
LVL0000
 62
  3
 10
       35.085754
 20
      -25.407227
 30
        0.000000
 11
       35.792908
 21
      -24.700073
 31
        0.000000
  0
LINE
  8
LVL0000
 62
  3
 10
       45.707092
 20
      -23.285889
 30
        0.000000
 11
       46.414124
 21
      -23.992920
 31
        0.000000
  0
CIRCLE
  8
LVL0000
 62
  3
 10
       44.999939
 20
      -24.700073
 30
        0.000000
 40
        3.000000
  0
LINE
  8
LVL0000
 62
  3
 10
       44.999939
 20
      -23.992920
 30
        0.000000
 11
       45.707092
 21
      -23.285889
 31
        0.000000
  0
LINE
  8
LVL0000
 62
  3
 10
       45.707092
 20
      -24.700073
 30
        0.000000
 11
       46.414124
 21
      -23.992920
 31
        0.000000
  0
LINE
  8
LVL0000
 62
  3
 10
       43.261902
 20
      -22.254883
 30
        0.000000
 11
       44.999939
 21
      -23.992920
 31
        0.000000
  0
LINE
  8
LVL0000
 62
  3
 10
       42.554749
 20
      -22.962036
 30
        0.000000
 11
       44.292908
 21
      -24.700073
 31
        0.000000
  0
LINE
  8
LVL0000
 62
  3
 10
       45.707092
 20
      -24.700073
 30
        0.000000
 11
       47.445129
 21
      -26.438110
 31
        0.000000
  0
LINE
  8
LVL0000
 62
  3
 10
       44.999939
 20
      -25.407227
 30
        0.000000
 11
       46.738098
 21
      -27.145264
 31
        0.000000
  0
LINE
  8
LVL0000
 62
  3
 10
       43.585754
 20
      -25.407227
 30
        0.000000
 11
       44.292908
 21
      -26.114258
 31
        0.000000
  0
LINE
  8
LVL0000
 62
  3
 10
       44.292908
 20
      -26.114258
 30
        0.000000
 11
       44.999939
 21
      -25.407227
 31
        0.000000
  0
LINE
  8
LVL0000
 62
  3
 10
       43.585754
 20
      -25.407227
 30
        0.000000
 11
       44.292908
 21
      -24.700073
 31
        0.000000
  0
LINE
  8
LVL0000
 62
  3
 10
       54.207092
 20
      -23.285889
 30
        0.000000
 11
       54.914124
 21
      -23.992920
 31
        0.000000
  0
CIRCLE
  8
LVL0000
 62
  3
 10
       53.499939
 20
      -24.700073
 30
        0.000000
 40
        3.000000
  0
LINE
  8
LVL0000
 62
  3
 10
       53.499939
 20
      -23.992920
 30
        0.000000
 11
       54.207092
 21
      -23.285889
 31
        0.000000
  0
LINE
  8
LVL0000
 62
  3
 10
       54.207092
 20
      -24.700073
 30
        0.000000
 11
       54.914124
 21
      -23.992920
 31
        0.000000
  0
LINE
  8
LVL0000
 62
  3
 10
       51.761902
 20
      -22.254883
 30
        0.000000
 11
       53.499939
 21
      -23.992920
 31
        0.000000
  0
LINE
  8
LVL0000
 62
  3
 10
       51.054749
 20
      -22.962036
 30
        0.000000
 11
       52.792908
 21
      -24.700073
 31
        0.000000
  0
LINE
  8
LVL0000
 62
  3
 10
       54.207092
 20
      -24.700073
 30
        0.000000
 11
       55.945129
 21
      -26.438110
 31
        0.000000
  0
LINE
  8
LVL0000
 62
  3
 10
       53.499939
 20
      -25.407227
 30
        0.000000
 11
       55.238098
 21
      -27.145264
 31
        0.000000
  0
LINE
  8
LVL0000
 62
  3
 10
       52.085754
 20
      -25.407227
 30
        0.000000
 11
       52.792908
 21
      -26.114258
 31
        0.000000
  0
LINE
  8
LVL0000
 62
  3
 10
       52.792908
 20
      -26.114258
 30
        0.000000
 11
       53.499939
 21
      -25.407227
 31
        0.000000
  0
LINE
  8
LVL0000
 62
  3
 10
       52.085754
 20
      -25.407227
 30
        0.000000
 11
       52.792908
 21
      -24.700073
 31
        0.000000
  0
LINE
  8
LVL0000
 62
  3
 10
       62.707092
 20
      -23.285889
 30
        0.000000
 11
       63.414124
 21
      -23.992920
 31
        0.000000
  0
CIRCLE
  8
LVL0000
 62
  3
 10
       61.999939
 20
      -24.700073
 30
        0.000000
 40
        3.000000
  0
LINE
  8
LVL0000
 62
  3
 10
       61.999939
 20
      -23.992920
 30
        0.000000
 11
       62.707092
 21
      -23.285889
 31
        0.000000
  0
LINE
  8
LVL0000
 62
  3
 10
       62.707092
 20
      -24.700073
 30
        0.000000
 11
       63.414124
 21
      -23.992920
 31
        0.000000
  0
LINE
  8
LVL0000
 62
  3
 10
       60.261902
 20
      -22.254883
 30
        0.000000
 11
       61.999939
 21
      -23.992920
 31
        0.000000
  0
LINE
  8
LVL0000
 62
  3
 10
       59.554749
 20
      -22.962036
 30
        0.000000
 11
       61.292908
 21
      -24.700073
 31
        0.000000
  0
LINE
  8
LVL0000
 62
  3
 10
       62.707092
 20
      -24.700073
 30
        0.000000
 11
       64.445129
 21
      -26.438110
 31
        0.000000
  0
LINE
  8
LVL0000
 62
  3
 10
       61.999939
 20
      -25.407227
 30
        0.000000
 11
       63.738098
 21
      -27.145264
 31
        0.000000
  0
LINE
  8
LVL0000
 62
  3
 10
       60.585754
 20
      -25.407227
 30
        0.000000
 11
       61.292908
 21
      -26.114258
 31
        0.000000
  0
LINE
  8
LVL0000
 62
  3
 10
       61.292908
 20
      -26.114258
 30
        0.000000
 11
       61.999939
 21
      -25.407227
 31
        0.000000
  0
LINE
  8
LVL0000
 62
  3
 10
       60.585754
 20
      -25.407227
 30
        0.000000
 11
       61.292908
 21
      -24.700073
 31
        0.000000
  0
LINE
  8
LVL0000
 62
  3
 10
       71.207092
 20
      -23.285889
 30
        0.000000
 11
       71.914124
 21
      -23.992920
 31
        0.000000
  0
CIRCLE
  8
LVL0000
 62
  3
 10
       70.499939
 20
      -24.700073
 30
        0.000000
 40
        3.000000
  0
LINE
  8
LVL0000
 62
  3
 10
       70.499939
 20
      -23.992920
 30
        0.000000
 11
       71.207092
 21
      -23.285889
 31
        0.000000
  0
LINE
  8
LVL0000
 62
  3
 10
       71.207092
 20
      -24.700073
 30
        0.000000
 11
       71.914124
 21
      -23.992920
 31
        0.000000
  0
LINE
  8
LVL0000
 62
  3
 10
       68.761902
 20
      -22.254883
 30
        0.000000
 11
       70.499939
 21
      -23.992920
 31
        0.000000
  0
LINE
  8
LVL0000
 62
  3
 10
       68.054749
 20
      -22.962036
 30
        0.000000
 11
       69.792908
 21
      -24.700073
 31
        0.000000
  0
LINE
  8
LVL0000
 62
  3
 10
       71.207092
 20
      -24.700073
 30
        0.000000
 11
       72.945129
 21
      -26.438110
 31
        0.000000
  0
LINE
  8
LVL0000
 62
  3
 10
       70.499939
 20
      -25.407227
 30
        0.000000
 11
       72.238098
 21
      -27.145264
 31
        0.000000
  0
LINE
  8
LVL0000
 62
  3
 10
       69.085754
 20
      -25.407227
 30
        0.000000
 11
       69.792908
 21
      -26.114258
 31
        0.000000
  0
LINE
  8
LVL0000
 62
  3
 10
       69.792908
 20
      -26.114258
 30
        0.000000
 11
       70.499939
 21
      -25.407227
 31
        0.000000
  0
LINE
  8
LVL0000
 62
  3
 10
       69.085754
 20
      -25.407227
 30
        0.000000
 11
       69.792908
 21
      -24.700073
 31
        0.000000
  0
LINE
  8
LVL0000
 62
  3
 10
       79.707092
 20
      -23.285889
 30
        0.000000
 11
       80.414124
 21
      -23.992920
 31
        0.000000
  0
CIRCLE
  8
LVL0000
 62
  3
 10
       78.999939
 20
      -24.700073
 30
        0.000000
 40
        3.000000
  0
LINE
  8
LVL0000
 62
  3
 10
       78.999939
 20
      -23.992920
 30
        0.000000
 11
       79.707092
 21
      -23.285889
 31
        0.000000
  0
LINE
  8
LVL0000
 62
  3
 10
       79.707092
 20
      -24.700073
 30
        0.000000
 11
       80.414124
 21
      -23.992920
 31
        0.000000
  0
LINE
  8
LVL0000
 62
  3
 10
       77.261902
 20
      -22.254883
 30
        0.000000
 11
       78.999939
 21
      -23.992920
 31
        0.000000
  0
LINE
  8
LVL0000
 62
  3
 10
       76.554749
 20
      -22.962036
 30
        0.000000
 11
       78.292908
 21
      -24.700073
 31
        0.000000
  0
LINE
  8
LVL0000
 62
  3
 10
       79.707092
 20
      -24.700073
 30
        0.000000
 11
       81.445129
 21
      -26.438110
 31
        0.000000
  0
LINE
  8
LVL0000
 62
  3
 10
       78.999939
 20
      -25.407227
 30
        0.000000
 11
       80.738098
 21
      -27.145264
 31
        0.000000
  0
LINE
  8
LVL0000
 62
  3
 10
       77.585754
 20
      -25.407227
 30
        0.000000
 11
       78.292908
 21
      -26.114258
 31
        0.000000
  0
LINE
  8
LVL0000
 62
  3
 10
       78.292908
 20
      -26.114258
 30
        0.000000
 11
       78.999939
 21
      -25.407227
 31
        0.000000
  0
LINE
  8
LVL0000
 62
  3
 10
       77.585754
 20
      -25.407227
 30
        0.000000
 11
       78.292908
 21
      -24.700073
 31
        0.000000
  0
LINE
  8
LVL0000
 62
  3
 10
       83.957092
 20
      -31.385742
 30
        0.000000
 11
       84.664124
 21
      -32.092773
 31
        0.000000
  0
CIRCLE
  8
LVL0000
 62
  3
 10
       83.249939
 20
      -32.799927
 30
        0.000000
 40
        3.000000
  0
LINE
  8
LVL0000
 62
  3
 10
       83.249939
 20
      -32.092773
 30
        0.000000
 11
       83.957092
 21
      -31.385742
 31
        0.000000
  0
LINE
  8
LVL0000
 62
  3
 10
       83.957092
 20
      -32.799927
 30
        0.000000
 11
       84.664124
 21
      -32.092773
 31
        0.000000
  0
LINE
  8
LVL0000
 62
  3
 10
       81.511902
 20
      -30.354736
 30
        0.000000
 11
       83.249939
 21
      -32.092773
 31
        0.000000
  0
LINE
  8
LVL0000
 62
  3
 10
       80.804749
 20
      -31.061890
 30
        0.000000
 11
       82.542908
 21
      -32.799927
 31
        0.000000
  0
LINE
  8
LVL0000
 62
  3
 10
       83.957092
 20
      -32.799927
 30
        0.000000
 11
       85.695129
 21
      -34.537964
 31
        0.000000
  0
LINE
  8
LVL0000
 62
  3
 10
       83.249939
 20
      -33.507080
 30
        0.000000
 11
       84.988098
 21
      -35.245117
 31
        0.000000
  0
LINE
  8
LVL0000
 62
  3
 10
       81.835754
 20
      -33.507080
 30
        0.000000
 11
       82.542908
 21
      -34.214111
 31
        0.000000
  0
LINE
  8
LVL0000
 62
  3
 10
       82.542908
 20
      -34.214111
 30
        0.000000
 11
       83.249939
 21
      -33.507080
 31
        0.000000
  0
LINE
  8
LVL0000
 62
  3
 10
       81.835754
 20
      -33.507080
 30
        0.000000
 11
       82.542908
 21
      -32.799927
 31
        0.000000
  0
LINE
  8
LVL0000
 62
  3
 10
       75.457092
 20
      -31.385742
 30
        0.000000
 11
       76.164124
 21
      -32.092773
 31
        0.000000
  0
CIRCLE
  8
LVL0000
 62
  3
 10
       74.749939
 20
      -32.799927
 30
        0.000000
 40
        3.000000
  0
LINE
  8
LVL0000
 62
  3
 10
       74.749939
 20
      -32.092773
 30
        0.000000
 11
       75.457092
 21
      -31.385742
 31
        0.000000
  0
LINE
  8
LVL0000
 62
  3
 10
       75.457092
 20
      -32.799927
 30
        0.000000
 11
       76.164124
 21
      -32.092773
 31
        0.000000
  0
LINE
  8
LVL0000
 62
  3
 10
       73.011902
 20
      -30.354736
 30
        0.000000
 11
       74.749939
 21
      -32.092773
 31
        0.000000
  0
LINE
  8
LVL0000
 62
  3
 10
       72.304749
 20
      -31.061890
 30
        0.000000
 11
       74.042908
 21
      -32.799927
 31
        0.000000
  0
LINE
  8
LVL0000
 62
  3
 10
       75.457092
 20
      -32.799927
 30
        0.000000
 11
       77.195129
 21
      -34.537964
 31
        0.000000
  0
LINE
  8
LVL0000
 62
  3
 10
       74.749939
 20
      -33.507080
 30
        0.000000
 11
       76.488098
 21
      -35.245117
 31
        0.000000
  0
LINE
  8
LVL0000
 62
  3
 10
       73.335754
 20
      -33.507080
 30
        0.000000
 11
       74.042908
 21
      -34.214111
 31
        0.000000
  0
LINE
  8
LVL0000
 62
  3
 10
       74.042908
 20
      -34.214111
 30
        0.000000
 11
       74.749939
 21
      -33.507080
 31
        0.000000
  0
LINE
  8
LVL0000
 62
  3
 10
       73.335754
 20
      -33.507080
 30
        0.000000
 11
       74.042908
 21
      -32.799927
 31
        0.000000
  0
LINE
  8
LVL0000
 62
  3
 10
       66.957092
 20
      -31.385742
 30
        0.000000
 11
       67.664124
 21
      -32.092773
 31
        0.000000
  0
CIRCLE
  8
LVL0000
 62
  3
 10
       66.249939
 20
      -32.799927
 30
        0.000000
 40
        3.000000
  0
LINE
  8
LVL0000
 62
  3
 10
       66.249939
 20
      -32.092773
 30
        0.000000
 11
       66.957092
 21
      -31.385742
 31
        0.000000
  0
LINE
  8
LVL0000
 62
  3
 10
       66.957092
 20
      -32.799927
 30
        0.000000
 11
       67.664124
 21
      -32.092773
 31
        0.000000
  0
LINE
  8
LVL0000
 62
  3
 10
       64.511902
 20
      -30.354736
 30
        0.000000
 11
       66.249939
 21
      -32.092773
 31
        0.000000
  0
LINE
  8
LVL0000
 62
  3
 10
       63.804749
 20
      -31.061890
 30
        0.000000
 11
       65.542908
 21
      -32.799927
 31
        0.000000
  0
LINE
  8
LVL0000
 62
  3
 10
       66.957092
 20
      -32.799927
 30
        0.000000
 11
       68.695129
 21
      -34.537964
 31
        0.000000
  0
LINE
  8
LVL0000
 62
  3
 10
       66.249939
 20
      -33.507080
 30
        0.000000
 11
       67.988098
 21
      -35.245117
 31
        0.000000
  0
LINE
  8
LVL0000
 62
  3
 10
       64.835754
 20
      -33.507080
 30
        0.000000
 11
       65.542908
 21
      -34.214111
 31
        0.000000
  0
LINE
  8
LVL0000
 62
  3
 10
       65.542908
 20
      -34.214111
 30
        0.000000
 11
       66.249939
 21
      -33.507080
 31
        0.000000
  0
LINE
  8
LVL0000
 62
  3
 10
       64.835754
 20
      -33.507080
 30
        0.000000
 11
       65.542908
 21
      -32.799927
 31
        0.000000
  0
LINE
  8
LVL0000
 62
  3
 10
       58.457092
 20
      -31.385742
 30
        0.000000
 11
       59.164124
 21
      -32.092773
 31
        0.000000
  0
CIRCLE
  8
LVL0000
 62
  3
 10
       57.749939
 20
      -32.799927
 30
        0.000000
 40
        3.000000
  0
LINE
  8
LVL0000
 62
  3
 10
       57.749939
 20
      -32.092773
 30
        0.000000
 11
       58.457092
 21
      -31.385742
 31
        0.000000
  0
LINE
  8
LVL0000
 62
  3
 10
       58.457092
 20
      -32.799927
 30
        0.000000
 11
       59.164124
 21
      -32.092773
 31
        0.000000
  0
LINE
  8
LVL0000
 62
  3
 10
       56.011902
 20
      -30.354736
 30
        0.000000
 11
       57.749939
 21
      -32.092773
 31
        0.000000
  0
LINE
  8
LVL0000
 62
  3
 10
       55.304749
 20
      -31.061890
 30
        0.000000
 11
       57.042908
 21
      -32.799927
 31
        0.000000
  0
LINE
  8
LVL0000
 62
  3
 10
       58.457092
 20
      -32.799927
 30
        0.000000
 11
       60.195129
 21
      -34.537964
 31
        0.000000
  0
LINE
  8
LVL0000
 62
  3
 10
       57.749939
 20
      -33.507080
 30
        0.000000
 11
       59.488098
 21
      -35.245117
 31
        0.000000
  0
LINE
  8
LVL0000
 62
  3
 10
       56.335754
 20
      -33.507080
 30
        0.000000
 11
       57.042908
 21
      -34.214111
 31
        0.000000
  0
LINE
  8
LVL0000
 62
  3
 10
       57.042908
 20
      -34.214111
 30
        0.000000
 11
       57.749939
 21
      -33.507080
 31
        0.000000
  0
LINE
  8
LVL0000
 62
  3
 10
       56.335754
 20
      -33.507080
 30
        0.000000
 11
       57.042908
 21
      -32.799927
 31
        0.000000
  0
LINE
  8
LVL0000
 62
  3
 10
       49.957092
 20
      -31.385742
 30
        0.000000
 11
       50.664124
 21
      -32.092773
 31
        0.000000
  0
CIRCLE
  8
LVL0000
 62
  3
 10
       49.249939
 20
      -32.799927
 30
        0.000000
 40
        3.000000
  0
LINE
  8
LVL0000
 62
  3
 10
       49.249939
 20
      -32.092773
 30
        0.000000
 11
       49.957092
 21
      -31.385742
 31
        0.000000
  0
LINE
  8
LVL0000
 62
  3
 10
       49.957092
 20
      -32.799927
 30
        0.000000
 11
       50.664124
 21
      -32.092773
 31
        0.000000
  0
LINE
  8
LVL0000
 62
  3
 10
       47.511902
 20
      -30.354736
 30
        0.000000
 11
       49.249939
 21
      -32.092773
 31
        0.000000
  0
LINE
  8
LVL0000
 62
  3
 10
       46.804749
 20
      -31.061890
 30
        0.000000
 11
       48.542908
 21
      -32.799927
 31
        0.000000
  0
LINE
  8
LVL0000
 62
  3
 10
       49.957092
 20
      -32.799927
 30
        0.000000
 11
       51.695129
 21
      -34.537964
 31
        0.000000
  0
LINE
  8
LVL0000
 62
  3
 10
       49.249939
 20
      -33.507080
 30
        0.000000
 11
       50.988098
 21
      -35.245117
 31
        0.000000
  0
LINE
  8
LVL0000
 62
  3
 10
       47.835754
 20
      -33.507080
 30
        0.000000
 11
       48.542908
 21
      -34.214111
 31
        0.000000
  0
LINE
  8
LVL0000
 62
  3
 10
       48.542908
 20
      -34.214111
 30
        0.000000
 11
       49.249939
 21
      -33.507080
 31
        0.000000
  0
LINE
  8
LVL0000
 62
  3
 10
       47.835754
 20
      -33.507080
 30
        0.000000
 11
       48.542908
 21
      -32.799927
 31
        0.000000
  0
LINE
  8
LVL0000
 62
  3
 10
       41.457092
 20
      -31.385742
 30
        0.000000
 11
       42.164124
 21
      -32.092773
 31
        0.000000
  0
CIRCLE
  8
LVL0000
 62
  3
 10
       40.749939
 20
      -32.799927
 30
        0.000000
 40
        3.000000
  0
LINE
  8
LVL0000
 62
  3
 10
       40.749939
 20
      -32.092773
 30
        0.000000
 11
       41.457092
 21
      -31.385742
 31
        0.000000
  0
LINE
  8
LVL0000
 62
  3
 10
       41.457092
 20
      -32.799927
 30
        0.000000
 11
       42.164124
 21
      -32.092773
 31
        0.000000
  0
LINE
  8
LVL0000
 62
  3
 10
       39.011902
 20
      -30.354736
 30
        0.000000
 11
       40.749939
 21
      -32.092773
 31
        0.000000
  0
LINE
  8
LVL0000
 62
  3
 10
       38.304749
 20
      -31.061890
 30
        0.000000
 11
       40.042908
 21
      -32.799927
 31
        0.000000
  0
LINE
  8
LVL0000
 62
  3
 10
       41.457092
 20
      -32.799927
 30
        0.000000
 11
       43.195129
 21
      -34.537964
 31
        0.000000
  0
LINE
  8
LVL0000
 62
  3
 10
       40.749939
 20
      -33.507080
 30
        0.000000
 11
       42.488098
 21
      -35.245117
 31
        0.000000
  0
LINE
  8
LVL0000
 62
  3
 10
       39.335754
 20
      -33.507080
 30
        0.000000
 11
       40.042908
 21
      -34.214111
 31
        0.000000
  0
LINE
  8
LVL0000
 62
  3
 10
       40.042908
 20
      -34.214111
 30
        0.000000
 11
       40.749939
 21
      -33.507080
 31
        0.000000
  0
LINE
  8
LVL0000
 62
  3
 10
       39.335754
 20
      -33.507080
 30
        0.000000
 11
       40.042908
 21
      -32.799927
 31
        0.000000
  0
LINE
  8
LVL0000
 62
  3
 10
       32.957092
 20
      -31.385742
 30
        0.000000
 11
       33.664124
 21
      -32.092773
 31
        0.000000
  0
CIRCLE
  8
LVL0000
 62
  3
 10
       32.249939
 20
      -32.799927
 30
        0.000000
 40
        3.000000
  0
LINE
  8
LVL0000
 62
  3
 10
       32.249939
 20
      -32.092773
 30
        0.000000
 11
       32.957092
 21
      -31.385742
 31
        0.000000
  0
LINE
  8
LVL0000
 62
  3
 10
       32.957092
 20
      -32.799927
 30
        0.000000
 11
       33.664124
 21
      -32.092773
 31
        0.000000
  0
LINE
  8
LVL0000
 62
  3
 10
       30.511902
 20
      -30.354736
 30
        0.000000
 11
       32.249939
 21
      -32.092773
 31
        0.000000
  0
LINE
  8
LVL0000
 62
  3
 10
       29.804749
 20
      -31.061890
 30
        0.000000
 11
       31.542908
 21
      -32.799927
 31
        0.000000
  0
LINE
  8
LVL0000
 62
  3
 10
       32.957092
 20
      -32.799927
 30
        0.000000
 11
       34.695129
 21
      -34.537964
 31
        0.000000
  0
LINE
  8
LVL0000
 62
  3
 10
       32.249939
 20
      -33.507080
 30
        0.000000
 11
       33.988098
 21
      -35.245117
 31
        0.000000
  0
LINE
  8
LVL0000
 62
  3
 10
       30.835754
 20
      -33.507080
 30
        0.000000
 11
       31.542908
 21
      -34.214111
 31
        0.000000
  0
LINE
  8
LVL0000
 62
  3
 10
       31.542908
 20
      -34.214111
 30
        0.000000
 11
       32.249939
 21
      -33.507080
 31
        0.000000
  0
LINE
  8
LVL0000
 62
  3
 10
       30.835754
 20
      -33.507080
 30
        0.000000
 11
       31.542908
 21
      -32.799927
 31
        0.000000
  0
LINE
  8
LVL0000
 62
  3
 10
       24.457092
 20
      -31.385742
 30
        0.000000
 11
       25.164124
 21
      -32.092773
 31
        0.000000
  0
CIRCLE
  8
LVL0000
 62
  3
 10
       23.749939
 20
      -32.799927
 30
        0.000000
 40
        3.000000
  0
LINE
  8
LVL0000
 62
  3
 10
       23.749939
 20
      -32.092773
 30
        0.000000
 11
       24.457092
 21
      -31.385742
 31
        0.000000
  0
LINE
  8
LVL0000
 62
  3
 10
       24.457092
 20
      -32.799927
 30
        0.000000
 11
       25.164124
 21
      -32.092773
 31
        0.000000
  0
LINE
  8
LVL0000
 62
  3
 10
       22.011902
 20
      -30.354736
 30
        0.000000
 11
       23.749939
 21
      -32.092773
 31
        0.000000
  0
LINE
  8
LVL0000
 62
  3
 10
       21.304749
 20
      -31.061890
 30
        0.000000
 11
       23.042908
 21
      -32.799927
 31
        0.000000
  0
LINE
  8
LVL0000
 62
  3
 10
       24.457092
 20
      -32.799927
 30
        0.000000
 11
       26.195129
 21
      -34.537964
 31
        0.000000
  0
LINE
  8
LVL0000
 62
  3
 10
       23.749939
 20
      -33.507080
 30
        0.000000
 11
       25.488098
 21
      -35.245117
 31
        0.000000
  0
LINE
  8
LVL0000
 62
  3
 10
       22.335754
 20
      -33.507080
 30
        0.000000
 11
       23.042908
 21
      -34.214111
 31
        0.000000
  0
LINE
  8
LVL0000
 62
  3
 10
       23.042908
 20
      -34.214111
 30
        0.000000
 11
       23.749939
 21
      -33.507080
 31
        0.000000
  0
LINE
  8
LVL0000
 62
  3
 10
       22.335754
 20
      -33.507080
 30
        0.000000
 11
       23.042908
 21
      -32.799927
 31
        0.000000
  0
LINE
  8
LVL0000
 62
  3
 10
       15.957092
 20
      -31.385742
 30
        0.000000
 11
       16.664124
 21
      -32.092773
 31
        0.000000
  0
CIRCLE
  8
LVL0000
 62
  3
 10
       15.249939
 20
      -32.799927
 30
        0.000000
 40
        3.000000
  0
LINE
  8
LVL0000
 62
  3
 10
       15.249939
 20
      -32.092773
 30
        0.000000
 11
       15.957092
 21
      -31.385742
 31
        0.000000
  0
LINE
  8
LVL0000
 62
  3
 10
       15.957092
 20
      -32.799927
 30
        0.000000
 11
       16.664124
 21
      -32.092773
 31
        0.000000
  0
LINE
  8
LVL0000
 62
  3
 10
       13.511902
 20
      -30.354736
 30
        0.000000
 11
       15.249939
 21
      -32.092773
 31
        0.000000
  0
LINE
  8
LVL0000
 62
  3
 10
       12.804749
 20
      -31.061890
 30
        0.000000
 11
       14.542908
 21
      -32.799927
 31
        0.000000
  0
LINE
  8
LVL0000
 62
  3
 10
       15.957092
 20
      -32.799927
 30
        0.000000
 11
       17.695129
 21
      -34.537964
 31
        0.000000
  0
LINE
  8
LVL0000
 62
  3
 10
       15.249939
 20
      -33.507080
 30
        0.000000
 11
       16.988098
 21
      -35.245117
 31
        0.000000
  0
LINE
  8
LVL0000
 62
  3
 10
       13.835754
 20
      -33.507080
 30
        0.000000
 11
       14.542908
 21
      -34.214111
 31
        0.000000
  0
LINE
  8
LVL0000
 62
  3
 10
       14.542908
 20
      -34.214111
 30
        0.000000
 11
       15.249939
 21
      -33.507080
 31
        0.000000
  0
LINE
  8
LVL0000
 62
  3
 10
       13.835754
 20
      -33.507080
 30
        0.000000
 11
       14.542908
 21
      -32.799927
 31
        0.000000
  0
LINE
  8
LVL0000
 62
  3
 10
        7.457092
 20
      -31.385742
 30
        0.000000
 11
        8.164124
 21
      -32.092773
 31
        0.000000
  0
CIRCLE
  8
LVL0000
 62
  3
 10
        6.749939
 20
      -32.799927
 30
        0.000000
 40
        3.000000
  0
LINE
  8
LVL0000
 62
  3
 10
        6.749939
 20
      -32.092773
 30
        0.000000
 11
        7.457092
 21
      -31.385742
 31
        0.000000
  0
LINE
  8
LVL0000
 62
  3
 10
        7.457092
 20
      -32.799927
 30
        0.000000
 11
        8.164124
 21
      -32.092773
 31
        0.000000
  0
LINE
  8
LVL0000
 62
  3
 10
        5.011902
 20
      -30.354736
 30
        0.000000
 11
        6.749939
 21
      -32.092773
 31
        0.000000
  0
LINE
  8
LVL0000
 62
  3
 10
        4.304749
 20
      -31.061890
 30
        0.000000
 11
        6.042908
 21
      -32.799927
 31
        0.000000
  0
LINE
  8
LVL0000
 62
  3
 10
        7.457092
 20
      -32.799927
 30
        0.000000
 11
        9.195129
 21
      -34.537964
 31
        0.000000
  0
LINE
  8
LVL0000
 62
  3
 10
        6.749939
 20
      -33.507080
 30
        0.000000
 11
        8.488098
 21
      -35.245117
 31
        0.000000
  0
LINE
  8
LVL0000
 62
  3
 10
        5.335754
 20
      -33.507080
 30
        0.000000
 11
        6.042908
 21
      -34.214111
 31
        0.000000
  0
LINE
  8
LVL0000
 62
  3
 10
        6.042908
 20
      -34.214111
 30
        0.000000
 11
        6.749939
 21
      -33.507080
 31
        0.000000
  0
LINE
  8
LVL0000
 62
  3
 10
        5.335754
 20
      -33.507080
 30
        0.000000
 11
        6.042908
 21
      -32.799927
 31
        0.000000
  0
LINE
  8
LVL0000
 62
  3
 10
       -1.042908
 20
      -31.385742
 30
        0.000000
 11
       -0.335876
 21
      -32.092773
 31
        0.000000
  0
CIRCLE
  8
LVL0000
 62
  3
 10
       -1.750061
 20
      -32.799927
 30
        0.000000
 40
        3.000000
  0
LINE
  8
LVL0000
 62
  3
 10
       -1.750061
 20
      -32.092773
 30
        0.000000
 11
       -1.042908
 21
      -31.385742
 31
        0.000000
  0
LINE
  8
LVL0000
 62
  3
 10
       -1.042908
 20
      -32.799927
 30
        0.000000
 11
       -0.335876
 21
      -32.092773
 31
        0.000000
  0
LINE
  8
LVL0000
 62
  3
 10
       -3.488098
 20
      -30.354736
 30
        0.000000
 11
       -1.750061
 21
      -32.092773
 31
        0.000000
  0
LINE
  8
LVL0000
 62
  3
 10
       -4.195251
 20
      -31.061890
 30
        0.000000
 11
       -2.457092
 21
      -32.799927
 31
        0.000000
  0
LINE
  8
LVL0000
 62
  3
 10
       -1.042908
 20
      -32.799927
 30
        0.000000
 11
        0.695129
 21
      -34.537964
 31
        0.000000
  0
LINE
  8
LVL0000
 62
  3
 10
       -1.750061
 20
      -33.507080
 30
        0.000000
 11
       -0.011902
 21
      -35.245117
 31
        0.000000
  0
LINE
  8
LVL0000
 62
  3
 10
       -3.164246
 20
      -33.507080
 30
        0.000000
 11
       -2.457092
 21
      -34.214111
 31
        0.000000
  0
LINE
  8
LVL0000
 62
  3
 10
       -2.457092
 20
      -34.214111
 30
        0.000000
 11
       -1.750061
 21
      -33.507080
 31
        0.000000
  0
LINE
  8
LVL0000
 62
  3
 10
       -3.164246
 20
      -33.507080
 30
        0.000000
 11
       -2.457092
 21
      -32.799927
 31
        0.000000
  0
LINE
  8
LVL0000
 62
  3
 10
       -9.542908
 20
      -31.385742
 30
        0.000000
 11
       -8.835876
 21
      -32.092773
 31
        0.000000
  0
CIRCLE
  8
LVL0000
 62
  3
 10
      -10.250061
 20
      -32.799927
 30
        0.000000
 40
        3.000000
  0
LINE
  8
LVL0000
 62
  3
 10
      -10.250061
 20
      -32.092773
 30
        0.000000
 11
       -9.542908
 21
      -31.385742
 31
        0.000000
  0
LINE
  8
LVL0000
 62
  3
 10
       -9.542908
 20
      -32.799927
 30
        0.000000
 11
       -8.835876
 21
      -32.092773
 31
        0.000000
  0
LINE
  8
LVL0000
 62
  3
 10
      -11.988098
 20
      -30.354736
 30
        0.000000
 11
      -10.250061
 21
      -32.092773
 31
        0.000000
  0
LINE
  8
LVL0000
 62
  3
 10
      -12.695251
 20
      -31.061890
 30
        0.000000
 11
      -10.957092
 21
      -32.799927
 31
        0.000000
  0
LINE
  8
LVL0000
 62
  3
 10
       -9.542908
 20
      -32.799927
 30
        0.000000
 11
       -7.804871
 21
      -34.537964
 31
        0.000000
  0
LINE
  8
LVL0000
 62
  3
 10
      -10.250061
 20
      -33.507080
 30
        0.000000
 11
       -8.511902
 21
      -35.245117
 31
        0.000000
  0
LINE
  8
LVL0000
 62
  3
 10
      -11.664246
 20
      -33.507080
 30
        0.000000
 11
      -10.957092
 21
      -34.214111
 31
        0.000000
  0
LINE
  8
LVL0000
 62
  3
 10
      -10.957092
 20
      -34.214111
 30
        0.000000
 11
      -10.250061
 21
      -33.507080
 31
        0.000000
  0
LINE
  8
LVL0000
 62
  3
 10
      -11.664246
 20
      -33.507080
 30
        0.000000
 11
      -10.957092
 21
      -32.799927
 31
        0.000000
  0
LINE
  8
LVL0000
 62
  3
 10
      -18.042908
 20
      -31.385742
 30
        0.000000
 11
      -17.335876
 21
      -32.092773
 31
        0.000000
  0
CIRCLE
  8
LVL0000
 62
  3
 10
      -18.750061
 20
      -32.799927
 30
        0.000000
 40
        3.000000
  0
LINE
  8
LVL0000
 62
  3
 10
      -18.750061
 20
      -32.092773
 30
        0.000000
 11
      -18.042908
 21
      -31.385742
 31
        0.000000
  0
LINE
  8
LVL0000
 62
  3
 10
      -18.042908
 20
      -32.799927
 30
        0.000000
 11
      -17.335876
 21
      -32.092773
 31
        0.000000
  0
LINE
  8
LVL0000
 62
  3
 10
      -20.488098
 20
      -30.354736
 30
        0.000000
 11
      -18.750061
 21
      -32.092773
 31
        0.000000
  0
LINE
  8
LVL0000
 62
  3
 10
      -21.195251
 20
      -31.061890
 30
        0.000000
 11
      -19.457092
 21
      -32.799927
 31
        0.000000
  0
LINE
  8
LVL0000
 62
  3
 10
      -18.042908
 20
      -32.799927
 30
        0.000000
 11
      -16.304871
 21
      -34.537964
 31
        0.000000
  0
LINE
  8
LVL0000
 62
  3
 10
      -18.750061
 20
      -33.507080
 30
        0.000000
 11
      -17.011902
 21
      -35.245117
 31
        0.000000
  0
LINE
  8
LVL0000
 62
  3
 10
      -20.164246
 20
      -33.507080
 30
        0.000000
 11
      -19.457092
 21
      -34.214111
 31
        0.000000
  0
LINE
  8
LVL0000
 62
  3
 10
      -19.457092
 20
      -34.214111
 30
        0.000000
 11
      -18.750061
 21
      -33.507080
 31
        0.000000
  0
LINE
  8
LVL0000
 62
  3
 10
      -20.164246
 20
      -33.507080
 30
        0.000000
 11
      -19.457092
 21
      -32.799927
 31
        0.000000
  0
LINE
  8
LVL0000
 62
  3
 10
      -26.542908
 20
      -31.385742
 30
        0.000000
 11
      -25.835876
 21
      -32.092773
 31
        0.000000
  0
CIRCLE
  8
LVL0000
 62
  3
 10
      -27.250061
 20
      -32.799927
 30
        0.000000
 40
        3.000000
  0
LINE
  8
LVL0000
 62
  3
 10
      -27.250061
 20
      -32.092773
 30
        0.000000
 11
      -26.542908
 21
      -31.385742
 31
        0.000000
  0
LINE
  8
LVL0000
 62
  3
 10
      -26.542908
 20
      -32.799927
 30
        0.000000
 11
      -25.835876
 21
      -32.092773
 31
        0.000000
  0
LINE
  8
LVL0000
 62
  3
 10
      -28.988098
 20
      -30.354736
 30
        0.000000
 11
      -27.250061
 21
      -32.092773
 31
        0.000000
  0
LINE
  8
LVL0000
 62
  3
 10
      -29.695251
 20
      -31.061890
 30
        0.000000
 11
      -27.957092
 21
      -32.799927
 31
        0.000000
  0
LINE
  8
LVL0000
 62
  3
 10
      -26.542908
 20
      -32.799927
 30
        0.000000
 11
      -24.804871
 21
      -34.537964
 31
        0.000000
  0
LINE
  8
LVL0000
 62
  3
 10
      -27.250061
 20
      -33.507080
 30
        0.000000
 11
      -25.511902
 21
      -35.245117
 31
        0.000000
  0
LINE
  8
LVL0000
 62
  3
 10
      -28.664246
 20
      -33.507080
 30
        0.000000
 11
      -27.957092
 21
      -34.214111
 31
        0.000000
  0
LINE
  8
LVL0000
 62
  3
 10
      -27.957092
 20
      -34.214111
 30
        0.000000
 11
      -27.250061
 21
      -33.507080
 31
        0.000000
  0
LINE
  8
LVL0000
 62
  3
 10
      -28.664246
 20
      -33.507080
 30
        0.000000
 11
      -27.957092
 21
      -32.799927
 31
        0.000000
  0
LINE
  8
LVL0000
 62
  3
 10
      -35.042908
 20
      -31.385742
 30
        0.000000
 11
      -34.335876
 21
      -32.092773
 31
        0.000000
  0
CIRCLE
  8
LVL0000
 62
  3
 10
      -35.750061
 20
      -32.799927
 30
        0.000000
 40
        3.000000
  0
LINE
  8
LVL0000
 62
  3
 10
      -35.750061
 20
      -32.092773
 30
        0.000000
 11
      -35.042908
 21
      -31.385742
 31
        0.000000
  0
LINE
  8
LVL0000
 62
  3
 10
      -35.042908
 20
      -32.799927
 30
        0.000000
 11
      -34.335876
 21
      -32.092773
 31
        0.000000
  0
LINE
  8
LVL0000
 62
  3
 10
      -37.488098
 20
      -30.354736
 30
        0.000000
 11
      -35.750061
 21
      -32.092773
 31
        0.000000
  0
LINE
  8
LVL0000
 62
  3
 10
      -38.195251
 20
      -31.061890
 30
        0.000000
 11
      -36.457092
 21
      -32.799927
 31
        0.000000
  0
LINE
  8
LVL0000
 62
  3
 10
      -35.042908
 20
      -32.799927
 30
        0.000000
 11
      -33.304871
 21
      -34.537964
 31
        0.000000
  0
LINE
  8
LVL0000
 62
  3
 10
      -35.750061
 20
      -33.507080
 30
        0.000000
 11
      -34.011902
 21
      -35.245117
 31
        0.000000
  0
LINE
  8
LVL0000
 62
  3
 10
      -37.164246
 20
      -33.507080
 30
        0.000000
 11
      -36.457092
 21
      -34.214111
 31
        0.000000
  0
LINE
  8
LVL0000
 62
  3
 10
      -36.457092
 20
      -34.214111
 30
        0.000000
 11
      -35.750061
 21
      -33.507080
 31
        0.000000
  0
LINE
  8
LVL0000
 62
  3
 10
      -37.164246
 20
      -33.507080
 30
        0.000000
 11
      -36.457092
 21
      -32.799927
 31
        0.000000
  0
LINE
  8
LVL0000
 62
  3
 10
      -43.542908
 20
      -31.385742
 30
        0.000000
 11
      -42.835876
 21
      -32.092773
 31
        0.000000
  0
CIRCLE
  8
LVL0000
 62
  3
 10
      -44.250061
 20
      -32.799927
 30
        0.000000
 40
        3.000000
  0
LINE
  8
LVL0000
 62
  3
 10
      -44.250061
 20
      -32.092773
 30
        0.000000
 11
      -43.542908
 21
      -31.385742
 31
        0.000000
  0
LINE
  8
LVL0000
 62
  3
 10
      -43.542908
 20
      -32.799927
 30
        0.000000
 11
      -42.835876
 21
      -32.092773
 31
        0.000000
  0
LINE
  8
LVL0000
 62
  3
 10
      -45.988098
 20
      -30.354736
 30
        0.000000
 11
      -44.250061
 21
      -32.092773
 31
        0.000000
  0
LINE
  8
LVL0000
 62
  3
 10
      -46.695251
 20
      -31.061890
 30
        0.000000
 11
      -44.957092
 21
      -32.799927
 31
        0.000000
  0
LINE
  8
LVL0000
 62
  3
 10
      -43.542908
 20
      -32.799927
 30
        0.000000
 11
      -41.804871
 21
      -34.537964
 31
        0.000000
  0
LINE
  8
LVL0000
 62
  3
 10
      -44.250061
 20
      -33.507080
 30
        0.000000
 11
      -42.511902
 21
      -35.245117
 31
        0.000000
  0
LINE
  8
LVL0000
 62
  3
 10
      -45.664246
 20
      -33.507080
 30
        0.000000
 11
      -44.957092
 21
      -34.214111
 31
        0.000000
  0
LINE
  8
LVL0000
 62
  3
 10
      -44.957092
 20
      -34.214111
 30
        0.000000
 11
      -44.250061
 21
      -33.507080
 31
        0.000000
  0
LINE
  8
LVL0000
 62
  3
 10
      -45.664246
 20
      -33.507080
 30
        0.000000
 11
      -44.957092
 21
      -32.799927
 31
        0.000000
  0
LINE
  8
LVL0000
 62
  3
 10
      -52.042908
 20
      -31.385742
 30
        0.000000
 11
      -51.335876
 21
      -32.092773
 31
        0.000000
  0
CIRCLE
  8
LVL0000
 62
  3
 10
      -52.750061
 20
      -32.799927
 30
        0.000000
 40
        3.000000
  0
LINE
  8
LVL0000
 62
  3
 10
      -52.750061
 20
      -32.092773
 30
        0.000000
 11
      -52.042908
 21
      -31.385742
 31
        0.000000
  0
LINE
  8
LVL0000
 62
  3
 10
      -52.042908
 20
      -32.799927
 30
        0.000000
 11
      -51.335876
 21
      -32.092773
 31
        0.000000
  0
LINE
  8
LVL0000
 62
  3
 10
      -54.488098
 20
      -30.354736
 30
        0.000000
 11
      -52.750061
 21
      -32.092773
 31
        0.000000
  0
LINE
  8
LVL0000
 62
  3
 10
      -55.195251
 20
      -31.061890
 30
        0.000000
 11
      -53.457092
 21
      -32.799927
 31
        0.000000
  0
LINE
  8
LVL0000
 62
  3
 10
      -52.042908
 20
      -32.799927
 30
        0.000000
 11
      -50.304871
 21
      -34.537964
 31
        0.000000
  0
LINE
  8
LVL0000
 62
  3
 10
      -52.750061
 20
      -33.507080
 30
        0.000000
 11
      -51.011902
 21
      -35.245117
 31
        0.000000
  0
LINE
  8
LVL0000
 62
  3
 10
      -54.164246
 20
      -33.507080
 30
        0.000000
 11
      -53.457092
 21
      -34.214111
 31
        0.000000
  0
LINE
  8
LVL0000
 62
  3
 10
      -53.457092
 20
      -34.214111
 30
        0.000000
 11
      -52.750061
 21
      -33.507080
 31
        0.000000
  0
LINE
  8
LVL0000
 62
  3
 10
      -54.164246
 20
      -33.507080
 30
        0.000000
 11
      -53.457092
 21
      -32.799927
 31
        0.000000
  0
LINE
  8
LVL0000
 62
  3
 10
      -60.542908
 20
      -31.385742
 30
        0.000000
 11
      -59.835876
 21
      -32.092773
 31
        0.000000
  0
CIRCLE
  8
LVL0000
 62
  3
 10
      -61.250061
 20
      -32.799927
 30
        0.000000
 40
        3.000000
  0
LINE
  8
LVL0000
 62
  3
 10
      -61.250061
 20
      -32.092773
 30
        0.000000
 11
      -60.542908
 21
      -31.385742
 31
        0.000000
  0
LINE
  8
LVL0000
 62
  3
 10
      -60.542908
 20
      -32.799927
 30
        0.000000
 11
      -59.835876
 21
      -32.092773
 31
        0.000000
  0
LINE
  8
LVL0000
 62
  3
 10
      -62.988098
 20
      -30.354736
 30
        0.000000
 11
      -61.250061
 21
      -32.092773
 31
        0.000000
  0
LINE
  8
LVL0000
 62
  3
 10
      -63.695251
 20
      -31.061890
 30
        0.000000
 11
      -61.957092
 21
      -32.799927
 31
        0.000000
  0
LINE
  8
LVL0000
 62
  3
 10
      -60.542908
 20
      -32.799927
 30
        0.000000
 11
      -58.804871
 21
      -34.537964
 31
        0.000000
  0
LINE
  8
LVL0000
 62
  3
 10
      -61.250061
 20
      -33.507080
 30
        0.000000
 11
      -59.511902
 21
      -35.245117
 31
        0.000000
  0
LINE
  8
LVL0000
 62
  3
 10
      -62.664246
 20
      -33.507080
 30
        0.000000
 11
      -61.957092
 21
      -34.214111
 31
        0.000000
  0
LINE
  8
LVL0000
 62
  3
 10
      -61.957092
 20
      -34.214111
 30
        0.000000
 11
      -61.250061
 21
      -33.507080
 31
        0.000000
  0
LINE
  8
LVL0000
 62
  3
 10
      -62.664246
 20
      -33.507080
 30
        0.000000
 11
      -61.957092
 21
      -32.799927
 31
        0.000000
  0
LINE
  8
LVL0000
 62
  3
 10
      -69.042908
 20
      -31.385742
 30
        0.000000
 11
      -68.335876
 21
      -32.092773
 31
        0.000000
  0
CIRCLE
  8
LVL0000
 62
  3
 10
      -69.750061
 20
      -32.799927
 30
        0.000000
 40
        3.000000
  0
LINE
  8
LVL0000
 62
  3
 10
      -69.750061
 20
      -32.092773
 30
        0.000000
 11
      -69.042908
 21
      -31.385742
 31
        0.000000
  0
LINE
  8
LVL0000
 62
  3
 10
      -69.042908
 20
      -32.799927
 30
        0.000000
 11
      -68.335876
 21
      -32.092773
 31
        0.000000
  0
LINE
  8
LVL0000
 62
  3
 10
      -71.488098
 20
      -30.354736
 30
        0.000000
 11
      -69.750061
 21
      -32.092773
 31
        0.000000
  0
LINE
  8
LVL0000
 62
  3
 10
      -72.195251
 20
      -31.061890
 30
        0.000000
 11
      -70.457092
 21
      -32.799927
 31
        0.000000
  0
LINE
  8
LVL0000
 62
  3
 10
      -69.042908
 20
      -32.799927
 30
        0.000000
 11
      -67.304871
 21
      -34.537964
 31
        0.000000
  0
LINE
  8
LVL0000
 62
  3
 10
      -69.750061
 20
      -33.507080
 30
        0.000000
 11
      -68.011902
 21
      -35.245117
 31
        0.000000
  0
LINE
  8
LVL0000
 62
  3
 10
      -71.164246
 20
      -33.507080
 30
        0.000000
 11
      -70.457092
 21
      -34.214111
 31
        0.000000
  0
LINE
  8
LVL0000
 62
  3
 10
      -70.457092
 20
      -34.214111
 30
        0.000000
 11
      -69.750061
 21
      -33.507080
 31
        0.000000
  0
LINE
  8
LVL0000
 62
  3
 10
      -71.164246
 20
      -33.507080
 30
        0.000000
 11
      -70.457092
 21
      -32.799927
 31
        0.000000
  0
LINE
  8
LVL0000
 62
  3
 10
      -90.000061
 20
      -18.000000
 30
        0.000000
 11
       89.999939
 21
      -18.000000
 31
        0.000000
  0
LINE
  8
LVL0000
 62
  3
 10
      -78.425110
 20
      -25.800049
 30
        0.000000
 11
      -78.425110
 21
      -19.000000
 31
        0.000000
  0
LINE
  8
LVL0000
 62
  3
 10
       87.674988
 20
      -25.800049
 30
        0.000000
 11
       87.674988
 21
      -19.000000
 31
        0.000000
  0
LINE
  8
LVL0000
 62
  3
 10
      -79.925110
 20
      -32.099976
 30
        0.000000
 11
      -79.925110
 21
      -26.300049
 31
        0.000000
  0
LINE
  8
LVL0000
 62
  3
 10
      -90.000061
 20
       -8.250000
 30
        0.000000
 11
      -90.000061
 21
       -2.000000
 31
        0.000000
  0
LINE
  8
LVL0000
 62
  3
 10
       89.174988
 20
      -32.099976
 30
        0.000000
 11
       89.174988
 21
      -26.300049
 31
        0.000000
  0
LINE
  8
LVL0000
 62
  3
 10
       87.674988
 20
      -32.599976
 30
        0.000000
 11
       88.674988
 21
      -32.599976
 31
        0.000000
  0
LINE
  8
LVL0000
 62
  3
 10
       87.674988
 20
      -25.800049
 30
        0.000000
 11
       88.674988
 21
      -25.800049
 31
        0.000000
  0
LINE
  8
LVL0000
 62
  3
 10
      -79.425110
 20
      -25.800049
 30
        0.000000
 11
      -78.425110
 21
      -25.800049
 31
        0.000000
  0
LINE
  8
LVL0000
 62
  3
 10
      -79.425110
 20
      -32.599976
 30
        0.000000
 11
      -78.425110
 21
      -32.599976
 31
        0.000000
  0
LINE
  8
LVL0000
 62
  3
 10
      -80.700012
 20
      -19.000000
 30
        0.000000
 11
       89.949890
 21
      -19.000000
 31
        0.000000
  0
LINE
  8
LVL0000
 62
  3
 10
      -80.700012
 20
      -40.000000
 30
        0.000000
 11
      -80.700012
 21
      -19.000000
 31
        0.000000
  0
ARC
  8
LVL0000
 62
  3
 10
      -79.425110
 20
      -26.300049
 30
        0.000000
 40
        0.500000
 50
       90.000000
 51
      180.000010
  0
ARC
  8
LVL0000
 62
  3
 10
      -79.425110
 20
      -32.099976
 30
        0.000000
 40
        0.500000
 50
      180.000010
 51
      270.000000
  0
LINE
  8
LVL0000
 62
  3
 10
      -78.425110
 20
      -39.200073
 30
        0.000000
 11
      -78.425110
 21
      -32.599976
 31
        0.000000
  0
CIRCLE
  8
LVL0000
 62
  3
 10
      -74.000061
 20
      -24.700073
 30
        0.000000
 40
        3.600098
  0
CIRCLE
  8
LVL0000
 62
  3
 10
      -69.750061
 20
      -32.799927
 30
        0.000000
 40
        3.600098
  0
CIRCLE
  8
LVL0000
 62
  3
 10
      -65.500061
 20
      -24.700073
 30
        0.000000
 40
        3.600098
  0
CIRCLE
  8
LVL0000
 62
  3
 10
      -61.250061
 20
      -32.799927
 30
        0.000000
 40
        3.600098
  0
CIRCLE
  8
LVL0000
 62
  3
 10
      -57.000061
 20
      -24.700073
 30
        0.000000
 40
        3.600098
  0
CIRCLE
  8
LVL0000
 62
  3
 10
      -52.750061
 20
      -32.799927
 30
        0.000000
 40
        3.600098
  0
CIRCLE
  8
LVL0000
 62
  3
 10
      -48.500061
 20
      -24.700073
 30
        0.000000
 40
        3.600098
  0
CIRCLE
  8
LVL0000
 62
  3
 10
      -44.250061
 20
      -32.799927
 30
        0.000000
 40
        3.600098
  0
CIRCLE
  8
LVL0000
 62
  3
 10
      -40.000061
 20
      -24.700073
 30
        0.000000
 40
        3.600098
  0
CIRCLE
  8
LVL0000
 62
  3
 10
      -35.750061
 20
      -32.799927
 30
        0.000000
 40
        3.600098
  0
CIRCLE
  8
LVL0000
 62
  3
 10
      -31.500061
 20
      -24.700073
 30
        0.000000
 40
        3.600098
  0
CIRCLE
  8
LVL0000
 62
  3
 10
      -27.250061
 20
      -32.799927
 30
        0.000000
 40
        3.600098
  0
CIRCLE
  8
LVL0000
 62
  3
 10
      -23.000061
 20
      -24.700073
 30
        0.000000
 40
        3.600098
  0
CIRCLE
  8
LVL0000
 62
  3
 10
      -18.750061
 20
      -32.799927
 30
        0.000000
 40
        3.600098
  0
CIRCLE
  8
LVL0000
 62
  3
 10
      -14.500061
 20
      -24.700073
 30
        0.000000
 40
        3.600098
  0
CIRCLE
  8
LVL0000
 62
  3
 10
      -10.250061
 20
      -32.799927
 30
        0.000000
 40
        3.600098
  0
CIRCLE
  8
LVL0000
 62
  3
 10
       -6.000061
 20
      -24.700073
 30
        0.000000
 40
        3.600098
  0
CIRCLE
  8
LVL0000
 62
  3
 10
       -1.750061
 20
      -32.799927
 30
        0.000000
 40
        3.600098
  0
CIRCLE
  8
LVL0000
 62
  3
 10
        2.499939
 20
      -24.700073
 30
        0.000000
 40
        3.600098
  0
CIRCLE
  8
LVL0000
 62
  3
 10
        6.749939
 20
      -32.799927
 30
        0.000000
 40
        3.600098
  0
CIRCLE
  8
LVL0000
 62
  3
 10
       10.999939
 20
      -24.700073
 30
        0.000000
 40
        3.600098
  0
CIRCLE
  8
LVL0000
 62
  3
 10
       15.249939
 20
      -32.799927
 30
        0.000000
 40
        3.600098
  0
CIRCLE
  8
LVL0000
 62
  3
 10
       19.499939
 20
      -24.700073
 30
        0.000000
 40
        3.600098
  0
CIRCLE
  8
LVL0000
 62
  3
 10
       23.749939
 20
      -32.799927
 30
        0.000000
 40
        3.600098
  0
CIRCLE
  8
LVL0000
 62
  3
 10
       27.999939
 20
      -24.700073
 30
        0.000000
 40
        3.600098
  0
CIRCLE
  8
LVL0000
 62
  3
 10
       32.249939
 20
      -32.799927
 30
        0.000000
 40
        3.600098
  0
CIRCLE
  8
LVL0000
 62
  3
 10
       36.499939
 20
      -24.700073
 30
        0.000000
 40
        3.600098
  0
CIRCLE
  8
LVL0000
 62
  3
 10
       40.749939
 20
      -32.799927
 30
        0.000000
 40
        3.600098
  0
CIRCLE
  8
LVL0000
 62
  3
 10
       44.999939
 20
      -24.700073
 30
        0.000000
 40
        3.600098
  0
CIRCLE
  8
LVL0000
 62
  3
 10
       49.249939
 20
      -32.799927
 30
        0.000000
 40
        3.600098
  0
CIRCLE
  8
LVL0000
 62
  3
 10
       53.499939
 20
      -24.700073
 30
        0.000000
 40
        3.600098
  0
CIRCLE
  8
LVL0000
 62
  3
 10
       57.749939
 20
      -32.799927
 30
        0.000000
 40
        3.600098
  0
CIRCLE
  8
LVL0000
 62
  3
 10
       61.999939
 20
      -24.700073
 30
        0.000000
 40
        3.600098
  0
CIRCLE
  8
LVL0000
 62
  3
 10
       66.249939
 20
      -32.799927
 30
        0.000000
 40
        3.600098
  0
CIRCLE
  8
LVL0000
 62
  3
 10
       70.499939
 20
      -24.700073
 30
        0.000000
 40
        3.600098
  0
CIRCLE
  8
LVL0000
 62
  3
 10
       74.749939
 20
      -32.799927
 30
        0.000000
 40
        3.600098
  0
CIRCLE
  8
LVL0000
 62
  3
 10
       78.999939
 20
      -24.700073
 30
        0.000000
 40
        3.600098
  0
CIRCLE
  8
LVL0000
 62
  3
 10
       83.249939
 20
      -32.799927
 30
        0.000000
 40
        3.600098
  0
LINE
  8
LVL0000
 62
  3
 10
      -80.700012
 20
      -39.200073
 30
        0.000000
 11
       89.949890
 21
      -39.200073
 31
        0.000000
  0
LINE
  8
LVL0000
 62
  3
 10
      -80.700012
 20
      -37.200073
 30
        0.000000
 11
      -78.425110
 21
      -37.200073
 31
        0.000000
  0
LINE
  8
LVL0000
 62
  3
 10
       87.674988
 20
      -39.200073
 30
        0.000000
 11
       87.674988
 21
      -32.599976
 31
        0.000000
  0
LINE
  8
LVL0000
 62
  3
 10
       89.949890
 20
      -40.000000
 30
        0.000000
 11
       89.949890
 21
      -19.000000
 31
        0.000000
  0
LINE
  8
LVL0000
 62
  3
 10
       87.674988
 20
      -37.200073
 30
        0.000000
 11
       89.949890
 21
      -37.200073
 31
        0.000000
  0
LINE
  8
LVL0000
 62
  3
 10
       82.999939
 20
      -11.500000
 30
        0.000000
 11
       89.999939
 21
      -11.500000
 31
        0.000000
  0
LINE
  8
LVL0000
 62
  3
 10
      -90.000061
 20
      -11.500000
 30
        0.000000
 11
      -83.000061
 21
      -11.500000
 31
        0.000000
  0
LINE
  8
LVL0000
 62
  3
 10
       82.999939
 20
      -11.500000
 30
        0.000000
 11
       82.999939
 21
      -10.500000
 31
        0.000000
  0
LINE
  8
LVL0000
 62
  3
 10
       89.999939
 20
      -18.000000
 30
        0.000000
 11
       89.999939
 21
      -10.500000
 31
        0.000000
  0
LINE
  8
LVL0000
 62
  3
 10
      -83.000061
 20
      -11.500000
 30
        0.000000
 11
      -83.000061
 21
      -10.500000
 31
        0.000000
  0
LINE
  8
LVL0000
 62
  3
 10
      -90.000061
 20
      -18.000000
 30
        0.000000
 11
      -90.000061
 21
      -10.500000
 31
        0.000000
  0
ARC
  8
LVL0000
 62
  3
 10
       88.674988
 20
      -26.300049
 30
        0.000000
 40
        0.500000
 50
        0.000000
 51
       90.000000
  0
ARC
  8
LVL0000
 62
  3
 10
       88.674988
 20
      -32.099976
 30
        0.000000
 40
        0.500000
 50
      270.000000
 51
      360.000000
  0
ARC
  8
LVL0000
 62
  3
 10
      -94.499939
 20
       39.500000
 30
        0.000000
 40
        0.500000
 50
       90.000000
 51
      180.000010
  0
ARC
  8
LVL0000
 62
  3
 10
      -94.499939
 20
      -39.500000
 30
        0.000000
 40
        0.500000
 50
      180.000010
 51
      270.000000
  0
LINE
  8
LVL0000
 62
  3
 10
      -85.000061
 20
      -38.000000
 30
        0.000000
 11
      -80.700012
 21
      -38.000000
 31
        0.000000
  0
LINE
  8
LVL0000
 62
  3
 10
       49.999939
 20
      -44.500000
 30
        0.000000
 11
       59.999939
 21
      -44.500000
 31
        0.000000
  0
LINE
  8
LVL0000
 62
  3
 10
       59.999939
 20
      -44.500000
 30
        0.000000
 11
       61.999939
 21
      -42.500000
 31
        0.000000
  0
LINE
  8
LVL0000
 62
  3
 10
       47.999939
 20
      -42.500000
 30
        0.000000
 11
       49.999939
 21
      -44.500000
 31
        0.000000
  0
LINE
  8
LVL0000
 62
  3
 10
       50.999939
 20
      -42.500000
 30
        0.000000
 11
       58.999939
 21
      -42.500000
 31
        0.000000
  0
ARC
  8
LVL0000
 62
  3
 10
       50.999939
 20
      -41.500000
 30
        0.000000
 40
        1.000000
 50
      180.000010
 51
      270.000000
  0
ARC
  8
LVL0000
 62
  3
 10
       58.999939
 20
      -41.500000
 30
        0.000000
 40
        1.000000
 50
      270.000000
 51
      360.000000
  0
LINE
  8
LVL0000
 62
  3
 10
       51.749939
 20
      -42.500000
 30
        0.000000
 11
       51.749939
 21
      -40.000000
 31
        0.000000
  0
LINE
  8
LVL0000
 62
  3
 10
       58.249939
 20
      -42.500000
 30
        0.000000
 11
       58.249939
 21
      -40.000000
 31
        0.000000
  0
LINE
  8
LVL0000
 62
  3
 10
       47.999939
 20
      -42.500000
 30
        0.000000
 11
       47.999939
 21
      -40.000000
 31
        0.000000
  0
LINE
  8
LVL0000
 62
  3
 10
       49.999939
 20
      -41.500000
 30
        0.000000
 11
       49.999939
 21
      -40.000000
 31
        0.000000
  0
LINE
  8
LVL0000
 62
  3
 10
       59.999939
 20
      -41.500000
 30
        0.000000
 11
       59.999939
 21
      -40.000000
 31
        0.000000
  0
LINE
  8
LVL0000
 62
  3
 10
       61.999939
 20
      -42.500000
 30
        0.000000
 11
       61.999939
 21
      -40.000000
 31
        0.000000
  0
LINE
  8
LVL0000
 62
  3
 10
      -60.000061
 20
      -44.500000
 30
        0.000000
 11
      -50.000061
 21
      -44.500000
 31
        0.000000
  0
LINE
  8
LVL0000
 62
  3
 10
      -50.000061
 20
      -44.500000
 30
        0.000000
 11
      -48.000061
 21
      -42.500000
 31
        0.000000
  0
LINE
  8
LVL0000
 62
  3
 10
      -62.000061
 20
      -42.500000
 30
        0.000000
 11
      -60.000061
 21
      -44.500000
 31
        0.000000
  0
LINE
  8
LVL0000
 62
  3
 10
      -59.000061
 20
      -42.500000
 30
        0.000000
 11
      -51.000061
 21
      -42.500000
 31
        0.000000
  0
ARC
  8
LVL0000
 62
  3
 10
      -59.000061
 20
      -41.500000
 30
        0.000000
 40
        1.000000
 50
      180.000010
 51
      270.000000
  0
ARC
  8
LVL0000
 62
  3
 10
      -51.000061
 20
      -41.500000
 30
        0.000000
 40
        1.000000
 50
      270.000000
 51
      360.000000
  0
LINE
  8
LVL0000
 62
  3
 10
      -58.250061
 20
      -42.500000
 30
        0.000000
 11
      -58.250061
 21
      -40.000000
 31
        0.000000
  0
LINE
  8
LVL0000
 62
  3
 10
      -51.750061
 20
      -42.500000
 30
        0.000000
 11
      -51.750061
 21
      -40.000000
 31
        0.000000
  0
LINE
  8
LVL0000
 62
  3
 10
      -62.000061
 20
      -42.500000
 30
        0.000000
 11
      -62.000061
 21
      -40.000000
 31
        0.000000
  0
LINE
  8
LVL0000
 62
  3
 10
      -60.000061
 20
      -41.500000
 30
        0.000000
 11
      -60.000061
 21
      -40.000000
 31
        0.000000
  0
LINE
  8
LVL0000
 62
  3
 10
      -50.000061
 20
      -41.500000
 30
        0.000000
 11
      -50.000061
 21
      -40.000000
 31
        0.000000
  0
LINE
  8
LVL0000
 62
  3
 10
      -48.000061
 20
      -42.500000
 30
        0.000000
 11
      -48.000061
 21
      -40.000000
 31
        0.000000
  0
LINE
  8
LVL0000
 62
  3
 10
      -83.000061
 20
       -1.000000
 30
        0.000000
 11
       82.999817
 21
       -1.000000
 31
        0.000000
  0
LINE
  8
LVL0000
 62
  3
 10
      -41.800171
 20
        4.199951
 30
        0.000000
 11
      -41.800171
 21
       21.199951
 31
        0.000000
  0
LINE
  8
LVL0000
 62
  3
 10
      -91.500061
 20
       38.800049
 30
        0.000000
 11
      -86.500061
 21
       38.800049
 31
        0.000000
  0
LINE
  8
LVL0000
 62
  3
 10
      -91.500061
 20
       37.799927
 30
        0.000000
 11
      -91.500061
 21
       40.000000
 31
        0.000000
  0
LINE
  8
LVL0000
 62
  3
 10
      -86.500061
 20
       37.799927
 30
        0.000000
 11
      -86.500061
 21
       40.000000
 31
        0.000000
  0
LINE
  8
LVL0000
 62
  3
 10
       78.499817
 20
       37.799927
 30
        0.000000
 11
       78.499817
 21
       40.000000
 31
        0.000000
  0
LINE
  8
LVL0000
 62
  3
 10
       73.499817
 20
       37.799927
 30
        0.000000
 11
       73.499817
 21
       40.000000
 31
        0.000000
  0
LINE
  8
LVL0000
 62
  3
 10
       73.499817
 20
       38.800049
 30
        0.000000
 11
       78.499817
 21
       38.800049
 31
        0.000000
  0
LINE
  8
LVL0000
 62
  3
 10
       -2.500183
 20
       37.799927
 30
        0.000000
 11
       -2.500183
 21
       40.000000
 31
        0.000000
  0
LINE
  8
LVL0000
 62
  3
 10
        2.499817
 20
       37.799927
 30
        0.000000
 11
        2.499817
 21
       40.000000
 31
        0.000000
  0
LINE
  8
LVL0000
 62
  3
 10
       -2.500183
 20
       38.800049
 30
        0.000000
 11
        2.499817
 21
       38.800049
 31
        0.000000
  0
CIRCLE
  8
LVL0000
 62
  3
 10
      -77.500122
 20
       32.199951
 30
        0.000000
 40
        3.599976
  0
LINE
  8
LVL0000
 62
  3
 10
       89.999817
 20
       -8.500000
 30
        0.000000
 11
       89.999817
 21
       -2.000000
 31
        0.000000
  0
LINE
  8
LVL0000
 62
  3
 10
      -90.000061
 20
       -2.000000
 30
        0.000000
 11
      -83.000061
 21
       -2.000000
 31
        0.000000
  0
LINE
  8
LVL0000
 62
  3
 10
      -83.000061
 20
       -2.000000
 30
        0.000000
 11
      -83.000061
 21
       -1.000000
 31
        0.000000
  0
CIRCLE
  8
LVL0000
 62
  3
 10
      -32.500183
 20
       34.699951
 30
        0.000000
 40
        1.650024
  0
CIRCLE
  8
LVL0000
 62
  3
 10
      -32.500183
 20
       26.199951
 30
        0.000000
 40
        1.650024
  0
LINE
  8
LVL0000
 62
  3
 10
       82.999817
 20
       -2.000000
 30
        0.000000
 11
       89.999817
 21
       -2.000000
 31
        0.000000
  0
CIRCLE
  8
LVL0000
 62
  3
 10
      -69.000122
 20
       32.199951
 30
        0.000000
 40
        3.599976
  0
CIRCLE
  8
LVL0000
 62
  3
 10
      -60.500122
 20
       32.199951
 30
        0.000000
 40
        3.599976
  0
CIRCLE
  8
LVL0000
 62
  3
 10
      -52.000122
 20
       32.199951
 30
        0.000000
 40
        3.599976
  0
CIRCLE
  8
LVL0000
 62
  3
 10
      -43.500122
 20
       32.199951
 30
        0.000000
 40
        3.599976
  0
LINE
  8
LVL0000
 62
  3
 10
       82.999817
 20
       -2.000000
 30
        0.000000
 11
       82.999817
 21
       -1.000000
 31
        0.000000
  0
LINE
  8
LVL0000
 62
  3
 10
       51.999817
 20
       14.699951
 30
        0.000000
 11
       84.999817
 21
       14.699951
 31
        0.000000
  0
LINE
  8
LVL0000
 62
  3
 10
       51.999817
 20
        4.199951
 30
        0.000000
 11
       84.999817
 21
        4.199951
 31
        0.000000
  0
LINE
  8
LVL0000
 62
  3
 10
       51.999817
 20
        8.699951
 30
        0.000000
 11
       84.999817
 21
        8.699951
 31
        0.000000
  0
LINE
  8
LVL0000
 62
  3
 10
       51.999817
 20
       11.699951
 30
        0.000000
 11
       84.999817
 21
       11.699951
 31
        0.000000
  0
LINE
  8
LVL0000
 62
  3
 10
       51.999817
 20
       10.199951
 30
        0.000000
 11
       84.999817
 21
       10.199951
 31
        0.000000
  0
LINE
  8
LVL0000
 62
  3
 10
       51.999817
 20
        7.199951
 30
        0.000000
 11
       84.999817
 21
        7.199951
 31
        0.000000
  0
LINE
  8
LVL0000
 62
  3
 10
       51.999817
 20
        5.699951
 30
        0.000000
 11
       84.999817
 21
        5.699951
 31
        0.000000
  0
LINE
  8
LVL0000
 62
  3
 10
       51.999817
 20
       13.199951
 30
        0.000000
 11
       84.999817
 21
       13.199951
 31
        0.000000
  0
LINE
  8
LVL0000
 62
  3
 10
       51.999817
 20
        2.699951
 30
        0.000000
 11
       84.999817
 21
        2.699951
 31
        0.000000
  0
LINE
  8
LVL0000
 62
  3
 10
       51.999817
 20
        1.199951
 30
        0.000000
 11
       84.999817
 21
        1.199951
 31
        0.000000
  0
LINE
  8
LVL0000
 62
  3
 10
       51.999817
 20
       16.199951
 30
        0.000000
 11
       84.999817
 21
       16.199951
 31
        0.000000
  0
LINE
  8
LVL0000
 62
  3
 10
       51.999817
 20
       17.699951
 30
        0.000000
 11
       84.999817
 21
       17.699951
 31
        0.000000
  0
LINE
  8
LVL0000
 62
  3
 10
       51.999817
 20
       19.199951
 30
        0.000000
 11
       84.999817
 21
       19.199951
 31
        0.000000
  0
LINE
  8
LVL0000
 62
  3
 10
       51.999817
 20
       20.699951
 30
        0.000000
 11
       84.999817
 21
       20.699951
 31
        0.000000
  0
LINE
  8
LVL0000
 62
  3
 10
       84.999817
 20
       19.199951
 30
        0.000000
 11
       84.999817
 21
       20.699951
 31
        0.000000
  0
LINE
  8
LVL0000
 62
  3
 10
       84.999817
 20
        1.199951
 30
        0.000000
 11
       84.999817
 21
        2.699951
 31
        0.000000
  0
LINE
  8
LVL0000
 62
  3
 10
       84.999817
 20
        4.199951
 30
        0.000000
 11
       84.999817
 21
        5.699951
 31
        0.000000
  0
LINE
  8
LVL0000
 62
  3
 10
       84.999817
 20
        7.199951
 30
        0.000000
 11
       84.999817
 21
        8.699951
 31
        0.000000
  0
LINE
  8
LVL0000
 62
  3
 10
       84.999817
 20
       10.199951
 30
        0.000000
 11
       84.999817
 21
       11.699951
 31
        0.000000
  0
LINE
  8
LVL0000
 62
  3
 10
       84.999817
 20
       13.199951
 30
        0.000000
 11
       84.999817
 21
       14.699951
 31
        0.000000
  0
LINE
  8
LVL0000
 62
  3
 10
       84.999817
 20
       16.199951
 30
        0.000000
 11
       84.999817
 21
       17.699951
 31
        0.000000
  0
LINE
  8
LVL0000
 62
  3
 10
      -30.000183
 20
       19.199951
 30
        0.000000
 11
      -30.000183
 21
       20.699951
 31
        0.000000
  0
LINE
  8
LVL0000
 62
  3
 10
      -30.000183
 20
        1.199951
 30
        0.000000
 11
      -30.000183
 21
        2.699951
 31
        0.000000
  0
LINE
  8
LVL0000
 62
  3
 10
      -30.000183
 20
        4.199951
 30
        0.000000
 11
      -30.000183
 21
        5.699951
 31
        0.000000
  0
LINE
  8
LVL0000
 62
  3
 10
      -30.000183
 20
        7.199951
 30
        0.000000
 11
      -30.000183
 21
        8.699951
 31
        0.000000
  0
LINE
  8
LVL0000
 62
  3
 10
      -30.000183
 20
       10.199951
 30
        0.000000
 11
      -30.000183
 21
       11.699951
 31
        0.000000
  0
LINE
  8
LVL0000
 62
  3
 10
      -30.000183
 20
       13.199951
 30
        0.000000
 11
      -30.000183
 21
       14.699951
 31
        0.000000
  0
LINE
  8
LVL0000
 62
  3
 10
      -30.000183
 20
       16.199951
 30
        0.000000
 11
      -30.000183
 21
       17.699951
 31
        0.000000
  0
LINE
  8
LVL0000
 62
  3
 10
      -76.800171
 20
       21.199951
 30
        0.000000
 11
      -41.800171
 21
       21.199951
 31
        0.000000
  0
LINE
  8
LVL0000
 62
  3
 10
      -76.800171
 20
        4.199951
 30
        0.000000
 11
      -76.800171
 21
       21.199951
 31
        0.000000
  0
LINE
  8
LVL0000
 62
  3
 10
      -76.800171
 20
        4.199951
 30
        0.000000
 11
      -41.800171
 21
        4.199951
 31
        0.000000
  0
LINE
  8
LVL0000
 62
  3
 10
      -41.800171
 20
       16.299805
 30
        0.000000
 11
      -41.300171
 21
       16.299805
 31
        0.000000
  0
LINE
  8
LVL0000
 62
  3
 10
      -41.800171
 20
        9.099854
 30
        0.000000
 11
      -41.300171
 21
        9.099854
 31
        0.000000
  0
LINE
  8
LVL0000
 62
  3
 10
      -41.300171
 20
        9.099854
 30
        0.000000
 11
      -41.300171
 21
       16.299805
 31
        0.000000
  0
LINE
  8
LVL0000
 62
  3
 10
       73.499817
 20
       37.799927
 30
        0.000000
 11
       78.499817
 21
       37.799927
 31
        0.000000
  0
LINE
  8
LVL0000
 62
  3
 10
      -91.500061
 20
       37.799927
 30
        0.000000
 11
      -86.500061
 21
       37.799927
 31
        0.000000
  0
LINE
  8
LVL0000
 62
  3
 10
       51.999817
 20
       19.199951
 30
        0.000000
 11
       51.999817
 21
       20.699951
 31
        0.000000
  0
LINE
  8
LVL0000
 62
  3
 10
        2.999817
 20
       19.199951
 30
        0.000000
 11
        2.999817
 21
       20.699951
 31
        0.000000
  0
LINE
  8
LVL0000
 62
  3
 10
       10.999817
 20
       19.199951
 30
        0.000000
 11
       10.999817
 21
       20.699951
 31
        0.000000
  0
LINE
  8
LVL0000
 62
  3
 10
       43.999817
 20
       19.199951
 30
        0.000000
 11
       43.999817
 21
       20.699951
 31
        0.000000
  0
LINE
  8
LVL0000
 62
  3
 10
        2.999817
 20
       16.199951
 30
        0.000000
 11
        2.999817
 21
       17.699951
 31
        0.000000
  0
LINE
  8
LVL0000
 62
  3
 10
       10.999817
 20
       16.199951
 30
        0.000000
 11
       10.999817
 21
       17.699951
 31
        0.000000
  0
LINE
  8
LVL0000
 62
  3
 10
       43.999817
 20
       16.199951
 30
        0.000000
 11
       43.999817
 21
       17.699951
 31
        0.000000
  0
LINE
  8
LVL0000
 62
  3
 10
       51.999817
 20
       16.199951
 30
        0.000000
 11
       51.999817
 21
       17.699951
 31
        0.000000
  0
LINE
  8
LVL0000
 62
  3
 10
       10.999817
 20
       20.699951
 30
        0.000000
 11
       43.999817
 21
       20.699951
 31
        0.000000
  0
LINE
  8
LVL0000
 62
  3
 10
       10.999817
 20
       19.199951
 30
        0.000000
 11
       43.999817
 21
       19.199951
 31
        0.000000
  0
LINE
  8
LVL0000
 62
  3
 10
       10.999817
 20
       17.699951
 30
        0.000000
 11
       43.999817
 21
       17.699951
 31
        0.000000
  0
LINE
  8
LVL0000
 62
  3
 10
       10.999817
 20
       16.199951
 30
        0.000000
 11
       43.999817
 21
       16.199951
 31
        0.000000
  0
LINE
  8
LVL0000
 62
  3
 10
       10.999817
 20
       14.699951
 30
        0.000000
 11
       43.999817
 21
       14.699951
 31
        0.000000
  0
LINE
  8
LVL0000
 62
  3
 10
       10.999817
 20
       13.199951
 30
        0.000000
 11
       43.999817
 21
       13.199951
 31
        0.000000
  0
LINE
  8
LVL0000
 62
  3
 10
       10.999817
 20
       11.699951
 30
        0.000000
 11
       43.999817
 21
       11.699951
 31
        0.000000
  0
LINE
  8
LVL0000
 62
  3
 10
       10.999817
 20
       10.199951
 30
        0.000000
 11
       43.999817
 21
       10.199951
 31
        0.000000
  0
LINE
  8
LVL0000
 62
  3
 10
       10.999817
 20
        8.699951
 30
        0.000000
 11
       43.999817
 21
        8.699951
 31
        0.000000
  0
LINE
  8
LVL0000
 62
  3
 10
       10.999817
 20
        7.199951
 30
        0.000000
 11
       43.999817
 21
        7.199951
 31
        0.000000
  0
LINE
  8
LVL0000
 62
  3
 10
       10.999817
 20
        5.699951
 30
        0.000000
 11
       43.999817
 21
        5.699951
 31
        0.000000
  0
LINE
  8
LVL0000
 62
  3
 10
       10.999817
 20
        4.199951
 30
        0.000000
 11
       43.999817
 21
        4.199951
 31
        0.000000
  0
LINE
  8
LVL0000
 62
  3
 10
       10.999817
 20
        2.699951
 30
        0.000000
 11
       43.999817
 21
        2.699951
 31
        0.000000
  0
LINE
  8
LVL0000
 62
  3
 10
       10.999817
 20
        1.199951
 30
        0.000000
 11
       43.999817
 21
        1.199951
 31
        0.000000
  0
LINE
  8
LVL0000
 62
  3
 10
      -30.000183
 20
       20.699951
 30
        0.000000
 11
        2.999817
 21
       20.699951
 31
        0.000000
  0
LINE
  8
LVL0000
 62
  3
 10
      -30.000183
 20
       19.199951
 30
        0.000000
 11
        2.999817
 21
       19.199951
 31
        0.000000
  0
LINE
  8
LVL0000
 62
  3
 10
      -30.000183
 20
       17.699951
 30
        0.000000
 11
        2.999817
 21
       17.699951
 31
        0.000000
  0
LINE
  8
LVL0000
 62
  3
 10
      -30.000183
 20
       16.199951
 30
        0.000000
 11
        2.999817
 21
       16.199951
 31
        0.000000
  0
LINE
  8
LVL0000
 62
  3
 10
      -30.000183
 20
       14.699951
 30
        0.000000
 11
        2.999817
 21
       14.699951
 31
        0.000000
  0
LINE
  8
LVL0000
 62
  3
 10
      -30.000183
 20
       13.199951
 30
        0.000000
 11
        2.999817
 21
       13.199951
 31
        0.000000
  0
LINE
  8
LVL0000
 62
  3
 10
      -30.000183
 20
       11.699951
 30
        0.000000
 11
        2.999817
 21
       11.699951
 31
        0.000000
  0
LINE
  8
LVL0000
 62
  3
 10
      -30.000183
 20
       10.199951
 30
        0.000000
 11
        2.999817
 21
       10.199951
 31
        0.000000
  0
LINE
  8
LVL0000
 62
  3
 10
      -30.000183
 20
        8.699951
 30
        0.000000
 11
        2.999817
 21
        8.699951
 31
        0.000000
  0
LINE
  8
LVL0000
 62
  3
 10
      -30.000183
 20
        7.199951
 30
        0.000000
 11
        2.999817
 21
        7.199951
 31
        0.000000
  0
LINE
  8
LVL0000
 62
  3
 10
      -30.000183
 20
        5.699951
 30
        0.000000
 11
        2.999817
 21
        5.699951
 31
        0.000000
  0
LINE
  8
LVL0000
 62
  3
 10
      -30.000183
 20
        4.199951
 30
        0.000000
 11
        2.999817
 21
        4.199951
 31
        0.000000
  0
LINE
  8
LVL0000
 62
  3
 10
      -30.000183
 20
        2.699951
 30
        0.000000
 11
        2.999817
 21
        2.699951
 31
        0.000000
  0
LINE
  8
LVL0000
 62
  3
 10
      -30.000183
 20
        1.199951
 30
        0.000000
 11
        2.999817
 21
        1.199951
 31
        0.000000
  0
LINE
  8
LVL0000
 62
  3
 10
        2.999817
 20
       13.199951
 30
        0.000000
 11
        2.999817
 21
       14.699951
 31
        0.000000
  0
LINE
  8
LVL0000
 62
  3
 10
       10.999817
 20
       13.199951
 30
        0.000000
 11
       10.999817
 21
       14.699951
 31
        0.000000
  0
LINE
  8
LVL0000
 62
  3
 10
       43.999817
 20
       13.199951
 30
        0.000000
 11
       43.999817
 21
       14.699951
 31
        0.000000
  0
LINE
  8
LVL0000
 62
  3
 10
       51.999817
 20
       13.199951
 30
        0.000000
 11
       51.999817
 21
       14.699951
 31
        0.000000
  0
LINE
  8
LVL0000
 62
  3
 10
        2.999817
 20
       10.199951
 30
        0.000000
 11
        2.999817
 21
       11.699951
 31
        0.000000
  0
LINE
  8
LVL0000
 62
  3
 10
       10.999817
 20
       10.199951
 30
        0.000000
 11
       10.999817
 21
       11.699951
 31
        0.000000
  0
LINE
  8
LVL0000
 62
  3
 10
       43.999817
 20
       10.199951
 30
        0.000000
 11
       43.999817
 21
       11.699951
 31
        0.000000
  0
LINE
  8
LVL0000
 62
  3
 10
       51.999817
 20
       10.199951
 30
        0.000000
 11
       51.999817
 21
       11.699951
 31
        0.000000
  0
LINE
  8
LVL0000
 62
  3
 10
       51.999817
 20
        7.199951
 30
        0.000000
 11
       51.999817
 21
        8.699951
 31
        0.000000
  0
LINE
  8
LVL0000
 62
  3
 10
       43.999817
 20
        7.199951
 30
        0.000000
 11
       43.999817
 21
        8.699951
 31
        0.000000
  0
LINE
  8
LVL0000
 62
  3
 10
       10.999817
 20
        7.199951
 30
        0.000000
 11
       10.999817
 21
        8.699951
 31
        0.000000
  0
LINE
  8
LVL0000
 62
  3
 10
        2.999817
 20
        7.199951
 30
        0.000000
 11
        2.999817
 21
        8.699951
 31
        0.000000
  0
LINE
  8
LVL0000
 62
  3
 10
        2.999817
 20
        4.199951
 30
        0.000000
 11
        2.999817
 21
        5.699951
 31
        0.000000
  0
LINE
  8
LVL0000
 62
  3
 10
       10.999817
 20
        4.199951
 30
        0.000000
 11
       10.999817
 21
        5.699951
 31
        0.000000
  0
LINE
  8
LVL0000
 62
  3
 10
       43.999817
 20
        4.199951
 30
        0.000000
 11
       43.999817
 21
        5.699951
 31
        0.000000
  0
LINE
  8
LVL0000
 62
  3
 10
       51.999817
 20
        4.199951
 30
        0.000000
 11
       51.999817
 21
        5.699951
 31
        0.000000
  0
LINE
  8
LVL0000
 62
  3
 10
       51.999817
 20
        1.199951
 30
        0.000000
 11
       51.999817
 21
        2.699951
 31
        0.000000
  0
LINE
  8
LVL0000
 62
  3
 10
       43.999817
 20
        1.199951
 30
        0.000000
 11
       43.999817
 21
        2.699951
 31
        0.000000
  0
LINE
  8
LVL0000
 62
  3
 10
       10.999817
 20
        1.199951
 30
        0.000000
 11
       10.999817
 21
        2.699951
 31
        0.000000
  0
LINE
  8
LVL0000
 62
  3
 10
        2.999817
 20
        1.199951
 30
        0.000000
 11
        2.999817
 21
        2.699951
 31
        0.000000
  0
LINE
  8
LVL0000
 62
  3
 10
       -2.500183
 20
       37.799927
 30
        0.000000
 11
        2.499817
 21
       37.799927
 31
        0.000000
  0
LINE
  8
LVL0000
 62
  3
 10
      -43.900024
 20
        9.199951
 30
        0.000000
 11
      -43.900024
 21
       16.199951
 31
        0.000000
  0
LINE
  8
LVL0000
 62
  3
 10
      -43.900024
 20
       16.199951
 30
        0.000000
 11
      -41.900024
 21
       16.199951
 31
        0.000000
  0
LINE
  8
LVL0000
 62
  3
 10
      -43.900024
 20
        9.199951
 30
        0.000000
 11
      -41.900024
 21
        9.199951
 31
        0.000000
  0
CIRCLE
  8
LVL0000
 62
  3
 10
      -90.000061
 20
      -35.000000
 30
        0.000000
 40
        2.250000
  0
LINE
  8
LVL0000
 62
  3
 10
      -85.000061
 20
      -40.000000
 30
        0.000000
 11
      -85.000061
 21
      -30.000000
 31
        0.000000
  0
LINE
  8
LVL0000
 62
  3
 10
      -95.000061
 20
      -30.000000
 30
        0.000000
 11
      -85.000061
 21
      -30.000000
 31
        0.000000
  0
LINE
  8
LVL0000
 62
  3
 10
      -94.999939
 20
      -39.500000
 30
        0.000000
 11
      -94.999939
 21
       40.000000
 31
        0.000000
  0
LINE
  8
LVL0000
 62
  3
 10
      169.405396
 20
       17.849731
 30
        0.000000
 11
      169.705322
 21
       15.349731
 31
        0.000000
  0
LINE
  8
LVL0000
 62
  3
 10
      171.205322
 20
       15.349731
 30
        0.000000
 11
      171.205322
 21
       39.999756
 31
        0.000000
  0
LINE
  8
LVL0000
 62
  3
 10
      169.705322
 20
       15.349731
 30
        0.000000
 11
      171.205322
 21
       15.349731
 31
        0.000000
  0
ARC
  8
LVL0000
 62
  3
 10
      164.405396
 20
       14.599731
 30
        0.000000
 40
        3.999966
 50
      337.667724
 51
      382.332295
  0
LINE
  8
LVL0000
 62
  3
 10
      133.605286
 20
      -38.000244
 30
        0.000000
 11
      135.605286
 21
      -40.000244
 31
        0.000000
  0
LINE
  8
LVL0000
 62
  3
 10
      166.205322
 20
       29.999756
 30
        0.000000
 11
      166.205322
 21
       39.999756
 31
        0.000000
  0
LINE
  8
LVL0000
 62
  3
 10
      167.105286
 20
       20.899780
 30
        0.000000
 11
      167.105286
 21
       25.899780
 31
        0.000000
  0
LINE
  8
LVL0000
 62
  3
 10
      169.305298
 20
       20.899780
 30
        0.000000
 11
      169.305298
 21
       25.899780
 31
        0.000000
  0
LINE
  8
LVL0000
 62
  3
 10
      167.105286
 20
       20.899780
 30
        0.000000
 11
      169.305298
 21
       20.899780
 31
        0.000000
  0
LINE
  8
LVL0000
 62
  3
 10
      167.105286
 20
       25.899780
 30
        0.000000
 11
      169.305298
 21
       25.899780
 31
        0.000000
  0
LINE
  8
LVL0000
 62
  3
 10
      168.105347
 20
       17.849731
 30
        0.000000
 11
      171.205322
 21
       17.849731
 31
        0.000000
  0
LINE
  8
LVL0000
 62
  3
 10
      127.005310
 20
      -10.500244
 30
        0.000000
 11
      127.005310
 21
       39.999756
 31
        0.000000
  0
LINE
  8
LVL0000
 62
  3
 10
      135.605286
 20
      -40.000244
 30
        0.000000
 11
      171.205322
 21
      -40.000244
 31
        0.000000
  0
LINE
  8
LVL0000
 62
  3
 10
      167.205322
 20
      -44.500244
 30
        0.000000
 11
      167.205322
 21
      -40.000244
 31
        0.000000
  0
LINE
  8
LVL0000
 62
  3
 10
      167.205322
 20
      -44.500244
 30
        0.000000
 11
      171.205322
 21
      -44.500244
 31
        0.000000
  0
LINE
  8
LVL0000
 62
  3
 10
      168.105347
 20
      -17.850220
 30
        0.000000
 11
      171.205322
 21
      -17.850220
 31
        0.000000
  0
LINE
  8
LVL0000
 62
  3
 10
      168.105347
 20
      -17.850220
 30
        0.000000
 11
      168.105347
 21
       17.849731
 31
        0.000000
  0
LINE
  8
LVL0000
 62
  3
 10
      167.105286
 20
      -20.900269
 30
        0.000000
 11
      169.305298
 21
      -20.900269
 31
        0.000000
  0
LINE
  8
LVL0000
 62
  3
 10
      167.105286
 20
      -25.900269
 30
        0.000000
 11
      169.305298
 21
      -25.900269
 31
        0.000000
  0
LINE
  8
LVL0000
 62
  3
 10
      169.305298
 20
      -25.900269
 30
        0.000000
 11
      169.305298
 21
      -20.900269
 31
        0.000000
  0
LINE
  8
LVL0000
 62
  3
 10
      167.105286
 20
      -25.900269
 30
        0.000000
 11
      167.105286
 21
      -20.900269
 31
        0.000000
  0
LINE
  8
LVL0000
 62
  3
 10
      169.605347
 20
      -15.350220
 30
        0.000000
 11
      171.205322
 21
      -17.850220
 31
        0.000000
  0
LINE
  8
LVL0000
 62
  3
 10
      169.105347
 20
      -15.350220
 30
        0.000000
 11
      169.605347
 21
      -15.350220
 31
        0.000000
  0
LINE
  8
LVL0000
 62
  3
 10
      169.105347
 20
      -17.850220
 30
        0.000000
 11
      169.105347
 21
      -15.350220
 31
        0.000000
  0
LINE
  8
LVL0000
 62
  3
 10
      171.205322
 20
      -44.500244
 30
        0.000000
 11
      171.205322
 21
      -17.850220
 31
        0.000000
  0
LINE
  8
LVL0000
 62
  3
 10
      127.005310
 20
       29.999756
 30
        0.000000
 11
      166.205322
 21
       29.999756
 31
        0.000000
  0
LINE
  8
LVL0000
 62
  3
 10
      137.205322
 20
       25.999756
 30
        0.000000
 11
      157.205322
 21
       25.999756
 31
        0.000000
  0
LINE
  8
LVL0000
 62
  3
 10
      137.205322
 20
       24.499756
 30
        0.000000
 11
      137.205322
 21
       25.999756
 31
        0.000000
  0
LINE
  8
LVL0000
 62
  3
 10
      157.205322
 20
       24.499756
 30
        0.000000
 11
      157.205322
 21
       25.999756
 31
        0.000000
  0
LINE
  8
LVL0000
 62
  3
 10
      137.205322
 20
       24.499756
 30
        0.000000
 11
      157.205322
 21
       24.499756
 31
        0.000000
  0
LINE
  8
LVL0000
 62
  3
 10
      137.205322
 20
       22.999756
 30
        0.000000
 11
      157.205322
 21
       22.999756
 31
        0.000000
  0
LINE
  8
LVL0000
 62
  3
 10
      157.205322
 20
       21.499756
 30
        0.000000
 11
      157.205322
 21
       22.999756
 31
        0.000000
  0
LINE
  8
LVL0000
 62
  3
 10
      137.205322
 20
       21.499756
 30
        0.000000
 11
      157.205322
 21
       21.499756
 31
        0.000000
  0
LINE
  8
LVL0000
 62
  3
 10
      137.205322
 20
       21.499756
 30
        0.000000
 11
      137.205322
 21
       22.999756
 31
        0.000000
  0
LINE
  8
LVL0000
 62
  3
 10
      137.205322
 20
       19.999756
 30
        0.000000
 11
      157.205322
 21
       19.999756
 31
        0.000000
  0
LINE
  8
LVL0000
 62
  3
 10
      157.205322
 20
       18.499756
 30
        0.000000
 11
      157.205322
 21
       19.999756
 31
        0.000000
  0
LINE
  8
LVL0000
 62
  3
 10
      137.205322
 20
       18.499756
 30
        0.000000
 11
      157.205322
 21
       18.499756
 31
        0.000000
  0
LINE
  8
LVL0000
 62
  3
 10
      137.205322
 20
       18.499756
 30
        0.000000
 11
      137.205322
 21
       19.999756
 31
        0.000000
  0
LINE
  8
LVL0000
 62
  3
 10
      137.205322
 20
       16.999756
 30
        0.000000
 11
      157.205322
 21
       16.999756
 31
        0.000000
  0
LINE
  8
LVL0000
 62
  3
 10
      157.205322
 20
       15.499756
 30
        0.000000
 11
      157.205322
 21
       16.999756
 31
        0.000000
  0
LINE
  8
LVL0000
 62
  3
 10
      137.205322
 20
       15.499756
 30
        0.000000
 11
      157.205322
 21
       15.499756
 31
        0.000000
  0
LINE
  8
LVL0000
 62
  3
 10
      137.205322
 20
       15.499756
 30
        0.000000
 11
      137.205322
 21
       16.999756
 31
        0.000000
  0
LINE
  8
LVL0000
 62
  3
 10
      137.205322
 20
       13.999756
 30
        0.000000
 11
      157.205322
 21
       13.999756
 31
        0.000000
  0
LINE
  8
LVL0000
 62
  3
 10
      157.205322
 20
       12.499756
 30
        0.000000
 11
      157.205322
 21
       13.999756
 31
        0.000000
  0
LINE
  8
LVL0000
 62
  3
 10
      137.205322
 20
       12.499756
 30
        0.000000
 11
      157.205322
 21
       12.499756
 31
        0.000000
  0
LINE
  8
LVL0000
 62
  3
 10
      137.205322
 20
       12.499756
 30
        0.000000
 11
      137.205322
 21
       13.999756
 31
        0.000000
  0
LINE
  8
LVL0000
 62
  3
 10
      133.605286
 20
      -38.000244
 30
        0.000000
 11
      133.605286
 21
      -10.500244
 31
        0.000000
  0
LINE
  8
LVL0000
 62
  3
 10
      137.205322
 20
       -4.500244
 30
        0.000000
 11
      157.205322
 21
       -4.500244
 31
        0.000000
  0
LINE
  8
LVL0000
 62
  3
 10
      157.205322
 20
       -6.000244
 30
        0.000000
 11
      157.205322
 21
       -4.500244
 31
        0.000000
  0
LINE
  8
LVL0000
 62
  3
 10
      137.205322
 20
       -6.000244
 30
        0.000000
 11
      157.205322
 21
       -6.000244
 31
        0.000000
  0
LINE
  8
LVL0000
 62
  3
 10
      137.205322
 20
       -6.000244
 30
        0.000000
 11
      137.205322
 21
       -4.500244
 31
        0.000000
  0
LINE
  8
LVL0000
 62
  3
 10
      137.205322
 20
       -7.500244
 30
        0.000000
 11
      157.205322
 21
       -7.500244
 31
        0.000000
  0
LINE
  8
LVL0000
 62
  3
 10
      157.205322
 20
       -9.000244
 30
        0.000000
 11
      157.205322
 21
       -7.500244
 31
        0.000000
  0
LINE
  8
LVL0000
 62
  3
 10
      137.205322
 20
       -9.000244
 30
        0.000000
 11
      157.205322
 21
       -9.000244
 31
        0.000000
  0
LINE
  8
LVL0000
 62
  3
 10
      137.205322
 20
       -9.000244
 30
        0.000000
 11
      137.205322
 21
       -7.500244
 31
        0.000000
  0
LINE
  8
LVL0000
 62
  3
 10
      137.205322
 20
      -10.500244
 30
        0.000000
 11
      157.205322
 21
      -10.500244
 31
        0.000000
  0
LINE
  8
LVL0000
 62
  3
 10
      157.205322
 20
      -12.000244
 30
        0.000000
 11
      157.205322
 21
      -10.500244
 31
        0.000000
  0
LINE
  8
LVL0000
 62
  3
 10
      137.205322
 20
      -12.000244
 30
        0.000000
 11
      157.205322
 21
      -12.000244
 31
        0.000000
  0
LINE
  8
LVL0000
 62
  3
 10
      137.205322
 20
      -12.000244
 30
        0.000000
 11
      137.205322
 21
      -10.500244
 31
        0.000000
  0
LINE
  8
LVL0000
 62
  3
 10
      137.205322
 20
      -13.500244
 30
        0.000000
 11
      157.205322
 21
      -13.500244
 31
        0.000000
  0
LINE
  8
LVL0000
 62
  3
 10
      157.205322
 20
      -15.000244
 30
        0.000000
 11
      157.205322
 21
      -13.500244
 31
        0.000000
  0
LINE
  8
LVL0000
 62
  3
 10
      137.205322
 20
      -15.000244
 30
        0.000000
 11
      157.205322
 21
      -15.000244
 31
        0.000000
  0
LINE
  8
LVL0000
 62
  3
 10
      137.205322
 20
      -15.000244
 30
        0.000000
 11
      137.205322
 21
      -13.500244
 31
        0.000000
  0
ENDSEC
  0
EOF
